osu file format v14

[General]
AudioFilename: audio.mp3
AudioLeadIn: 0
PreviewTime: 105866
Countdown: 0
SampleSet: Soft
StackLeniency: 0.6
Mode: 0
LetterboxInBreaks: 0
WidescreenStoryboard: 1

[Editor]
DistanceSpacing: 1.05
BeatDivisor: 4
GridSize: 32
TimelineZoom: 2.2

[Metadata]
Title:Shanghai Kouchakan ~ Chinese Tea Orchid Remix (Extended ver.) (Cut Ver.)
TitleUnicode:上海紅茶館 ~ Chinese Tea Orchid Remix (Extended ver.) (Cut Ver.)
Artist:Yooh
ArtistUnicode:Yooh
Creator:Nytrocide_
Version:RATINA0'S NOVICE
Source:SOUND VOLTEX II -infinite infection-
Tags:electronic hardcore video rhythm game sdvx instrumental touhou project konami bemani 東方紅魔郷 ~ the Embodiment of Scarlet Devil 東方Project 華人小娘 Hong Meiling stage 3 上海アリス幻樂団 Team Shanghai Alice ULTIMATE TRACKS - 東方紅魔郷REMIX - Touhou Koumakyou eosd zun teahouse ratina0 sleepymateo -rik- spkz heyimjarvis
BeatmapID:2950176
BeatmapSetID:1420652

[Difficulty]
HPDrainRate:4
CircleSize:3.8
OverallDifficulty:6
ApproachRate:7.5
SliderMultiplier:1.88
SliderTickRate:1

[Events]
//Background and Video events
0,0,"chinese tea 4.jpg",0,0
//Break Periods
2,65374,83339
//Storyboard Layer 0 (Background)
//Storyboard Layer 1 (Fail)
//Storyboard Layer 2 (Pass)
//Storyboard Layer 3 (Foreground)
//Storyboard Layer 4 (Overlay)
//Storyboard Sound Samples

[TimingPoints]
20494,319.148936170213,4,2,1,70,1,0
20494,-125,4,2,1,70,0,0
21610,-125,4,2,1,70,0,0
21770,-125,4,2,1,70,0,0
24323,-142.857142857143,4,2,1,70,0,0
34536,-142.857142857143,4,2,2,70,0,0
38366,-142.857142857143,4,2,1,70,0,0
39642,-142.857142857143,4,2,2,70,0,0
44430,-125,4,2,2,70,0,0
44669,-125,4,2,2,70,0,0
44749,-111.111111111111,4,2,2,80,0,1
65174,-111.111111111111,4,2,1,50,0,0
84164,-166.666666666667,4,2,1,50,0,0
85600,-166.666666666667,4,2,2,60,0,0
95813,-142.857142857143,4,2,2,70,0,0
101796,-142.857142857143,4,2,2,70,0,0
101876,-142.857142857143,4,2,2,70,0,0
102196,-125,4,2,2,70,0,0
106025,-111.111111111111,4,2,2,80,0,1
109855,-111.111111111111,4,2,1,80,0,1
111132,-111.111111111111,4,2,2,80,0,1
120068,-111.111111111111,4,2,1,80,0,1
121345,-111.111111111111,4,2,2,80,0,1
130281,-111.111111111111,4,2,1,80,0,1
131557,-111.111111111111,4,2,2,80,0,1
140494,-111.111111111111,4,2,1,80,0,1
141770,-111.111111111111,4,2,2,90,0,1
146557,-111.111111111111,4,2,2,90,0,0

[Colours]
Combo1 : 255,156,23
Combo2 : 204,98,47
Combo3 : 224,204,58
Combo4 : 225,58,17

[HitObjects]
0,349,21132,6,0,B|43:228|43:228|61:180|118:173,1,225.6
189,204,21770,1,12,1:0:0:0:
434,275,22408,2,0,B|426:311|426:311|439:347|439:347|432:385,2,112.8,12|0|0,1:0|0:0|0:0,0:0:0:0:
484,215,23047,1,12,1:0:0:0:
292,227,23366,2,0,P|237:232|188:203,2,112.8,8|8|8,1:0|1:0|0:0,0:0:0:0:
348,173,24004,1,8,1:0:0:0:
503,48,24323,5,12,1:0:0:0:
373,96,24642,1,8,0:0:0:0:
256,24,24962,2,0,L|100:45,1,131.599995983887,8|8,1:0|0:0,0:0:0:0:
5,110,25600,5,8,1:0:0:0:
117,192,25919,1,8,0:0:0:0:
234,119,26238,2,0,P|267:106|321:109,1,65.7999979919434,8|0,1:0|0:0,0:0:0:0:
370,137,26557,2,0,P|397:159|419:207,1,65.7999979919434,8|8,0:0|1:0,0:0:0:0:
418,202,26797,1,0,0:0:0:0:
422,220,26876,5,8,1:0:0:0:
386,354,27196,1,8,0:0:0:0:
249,368,27515,2,0,B|214:351|202:324|202:324|169:339|121:335,1,131.599995983887,8|8,1:0|0:0,0:0:0:0:
33,259,28153,6,0,B|40:194,1,65.7999979919434,10|2,1:0|0:0,0:0:0:0:
114,163,28472,2,0,B|178:175,1,65.7999979919434,10|2,0:0|0:0,0:0:0:0:
246,133,28791,2,0,B|238:68,1,65.7999979919434,10|2,1:0|0:0,0:0:0:0:
183,10,29111,2,0,B|119:22,1,65.7999979919434,10|10,0:0|1:0,0:0:0:0:
42,48,29430,5,8,1:0:0:0:
114,163,29749,1,8,0:0:0:0:
240,218,30068,2,0,B|266:284|202:280|244:359,1,131.599995983887,8|8,1:0|0:0,0:0:0:0:
369,383,30706,5,8,1:0:0:0:
464,282,31025,1,8,0:0:0:0:
399,159,31345,2,0,L|320:135,1,65.7999979919434,8|0,1:0|0:0,0:0:0:0:
262,111,31664,2,0,L|244:31,1,65.7999979919434,8|8,0:0|1:0,0:0:0:0:
243,28,31903,1,0,0:0:0:0:
239,10,31983,5,8,1:0:0:0:
148,112,32302,1,8,0:0:0:0:
190,243,32621,2,0,B|204:278|175:308|175:308|129:357,1,131.599995983887,8|8,1:0|0:0,0:0:0:0:
0,317,33259,6,0,B|7:252,1,65.7999979919434,10|2,1:0|0:0,0:0:0:0:
48,183,33579,2,0,L|124:211,1,65.7999979919434,10|2,0:0|0:0,0:0:0:0:
160,144,33898,2,0,B|152:79,1,65.7999979919434,10|2,1:0|0:0,0:0:0:0:
140,0,34217,2,0,L|64:28,1,65.7999979919434,10|10,0:0|1:0,0:0:0:0:
20,76,34536,5,12,1:0:0:0:
153,159,34855,2,0,L|229:199,1,65.7999979919434,8|2,0:0|0:0,0:0:0:0:
264,245,35174,2,0,B|276:274|276:274|254:339,2,98.6999969879151,10|0|0,1:0|0:0|0:0,0:0:0:0:
301,176,35813,2,0,P|319:148|424:138,1,131.599995983887,10|10,1:0|0:0,0:0:0:0:
474,236,36451,2,0,B|426:225|426:225|395:244|395:244|349:236,1,131.599995983887,8|8,1:0|0:0,0:0:0:0:
301,176,36930,6,0,L|226:164,1,65.7999979919434,8|10,1:0|1:0,0:0:0:0:
182,282,37408,2,0,L|118:272,1,65.7999979919434,8|2,0:0|0:0,0:0:0:0:
43,255,37728,2,0,B|13:273|13:273|4:341,2,98.6999969879151,10|2|2,1:0|0:0|0:0,0:0:0:0:
89,191,38366,6,0,L|86:100,1,65.7999979919434,10|2,1:0|0:0,0:0:0:0:
60,51,38685,2,0,P|42:23|15:7,1,65.7999979919434,10|2,0:0|0:0,0:0:0:0:
137,65,39004,2,0,L|216:108,1,65.7999979919434,10|2,1:0|0:0,0:0:0:0:
271,122,39323,2,0,P|316:115|335:99,1,65.7999979919434,10|10,0:0|1:0,0:0:0:0:
277,34,39642,6,0,B|236:117|313:143|260:225,1,197.39999397583,14|2,1:0|0:0,0:0:0:0:
209,282,40281,2,0,B|189:318|189:323|194:389,2,98.6999969879151,2|2|2,0:0|0:0|0:0,0:0:0:0:
261,224,40919,1,14,1:0:0:0:
399,243,41238,1,2,0:0:0:0:
460,118,41557,1,14,1:0:0:0:
359,22,41876,1,10,1:0:0:0:
236,88,42196,5,14,1:0:0:0:
188,150,42355,2,0,B|137:156|137:156|118:146|118:146|50:157,1,131.599995983887,10|10,1:0|1:0,0:0:0:0:
24,224,42834,2,0,P|34:255|57:278,1,65.7999979919434,14|8,1:0|1:0,0:0:0:0:
79,276,43073,2,0,P|127:274|165:305,1,98.6999969879151,2|2,0:0|0:0,0:0:0:0:
187,381,43472,5,14,1:0:0:0:
339,346,43791,1,10,1:0:0:0:
491,311,44111,1,8,1:0:0:0:
405,288,44270,1,8,1:0:0:0:
397,273,44350,1,8,1:0:0:0:
390,259,44430,2,0,B|380:225|380:225|387:191|387:191|374:149,1,112.8,8|0,0:0|0:0,0:0:0:0:
356,143,44749,5,14,1:0:0:0:
190,178,45068,1,10,0:0:0:0:
67,60,45387,2,0,L|160:72,1,84.599997418213,10|0,1:0|0:0,0:0:0:0:
169,59,45626,2,0,L|308:77,1,126.899996127319,2|2,0:0|0:0,0:0:0:0:
375,49,46025,5,10,1:0:0:0:
512,148,46345,1,10,0:0:0:0:
493,316,46664,2,0,P|454:343|412:352,1,84.599997418213,10|0,1:0|0:0,0:0:0:0:
350,300,46983,2,0,P|307:279|278:247,1,84.599997418213,10|8,0:0|1:0,0:0:0:0:
236,181,47302,5,10,1:0:0:0:
170,337,47621,1,10,0:0:0:0:
8,287,47940,2,0,B|0:267|0:267|8:205,1,84.599997418213,10|0,1:0|0:0,0:0:0:0:
0,190,48180,2,0,L|20:56,1,126.899996127319,2|2,0:0|0:0,0:0:0:0:
81,2,48579,6,0,P|122:5|157:27,1,84.599997418213,10|2,1:0|0:0,0:0:0:0:
176,119,48898,2,0,P|172:160|151:196,1,84.599997418213,10|2,0:0|0:0,0:0:0:0:
102,271,49217,2,0,P|124:338|242:359,1,169.199994836426,10|8,1:0|0:0,0:0:0:0:
283,320,49696,1,8,1:0:0:0:
276,232,49855,5,10,1:0:0:0:
393,110,50174,1,10,0:0:0:0:
502,240,50494,2,0,P|462:226|418:228,1,84.599997418213,10|0,1:0|0:0,0:0:0:0:
400,233,50733,2,0,B|342:252|364:294|306:312,1,126.899996127319,2|2,0:0|0:0,0:0:0:0:
223,334,51132,5,10,1:0:0:0:
53,339,51451,1,10,0:0:0:0:
2,177,51770,2,0,B|18:165|18:165|81:175,1,84.599997418213,10|0,1:0|0:0,0:0:0:0:
164,132,52089,2,0,B|226:142|226:142|243:130,1,84.599997418213,10|8,0:0|1:0,0:0:0:0:
257,38,52408,6,0,B|227:17|227:17|116:37,2,126.899996127319,10|2|2,1:0|0:0|0:0,0:0:0:0:
330,96,53047,1,10,1:0:0:0:
499,90,53366,1,10,0:0:0:0:
356,0,53685,6,0,L|332:96,1,84.599997418213,10|2,1:0|0:0,0:0:0:0:
320,174,54004,2,0,L|402:154,1,84.599997418213,10|2,0:0|0:0,0:0:0:0:
476,210,54323,2,0,L|500:306,1,84.599997418213,10|8,1:0|1:0,0:0:0:0:
512,384,54642,2,0,L|430:364,1,84.599997418213,8|8,0:0|1:0,0:0:0:0:
339,338,54962,5,14,1:0:0:0:
299,173,55281,1,10,0:0:0:0:
147,97,55600,2,0,L|34:121,1,84.599997418213,10|0,1:0|0:0,0:0:0:0:
49,132,55839,2,0,L|22:255,1,126.899996127319,2|2,0:0|0:0,0:0:0:0:
4,343,56238,5,10,1:0:0:0:
168,384,56557,1,10,0:0:0:0:
285,262,56876,2,0,P|290:220|279:180,1,84.599997418213,10|0,1:0|0:0,0:0:0:0:
277,90,57196,2,0,P|243:64|203:53,1,84.599997418213,10|8,0:0|1:0,0:0:0:0:
125,9,57515,5,10,1:0:0:0:
191,163,57834,1,10,0:0:0:0:
356,127,58153,2,0,B|376:118|376:118|459:131,1,84.599997418213,10|0,1:0|0:0,0:0:0:0:
448,148,58392,2,0,L|429:274,1,126.899996127319,2|2,0:0|0:0,0:0:0:0:
347,308,58791,6,0,P|305:303|265:317,1,84.599997418213,10|2,1:0|0:0,0:0:0:0:
181,350,59111,2,0,P|142:363|99:359,1,84.599997418213,10|2,0:0|0:0,0:0:0:0:
11,347,59430,2,0,B|2:257|64:277|54:183,1,169.199994836426,10|8,1:0|0:0,0:0:0:0:
61,100,59908,1,8,1:0:0:0:
135,148,60068,6,0,B|171:177|221:164|221:164|305:141,1,169.199994836426,14|2,1:0|0:0,0:0:0:0:
457,92,60706,2,0,P|453:134|432:170,1,84.599997418213,2|0,0:0|0:0,0:0:0:0:
417,185,60946,2,0,P|389:238|414:307,1,126.899996127319,2|2,0:0|0:0,0:0:0:0:
468,371,61345,5,14,1:0:0:0:
293,359,61664,1,2,0:0:0:0:
305,184,61983,2,0,L|216:200,1,84.599997418213,14|0,1:0|0:0,0:0:0:0:
165,267,62302,2,0,L|76:283,1,84.599997418213,14|0,1:0|0:0,0:0:0:0:
11,229,62621,6,0,P|36:166|27:92,1,126.899996127319,14|2,1:0|0:0,0:0:0:0:
40,88,62940,2,0,P|18:33|-6:13,1,84.599997418213,8|10,0:0|1:0,0:0:0:0:
125,74,63259,2,0,B|155:95|155:95|266:75,1,126.899996127319,14|2,1:0|0:0,0:0:0:0:
261,93,63579,2,0,B|360:74,1,84.599997418213,8|10,0:0|1:0,0:0:0:0:
431,90,63898,6,0,P|445:103|455:124,3,42.2999987091065,14|8|8|8,1:0|1:0|1:0|1:0,0:0:0:0:
466,164,64217,2,0,P|461:184|448:202,3,42.2999987091065,10|8|10|8,1:0|1:0|1:0|1:0,0:0:0:0:
414,226,64536,2,0,P|372:239|320:234,1,84.599997418213,10|8,1:0|1:0,0:0:0:0:
256,192,64855,2,0,B|247:247|247:247|264:294|264:294|256:356,1,169.199994836426,8|14,1:0|1:0,0:0:0:0:
178,368,84164,5,2,0:0:0:0:
214,299,84323,2,0,P|212:266|200:235,1,56.3999982788086,2|0,0:0|0:0,0:0:0:0:
148,191,84642,2,0,P|116:183|83:187,1,56.3999982788086
26,227,84962,1,2,0:0:0:0:
106,302,85281,1,2,0:0:0:0:
214,299,85600,6,0,B|299:288|293:176|403:198,1,225.599993115235,6|0,0:0|0:0,0:0:0:0:
506,228,86557,1,2,0:0:0:0:
431,307,86876,2,0,B|353:354|292:257|211:301,1,225.599993115235,2|2,0:0|0:0,0:0:0:0:
28,318,88153,6,0,B|107:262|197:297|161:340|270:380|330:317|330:317|290:284|243:284|213:300,1,451.199986230469,2|0,0:0|0:0,0:0:0:0:
214,300,90068,5,2,0:0:0:0:
222,193,90387,1,2,0:0:0:0:
229,85,90706,2,0,P|212:33|167:0,1,112.799996557617,2|0,0:0|0:0,0:0:0:0:
91,3,91185,2,0,P|54:44|47:99,1,112.799996557617,0|2,0:0|0:0,0:0:0:0:
88,164,91664,2,0,P|114:173|142:174,2,56.3999982788086,2|2|0,0:0|0:0|0:0,0:0:0:0:
0,318,92462,6,0,B|19:285|19:285|157:259,1,169.199994836426,2|2,0:0|0:0,0:0:0:0:
244,242,93259,2,0,B|354:219|354:219|444:292,2,225.599993115235,2|0|0,0:0|0:0|0:0,0:0:0:0:
67,384,95174,5,2,0:0:0:0:
58,277,95494,1,2,0:0:0:0:
52,169,95813,2,0,P|69:117|158:84,1,131.599995983887,14|8,1:0|0:0,0:0:0:0:
206,112,96291,1,0,0:0:0:0:
279,143,96451,2,0,L|282:175,2,32.8999989959717,8|0|8,1:0|0:0|1:0,0:0:0:0:
340,94,96770,2,0,P|371:87|408:91,1,65.7999979919434,10|0,0:0|0:0,0:0:0:0:
472,131,97089,6,0,L|483:262,1,131.599995983887,10|8,1:0|0:0,0:0:0:0:
490,340,97568,1,0,0:0:0:0:
415,312,97728,2,0,L|349:317,1,65.7999979919434,10|8,1:0|1:0,0:0:0:0:
278,351,98047,2,0,L|280:384,2,32.8999989959717,8|0|8,0:0|0:0|1:0,0:0:0:0:
202,329,98366,6,0,P|180:269|119:253,1,131.599995983887,10|8,1:0|0:0,0:0:0:0:
40,253,98845,1,0,0:0:0:0:
0,184,99004,2,0,P|5:151|23:124,1,65.7999979919434,8|8,1:0|1:0,0:0:0:0:
65,57,99323,2,0,P|96:45|127:47,1,65.7999979919434,8|8,0:0|1:0,0:0:0:0:
173,113,99642,6,0,B|205:118|228:147|228:147|254:125|296:127,1,131.599995983887,8|8,1:0|0:0,0:0:0:0:
365,145,100121,1,0,0:0:0:0:
387,68,100281,2,0,P|372:38|346:19,1,65.7999979919434,10|0,1:0|0:0,0:0:0:0:
272,48,100600,2,0,L|239:44,2,32.8999989959717,10|0|0,0:0|0:0|0:0,0:0:0:0:
289,127,100919,6,0,L|298:221,1,65.7999979919434,14|8,1:0|1:0,0:0:0:0:
271,268,101238,1,8,0:0:0:0:
194,289,101398,1,8,1:0:0:0:
147,224,101557,2,0,L|157:113,1,98.6999969879151,8|0,1:0|0:0,0:0:0:0:
142,107,101876,2,0,P|108:98|76:100,1,65.7999979919434,10|8,0:0|1:0,0:0:0:0:
5,129,102196,6,0,L|13:220,1,75.2,14|8,1:0|1:0,0:0:0:0:
19,280,102515,1,8,0:0:0:0:
26,357,102674,1,8,1:0:0:0:
94,313,102834,2,0,B|127:296|127:296|216:316,1,112.8,10|2,1:0|0:0,0:0:0:0:
212,331,103153,2,0,B|301:351,1,75.2,8|10,0:0|1:0,0:0:0:0:
364,339,103472,5,6,0:0:0:0:
364,339,104111,5,12,1:0:0:0:
364,339,104749,5,14,1:0:0:0:
311,179,105068,1,8,1:0:0:0:
385,35,105387,2,0,P|434:58|458:103,1,75.2,12|8,1:0|1:0,0:0:0:0:
457,93,105626,1,8,1:0:0:0:
462,114,105706,1,8,0:0:0:0:
311,179,106025,6,0,P|292:126|224:85,1,126.899996127319,14|2,1:0|0:0,0:0:0:0:
214,86,106345,2,0,L|119:79,1,84.599997418213,8|2,0:0|0:0,0:0:0:0:
90,165,106664,2,0,L|216:173,1,126.899996127319,10|2,1:0|0:0,0:0:0:0:
224,193,106983,2,0,P|190:245|134:268,1,84.599997418213,10|2,0:0|0:0,0:0:0:0:
89,284,107302,6,0,L|-5:277,1,84.599997418213,10|2,1:0|0:0,0:0:0:0:
143,354,107621,2,0,L|227:359,1,84.599997418213,10|0,0:0|0:0,0:0:0:0:
246,370,107861,1,2,0:0:0:0:
265,378,107940,2,0,B|342:388|344:318|421:330,1,169.199994836426,10|8,1:0|0:0,0:0:0:0:
420,115,108579,6,0,B|404:86|404:86|311:78,1,126.899996127319,10|2,1:0|0:0,0:0:0:0:
294,91,108898,2,0,B|200:85,1,84.599997418213,8|2,0:0|0:0,0:0:0:0:
123,74,109217,2,0,B|59:70|59:70|28:0,2,126.899996127319,10|2|2,1:0|0:0|0:0,0:0:0:0:
150,162,109855,6,0,P|159:206|144:255,1,84.599997418213,10|2,1:0|0:0,0:0:0:0:
82,300,110174,2,0,P|37:309|-11:294,1,84.599997418213,10|2,0:0|0:0,0:0:0:0:
171,327,110494,2,0,P|210:350|261:353,1,84.599997418213,10|2,1:0|0:0,0:0:0:0:
325,310,110813,2,0,P|348:271|351:220,1,84.599997418213,10|10,0:0|1:0,0:0:0:0:
311,155,111132,5,10,1:0:0:0:
512,67,111451,2,0,L|490:190,1,84.599997418213,8|2,0:0|0:0,0:0:0:0:
460,231,111770,2,0,B|454:276|454:276|468:307|468:307|463:364,2,126.899996127319,10|2|2,1:0|0:0|0:0,0:0:0:0:
408,158,112408,2,0,L|393:74,1,84.599997418213,10|0,1:0|0:0,0:0:0:0:
321,22,112728,1,10,0:0:0:0:
190,174,113047,2,0,L|201:257,1,84.599997418213,10|0,1:0|0:0,0:0:0:0:
152,336,113366,1,10,0:0:0:0:
4,204,113685,5,10,1:0:0:0:
21,117,113845,2,0,L|208:92,1,169.199994836426,2|2,0:0|0:0,0:0:0:0:
209,100,114244,1,2,0:0:0:0:
229,105,114323,2,0,L|378:85,1,126.899996127319,10|2,1:0|0:0,0:0:0:0:
376,92,114642,2,0,P|400:131|392:194,1,84.599997418213,8|2,0:0|0:0,0:0:0:0:
452,249,114962,6,0,L|368:259,1,84.599997418213,10|2,1:0|0:0,0:0:0:0:
317,332,115281,2,0,L|216:318,1,84.599997418213,10|2,0:0|0:0,0:0:0:0:
171,384,115600,1,8,1:0:0:0:
17,245,115919,2,0,P|14:203|29:164,1,84.599997418213,8|8,0:0|1:0,0:0:0:0:
44,149,116158,1,0,0:0:0:0:
57,132,116238,6,0,P|70:93|41:17,1,126.899996127319,14|2,1:0|0:0,0:0:0:0:
61,20,116557,2,0,L|158:41,1,84.599997418213,8|2,0:0|0:0,0:0:0:0:
225,72,116876,2,0,B|241:133|241:133|208:187,1,126.899996127319,8|2,1:0|0:0,0:0:0:0:
188,196,117196,2,0,L|105:213,1,84.599997418213,8|2,0:0|0:0,0:0:0:0:
80,299,117515,6,0,P|109:331|149:346,1,84.599997418213,10|2,1:0|0:0,0:0:0:0:
228,312,117834,2,0,P|261:286|302:277,1,84.599997418213,10|0,0:0|0:0,0:0:0:0:
323,280,118073,1,2,0:0:0:0:
343,287,118153,2,0,B|391:309|391:309|422:355|422:355|481:384,1,169.199994836426,8|8,1:0|0:0,0:0:0:0:
512,164,118791,6,0,P|458:170|397:111,1,126.899996127319,10|2,1:0|0:0,0:0:0:0:
405,106,119111,2,0,P|403:63|382:26,1,84.599997418213,8|2,0:0|0:0,0:0:0:0:
296,15,119430,2,0,L|165:-1,2,126.899996127319,10|2|2,1:0|0:0|0:0,0:0:0:0:
310,102,120068,6,0,L|236:158,1,84.599997418213,10|2,1:0|0:0,0:0:0:0:
158,126,120387,2,0,L|66:114,1,84.599997418213,10|2,0:0|0:0,0:0:0:0:
32,194,120706,2,0,L|-3:279,1,84.599997418213,10|2,1:0|0:0,0:0:0:0:
55,341,121025,2,0,L|146:352,1,84.599997418213,10|10,0:0|1:0,0:0:0:0:
226,362,121345,5,14,1:0:0:0:
240,139,121664,2,0,P|256:100|287:71,1,84.599997418213,8|2,0:0|0:0,0:0:0:0:
372,47,121983,2,0,B|425:28|436:80|495:53,2,126.899996127319,10|2|2,1:0|0:0|0:0,0:0:0:0:
350,133,122621,1,14,1:0:0:0:
473,183,122861,1,2,0:0:0:0:
458,316,123100,2,0,B|415:328|393:367|393:367|357:338|305:348,1,169.199994836426,2|2,0:0|0:0,0:0:0:0:
228,367,123579,2,0,P|190:371|147:354,1,84.599997418213,10|8,0:0|1:0,0:0:0:0:
110,274,123898,5,14,1:0:0:0:
154,197,124057,1,0,0:0:0:0:
83,144,124217,2,0,L|-11:157,1,84.599997418213,8|10,0:0|1:0,0:0:0:0:
28,61,124536,2,0,L|173:40,1,126.899996127319,14|2,1:0|0:0,0:0:0:0:
168,27,124855,2,0,L|269:12,1,84.599997418213,8|10,0:0|1:0,0:0:0:0:
339,11,125174,6,0,P|356:50|353:92,1,84.599997418213,12|8,1:0|0:0,0:0:0:0:
267,122,125494,2,0,P|242:155|204:173,1,84.599997418213,12|8,1:0|0:0,0:0:0:0:
122,138,125813,1,12,1:0:0:0:
154,334,126132,2,0,P|194:342|239:330,1,84.599997418213,8|8,0:0|1:0,0:0:0:0:
247,314,126371,1,8,1:0:0:0:
255,294,126451,6,0,P|296:246|356:233,1,126.899996127319,14|2,1:0|0:0,0:0:0:0:
377,239,126770,2,0,L|469:262,1,84.599997418213,8|2,0:0|0:0,0:0:0:0:
512,179,127089,2,0,L|389:149,1,126.899996127319,10|2,1:0|0:0,0:0:0:0:
384,128,127408,2,0,P|369:67|325:26,1,84.599997418213,10|2,0:0|0:0,0:0:0:0:
285,0,127728,6,0,L|200:6,1,84.599997418213,10|2,1:0|0:0,0:0:0:0:
132,61,128047,2,0,L|48:66,1,84.599997418213,10|0,0:0|0:0,0:0:0:0:
30,78,128286,1,2,0:0:0:0:
22,97,128366,2,0,B|12:174|82:176|70:253,1,169.199994836426,10|8,1:0|0:0,0:0:0:0:
244,384,129004,6,0,B|270:364|270:364|267:271,1,126.899996127319,10|2,1:0|0:0,0:0:0:0:
252,256,129323,2,0,B|247:171,1,84.599997418213,8|2,0:0|0:0,0:0:0:0:
217,88,129642,2,0,B|157:67|157:67|152:3,2,126.899996127319,10|2|2,1:0|0:0|0:0,0:0:0:0:
305,79,130281,6,0,P|344:56|394:53,1,84.599997418213,10|2,1:0|0:0,0:0:0:0:
459,95,130600,2,0,P|482:134|485:184,1,84.599997418213,10|2,0:0|0:0,0:0:0:0:
416,227,130919,2,0,P|377:203|327:200,1,84.599997418213,10|2,1:0|0:0,0:0:0:0:
260,247,131238,2,0,P|236:286|233:336,1,84.599997418213,10|10,0:0|1:0,0:0:0:0:
305,373,131557,5,10,1:0:0:0:
84,352,131876,2,0,L|62:229,1,84.599997418213,8|2,0:0|0:0,0:0:0:0:
35,186,132196,2,0,B|29:140|29:140|7:114|7:114|-2:58,2,126.899996127319,10|2|2,1:0|0:0|0:0,0:0:0:0:
122,198,132834,2,0,L|206:183,1,84.599997418213,10|0,1:0|0:0,0:0:0:0:
285,222,133153,1,10,0:0:0:0:
342,40,133472,2,0,L|426:55,1,84.599997418213,10|0,1:0|0:0,0:0:0:0:
512,35,133791,1,10,0:0:0:0:
512,237,134111,5,10,1:0:0:0:
473,316,134270,2,0,B|414:324|414:324|369:309|369:309|280:322,1,169.199994836426,2|2,0:0|0:0,0:0:0:0:
285,312,134669,1,2,0:0:0:0:
265,307,134749,2,0,B|221:312|221:312|190:337|190:337|122:351,1,126.899996127319,10|2,1:0|0:0,0:0:0:0:
126,341,135068,2,0,P|102:302|110:239,1,84.599997418213,8|2,0:0|0:0,0:0:0:0:
139,185,135387,6,0,L|223:175,1,84.599997418213,10|2,1:0|0:0,0:0:0:0:
96,108,135706,2,0,L|12:98,1,84.599997418213,10|2,0:0|0:0,0:0:0:0:
139,31,136025,1,8,1:0:0:0:
333,0,136345,2,0,P|370:18|397:50,1,84.599997418213,8|8,0:0|1:0,0:0:0:0:
394,70,136584,1,0,0:0:0:0:
387,91,136664,6,0,P|374:130|403:206,1,126.899996127319,14|2,1:0|0:0,0:0:0:0:
423,216,136983,2,0,L|505:233,1,84.599997418213,8|2,0:0|0:0,0:0:0:0:
512,323,137302,2,0,B|458:356|458:356|397:340,1,126.899996127319,8|2,1:0|0:0,0:0:0:0:
377,333,137621,2,0,B|291:310,1,84.599997418213,8|2,0:0|0:0,0:0:0:0:
210,287,137940,6,0,P|166:288|129:309,1,84.599997418213,10|2,1:0|0:0,0:0:0:0:
57,354,138259,2,0,P|25:326|10:287,1,84.599997418213,10|0,0:0|0:0,0:0:0:0:
4,267,138499,1,2,0:0:0:0:
2,246,138579,2,0,B|-8:169|62:167|50:90,1,169.199994836426,8|8,1:0|0:0,0:0:0:0:
24,4,139057,1,8,1:0:0:0:
112,0,139217,6,0,P|164:12|201:89,1,126.899996127319,14|2,1:0|0:0,0:0:0:0:
195,92,139536,2,0,P|197:135|218:172,1,84.599997418213,8|2,0:0|0:0,0:0:0:0:
286,109,139855,2,0,L|409:77,2,126.899996127319,10|2|2,1:0|0:0|0:0,0:0:0:0:
217,171,140494,6,0,P|180:191|157:226,1,84.599997418213,14|2,1:0|0:0,0:0:0:0:
210,303,140813,2,0,L|238:413,1,84.599997418213,10|2,0:0|0:0,0:0:0:0:
306,329,141132,2,0,P|343:310|385:310,1,84.599997418213,14|2,1:0|0:0,0:0:0:0:
463,361,141451,2,0,L|485:279,1,84.599997418213,10|10,0:0|1:0,0:0:0:0:
511,189,141770,5,14,1:0:0:0:
348,98,142089,2,0,L|273:56,1,84.599997418213,8|2,0:0|0:0,0:0:0:0:
221,129,142408,2,0,L|146:170,1,84.599997418213,14|0,1:0|0:0,0:0:0:0:
128,178,142648,2,0,B|75:197|64:145|5:172,1,126.899996127319,2|2,0:0|0:0,0:0:0:0:
0,261,143047,5,14,1:0:0:0:
87,362,143286,1,2,0:0:0:0:
185,272,143525,2,0,B|227:284|249:323|249:323|285:294|338:304,1,169.199994836426,2|2,0:0|0:0,0:0:0:0:
407,345,144004,2,0,P|445:346|487:325,1,84.599997418213,10|8,0:0|1:0,0:0:0:0:
512,240,144323,5,14,1:0:0:0:
500,151,144483,1,0,0:0:0:0:
430,96,144642,2,0,L|336:109,1,84.599997418213,12|10,0:0|1:0,0:0:0:0:
276,163,144962,2,0,L|203:173,3,42.2999987091065,14|8|8|10,1:0|1:0|1:0|1:0,0:0:0:0:
195,155,145281,2,0,L|149:97,3,42.2999987091065,12|8|10|8,0:0|1:0|1:0|1:0,0:0:0:0:
141,95,145600,6,0,L|47:108,1,84.599997418213,12|12,1:0|0:0,0:0:0:0:
0,284,146079,1,12,0:0:0:0:
88,272,146238,2,0,B|206:256|206:256|252:277,2,169.199994836426,12|8|12,1:0|0:0|1:0,0:0:0:0:
