osu file format v14

[General]
AudioFilename: audio.mp3
AudioLeadIn: 0
PreviewTime: 105866
Countdown: 0
SampleSet: Soft
StackLeniency: 0.7
Mode: 0
LetterboxInBreaks: 0
WidescreenStoryboard: 1

[Editor]
Bookmarks: 786,1025,1345,1664,1903,2142,2302,2701,2940,3100,3419,3738,3818,3898,4935,5174,5414,5813,6052,6291,6371,6770,7089,7488,7728,7967,8366,9403,9483,9563,9722,9962,10281,10520,10839,11238,11557,12196,12754,13313,13951,14270,14908,15068,15228,15706,16345,17302,17462,17621,17861,18100,18419,19057,20494,24323,34536,44749,54962,60068,65174,75387,85600,95813,103472,106025,116238,126451,136664
DistanceSpacing: 1.2
BeatDivisor: 4
GridSize: 8
TimelineZoom: 2

[Metadata]
Title:Shanghai Kouchakan ~ Chinese Tea Orchid Remix (Extended ver.) (Cut Ver.)
TitleUnicode:上海紅茶館 ~ Chinese Tea Orchid Remix (Extended ver.) (Cut Ver.)
Artist:Yooh
ArtistUnicode:Yooh
Creator:Nytrocide_
Version:NOVICE
Source:SOUND VOLTEX II -infinite infection-
Tags:electronic hardcore video rhythm game sdvx instrumental touhou project konami bemani 東方紅魔郷 ~ the Embodiment of Scarlet Devil 東方Project 華人小娘 Hong Meiling stage 3 上海アリス幻樂団 Team Shanghai Alice ULTIMATE TRACKS - 東方紅魔郷REMIX - Touhou Koumakyou eosd zun teahouse ratina0 sleepymateo -rik- spkz heyimjarvis
BeatmapID:2940742
BeatmapSetID:1420652

[Difficulty]
HPDrainRate:3.5
CircleSize:3.6
OverallDifficulty:4
ApproachRate:5
SliderMultiplier:0.899999999999999
SliderTickRate:1

[Events]
//Background and Video events
0,0,"chinese tea 4.jpg",0,0
//Break Periods
2,65374,74187
//Storyboard Layer 0 (Background)
//Storyboard Layer 1 (Fail)
//Storyboard Layer 2 (Pass)
//Storyboard Layer 3 (Foreground)
//Storyboard Layer 4 (Overlay)
//Storyboard Sound Samples

[TimingPoints]
20494,319.148936170213,4,2,1,70,1,0
20494,-100,4,2,1,70,0,0
21929,-100,4,2,1,70,0,0
22408,-100,4,2,1,70,0,0
34536,-100,4,2,2,70,0,0
38366,-100,4,2,1,70,0,0
39642,-100,4,2,2,70,0,0
44749,-100,4,2,2,80,0,1
65174,-133.333333333333,4,2,1,50,0,0
75387,-133.333333333333,4,2,1,50,0,0
85600,-200,4,2,2,60,0,0
95813,-133.333333333333,4,2,2,70,0,0
100919,-100,4,2,2,70,0,0
106025,-90.9090909090909,4,2,2,80,0,1
109855,-90.9090909090909,4,2,1,80,0,1
111132,-90.9090909090909,4,2,2,80,0,1
120068,-90.9090909090909,4,2,1,80,0,1
121345,-90.9090909090909,4,2,2,80,0,1
126451,-80,4,2,2,80,0,1
130281,-80,4,2,1,80,0,1
131557,-80,4,2,2,80,0,1
140494,-80,4,2,1,80,0,1
141770,-80,4,2,2,90,0,1
145600,-100,4,2,2,90,0,0
146876,-100,4,2,2,90,0,0

[Colours]
Combo1 : 255,156,23
Combo2 : 204,98,47
Combo3 : 224,204,58
Combo4 : 225,58,17

[HitObjects]
126,172,21132,6,0,P|174:161|227:171,1,89.9999999999999
293,207,21770,2,0,L|288:272,1,45,12|0,1:0|0:0,0:0:0:0:
182,334,22408,1,12,1:0:0:0:
362,331,23047,1,12,1:0:0:0:
444,295,23366,2,0,P|434:251|441:211,1,67.4999999999999,8|8,1:0|1:0,0:0:0:0:
461,119,24004,1,8,1:0:0:0:
379,81,24323,6,0,L|281:95,1,89.9999999999999,12|8,1:0|0:0,0:0:0:0:
229,160,24962,2,0,L|131:146,1,89.9999999999999,8|8,1:0|0:0,0:0:0:0:
76,83,25600,2,0,L|42:0,2,89.9999999999999,8|8|8,1:0|0:0|1:0,0:0:0:0:
52,169,26557,1,8,0:0:0:0:
106,240,26876,6,0,P|151:258|200:256,1,89.9999999999999,8|8,1:0|0:0,0:0:0:0:
261,200,27515,2,0,P|306:182|355:184,1,89.9999999999999,8|8,1:0|0:0,0:0:0:0:
413,248,28153,2,0,L|421:310,2,45,10|2|10,1:0|0:0|0:0,0:0:0:0:
435,160,28791,2,0,L|443:98,2,45,10|2|10,1:0|0:0|0:0,0:0:0:0:
346,182,29430,5,8,1:0:0:0:
260,152,29749,1,8,0:0:0:0:
191,210,30068,2,0,L|100:198,1,89.9999999999999,8|8,1:0|0:0,0:0:0:0:
29,144,30706,2,0,P|35:91|22:46,2,89.9999999999999,8|8|8,1:0|0:0|1:0,0:0:0:0:
8,231,31664,1,8,0:0:0:0:
41,261,31823,1,8,1:0:0:0:
79,285,31983,6,0,L|170:297,1,89.9999999999999,8|8,1:0|0:0,0:0:0:0:
258,288,32621,2,0,P|241:235|246:192,1,89.9999999999999,8|8,1:0|0:0,0:0:0:0:
281,120,33259,2,0,L|343:109,2,45,10|2|10,1:0|0:0|0:0,0:0:0:0:
229,45,33898,2,0,L|167:34,2,45,10|2|10,1:0|0:0|0:0,0:0:0:0:
307,0,34536,5,12,1:0:0:0:
391,30,34855,1,8,0:0:0:0:
374,118,35174,2,0,L|380:210,1,89.9999999999999,10|10,1:0|0:0,0:0:0:0:
424,286,35813,2,0,P|465:296|521:273,2,89.9999999999999,10|10|8,1:0|0:0|1:0,0:0:0:0:
334,284,36770,1,8,0:0:0:0:
289,204,37089,6,0,L|196:198,1,89.9999999999999,10|8,1:0|0:0,0:0:0:0:
120,242,37728,2,0,P|134:285|126:339,1,89.9999999999999,10|8,1:0|0:0,0:0:0:0:
47,292,38366,2,0,L|-9:302,2,45,10|2|10,1:0|0:0|0:0,0:0:0:0:
10,210,39004,2,0,L|0:154,2,45,10|2|10,1:0|0:0|0:0,0:0:0:0:
93,175,39642,6,0,B|224:193|203:79|338:87,1,270,14|8,1:0|1:0,0:0:0:0:
381,93,40759,1,2,0:0:0:0:
416,121,40919,2,0,P|426:162|417:215,1,89.9999999999999,14|2,1:0|0:0,0:0:0:0:
349,265,41557,2,0,P|339:306|348:359,1,89.9999999999999,14|10,1:0|1:0,0:0:0:0:
259,330,42196,5,14,1:0:0:0:
177,364,42515,1,8,0:0:0:0:
94,328,42834,2,0,P|65:337|39:356,2,45,14|8|8,1:0|1:0|0:0,0:0:0:0:
156,261,43472,5,14,1:0:0:0:
137,172,43791,1,10,1:0:0:0:
181,93,44111,2,0,P|180:61|173:34,2,45,8|8|8,1:0|1:0|0:0,0:0:0:0:
268,114,44749,6,0,L|370:102,1,89.9999999999999,14|10,1:0|0:0,0:0:0:0:
447,108,45387,2,0,P|455:57|445:27,2,67.4999999999999,10|2|2,1:0|0:0|0:0,0:0:0:0:
462,150,46025,2,0,P|455:198|469:248,1,89.9999999999999,10|10,1:0|0:0,0:0:0:0:
505,318,46664,1,10,1:0:0:0:
419,347,46983,1,10,0:0:0:0:
338,306,47302,6,0,L|236:294,1,89.9999999999999,10|10,1:0|0:0,0:0:0:0:
159,300,47940,2,0,L|148:222,2,67.4999999999999,10|2|2,1:0|0:0|0:0,0:0:0:0:
133,337,48579,1,10,1:0:0:0:
43,342,48898,1,10,0:0:0:0:
7,260,49217,2,0,P|1:205|14:156,1,89.9999999999999,10|8,1:0|0:0,0:0:0:0:
46,147,49696,1,8,1:0:0:0:
90,136,49855,6,0,L|192:124,1,89.9999999999999,10|10,1:0|0:0,0:0:0:0:
269,129,50494,2,0,P|273:82|258:55,2,67.4999999999999,10|2|2,1:0|0:0|0:0,0:0:0:0:
249,169,51132,2,0,L|261:279,1,89.9999999999999,10|10,1:0|0:0,0:0:0:0:
300,338,51770,1,10,1:0:0:0:
382,373,52089,1,10,0:0:0:0:
445,309,52408,6,0,L|514:302,2,67.4999999999999,10|2|2,1:0|0:0|0:0,0:0:0:0:
417,272,53047,2,0,L|318:254,1,89.9999999999999,10|10,1:0|0:0,0:0:0:0:
252,304,53685,1,10,1:0:0:0:
166,276,54004,1,10,0:0:0:0:
97,333,54323,2,0,L|101:377,2,45,10|8|8,1:0|1:0|0:0,0:0:0:0:
73,294,54802,1,8,1:0:0:0:
57,251,54962,5,14,1:0:0:0:
110,178,55281,1,10,0:0:0:0:
74,95,55600,2,0,L|6:86,2,67.4999999999999,10|2|2,1:0|0:0|0:0,0:0:0:0:
116,78,56238,2,0,L|219:68,1,89.9999999999999,10|10,1:0|0:0,0:0:0:0:
280,20,56876,2,0,L|382:30,1,89.9999999999999,10|10,1:0|0:0,0:0:0:0:
444,78,57515,5,10,1:0:0:0:
484,158,57834,1,10,0:0:0:0:
453,242,58153,2,0,P|450:274|463:315,2,67.4999999999999,10|2|2,1:0|0:0|0:0,0:0:0:0:
415,217,58791,1,10,1:0:0:0:
337,170,59111,1,10,0:0:0:0:
275,237,59430,2,0,L|266:330,1,89.9999999999999,10|8,1:0|0:0,0:0:0:0:
225,345,59908,1,8,1:0:0:0:
181,355,60068,6,0,P|125:336|75:333,1,89.9999999999999,14|2,1:0|0:0,0:0:0:0:
5,318,60706,2,0,P|11:359|23:392,2,67.4999999999999,2|2|2,0:0|0:0|0:0,0:0:0:0:
30,280,61345,2,0,L|19:181,1,89.9999999999999,14|2,1:0|0:0,0:0:0:0:
36,148,61823,1,2,0:0:0:0:
61,110,61983,1,14,1:0:0:0:
144,75,62302,1,14,1:0:0:0:
229,105,62621,6,0,L|310:99,2,67.4999999999999,14|2|10,1:0|0:0|1:0,0:0:0:0:
201,140,63259,2,0,P|210:188|216:248,1,89.9999999999999,14|8,1:0|0:0,0:0:0:0:
220,274,63738,1,10,1:0:0:0:
227,318,63898,5,14,1:0:0:0:
311,347,64217,1,10,1:0:0:0:
398,330,64536,1,10,1:0:0:0:
465,271,64855,1,8,1:0:0:0:
493,187,65174,5,14,1:0:0:0:
327,194,75387,6,0,L|333:113,2,67.5000025749207,2|0|0,0:0|0:0|0:0,0:0:0:0:
264,273,76345,1,2,0:0:0:0:
164,254,76664,2,0,L|158:173,2,67.5000025749207,2|0|2,0:0|0:0|0:0,0:0:0:0:
326,376,77940,2,0,P|359:368|402:369,1,67.5000025749207,2|0,0:0|0:0,0:0:0:0:
455,287,78579,2,0,P|447:254|448:211,1,67.5000025749207
378,145,79217,2,0,P|385:112|377:71,2,67.5000025749207,0|0|2,0:0|0:0|0:0,0:0:0:0:
311,221,80174,1,2,0:0:0:0:
209,222,80494,6,0,P|197:262|188:297,1,67.5000025749207,2|0,0:0|0:0,0:0:0:0:
121,360,81132,2,0,L|40:365,2,67.5000025749207,0|2|2,0:0|0:0|0:0,0:0:0:0:
208,309,82089,1,0,0:0:0:0:
305,335,82408,2,0,P|298:360|294:389,2,50.6250019311905,2|2|2,0:0|0:0|0:0,0:0:0:0:
305,283,83047,2,0,P|294:244|278:212,1,67.5000025749207,2|0,0:0|0:0,0:0:0:0:
186,188,83685,1,0,0:0:0:0:
90,69,84164,5,2,0:0:0:0:
134,44,84323,2,0,P|167:42|205:59,1,67.5000025749207,2|0,0:0|0:0,0:0:0:0:
298,75,84962,2,0,P|331:77|369:60,1,67.5000025749207,2|2,0:0|0:0,0:0:0:0:
430,123,85600,6,0,B|405:186|417:256|417:256|395:249|373:251|373:251|369:301|353:339|353:339|313:318|261:336,1,360,6|2,0:0|0:0,0:0:0:0:
177,322,88472,2,0,P|154:329|131:328,2,45
205,236,89430,1,0,0:0:0:0:
45,151,90068,6,0,L|43:100,1,45,2|2,0:0|0:0,0:0:0:0:
100,36,90706,2,0,B|151:-3|206:21|206:21|200:43|200:43|212:62|212:62|188:103|201:149|201:149|233:130|264:127|264:127|262:146|274:174,1,360,2|2,0:0|0:0,0:0:0:0:
316,248,93579,2,0,P|311:270|311:299,2,45
397,211,94536,2,0,L|391:159,1,45
332,98,95174,1,2,0:0:0:0:
264,157,95494,1,2,0:0:0:0:
163,165,95813,6,0,P|150:124|149:90,1,67.5000025749207,14|8,1:0|0:0,0:0:0:0:
236,50,96451,2,0,L|235:11,2,33.7500012874603,8|8|10,1:0|1:0|0:0,0:0:0:0:
332,79,97089,2,0,P|358:70|402:72,2,67.5000025749207,10|8|10,1:0|0:0|1:0,0:0:0:0:
296,115,97887,1,8,1:0:0:0:
291,166,98047,1,8,0:0:0:0:
376,221,98366,6,0,L|382:297,1,67.5000025749207,10|8,1:0|0:0,0:0:0:0:
302,350,99004,2,0,L|304:392,2,33.7500012874603,8|8|8,1:0|1:0|0:0,0:0:0:0:
211,303,99642,2,0,P|178:301|131:310,2,67.5000025749207,8|8|10,1:0|0:0|1:0,0:0:0:0:
270,220,100600,1,10,0:0:0:0:
256,192,100919,12,10,102834,1:0:0:0:
300,147,103472,5,6,0:0:0:0:
180,281,104111,1,12,1:0:0:0:
124,110,104749,5,14,1:0:0:0:
182,178,105068,1,8,1:0:0:0:
270,192,105387,2,0,L|328:183,2,45,12|8|8,1:0|1:0|0:0,0:0:0:0:
214,274,106025,6,0,P|213:328|239:379,1,99.0000030212402,14|8,1:0|0:0,0:0:0:0:
329,377,106664,2,0,P|369:372|420:389,2,74.2500022659302,10|2|2,1:0|0:0|0:0,0:0:0:0:
313,330,107302,2,0,L|309:225,1,99.0000030212402,10|10,1:0|0:0,0:0:0:0:
331,134,107940,1,10,1:0:0:0:
261,64,108259,1,8,0:0:0:0:
162,75,108579,6,0,P|175:128|166:180,1,99.0000030212402,10|8,1:0|0:0,0:0:0:0:
95,237,109217,2,0,P|85:277|92:317,2,74.2500022659302,10|2|2,1:0|0:0|0:0,0:0:0:0:
55,206,109855,2,0,L|-8:197,2,49.5000015106201,10|2|10,1:0|0:0|0:0,0:0:0:0:
138,151,110494,2,0,L|140:98,2,49.5000015106201,10|2|10,1:0|0:0|0:0,0:0:0:0:
168,189,110972,1,10,1:0:0:0:
217,192,111132,6,0,L|331:223,1,99.0000030212402,10|8,1:0|0:0,0:0:0:0:
411,220,111770,2,0,P|399:183|412:130,2,74.2500022659302,10|2|2,1:0|0:0|0:0,0:0:0:0:
444,256,112408,1,10,1:0:0:0:
496,171,112728,1,10,0:0:0:0:
473,74,113047,1,10,1:0:0:0:
388,21,113366,1,10,0:0:0:0:
294,52,113685,6,0,L|227:53,1,49.5000015106201,10|2,1:0|0:0,0:0:0:0:
168,115,114164,1,2,0:0:0:0:
168,115,114323,2,0,P|127:110|80:121,2,74.2500022659302,10|2|2,1:0|0:0|0:0,0:0:0:0:
211,139,114962,1,10,1:0:0:0:
222,237,115281,1,10,0:0:0:0:
159,313,115600,2,0,L|164:380,2,49.5000015106201,8|8|8,1:0|1:0|0:0,0:0:0:0:
125,276,116079,1,8,1:0:0:0:
94,237,116238,6,0,L|94:130,1,99.0000030212402,14|8,1:0|0:0,0:0:0:0:
168,73,116876,2,0,L|163:-11,2,74.2500022659302,8|2|2,1:0|0:0|0:0,0:0:0:0:
199,111,117515,2,0,L|309:120,1,99.0000030212402,10|10,1:0|0:0,0:0:0:0:
357,198,118153,2,0,L|345:303,1,99.0000030212402,8|8,1:0|0:0,0:0:0:0:
268,357,118791,6,0,L|156:340,1,99.0000030212402,10|8,1:0|0:0,0:0:0:0:
130,251,119430,2,0,P|126:212|117:165,2,74.2500022659302,10|2|2,1:0|0:0|0:0,0:0:0:0:
105,294,120068,2,0,L|53:316,2,49.5000015106201,10|2|10,1:0|0:0|0:0,0:0:0:0:
192,340,120706,2,0,L|244:362,2,49.5000015106201,10|2|10,1:0|0:0|0:0,0:0:0:0:
240,253,121345,6,0,L|234:137,1,99.0000030212402,14|8,1:0|0:0,0:0:0:0:
205,114,121823,1,2,0:0:0:0:
158,97,121983,2,0,P|99:94|11:202,2,198.00000604248,10|14|8,1:0|1:0|1:0,0:0:0:0:
205,114,123419,1,2,0:0:0:0:
234,154,123579,1,10,0:0:0:0:
311,92,123898,2,0,P|359:81|426:101,1,99.0000030212402,14|8,1:0|0:0,0:0:0:0:
440,183,124536,2,0,P|475:173|518:169,2,74.2500022659302,14|2|10,1:0|0:0|1:0,0:0:0:0:
412,224,125174,6,0,L|295:216,1,99.0000030212402,12|12,1:0|1:0,0:0:0:0:
266,200,125653,1,8,0:0:0:0:
225,171,125813,1,12,1:0:0:0:
168,89,126132,2,0,L|111:98,1,49.5000015106201,8|8,0:0|1:0,0:0:0:0:
62,93,126451,6,0,P|19:118|5:180,1,112.5,14|8,1:0|0:0,0:0:0:0:
22,286,127089,2,0,L|27:387,2,84.3749999999999,10|2|2,1:0|0:0|0:0,0:0:0:0:
69,254,127728,2,0,L|195:231,1,112.5,10|10,1:0|0:0,0:0:0:0:
276,291,128366,2,0,L|402:314,1,112.5,10|8,1:0|0:0,0:0:0:0:
436,210,129004,6,0,L|415:96,1,112.5,10|8,1:0|0:0,0:0:0:0:
293,101,129642,2,0,B|245:104|194:77,2,84.3749999999999,10|2|2,1:0|0:0|0:0,0:0:0:0:
331,59,130281,2,0,P|339:29|351:6,2,56.2499999999999,10|2|10,1:0|0:0|0:0,0:0:0:0:
443,57,130919,2,0,P|464:35|486:21,2,56.2499999999999,10|2|10,1:0|0:0|0:0,0:0:0:0:
434,112,131398,1,10,1:0:0:0:
453,164,131557,6,0,P|397:148|342:165,1,112.5,10|8,1:0|0:0,0:0:0:0:
287,259,132196,2,0,L|295:362,2,84.3749999999999,10|2|2,1:0|0:0|0:0,0:0:0:0:
239,228,132834,1,10,1:0:0:0:
130,196,133153,1,10,0:0:0:0:
127,83,133472,1,10,1:0:0:0:
233,44,133791,1,10,0:0:0:0:
305,130,134111,6,0,L|312:198,1,56.2499999999999,10|2,1:0|0:0,0:0:0:0:
389,273,134589,1,2,0:0:0:0:
389,273,134749,2,0,P|434:272|488:283,2,84.3749999999999,10|2|2,1:0|0:0|0:0,0:0:0:0:
344,307,135387,1,10,1:0:0:0:
247,248,135706,1,10,0:0:0:0:
167,327,136025,2,0,P|175:356|177:401,2,56.2499999999999,8|8|8,1:0|1:0|0:0,0:0:0:0:
131,282,136504,1,8,1:0:0:0:
119,226,136664,6,0,B|130:180|130:180|107:104,1,112.5,14|8,1:0|0:0,0:0:0:0:
83,8,137302,2,0,L|-12:1,2,84.3749999999999,8|2|2,1:0|0:0|0:0,0:0:0:0:
138,1,137940,1,10,1:0:0:0:
232,62,138259,1,10,0:0:0:0:
340,29,138579,2,0,L|387:0,2,56.2499999999999,8|0|8,1:0|0:0|0:0,0:0:0:0:
319,139,139217,6,0,L|323:260,1,112.5,14|8,1:0|0:0,0:0:0:0:
217,291,139855,2,0,L|132:284,2,84.3749999999999,10|2|2,1:0|0:0|0:0,0:0:0:0:
259,328,140494,2,0,P|245:360|242:397,2,56.2499999999999,14|2|10,1:0|0:0|0:0,0:0:0:0:
322,235,141132,2,0,P|308:203|305:166,2,56.2499999999999,14|2|10,1:0|0:0|0:0,0:0:0:0:
376,248,141611,1,10,1:0:0:0:
432,245,141770,6,0,L|455:377,1,112.5,14|8,1:0|0:0,0:0:0:0:
340,337,142408,2,0,B|252:349|252:349|212:373|212:373|110:385,2,225,14|14|12,1:0|1:0|1:0,0:0:0:0:
451,355,144004,2,0,P|451:330|453:294,1,56.2499999999999,10|8,0:0|1:0,0:0:0:0:
452,243,144323,6,0,P|405:209|335:202,1,112.5,14|12,1:0|0:0,0:0:0:0:
251,250,144962,2,0,L|259:348,2,84.3749999999999,14|10|10,1:0|1:0|1:0,0:0:0:0:
213,211,145600,6,0,L|158:208,1,45,12|12,1:0|0:0,0:0:0:0:
119,231,145919,2,0,L|64:234,1,45,8|12,1:0|0:0,0:0:0:0:
34,197,146238,2,0,B|39:101,1,89.9999999999999,12|8,1:0|0:0,0:0:0:0:
61,1,146876,5,12,1:0:0:0:
