osu file format v14

[General]
AudioFilename: audio.mp3
AudioLeadIn: 0
PreviewTime: 60698
Countdown: 0
SampleSet: Soft
StackLeniency: 0.7
Mode: 3
LetterboxInBreaks: 0
SpecialStyle: 0
WidescreenStoryboard: 0

[Editor]
DistanceSpacing: 1.4
BeatDivisor: 8
GridSize: 32
TimelineZoom: 3.099998

[Metadata]
Title:Shanghai Kouchakan (Orchid Remix 2017 Update ver.)
TitleUnicode:上海紅茶館 (Orchid Remix 2017 Update ver.)
Artist:Yooh
ArtistUnicode:Yooh
Creator:AncuL
Version:Orchid
Source:SOUND VOLTEX II -infinite infection-
Tags:qwce-90013 red road sdvx konami bemani yoohsic roomz hong meiling zun Team Shanghai Alice 東方紅魔郷リミックス楽曲コンテスト 東方touhou koumakyou gakkyoku contest virtue- arzenvald leonita chinese tea video game instrumental
BeatmapID:1421481
BeatmapSetID:672440

[Difficulty]
HPDrainRate:8
CircleSize:7
OverallDifficulty:9
ApproachRate:5
SliderMultiplier:1
SliderTickRate:1

[Events]
//Background and Video events
0,0,"312967.jpg",0,0
//Break Periods
//Storyboard Layer 0 (Background)
//Storyboard Layer 1 (Fail)
//Storyboard Layer 2 (Pass)
//Storyboard Layer 3 (Foreground)
//Storyboard Sound Samples

[TimingPoints]
778,319.148936170213,4,2,1,10,1,0
62054,-100,4,2,1,10,0,1
82480,-100,4,2,1,10,0,0
124607,-100,4,2,1,10,0,1
147586,-100,4,2,1,10,0,0

[HitObjects]
36,192,778,5,0,0:0:0:100:Kick.wav
256,192,778,1,0,0:0:0:100:Crash.wav
329,192,778,1,0,0:0:0:0:
475,192,778,1,0,0:0:0:0:
182,192,937,128,0,1097:0:0:0:0:
36,192,1097,1,0,0:0:0:70:Clap.wav
402,192,1097,1,0,0:0:0:100:Kick.wav
475,192,1097,1,0,0:0:0:0:
329,192,1256,128,0,1416:0:0:0:0:
36,192,1416,1,0,0:0:0:100:Kick.wav
256,192,1416,1,0,0:0:0:0:
109,192,1575,128,0,1735:0:0:0:0:
182,192,1735,1,0,0:0:0:100:Kick.wav
329,192,1735,1,0,0:0:0:70:Clap.wav
475,192,1735,1,0,0:0:0:0:
402,192,1895,128,0,2054:0:0:0:0:
36,192,2054,1,0,0:0:0:100:Kick.wav
256,192,2054,1,0,0:0:0:0:
182,192,2214,128,0,2373:0:0:0:0:
36,192,2373,1,0,0:0:0:100:Kick.wav
329,192,2373,1,0,0:0:0:70:Clap.wav
402,192,2373,1,0,0:0:0:0:
109,192,2533,128,0,2692:0:0:0:0:
256,192,2692,1,0,0:0:0:100:Kick.wav
475,192,2692,1,0,0:0:0:0:
402,192,2852,128,0,3012:0:0:0:0:
36,192,3012,1,0,0:0:0:100:Kick.wav
182,192,3012,1,0,0:0:0:70:Clap.wav
329,192,3012,1,0,0:0:0:0:
256,192,3171,1,0,0:0:0:0:
329,192,3251,1,0,0:0:0:0:
109,192,3331,1,0,0:0:0:100:Kick.wav
475,192,3331,1,0,0:0:0:0:
329,192,3490,128,0,3650:0:0:0:0:
36,192,3650,1,0,0:0:0:70:Clap.wav
109,192,3650,1,0,0:0:0:100:Kick.wav
256,192,3650,1,0,0:0:0:0:
475,192,3809,128,0,3969:0:0:0:0:
182,192,3969,1,0,0:0:0:100:Kick.wav
402,192,3969,1,0,0:0:0:0:
36,192,4129,128,0,4288:0:0:0:0:
182,192,4288,1,0,0:0:0:100:Kick.wav
256,192,4288,1,0,0:0:0:70:Clap.wav
402,192,4288,1,0,0:0:0:0:
329,192,4448,128,0,4607:0:0:0:0:
182,192,4607,128,0,4767:0:0:0:100:Kick.wav
475,192,4607,128,0,4926:0:0:0:0:
109,192,4767,128,0,4926:0:0:0:0:
256,192,4847,128,0,4926:0:0:0:0:
402,192,4926,1,0,0:0:0:100:Kick.wav
36,192,4926,128,0,5246:0:0:0:70:Clap.wav
329,192,4926,128,0,5086:0:0:0:0:
256,192,5086,128,0,5246:0:0:0:0:
182,192,5246,128,0,5405:0:0:0:100:Kick.wav
475,192,5246,128,0,5565:0:0:0:0:
36,192,5405,128,0,5884:0:0:0:0:
109,192,5565,128,0,5884:0:0:0:70:Clap.wav
182,192,5565,1,0,0:0:0:100:Kick.wav
329,192,5565,1,0,0:0:0:0:
256,192,5724,128,0,5884:0:0:0:0:
402,192,5804,1,0,0:0:0:0:
182,192,5884,1,0,0:0:0:100:Kick.wav
475,192,5884,1,0,0:0:0:0:
329,192,6043,128,0,6203:0:0:0:0:
36,192,6203,1,0,0:0:0:70:Clap.wav
182,192,6203,1,0,0:0:0:100:Kick.wav
475,192,6203,1,0,0:0:0:0:
109,192,6363,128,0,6522:0:0:0:0:
256,192,6522,1,0,0:0:0:100:Kick.wav
475,192,6522,1,0,0:0:0:0:
402,192,6682,128,0,6841:0:0:0:0:
36,192,6841,1,0,0:0:0:100:Kick.wav
182,192,6841,1,0,0:0:0:70:Clap.wav
329,192,6841,1,0,0:0:0:0:
109,192,7001,128,0,7160:0:0:0:0:
36,192,7160,1,0,0:0:0:100:Kick.wav
475,192,7160,1,0,0:0:0:0:
402,192,7320,128,0,7480:0:0:0:0:
36,192,7480,1,0,0:0:0:100:Kick.wav
109,192,7480,1,0,0:0:0:70:Clap.wav
256,192,7480,1,0,0:0:0:0:
182,192,7639,128,0,7799:0:0:0:0:
329,192,7799,1,0,0:0:0:100:Kick.wav
475,192,7799,1,0,0:0:0:0:
256,192,7958,128,0,8118:0:0:0:0:
36,192,8118,1,0,0:0:0:70:Clap.wav
109,192,8118,1,0,0:0:0:100:Kick.wav
402,192,8118,1,0,0:0:0:0:
182,192,8278,1,0,0:0:0:0:
329,192,8357,1,0,0:0:0:0:
109,192,8437,1,0,0:0:0:100:Kick.wav
475,192,8437,1,0,0:0:0:0:
256,192,8597,128,0,8756:0:0:0:0:
36,192,8756,1,0,0:0:0:70:Clap.wav
182,192,8756,1,0,0:0:0:100:Kick.wav
475,192,8756,1,0,0:0:0:0:
109,192,8916,128,0,9075:0:0:0:0:
256,192,9075,1,0,0:0:0:100:Kick.wav
402,192,9075,1,0,0:0:0:0:
329,192,9235,128,0,9395:0:0:0:0:
36,192,9395,1,0,0:0:0:100:Kick.wav
182,192,9395,1,0,0:0:0:70:Clap.wav
475,192,9395,1,0,0:0:0:0:
109,192,9554,128,0,9714:0:0:0:0:
256,192,9714,128,0,9873:0:0:0:100:Kick.wav
475,192,9714,128,0,10033:0:0:0:0:
36,192,9873,128,0,10033:0:0:0:0:
182,192,10033,128,0,10192:0:0:0:100:Kick.wav
256,192,10033,128,0,10352:0:0:0:70:Clap.wav
329,192,10033,1,0,0:0:0:0:
402,192,10192,128,0,10352:0:0:0:0:
36,192,10352,128,0,10671:0:0:0:100:Kick.wav
109,192,10352,128,0,10512:0:0:0:0:
475,192,10512,128,0,10831:0:0:0:0:
182,192,10671,1,0,0:0:0:70:Clap.wav
256,192,10671,128,0,10990:0:0:0:100:Kick.wav
402,192,10671,1,0,0:0:0:0:
329,192,10831,128,0,10990:0:0:0:0:
182,192,10910,1,0,0:0:0:0:
36,192,10990,1,0,0:0:0:100:Crash.wav
109,192,10990,1,0,0:0:0:100:Kick.wav
402,192,10990,1,0,0:0:0:80:Snare-M.wav
475,192,10990,1,0,0:0:0:0:
475,192,11150,1,0,0:0:0:0:
36,192,11309,1,0,0:0:0:70:Clap.wav
256,192,11309,1,0,0:0:0:100:Kick.wav
402,192,11309,1,0,0:0:0:80:Snare-M.wav
109,192,11469,128,0,11629:0:0:0:0:
256,192,11629,1,0,0:0:0:100:Kick.wav
475,192,11629,1,0,0:0:0:80:Snare-M.wav
256,192,11788,1,0,0:0:0:0:
36,192,11948,1,0,0:0:0:100:Kick.wav
182,192,11948,1,0,0:0:0:70:Clap.wav
402,192,11948,1,0,0:0:0:80:Snare-M.wav
256,192,12107,128,0,12267:0:0:0:0:
36,192,12267,1,0,0:0:0:100:Kick.wav
475,192,12267,1,0,0:0:0:80:Snare-M.wav
36,192,12426,1,0,0:0:0:0:
182,192,12586,1,0,0:0:0:100:Kick.wav
329,192,12586,1,0,0:0:0:70:Clap.wav
402,192,12586,1,0,0:0:0:80:Snare-M.wav
36,192,12746,128,0,12905:0:0:0:0:
182,192,12905,1,0,0:0:0:100:Kick.wav
475,192,12905,1,0,0:0:0:80:Snare-M.wav
182,192,13065,1,0,0:0:0:0:
109,192,13224,1,0,0:0:0:70:Clap.wav
256,192,13224,1,0,0:0:0:100:Kick.wav
402,192,13224,1,0,0:0:0:80:Snare-M.wav
36,192,13384,1,0,0:0:0:100:Snare-H.wav
182,192,13384,1,0,0:0:0:0:
329,192,13464,1,0,0:0:0:100:Snare-H.wav
402,192,13464,1,0,0:0:0:0:
36,192,13543,1,0,0:0:0:100:Snare-H.wav
182,192,13543,1,0,0:0:0:100:Crash.wav
256,192,13543,1,0,0:0:0:100:Kick.wav
475,192,13543,1,0,0:0:0:0:
475,192,13703,1,0,0:0:0:0:
36,192,13863,1,0,0:0:0:80:Snare-M.wav
109,192,13863,1,0,0:0:0:70:Clap.wav
402,192,13863,1,0,0:0:0:100:Kick.wav
256,192,14022,128,0,14182:0:0:0:0:
36,192,14182,1,0,0:0:0:80:Snare-M.wav
402,192,14182,1,0,0:0:0:100:Kick.wav
36,192,14341,1,0,0:0:0:0:
182,192,14501,1,0,0:0:0:70:Clap.wav
329,192,14501,1,0,0:0:0:80:Snare-M.wav
402,192,14501,1,0,0:0:0:100:Kick.wav
36,192,14660,128,0,14820:0:0:0:0:
329,192,14820,128,0,14980:0:0:0:80:Snare-M.wav
475,192,14820,128,0,15139:0:0:0:100:Kick.wav
109,192,14980,128,0,15139:0:0:0:0:
256,192,15059,128,0,15139:0:0:0:0:
36,192,15139,128,0,15299:0:0:0:80:Snare-M.wav
182,192,15139,1,0,0:0:0:70:Clap.wav
402,192,15139,128,0,15458:0:0:0:100:Kick.wav
329,192,15299,128,0,15458:0:0:0:0:
182,192,15379,128,0,15458:0:0:0:0:
36,192,15458,128,0,15778:0:0:0:80:Snare-M.wav
475,192,15458,128,0,15618:0:0:0:100:Kick.wav
329,192,15618,128,0,16097:0:0:0:0:
109,192,15778,1,0,0:0:0:80:Snare-M.wav
256,192,15778,1,0,0:0:0:70:Clap.wav
475,192,15778,1,0,0:0:0:100:Kick.wav
36,192,15937,1,0,0:0:0:100:Snare-H.wav
182,192,15937,1,0,0:0:0:0:
402,192,16017,1,0,0:0:0:100:Snare-H.wav
475,192,16017,1,0,0:0:0:0:
36,192,16097,1,0,0:0:0:100:Crash.wav
109,192,16097,1,0,0:0:0:100:Kick.wav
182,192,16097,1,0,0:0:0:100:Snare-H.wav
256,192,16097,1,0,0:0:0:0:
109,192,16256,1,0,0:0:0:100:Snare-H.wav
329,192,16256,1,0,0:0:0:0:
475,192,16256,1,0,0:0:0:0:
36,192,16416,1,0,0:0:0:100:Kick.wav
256,192,16416,1,0,0:0:0:70:Clap.wav
36,192,16575,1,0,0:0:0:100:Snare-H.wav
402,192,16575,1,0,0:0:0:0:
475,192,16575,1,0,0:0:0:0:
182,192,16735,1,0,0:0:0:100:Kick.wav
329,192,16735,1,0,0:0:0:0:
36,192,16895,1,0,0:0:0:100:Snare-H.wav
109,192,16895,1,0,0:0:0:0:
329,192,16895,1,0,0:0:0:0:
256,192,17054,1,0,0:0:0:70:Clap.wav
475,192,17054,1,0,0:0:0:100:Kick.wav
36,192,17214,1,0,0:0:0:100:Snare-H.wav
182,192,17214,1,0,0:0:0:0:
475,192,17214,1,0,0:0:0:0:
109,192,17373,1,0,0:0:0:100:Crash.wav
256,192,17373,1,0,0:0:0:100:Kick.wav
329,192,17373,1,0,0:0:0:0:
402,192,17373,1,0,0:0:0:0:
36,192,17453,1,0,0:0:0:0:
182,192,17533,1,0,0:0:0:100:Kick.wav
402,192,17533,1,0,0:0:0:0:
329,192,17613,1,0,0:0:0:0:
36,192,17692,1,0,0:0:0:70:Clap.wav
182,192,17692,1,0,0:0:0:100:Kick.wav
475,192,17692,1,0,0:0:0:0:
256,192,17772,1,0,0:0:0:0:
329,192,17852,1,0,0:0:0:100:Kick.wav
475,192,17852,1,0,0:0:0:0:
109,192,17932,1,0,0:0:0:0:
182,192,18012,1,0,0:0:0:100:Kick.wav
402,192,18012,1,0,0:0:0:0:
36,192,18091,1,0,0:0:0:0:
256,192,18171,1,0,0:0:0:100:Kick.wav
475,192,18171,1,0,0:0:0:0:
109,192,18251,1,0,0:0:0:0:
256,192,18331,1,0,0:0:0:70:Clap.wav
329,192,18331,1,0,0:0:0:100:Kick.wav
475,192,18331,1,0,0:0:0:0:
36,192,18410,1,0,0:0:0:100:Kick.wav
109,192,18410,1,0,0:0:0:0:
402,192,18490,1,0,0:0:0:100:Kick.wav
256,192,18490,1,0,0:0:0:0:
329,192,18570,1,0,0:0:0:100:Kick.wav
182,192,18570,1,0,0:0:0:0:
36,192,18650,1,0,0:0:0:100:Crash.wav
109,192,18650,1,0,0:0:0:100:Kick.wav
402,192,18650,1,0,0:0:0:0:
475,192,18650,128,0,18969:0:0:0:0:
182,192,18809,128,0,18969:0:0:0:0:
182,192,19129,128,0,19288:0:0:0:0:
475,192,19208,128,0,19288:0:0:0:0:
36,192,19288,1,0,0:0:0:100:Crash.wav
109,192,19288,1,0,0:0:0:100:Kick.wav
256,192,19288,1,0,0:0:0:0:
329,192,19288,128,0,19767:0:0:0:0:
182,192,19528,128,0,19767:0:0:0:0:
36,192,19767,128,0,19926:0:0:0:0:
182,192,19926,1,0,0:0:0:100:Crash.wav
329,192,19926,1,0,0:0:0:100:Kick.wav
402,192,19926,128,0,20246:0:0:0:0:
475,192,19926,1,0,0:0:0:0:
256,192,20086,128,0,20246:0:0:0:0:
36,192,20246,1,0,0:0:0:100:Crash.wav
109,192,20246,1,0,0:0:0:100:Kick.wav
329,192,20246,1,0,0:0:0:0:
475,192,20246,128,0,20325:0:0:0:0:
182,192,20325,128,0,20645:0:0:0:0:
36,192,20485,128,0,20645:0:0:0:100:Crash.wav
329,192,20485,128,0,20645:0:0:0:100:Kick.wav
402,192,20485,1,0,0:0:0:0:
475,192,20485,1,0,0:0:0:0:
36,192,20724,1,0,0:0:0:70:Kick.wav
182,192,20764,1,0,0:0:0:70:Kick.wav
329,192,20804,1,0,0:0:0:70:Kick.wav
475,192,20844,1,0,0:0:0:70:Kick.wav
36,192,20884,128,0,21123:0:0:0:100:Clap_old.wav
109,192,20884,128,0,21123:0:0:0:0:
256,192,20884,128,0,21123:0:0:0:0:
36,192,21203,1,0,0:0:0:100:Crash.wav
109,192,21203,128,0,21522:0:0:0:100:Kick.wav
329,192,21203,128,0,21363:0:0:0:0:
475,192,21203,1,0,0:0:0:0:
256,192,21363,1,0,0:0:0:0:
36,192,21522,1,0,0:0:0:100:Kick.wav
182,192,21522,128,0,21682:0:0:0:60:Clap.wav
402,192,21522,128,0,21841:0:0:0:0:
329,192,21682,1,0,0:0:0:0:
36,192,21841,128,0,22081:0:0:0:100:Kick.wav
256,192,21841,128,0,22001:0:0:0:0:
182,192,22001,128,0,22081:0:0:0:0:
329,192,22081,128,0,22320:0:0:0:0:
475,192,22081,128,0,22320:0:0:0:0:
36,192,22160,1,0,0:0:0:100:Kick.wav
182,192,22160,1,0,0:0:0:60:Clap.wav
256,192,22160,1,0,0:0:0:0:
36,192,22320,128,0,22480:0:0:0:0:
256,192,22320,128,0,22480:0:0:0:0:
329,192,22480,128,0,22639:0:0:0:100:Kick.wav
475,192,22480,128,0,22799:0:0:0:0:
182,192,22639,1,0,0:0:0:0:
109,192,22799,128,0,23118:0:0:0:100:Kick.wav
256,192,22799,128,0,22958:0:0:0:60:Clap.wav
402,192,22799,1,0,0:0:0:0:
475,192,22958,1,0,0:0:0:0:
182,192,23118,128,0,23437:0:0:0:100:Kick.wav
402,192,23118,128,0,23278:0:0:0:0:
256,192,23278,1,0,0:0:0:0:
36,192,23437,128,0,23597:0:0:0:100:Kick.wav
329,192,23437,128,0,23756:0:0:0:60:Clap.wav
475,192,23437,1,0,0:0:0:0:
182,192,23597,1,0,0:0:0:0:
109,192,23676,1,0,0:0:0:0:
256,192,23756,128,0,23916:0:0:0:100:Kick.wav
475,192,23756,128,0,24075:0:0:0:0:
36,192,23916,1,0,0:0:0:0:
109,192,24075,1,0,0:0:0:100:Kick.wav
182,192,24075,128,0,24235:0:0:0:60:Clap.wav
402,192,24075,128,0,24395:0:0:0:0:
256,192,24235,1,0,0:0:0:0:
36,192,24395,128,0,24554:0:0:0:100:Kick.wav
329,192,24395,128,0,24634:0:0:0:0:
402,192,24554,128,0,24634:0:0:0:0:
36,192,24634,128,0,24873:0:0:0:0:
182,192,24634,128,0,24873:0:0:0:0:
256,192,24714,1,0,0:0:0:100:Kick.wav
329,192,24714,1,0,0:0:0:60:Clap.wav
402,192,24714,1,0,0:0:0:0:
109,192,24873,128,0,25033:0:0:0:0:
329,192,24873,128,0,25033:0:0:0:0:
36,192,25033,128,0,25352:0:0:0:100:Kick.wav
402,192,25033,128,0,25192:0:0:0:0:
256,192,25192,128,0,25352:0:0:0:0:
109,192,25352,1,0,0:0:0:100:Kick.wav
182,192,25352,128,0,25671:0:0:0:60:Clap.wav
329,192,25352,128,0,25512:0:0:0:0:
475,192,25512,128,0,26150:0:0:0:0:
36,192,25671,1,0,0:0:0:100:Kick.wav
256,192,25671,128,0,26150:0:0:0:0:
182,192,25831,1,0,0:0:0:0:
109,192,25990,1,0,0:0:0:100:Kick.wav
329,192,25990,1,0,0:0:0:60:Clap.wav
109,192,26150,1,0,0:0:0:100:Kick.wav
329,192,26150,1,0,0:0:0:0:
36,192,26309,1,0,0:0:0:100:Kick.wav
182,192,26309,128,0,26629:0:0:0:0:
475,192,26309,128,0,26469:0:0:0:0:
329,192,26469,1,0,0:0:0:0:
36,192,26629,128,0,26788:0:0:0:100:Kick.wav
256,192,26629,1,0,0:0:0:60:Clap.wav
402,192,26629,128,0,26948:0:0:0:0:
475,192,26788,1,0,0:0:0:0:
36,192,26948,128,0,27187:0:0:0:100:Kick.wav
256,192,26948,128,0,27107:0:0:0:0:
182,192,27107,128,0,27187:0:0:0:0:
329,192,27187,128,0,27426:0:0:0:0:
475,192,27187,128,0,27426:0:0:0:0:
36,192,27267,1,0,0:0:0:100:Kick.wav
182,192,27267,1,0,0:0:0:60:Clap.wav
256,192,27267,1,0,0:0:0:0:
109,192,27426,128,0,27586:0:0:0:0:
402,192,27426,128,0,27586:0:0:0:0:
182,192,27586,128,0,27746:0:0:0:100:Kick.wav
475,192,27586,128,0,27905:0:0:0:0:
402,192,27746,1,0,0:0:0:0:
36,192,27905,128,0,28224:0:0:0:100:Kick.wav
109,192,27905,1,0,0:0:0:60:Clap.wav
256,192,27905,128,0,28065:0:0:0:0:
329,192,28065,1,0,0:0:0:0:
182,192,28224,128,0,28384:0:0:0:100:Kick.wav
402,192,28224,128,0,28543:0:0:0:0:
36,192,28384,1,0,0:0:0:0:
109,192,28543,1,0,0:0:0:100:Kick.wav
329,192,28543,128,0,28863:0:0:0:60:Clap.wav
475,192,28543,128,0,28703:0:0:0:0:
256,192,28703,1,0,0:0:0:0:
36,192,28783,1,0,0:0:0:0:
182,192,28863,128,0,29022:0:0:0:100:Kick.wav
402,192,28863,128,0,29102:0:0:0:0:
256,192,29022,128,0,29102:0:0:0:0:
36,192,29102,128,0,29341:0:0:0:0:
475,192,29102,128,0,29341:0:0:0:0:
182,192,29182,1,0,0:0:0:100:Kick.wav
256,192,29182,1,0,0:0:0:60:Clap.wav
402,192,29182,1,0,0:0:0:0:
182,192,29341,128,0,29501:0:0:0:0:
329,192,29341,128,0,29501:0:0:0:0:
36,192,29501,128,0,29820:0:0:0:100:Kick.wav
256,192,29501,128,0,29660:0:0:0:0:
109,192,29660,1,0,0:0:0:0:
182,192,29820,128,0,30139:0:0:0:100:Kick.wav
402,192,29820,1,0,0:0:0:60:Clap.wav
475,192,29820,128,0,29980:0:0:0:0:
329,192,29980,1,0,0:0:0:0:
256,192,30139,128,0,30299:0:0:0:100:Kick.wav
475,192,30139,128,0,30458:0:0:0:0:
109,192,30299,128,0,30458:0:0:0:0:
36,192,30458,128,0,30778:0:0:0:100:Kick.wav
182,192,30458,1,0,0:0:0:60:Clap.wav
329,192,30458,128,0,30618:0:0:0:0:
256,192,30618,128,0,31256:0:0:0:0:
109,192,30778,128,0,31256:0:0:0:100:Kick.wav
402,192,30778,1,0,0:0:0:0:
182,192,30937,1,0,0:0:0:100:Kick.wav
402,192,30937,1,0,0:0:0:0:
36,192,31097,1,0,0:0:0:100:Kick.wav
329,192,31097,1,0,0:0:0:60:Clap.wav
402,192,31256,1,0,0:0:0:100:Kick.wav
475,192,31256,1,0,0:0:0:0:
182,192,31336,1,0,0:0:0:100:Kick.wav
329,192,31336,1,0,0:0:0:0:
36,192,31416,1,0,0:0:0:100:Crash.wav
109,192,31416,128,0,31735:0:0:0:100:Kick.wav
402,192,31416,128,0,31575:0:0:0:0:
475,192,31416,1,0,0:0:0:0:
256,192,31575,1,0,0:0:0:0:
182,192,31735,1,0,0:0:0:100:Kick.wav
329,192,31735,128,0,31895:0:0:0:60:Clap.wav
475,192,31735,128,0,32054:0:0:0:0:
109,192,31895,1,0,0:0:0:0:
182,192,32054,128,0,32293:0:0:0:100:Kick.wav
402,192,32054,128,0,32214:0:0:0:0:
109,192,32214,128,0,32293:0:0:0:0:
256,192,32293,128,0,32533:0:0:0:0:
475,192,32293,128,0,32533:0:0:0:0:
109,192,32373,1,0,0:0:0:100:Kick.wav
182,192,32373,1,0,0:0:0:60:Clap.wav
402,192,32373,1,0,0:0:0:0:
36,192,32533,128,0,32692:0:0:0:0:
329,192,32533,128,0,32692:0:0:0:0:
256,192,32692,128,0,32852:0:0:0:100:Kick.wav
475,192,32692,128,0,33012:0:0:0:0:
109,192,32852,1,0,0:0:0:0:
36,192,33012,128,0,33331:0:0:0:100:Kick.wav
182,192,33012,1,0,0:0:0:60:Clap.wav
329,192,33012,128,0,33171:0:0:0:0:
109,192,33171,1,0,0:0:0:0:
256,192,33331,128,0,33650:0:0:0:100:Kick.wav
402,192,33331,128,0,33490:0:0:0:0:
36,192,33490,1,0,0:0:0:0:
109,192,33650,128,0,33809:0:0:0:100:Kick.wav
329,192,33650,128,0,33969:0:0:0:60:Clap.wav
402,192,33650,1,0,0:0:0:0:
36,192,33809,1,0,0:0:0:0:
182,192,33889,1,0,0:0:0:0:
256,192,33969,128,0,34129:0:0:0:100:Kick.wav
475,192,33969,128,0,34288:0:0:0:0:
36,192,34129,1,0,0:0:0:0:
109,192,34288,128,0,34448:0:0:0:100:Kick.wav
256,192,34288,1,0,0:0:0:60:Clap.wav
329,192,34288,128,0,34607:0:0:0:0:
475,192,34448,1,0,0:0:0:0:
182,192,34607,128,0,34847:0:0:0:100:Kick.wav
402,192,34607,128,0,34767:0:0:0:0:
329,192,34767,128,0,34847:0:0:0:0:
36,192,34847,128,0,35086:0:0:0:0:
109,192,34847,128,0,35086:0:0:0:0:
182,192,34926,1,0,0:0:0:100:Kick.wav
329,192,34926,1,0,0:0:0:60:Clap.wav
475,192,34926,1,0,0:0:0:0:
256,192,35086,128,0,35246:0:0:0:0:
402,192,35086,128,0,35246:0:0:0:0:
329,192,35246,128,0,35405:0:0:0:100:Kick.wav
475,192,35246,128,0,35565:0:0:0:0:
109,192,35405,128,0,35565:0:0:0:0:
36,192,35565,128,0,35884:0:0:0:100:Kick.wav
182,192,35565,1,0,0:0:0:60:Clap.wav
256,192,35565,128,0,35724:0:0:0:0:
402,192,35724,128,0,36363:0:0:0:0:
182,192,35884,128,0,36363:0:0:0:100:Kick.wav
329,192,35884,1,0,0:0:0:0:
36,192,36043,1,0,0:0:0:0:
109,192,36203,1,0,0:0:0:100:Kick.wav
329,192,36203,1,0,0:0:0:60:Clap.wav
36,192,36363,1,0,0:0:0:100:Kick.wav
256,192,36363,1,0,0:0:0:0:
329,192,36363,1,0,0:0:0:0:
36,192,36522,1,0,0:0:0:100:Crash.wav
182,192,36522,1,0,0:0:0:100:Kick.wav
402,192,36522,128,0,36682:0:0:0:0:
475,192,36522,1,0,0:0:0:0:
109,192,36682,1,0,0:0:0:0:
475,192,36841,128,0,37001:0:0:0:60:Clap.wav
36,192,36841,1,0,0:0:0:0:
256,192,37001,1,0,0:0:0:0:
182,192,37160,128,0,37400:0:0:0:0:
402,192,37320,1,0,0:0:0:0:
329,192,37400,128,0,37639:0:0:0:0:
36,192,37480,1,0,0:0:0:100:Crash.wav
109,192,37480,1,0,0:0:0:100:Kick.wav
182,192,37480,1,0,0:0:0:60:Clap.wav
475,192,37480,1,0,0:0:0:0:
402,192,37639,128,0,37799:0:0:0:0:
109,192,37799,1,0,0:0:0:100:Crash.wav
182,192,37799,1,0,0:0:0:100:Kick.wav
256,192,37799,1,0,0:0:0:0:
475,192,37799,128,0,37958:0:0:0:0:
329,192,37958,128,0,38118:0:0:0:0:
182,192,38118,128,0,38278:0:0:0:70:Clap.wav
36,192,38118,1,0,0:0:0:0:
402,192,38278,128,0,38437:0:0:0:0:
36,192,38437,1,0,0:0:0:100:Crash.wav
182,192,38437,1,0,0:0:0:100:Kick.wav
256,192,38437,128,0,38597:0:0:0:0:
475,192,38437,1,0,0:0:0:0:
402,192,38597,1,0,0:0:0:0:
109,192,38756,128,0,38916:0:0:0:100:Crash.wav
182,192,38756,1,0,0:0:0:100:Kick.wav
256,192,38756,1,0,0:0:0:70:Clap.wav
475,192,38756,1,0,0:0:0:0:
329,192,38916,1,0,0:0:0:0:
36,192,39075,1,0,0:0:0:100:Crash.wav
109,192,39075,1,0,0:0:0:100:Kick.wav
256,192,39075,128,0,39315:0:0:0:0:
475,192,39075,1,0,0:0:0:0:
109,192,39235,1,0,0:0:0:100:Kick.wav
402,192,39235,1,0,0:0:0:0:
329,192,39315,128,0,39554:0:0:0:0:
36,192,39395,1,0,0:0:0:70:Clap.wav
182,192,39395,1,0,0:0:0:100:Kick.wav
256,192,39395,1,0,0:0:0:100:Crash.wav
475,192,39395,1,0,0:0:0:0:
402,192,39554,128,0,39714:0:0:0:100:Kick.wav
475,192,39554,1,0,0:0:0:0:
36,192,39714,1,0,0:0:0:100:Crash.wav
109,192,39714,1,0,0:0:0:100:Kick.wav
256,192,39714,128,0,39953:0:0:0:0:
329,192,39714,1,0,0:0:0:0:
402,192,39873,1,0,0:0:0:100:Kick.wav
475,192,39873,1,0,0:0:0:0:
182,192,39953,128,0,40192:0:0:0:0:
36,192,40033,1,0,0:0:0:70:Clap.wav
256,192,40033,1,0,0:0:0:100:Kick.wav
402,192,40033,1,0,0:0:0:100:Crash.wav
109,192,40192,128,0,40352:0:0:0:100:Kick.wav
329,192,40192,1,0,0:0:0:0:
36,192,40352,1,0,0:0:0:100:Crash.wav
182,192,40352,1,0,0:0:0:100:Kick.wav
475,192,40352,1,0,0:0:0:0:
256,192,40432,1,0,0:0:0:100:Kick.wav
329,192,40432,1,0,0:0:0:0:
109,192,40512,1,0,0:0:0:100:Kick.wav
402,192,40512,1,0,0:0:0:0:
182,192,40591,1,0,0:0:0:100:Kick.wav
329,192,40591,1,0,0:0:0:0:
36,192,40671,1,0,0:0:0:70:Clap.wav
109,192,40671,1,0,0:0:0:100:Kick.wav
475,192,40671,1,0,0:0:0:0:
256,192,40751,1,0,0:0:0:100:Kick.wav
329,192,40751,1,0,0:0:0:0:
36,192,40831,1,0,0:0:0:100:Kick.wav
182,192,40831,1,0,0:0:0:0:
402,192,40831,1,0,0:0:0:0:
109,192,40910,1,0,0:0:0:100:Kick.wav
329,192,40910,1,0,0:0:0:0:
182,192,40990,1,0,0:0:0:100:Kick.wav
402,192,40990,1,0,0:0:0:0:
475,192,40990,1,0,0:0:0:0:
36,192,41150,1,0,0:0:0:100:Kick.wav
256,192,41150,1,0,0:0:0:0:
475,192,41150,1,0,0:0:0:0:
36,192,41309,1,0,0:0:0:70:Kick.wav
402,192,41309,1,0,0:0:0:0:
109,192,41349,1,0,0:0:0:70:Kick.wav
182,192,41389,1,0,0:0:0:70:Kick.wav
329,192,41429,1,0,0:0:0:70:Kick.wav
402,192,41469,1,0,0:0:0:70:Kick.wav
475,192,41469,1,0,0:0:0:0:
256,192,41509,1,0,0:0:0:70:Kick.wav
182,192,41549,1,0,0:0:0:70:Kick.wav
109,192,41589,1,0,0:0:0:70:Kick.wav
36,192,41629,1,0,0:0:0:100:Crash.wav
329,192,41629,128,0,42905:0:0:0:100:Kick-Deep.wav
402,192,41629,1,0,0:0:0:0:
475,192,41629,128,0,41788:0:0:0:0:
182,192,41788,128,0,41948:0:0:0:0:
36,192,41948,128,0,42107:0:0:0:0:
109,192,42107,128,0,42267:0:0:0:0:
182,192,42267,128,0,42426:0:0:0:0:
475,192,42586,128,0,43384:0:0:0:0:
182,192,42905,128,0,44182:0:0:0:0:
402,192,42905,128,0,43065:0:0:0:0:
329,192,43065,128,0,43224:0:0:0:0:
36,192,43224,128,0,43384:0:0:0:0:
109,192,43384,128,0,43543:0:0:0:0:
329,192,43543,128,0,43703:0:0:0:0:
475,192,43543,128,0,45458:0:0:0:0:
36,192,44182,128,0,46735:0:0:0:0:
329,192,44182,128,0,44341:0:0:0:0:
256,192,44341,128,0,44501:0:0:0:0:
109,192,44501,128,0,44660:0:0:0:0:
182,192,44660,128,0,45139:0:0:0:0:
402,192,44820,128,0,45139:0:0:0:0:
256,192,45139,128,0,45458:0:0:0:0:
182,192,45458,128,0,45778:0:0:0:0:
402,192,45458,128,0,46097:0:0:0:0:
256,192,45937,1,0,0:0:0:0:
182,192,46017,1,0,0:0:0:0:
256,192,46097,128,0,46575:0:0:0:0:
402,192,46416,128,0,46735:0:0:0:0:
256,192,46735,128,0,46895:0:0:0:0:
475,192,46735,128,0,47692:0:0:0:0:
36,192,46895,128,0,47054:0:0:0:0:
182,192,47054,128,0,47214:0:0:0:0:
329,192,47214,128,0,47533:0:0:0:0:
36,192,47373,128,0,47692:0:0:0:0:
256,192,47533,128,0,47852:0:0:0:0:
402,192,47692,128,0,48490:0:0:0:0:
109,192,47852,128,0,48490:0:0:0:0:
36,192,48012,128,0,48171:0:0:0:0:
182,192,48171,128,0,48331:0:0:0:0:
256,192,48331,128,0,48490:0:0:0:0:
329,192,48490,128,0,48969:0:0:0:0:
36,192,48650,128,0,48969:0:0:0:0:
475,192,48969,128,0,50246:0:0:0:0:
109,192,49288,128,0,51203:0:0:0:0:
256,192,49288,128,0,49448:0:0:0:0:
36,192,49448,128,0,49607:0:0:0:0:
182,192,49607,128,0,49767:0:0:0:0:
329,192,49767,128,0,49926:0:0:0:0:
256,192,49926,128,0,50086:0:0:0:0:
402,192,49926,128,0,50246:0:0:0:0:
36,192,50086,1,0,0:0:0:0:
329,192,50246,128,0,50405:0:0:0:0:
182,192,50405,1,0,0:0:0:0:
402,192,50565,128,0,50724:0:0:0:0:
475,192,50565,128,0,50884:0:0:0:0:
256,192,50724,1,0,0:0:0:0:
329,192,50884,128,0,51043:0:0:0:0:
182,192,51043,1,0,0:0:0:0:
402,192,51123,1,0,0:0:0:0:
475,192,51163,1,0,0:0:0:0:
36,192,51203,128,0,51522:0:0:0:0:
256,192,51203,128,0,51841:0:0:0:0:
402,192,51522,128,0,51841:0:0:0:0:
36,192,51841,1,0,0:0:0:100:Kick.wav
182,192,51841,1,0,0:0:0:100:Crash.wav
329,192,51841,128,0,52799:0:0:0:0:
475,192,51841,1,0,0:0:0:0:
36,192,52160,1,0,0:0:0:100:Kick.wav
182,192,52160,1,0,0:0:0:100:Clap-hit.wav
256,192,52160,1,0,0:0:0:0:
182,192,52400,1,0,0:0:0:0:
36,192,52480,1,0,0:0:0:100:Kick.wav
475,192,52480,1,0,0:0:0:0:
182,192,52559,1,0,0:0:0:0:
36,192,52639,1,0,0:0:0:0:
36,192,52799,1,0,0:0:0:100:Kick.wav
402,192,52799,128,0,53118:0:0:0:100:Clap-hit.wav
475,192,52799,1,0,0:0:0:0:
182,192,53118,128,0,53756:0:0:0:100:Kick.wav
329,192,53118,1,0,0:0:0:0:
402,192,53278,1,0,0:0:0:0:
36,192,53437,1,0,0:0:0:100:Kick.wav
256,192,53437,1,0,0:0:0:100:Clap-hit.wav
402,192,53437,1,0,0:0:0:0:
36,192,53756,1,0,0:0:0:100:Kick.wav
402,192,53756,128,0,54395:0:0:0:0:
36,192,53916,1,0,0:0:0:100:Clap-hit.wav
256,192,53916,1,0,0:0:0:0:
109,192,54075,1,0,0:0:0:100:Kick.wav
182,192,54075,1,0,0:0:0:0:
329,192,54155,1,0,0:0:0:0:
109,192,54235,1,0,0:0:0:100:Snare-H.wav
182,192,54235,1,0,0:0:0:0:
256,192,54315,1,0,0:0:0:100:Snare-H.wav
329,192,54315,1,0,0:0:0:0:
36,192,54395,128,0,56309:0:0:0:100:Kick.wav
109,192,54395,1,0,0:0:0:100:Crash.wav
182,192,54395,1,0,0:0:0:0:
475,192,54395,1,0,0:0:0:0:
329,192,54554,1,0,0:0:0:0:
109,192,54714,1,0,0:0:0:100:Clap-hit.wav
182,192,54714,1,0,0:0:0:100:Kick.wav
475,192,54714,1,0,0:0:0:0:
256,192,54873,1,0,0:0:0:0:
329,192,55033,1,0,0:0:0:100:Kick.wav
475,192,55033,1,0,0:0:0:0:
109,192,55113,1,0,0:0:0:0:
256,192,55192,1,0,0:0:0:0:
256,192,55352,1,0,0:0:0:100:Clap-hit.wav
402,192,55352,1,0,0:0:0:100:Kick.wav
475,192,55352,1,0,0:0:0:0:
182,192,55512,1,0,0:0:0:0:
256,192,55591,1,0,0:0:0:0:
109,192,55671,1,0,0:0:0:100:Kick.wav
329,192,55671,1,0,0:0:0:100:Clap-hit.wav
475,192,55671,1,0,0:0:0:0:
182,192,55831,1,0,0:0:0:0:
329,192,55910,1,0,0:0:0:0:
109,192,55990,1,0,0:0:0:100:Clap-hit.wav
402,192,55990,1,0,0:0:0:100:Kick.wav
475,192,55990,1,0,0:0:0:0:
256,192,56150,1,0,0:0:0:0:
402,192,56230,1,0,0:0:0:0:
182,192,56309,128,0,56629:0:0:0:100:Kick.wav
475,192,56309,1,0,0:0:0:0:
36,192,56469,1,0,0:0:0:100:Clap-hit.wav
475,192,56469,1,0,0:0:0:0:
36,192,56629,1,0,0:0:0:100:Kick.wav
109,192,56629,1,0,0:0:0:0:
329,192,56629,128,0,56948:0:0:0:0:
475,192,56708,1,0,0:0:0:0:
36,192,56788,1,0,0:0:0:70:Snare-H.wav
256,192,56788,1,0,0:0:0:0:
109,192,56868,1,0,0:0:0:100:Snare-H.wav
182,192,56868,1,0,0:0:0:0:
36,192,56948,1,0,0:0:0:100:Crash.wav
256,192,56948,1,0,0:0:0:100:Kick.wav
402,192,56948,1,0,0:0:0:0:
475,192,56948,128,0,57746:0:0:0:0:
182,192,57107,1,0,0:0:0:100:Kick.wav
329,192,57107,1,0,0:0:0:0:
36,192,57267,1,0,0:0:0:100:Kick.wav
182,192,57267,1,0,0:0:0:100:Clap-hit.wav
402,192,57267,1,0,0:0:0:0:
109,192,57426,1,0,0:0:0:100:Kick.wav
329,192,57426,1,0,0:0:0:0:
36,192,57586,1,0,0:0:0:100:Kick.wav
329,192,57586,1,0,0:0:0:0:
109,192,57746,1,0,0:0:0:100:Kick.wav
256,192,57746,1,0,0:0:0:0:
109,192,57905,1,0,0:0:0:100:Kick.wav
402,192,57905,1,0,0:0:0:100:Clap-hit.wav
475,192,57905,128,0,58224:0:0:0:0:
36,192,58065,1,0,0:0:0:100:Kick.wav
329,192,58065,1,0,0:0:0:0:
36,192,58224,1,0,0:0:0:100:Kick.wav
109,192,58224,1,0,0:0:0:100:Crash.wav
182,192,58224,128,0,58863:0:0:0:0:
329,192,58224,1,0,0:0:0:0:
475,192,58304,1,0,0:0:0:0:
256,192,58384,1,0,0:0:0:100:Kick.wav
402,192,58384,1,0,0:0:0:0:
329,192,58464,1,0,0:0:0:0:
36,192,58543,1,0,0:0:0:100:Clap-hit.wav
109,192,58543,1,0,0:0:0:100:Kick.wav
475,192,58543,1,0,0:0:0:0:
256,192,58623,1,0,0:0:0:0:
36,192,58703,1,0,0:0:0:100:Kick.wav
329,192,58703,1,0,0:0:0:0:
109,192,58783,1,0,0:0:0:0:
256,192,58863,1,0,0:0:0:100:Kick.wav
475,192,58863,128,0,59421:0:0:0:0:
109,192,59022,1,0,0:0:0:100:Clap-hit.wav
256,192,59022,1,0,0:0:0:100:Kick.wav
402,192,59102,128,0,59421:0:0:0:0:
36,192,59182,1,0,0:0:0:100:Kick.wav
182,192,59182,1,0,0:0:0:0:
256,192,59262,1,0,0:0:0:100:Kick.wav
109,192,59262,1,0,0:0:0:0:
182,192,59341,1,0,0:0:0:100:Kick.wav
329,192,59341,128,0,59421:0:0:0:0:
36,192,59421,1,0,0:0:0:100:Kick.wav
109,192,59421,1,0,0:0:0:0:
182,192,59501,128,0,59554:0:0:0:100:Crash.wav
329,192,59501,128,0,59554:0:0:0:100:Kick.wav
402,192,59501,128,0,59554:0:0:0:0:
475,192,59501,1,0,0:0:0:0:
36,192,60139,128,0,60192:0:0:0:100:Kick.wav
182,192,60139,128,0,60192:0:0:0:100:Crash.wav
329,192,60139,128,0,60192:0:0:0:0:
402,192,60139,1,0,0:0:0:0:
402,192,60618,1,0,0:0:0:0:
256,192,60698,1,0,0:0:0:0:
36,192,60778,128,0,60831:0:0:0:100:Crash.wav
109,192,60778,128,0,60831:0:0:0:100:Kick.wav
329,192,60778,128,0,60937:0:0:0:0:
475,192,60778,128,0,61575:0:0:0:0:
182,192,60937,128,0,61097:0:0:0:0:
36,192,61097,128,0,61655:0:0:0:100:Crash.wav
329,192,61097,128,0,61150:0:0:0:100:Kick.wav
402,192,61097,128,0,61150:0:0:0:0:
109,192,61256,128,0,61655:0:0:0:0:
182,192,61416,128,0,61655:0:0:0:100:Crash.wav
329,192,61416,128,0,61469:0:0:0:100:Kick.wav
402,192,61416,128,0,61469:0:0:0:0:
256,192,61575,128,0,61655:0:0:0:100:Kick.wav
329,192,61575,128,0,61655:0:0:0:0:
402,192,61655,128,0,61735:0:0:0:100:Kick.wav
475,192,61655,128,0,61735:0:0:0:0:
36,192,61735,1,0,0:0:0:100:Clap_old.wav
109,192,61735,1,0,0:0:0:0:
256,192,61735,1,0,0:0:0:0:
36,192,62054,128,0,62373:0:0:0:100:Crash.wav
109,192,62054,1,0,0:0:0:100:Kick.wav
329,192,62054,1,0,0:0:0:0:
402,192,62054,128,0,62373:0:0:0:0:
256,192,62214,1,0,0:0:0:0:
109,192,62373,128,0,62533:0:0:0:100:Kick.wav
182,192,62373,128,0,62533:0:0:0:60:Clap.wav
475,192,62373,1,0,0:0:0:0:
329,192,62533,128,0,62692:0:0:0:0:
402,192,62533,128,0,62692:0:0:0:0:
36,192,62692,128,0,63012:0:0:0:100:Kick.wav
182,192,62692,128,0,62932:0:0:0:0:
475,192,62692,1,0,0:0:0:0:
402,192,62852,128,0,63171:0:0:0:0:
475,192,62932,128,0,63171:0:0:0:0:
109,192,63012,1,0,0:0:0:100:Kick.wav
182,192,63012,1,0,0:0:0:60:Clap.wav
329,192,63012,1,0,0:0:0:0:
182,192,63171,128,0,63331:0:0:0:0:
256,192,63171,128,0,63331:0:0:0:0:
36,192,63331,1,0,0:0:0:100:Kick.wav
329,192,63331,128,0,63490:0:0:0:0:
402,192,63331,128,0,63490:0:0:0:0:
36,192,63490,128,0,63650:0:0:0:0:
182,192,63490,128,0,63650:0:0:0:0:
256,192,63650,1,0,0:0:0:100:Kick.wav
329,192,63650,128,0,63809:0:0:0:60:Clap.wav
475,192,63650,128,0,63809:0:0:0:0:
182,192,63809,128,0,64528:0:0:0:0:
402,192,63889,128,0,64528:0:0:0:0:
475,192,63889,128,0,64528:0:0:0:0:
36,192,63969,1,0,0:0:0:100:Kick.wav
109,192,63969,1,0,0:0:0:0:
329,192,63969,1,0,0:0:0:0:
256,192,64129,1,0,0:0:0:0:
36,192,64288,1,0,0:0:0:100:Kick.wav
256,192,64288,1,0,0:0:0:60:Clap.wav
329,192,64288,1,0,0:0:0:0:
109,192,64448,1,0,0:0:0:0:
256,192,64528,1,0,0:0:0:0:
182,192,64607,128,0,64926:0:0:0:100:Kick.wav
329,192,64607,1,0,0:0:0:0:
475,192,64607,128,0,64926:0:0:0:0:
256,192,64767,1,0,0:0:0:0:
36,192,64926,128,0,65086:0:0:0:100:Kick.wav
109,192,64926,128,0,65086:0:0:0:60:Clap.wav
402,192,64926,1,0,0:0:0:0:
329,192,65086,128,0,65246:0:0:0:0:
475,192,65086,128,0,65246:0:0:0:0:
36,192,65246,128,0,65485:0:0:0:100:Kick.wav
109,192,65246,1,0,0:0:0:0:
256,192,65246,128,0,65405:0:0:0:0:
182,192,65405,128,0,65485:0:0:0:0:
329,192,65485,128,0,65724:0:0:0:0:
402,192,65485,128,0,65724:0:0:0:0:
36,192,65565,1,0,0:0:0:100:Kick.wav
109,192,65565,1,0,0:0:0:60:Clap.wav
182,192,65565,1,0,0:0:0:0:
256,192,65724,128,0,65884:0:0:0:0:
475,192,65724,128,0,65884:0:0:0:0:
36,192,65884,128,0,66682:0:0:0:100:Kick.wav
109,192,65884,128,0,66682:0:0:0:0:
402,192,65884,128,0,66043:0:0:0:0:
329,192,66043,128,0,66203:0:0:0:0:
256,192,66203,128,0,66363:0:0:0:100:Kick.wav
402,192,66203,1,0,0:0:0:60:Clap.wav
475,192,66203,1,0,0:0:0:0:
182,192,66363,128,0,66522:0:0:0:0:
329,192,66522,128,0,66682:0:0:0:100:Kick.wav
402,192,66522,1,0,0:0:0:0:
475,192,66522,1,0,0:0:0:0:
256,192,66682,128,0,66841:0:0:0:0:
109,192,66841,1,0,0:0:0:100:Kick.wav
182,192,66841,1,0,0:0:0:60:Clap.wav
475,192,66841,1,0,0:0:0:0:
402,192,66921,1,0,0:0:0:0:
36,192,67001,1,0,0:0:0:100:Kick.wav
109,192,67001,1,0,0:0:0:0:
256,192,67001,1,0,0:0:0:0:
329,192,67081,1,0,0:0:0:0:
182,192,67160,128,0,67480:0:0:0:100:Kick.wav
402,192,67160,128,0,67320:0:0:0:0:
475,192,67160,1,0,0:0:0:0:
256,192,67320,128,0,67480:0:0:0:0:
36,192,67480,128,0,67639:0:0:0:100:Kick.wav
109,192,67480,128,0,67639:0:0:0:60:Clap.wav
475,192,67480,1,0,0:0:0:0:
256,192,67639,128,0,67799:0:0:0:0:
402,192,67639,128,0,67799:0:0:0:0:
36,192,67799,128,0,68038:0:0:0:100:Kick.wav
182,192,67799,128,0,68038:0:0:0:0:
475,192,67799,1,0,0:0:0:0:
475,192,67958,128,0,68278:0:0:0:0:
329,192,68038,128,0,68278:0:0:0:0:
36,192,68118,1,0,0:0:0:100:Kick.wav
182,192,68118,1,0,0:0:0:60:Clap.wav
256,192,68118,1,0,0:0:0:0:
109,192,68278,128,0,68437:0:0:0:0:
402,192,68278,128,0,68437:0:0:0:0:
36,192,68437,1,0,0:0:0:100:Kick.wav
256,192,68437,128,0,68756:0:0:0:0:
475,192,68437,128,0,68756:0:0:0:0:
182,192,68597,128,0,68756:0:0:0:0:
402,192,68597,1,0,0:0:0:0:
36,192,68756,128,0,69075:0:0:0:100:Kick.wav
109,192,68756,128,0,69075:0:0:0:60:Clap.wav
329,192,68756,1,0,0:0:0:0:
402,192,68916,1,0,0:0:0:0:
475,192,68916,128,0,69075:0:0:0:0:
182,192,69075,128,0,69395:0:0:0:100:Kick.wav
256,192,69075,1,0,0:0:0:0:
329,192,69075,128,0,69395:0:0:0:0:
109,192,69235,1,0,0:0:0:0:
475,192,69235,128,0,69395:0:0:0:0:
36,192,69395,1,0,0:0:0:100:Kick.wav
256,192,69395,128,0,69714:0:0:0:60:Clap.wav
402,192,69395,128,0,69714:0:0:0:0:
182,192,69554,128,0,69714:0:0:0:0:
329,192,69554,1,0,0:0:0:0:
36,192,69634,1,0,0:0:0:0:
109,192,69714,1,0,0:0:0:100:Kick.wav
329,192,69714,128,0,69873:0:0:0:0:
475,192,69714,128,0,70033:0:0:0:0:
36,192,69873,128,0,70192:0:0:0:0:
182,192,69873,128,0,70033:0:0:0:0:
109,192,70033,1,0,0:0:0:100:Kick.wav
329,192,70033,1,0,0:0:0:60:Clap.wav
402,192,70033,1,0,0:0:0:0:
256,192,70192,128,0,70352:0:0:0:0:
402,192,70272,128,0,70591:0:0:0:0:
36,192,70352,1,0,0:0:0:100:Kick.wav
182,192,70352,128,0,70512:0:0:0:0:
475,192,70352,1,0,0:0:0:0:
329,192,70512,128,0,70591:0:0:0:0:
109,192,70591,128,0,70831:0:0:0:0:
182,192,70591,128,0,70831:0:0:0:0:
329,192,70671,1,0,0:0:0:60:Clap.wav
402,192,70671,1,0,0:0:0:100:Kick.wav
475,192,70671,1,0,0:0:0:0:
36,192,70831,128,0,70990:0:0:0:0:
256,192,70831,128,0,70990:0:0:0:0:
182,192,70990,1,0,0:0:0:100:Kick.wav
329,192,70990,128,0,71150:0:0:0:0:
475,192,70990,128,0,71150:0:0:0:0:
36,192,71150,128,0,71309:0:0:0:0:
182,192,71150,128,0,71309:0:0:0:0:
402,192,71150,1,0,0:0:0:0:
109,192,71309,1,0,0:0:0:100:Kick.wav
256,192,71309,128,0,71469:0:0:0:60:Clap.wav
402,192,71309,128,0,71469:0:0:0:0:
36,192,71469,128,0,72267:0:0:0:0:
402,192,71549,128,0,72107:0:0:0:0:
475,192,71549,128,0,72107:0:0:0:0:
109,192,71629,1,0,0:0:0:100:Kick.wav
329,192,71629,1,0,0:0:0:0:
182,192,71788,1,0,0:0:0:100:Kick.wav
329,192,71788,1,0,0:0:0:0:
109,192,71948,1,0,0:0:0:100:Kick.wav
256,192,71948,1,0,0:0:0:60:Clap.wav
109,192,72107,1,0,0:0:0:100:Kick.wav
329,192,72107,1,0,0:0:0:0:
182,192,72187,1,0,0:0:0:100:Kick.wav
256,192,72187,1,0,0:0:0:0:
109,192,72267,128,0,72586:0:0:0:60:Crash.wav
329,192,72267,1,0,0:0:0:100:Kick.wav
402,192,72267,128,0,72586:0:0:0:0:
475,192,72267,1,0,0:0:0:0:
256,192,72426,1,0,0:0:0:0:
36,192,72586,128,0,72746:0:0:0:100:Kick.wav
182,192,72586,128,0,72746:0:0:0:60:Clap.wav
329,192,72586,1,0,0:0:0:0:
402,192,72746,128,0,72905:0:0:0:0:
475,192,72746,128,0,72905:0:0:0:0:
36,192,72905,128,0,73224:0:0:0:100:Kick.wav
182,192,72905,1,0,0:0:0:0:
256,192,72905,128,0,73145:0:0:0:0:
475,192,73065,128,0,73384:0:0:0:0:
329,192,73145,128,0,73384:0:0:0:0:
109,192,73224,1,0,0:0:0:100:Kick.wav
182,192,73224,1,0,0:0:0:60:Clap.wav
256,192,73224,1,0,0:0:0:0:
182,192,73384,128,0,73543:0:0:0:0:
402,192,73384,128,0,73543:0:0:0:0:
36,192,73543,1,0,0:0:0:100:Kick.wav
109,192,73543,128,0,73703:0:0:0:0:
329,192,73543,128,0,73703:0:0:0:0:
36,192,73703,128,0,73863:0:0:0:0:
256,192,73703,128,0,73863:0:0:0:0:
182,192,73863,1,0,0:0:0:100:Kick.wav
329,192,73863,128,0,74022:0:0:0:60:Clap.wav
402,192,73863,128,0,74022:0:0:0:0:
109,192,74022,128,0,74820:0:0:0:0:
329,192,74102,128,0,74660:0:0:0:0:
475,192,74102,128,0,74660:0:0:0:0:
36,192,74182,1,0,0:0:0:100:Kick.wav
256,192,74182,1,0,0:0:0:0:
402,192,74341,1,0,0:0:0:0:
36,192,74501,1,0,0:0:0:100:Kick.wav
256,192,74501,1,0,0:0:0:60:Clap.wav
402,192,74501,1,0,0:0:0:0:
182,192,74660,1,0,0:0:0:0:
402,192,74740,1,0,0:0:0:0:
256,192,74820,128,0,75139:0:0:0:100:Kick.wav
329,192,74820,128,0,75139:0:0:0:0:
475,192,74820,1,0,0:0:0:0:
109,192,74980,1,0,0:0:0:0:
36,192,75139,128,0,75299:0:0:0:100:Kick.wav
182,192,75139,128,0,75299:0:0:0:60:Clap.wav
475,192,75139,1,0,0:0:0:0:
256,192,75299,128,0,75458:0:0:0:0:
402,192,75299,128,0,75458:0:0:0:0:
36,192,75458,128,0,75698:0:0:0:100:Kick.wav
109,192,75458,1,0,0:0:0:0:
329,192,75458,128,0,75618:0:0:0:0:
402,192,75618,128,0,75698:0:0:0:0:
182,192,75698,128,0,75937:0:0:0:0:
256,192,75698,128,0,75937:0:0:0:0:
36,192,75778,1,0,0:0:0:100:Kick.wav
402,192,75778,1,0,0:0:0:60:Clap.wav
475,192,75778,1,0,0:0:0:0:
329,192,75937,128,0,76097:0:0:0:0:
475,192,75937,128,0,76097:0:0:0:0:
36,192,76097,1,0,0:0:0:100:Kick.wav
182,192,76097,128,0,77054:0:0:0:0:
402,192,76097,128,0,76256:0:0:0:0:
475,192,76256,128,0,76416:0:0:0:0:
36,192,76416,1,0,0:0:0:100:Kick.wav
109,192,76416,1,0,0:0:0:60:Clap.wav
329,192,76416,128,0,76575:0:0:0:0:
256,192,76575,128,0,76735:0:0:0:0:
36,192,76735,1,0,0:0:0:100:Kick.wav
329,192,76735,1,0,0:0:0:0:
402,192,76735,128,0,76895:0:0:0:0:
109,192,76895,128,0,77054:0:0:0:0:
36,192,77054,1,0,0:0:0:100:Kick.wav
329,192,77054,1,0,0:0:0:60:Clap.wav
475,192,77054,1,0,0:0:0:0:
182,192,77134,1,0,0:0:0:0:
256,192,77214,1,0,0:0:0:100:Kick.wav
402,192,77214,1,0,0:0:0:0:
475,192,77214,1,0,0:0:0:0:
36,192,77293,1,0,0:0:0:0:
109,192,77373,1,0,0:0:0:100:Crash.wav
182,192,77373,1,0,0:0:0:100:Kick.wav
256,192,77373,1,0,0:0:0:40:Snare-H.wav
402,192,77373,1,0,0:0:0:0:
329,192,77453,1,0,0:0:0:40:Snare-H.wav
109,192,77533,1,0,0:0:0:40:Snare-H.wav
256,192,77613,1,0,0:0:0:40:Snare-H.wav
36,192,77692,1,0,0:0:0:100:Kick.wav
329,192,77692,1,0,0:0:0:60:Clap.wav
475,192,77692,1,0,0:0:0:40:Snare-H.wav
182,192,77772,1,0,0:0:0:40:Snare-H.wav
109,192,77852,1,0,0:0:0:40:Snare-H.wav
329,192,77852,1,0,0:0:0:0:
475,192,77932,1,0,0:0:0:40:Snare-H.wav
36,192,78012,1,0,0:0:0:100:Kick.wav
109,192,78012,1,0,0:0:0:40:Snare-H.wav
256,192,78012,1,0,0:0:0:0:
402,192,78091,1,0,0:0:0:40:Snare-H.wav
109,192,78171,1,0,0:0:0:40:Snare-H.wav
182,192,78251,1,0,0:0:0:40:Snare-H.wav
402,192,78251,1,0,0:0:0:0:
36,192,78331,1,0,0:0:0:60:Clap.wav
109,192,78331,1,0,0:0:0:100:Kick.wav
329,192,78331,1,0,0:0:0:40:Snare-H.wav
256,192,78410,1,0,0:0:0:40:Snare-H.wav
402,192,78490,1,0,0:0:0:40:Snare-H.wav
475,192,78490,1,0,0:0:0:0:
256,192,78570,1,0,0:0:0:40:Snare-H.wav
36,192,78650,1,0,0:0:0:100:Crash.wav
182,192,78650,1,0,0:0:0:100:Kick.wav
329,192,78650,1,0,0:0:0:40:Snare-H.wav
475,192,78650,1,0,0:0:0:0:
402,192,78730,1,0,0:0:0:40:Snare-H.wav
182,192,78809,1,0,0:0:0:40:Snare-H.wav
329,192,78889,1,0,0:0:0:40:Snare-H.wav
475,192,78889,1,0,0:0:0:0:
36,192,78969,1,0,0:0:0:60:Clap.wav
182,192,78969,1,0,0:0:0:100:Kick.wav
256,192,78969,1,0,0:0:0:40:Snare-H.wav
475,192,79049,1,0,0:0:0:40:Snare-H.wav
109,192,79129,1,0,0:0:0:40:Snare-H.wav
256,192,79129,1,0,0:0:0:0:
329,192,79208,1,0,0:0:0:40:Snare-H.wav
36,192,79288,1,0,0:0:0:100:Crash.wav
109,192,79288,1,0,0:0:0:100:Kick.wav
402,192,79288,1,0,0:0:0:40:Snare-H.wav
475,192,79288,1,0,0:0:0:0:
256,192,79368,1,0,0:0:0:40:Snare-H.wav
36,192,79448,1,0,0:0:0:40:Snare-H.wav
182,192,79448,1,0,0:0:0:0:
256,192,79528,1,0,0:0:0:100:Kick.wav
402,192,79528,1,0,0:0:0:40:Snare-H.wav
475,192,79528,1,0,0:0:0:0:
109,192,79607,1,0,0:0:0:60:Clap.wav
182,192,79607,1,0,0:0:0:40:Snare-H.wav
329,192,79607,1,0,0:0:0:0:
36,192,79687,1,0,0:0:0:40:Snare-H.wav
109,192,79767,1,0,0:0:0:100:Kick.wav
329,192,79767,1,0,0:0:0:40:Snare-H.wav
475,192,79767,1,0,0:0:0:0:
182,192,79847,1,0,0:0:0:40:Snare-H.wav
36,192,79926,1,0,0:0:0:100:Crash.wav
109,192,79926,1,0,0:0:0:60:Kick.wav
256,192,79926,1,0,0:0:0:40:Snare-H.wav
475,192,79926,1,0,0:0:0:0:
402,192,80006,1,0,0:0:0:40:Snare-H.wav
36,192,80086,1,0,0:0:0:60:Kick.wav
182,192,80086,1,0,0:0:0:40:Snare-H.wav
329,192,80086,1,0,0:0:0:0:
402,192,80166,1,0,0:0:0:40:Snare-H.wav
109,192,80246,1,0,0:0:0:100:Crash.wav
182,192,80246,1,0,0:0:0:60:Kick.wav
256,192,80246,1,0,0:0:0:40:Snare-H.wav
475,192,80246,1,0,0:0:0:0:
36,192,80325,1,0,0:0:0:40:Snare-H.wav
256,192,80405,1,0,0:0:0:60:Kick.wav
329,192,80405,1,0,0:0:0:40:Snare-H.wav
402,192,80405,1,0,0:0:0:0:
182,192,80485,1,0,0:0:0:40:Snare-H.wav
36,192,80565,1,0,0:0:0:100:Crash.wav
109,192,80565,1,0,0:0:0:100:Kick.wav
329,192,80565,1,0,0:0:0:40:Snare-H.wav
475,192,80565,1,0,0:0:0:0:
182,192,80645,1,0,0:0:0:100:Kick.wav
256,192,80645,1,0,0:0:0:40:Snare-H.wav
36,192,80724,1,0,0:0:0:100:Kick.wav
109,192,80724,1,0,0:0:0:40:Snare-H.wav
329,192,80724,1,0,0:0:0:0:
402,192,80804,1,0,0:0:0:100:Kick.wav
475,192,80804,1,0,0:0:0:40:Snare-H.wav
36,192,80884,1,0,0:0:0:100:Crash.wav
182,192,80884,1,0,0:0:0:100:Kick.wav
256,192,80884,1,0,0:0:0:40:Snare-H.wav
329,192,80884,1,0,0:0:0:0:
402,192,80964,1,0,0:0:0:100:Kick.wav
475,192,80964,1,0,0:0:0:40:Snare-H.wav
109,192,81043,1,0,0:0:0:100:Kick.wav
182,192,81043,1,0,0:0:0:40:Snare-H.wav
256,192,81043,1,0,0:0:0:0:
36,192,81123,1,0,0:0:0:100:Kick.wav
475,192,81123,1,0,0:0:0:40:Snare-H.wav
36,192,81363,1,0,0:0:0:100:Crash.wav
182,192,81363,1,0,0:0:0:100:Kick.wav
256,192,81363,1,0,0:0:0:0:
402,192,81363,1,0,0:0:0:0:
36,192,81682,1,0,0:0:0:100:Crash.wav
109,192,81682,1,0,0:0:0:100:Kick.wav
256,192,81682,1,0,0:0:0:0:
475,192,81682,1,0,0:0:0:0:
109,192,82001,1,0,0:0:0:100:Crash.wav
182,192,82001,1,0,0:0:0:100:Kick.wav
329,192,82001,1,0,0:0:0:0:
475,192,82001,1,0,0:0:0:0:
36,192,82160,1,0,0:0:0:70:Kick.wav
475,192,82160,1,0,0:0:0:0:
182,192,82200,1,0,0:0:0:70:Kick.wav
402,192,82240,1,0,0:0:0:70:Kick.wav
329,192,82280,1,0,0:0:0:70:Kick.wav
36,192,82320,1,0,0:0:0:70:Kick.wav
256,192,82320,1,0,0:0:0:0:
109,192,82360,1,0,0:0:0:70:Kick.wav
182,192,82400,1,0,0:0:0:70:Kick.wav
329,192,82440,1,0,0:0:0:70:Kick.wav
36,192,82480,1,0,0:0:0:100:Crash.wav
109,192,82480,1,0,0:0:0:100:Kick-Deep.wav
402,192,82480,128,0,83118:0:0:0:0:
475,192,82480,1,0,0:0:0:0:
182,192,82799,1,0,0:0:0:0:
475,192,82958,128,0,83118:0:0:0:0:
109,192,83118,128,0,83756:0:0:0:0:
329,192,83118,128,0,83278:0:0:0:0:
256,192,83278,128,0,83437:0:0:0:0:
329,192,83437,128,0,83597:0:0:0:0:
475,192,83437,1,0,0:0:0:0:
182,192,83597,128,0,83756:0:0:0:0:
36,192,83756,128,0,83916:0:0:0:0:
256,192,83756,128,0,84395:0:0:0:0:
329,192,83916,128,0,84075:0:0:0:0:
36,192,84075,128,0,84235:0:0:0:0:
475,192,84075,1,0,0:0:0:0:
182,192,84235,128,0,84395:0:0:0:0:
109,192,84395,128,0,84714:0:0:0:0:
402,192,84395,1,0,0:0:0:0:
329,192,84714,128,0,84793:0:0:0:0:
329,192,84873,128,0,85033:0:0:0:0:
36,192,85033,128,0,85671:0:0:0:0:
182,192,85033,128,0,85192:0:0:0:0:
329,192,85192,128,0,85352:0:0:0:0:
182,192,85352,1,0,0:0:0:0:
402,192,85352,128,0,85512:0:0:0:0:
256,192,85512,128,0,85671:0:0:0:0:
109,192,85671,128,0,85831:0:0:0:0:
402,192,85671,128,0,86309:0:0:0:0:
256,192,85831,1,0,0:0:0:0:
182,192,85937,1,0,0:0:0:0:
109,192,85964,1,0,0:0:0:0:
36,192,85990,128,0,86150:0:0:0:0:
475,192,85990,1,0,0:0:0:0:
256,192,86150,128,0,86309:0:0:0:0:
36,192,86309,128,0,86469:0:0:0:0:
329,192,86309,128,0,86629:0:0:0:0:
182,192,86469,128,0,86629:0:0:0:0:
109,192,86629,128,0,86788:0:0:0:0:
256,192,86629,1,0,0:0:0:0:
36,192,86788,128,0,86948:0:0:0:0:
329,192,86788,1,0,0:0:0:0:
256,192,86948,128,0,87107:0:0:0:0:
402,192,86948,128,0,87267:0:0:0:0:
475,192,87267,128,0,87586:0:0:0:0:
182,192,87426,128,0,87586:0:0:0:0:
36,192,87586,128,0,88224:0:0:0:0:
329,192,87586,128,0,87905:0:0:0:0:
182,192,87905,1,0,0:0:0:0:
402,192,88065,128,0,88224:0:0:0:0:
329,192,88224,128,0,88384:0:0:0:0:
475,192,88224,128,0,88863:0:0:0:0:
256,192,88384,128,0,88543:0:0:0:0:
182,192,88543,128,0,88703:0:0:0:0:
402,192,88543,1,0,0:0:0:0:
109,192,88703,128,0,88863:0:0:0:0:
36,192,88863,128,0,89501:0:0:0:0:
256,192,88863,128,0,89022:0:0:0:0:
402,192,89022,128,0,89182:0:0:0:0:
182,192,89182,128,0,89341:0:0:0:0:
475,192,89182,1,0,0:0:0:0:
329,192,89341,128,0,89501:0:0:0:0:
109,192,89501,128,0,89820:0:0:0:0:
475,192,89501,128,0,90139:0:0:0:0:
182,192,89820,128,0,89900:0:0:0:0:
182,192,89980,128,0,90139:0:0:0:0:
36,192,90139,128,0,90778:0:0:0:0:
256,192,90139,128,0,90299:0:0:0:0:
329,192,90299,128,0,90458:0:0:0:0:
182,192,90458,1,0,0:0:0:0:
402,192,90458,128,0,90618:0:0:0:0:
329,192,90618,128,0,90778:0:0:0:0:
109,192,90778,128,0,90937:0:0:0:0:
475,192,90778,128,0,91416:0:0:0:0:
182,192,90937,128,0,91097:0:0:0:0:
36,192,91097,1,0,0:0:0:0:
256,192,91097,128,0,91256:0:0:0:0:
329,192,91256,128,0,91416:0:0:0:0:
182,192,91416,1,0,0:0:0:0:
402,192,91416,128,0,92054:0:0:0:0:
36,192,91735,1,0,0:0:0:0:
329,192,91895,128,0,91974:0:0:0:0:
182,192,91974,128,0,92054:0:0:0:0:
329,192,92054,128,0,92373:0:0:0:0:
402,192,92373,128,0,92692:0:0:0:0:
36,192,92692,1,0,0:0:0:70:Crash.wav
182,192,92692,1,0,0:0:0:70:Kick.wav
256,192,92692,1,0,0:0:0:0:
475,192,92692,1,0,0:0:0:0:
182,192,92852,1,0,0:0:0:0:
36,192,93012,1,0,0:0:0:70:Kick.wav
329,192,93012,1,0,0:0:0:0:
329,192,93171,1,0,0:0:0:0:
36,192,93331,1,0,0:0:0:100:Clap.wav
256,192,93331,1,0,0:0:0:0:
475,192,93331,1,0,0:0:0:0:
182,192,93650,1,0,0:0:0:0:
329,192,93809,1,0,0:0:0:70:Kick.wav
402,192,93809,1,0,0:0:0:0:
182,192,93969,1,0,0:0:0:0:
402,192,94129,1,0,0:0:0:0:
36,192,94288,1,0,0:0:0:70:Kick.wav
256,192,94288,1,0,0:0:0:0:
36,192,94607,1,0,0:0:0:100:Clap.wav
329,192,94607,1,0,0:0:0:0:
475,192,94607,1,0,0:0:0:0:
182,192,94926,1,0,0:0:0:0:
182,192,95086,1,0,0:0:0:0:
36,192,95246,1,0,0:0:0:70:Crash.wav
109,192,95246,1,0,0:0:0:70:Kick.wav
329,192,95246,1,0,0:0:0:0:
402,192,95246,1,0,0:0:0:0:
402,192,95405,1,0,0:0:0:0:
36,192,95565,1,0,0:0:0:70:Kick.wav
256,192,95565,1,0,0:0:0:0:
36,192,95724,1,0,0:0:0:0:
109,192,95884,1,0,0:0:0:100:Clap.wav
329,192,95884,1,0,0:0:0:0:
475,192,95884,1,0,0:0:0:0:
256,192,96203,1,0,0:0:0:0:
109,192,96363,1,0,0:0:0:70:Kick.wav
402,192,96363,1,0,0:0:0:0:
182,192,96522,1,0,0:0:0:0:
402,192,96682,1,0,0:0:0:0:
36,192,96841,1,0,0:0:0:70:Kick.wav
182,192,96841,1,0,0:0:0:0:
182,192,97160,1,0,0:0:0:100:Clap.wav
329,192,97160,1,0,0:0:0:0:
402,192,97160,1,0,0:0:0:0:
109,192,97480,1,0,0:0:0:70:Kick.wav
329,192,97480,1,0,0:0:0:0:
109,192,97799,1,0,0:0:0:70:Crash.wav
256,192,97799,1,0,0:0:0:70:Kick.wav
402,192,97799,1,0,0:0:0:0:
475,192,97799,1,0,0:0:0:0:
182,192,97958,1,0,0:0:0:70:Hithat.wav
36,192,98118,1,0,0:0:0:70:Kick.wav
329,192,98118,1,0,0:0:0:0:
182,192,98278,1,0,0:0:0:70:Hithat.wav
329,192,98357,1,0,0:0:0:70:Hithat.wav
36,192,98437,1,0,0:0:0:100:Clap.wav
256,192,98437,1,0,0:0:0:70:Hithat.wav
475,192,98437,1,0,0:0:0:0:
182,192,98597,1,0,0:0:0:70:Hithat.wav
402,192,98756,1,0,0:0:0:70:Hithat.wav
256,192,98836,1,0,0:0:0:70:Hithat.wav
36,192,98916,1,0,0:0:0:70:Kick.wav
109,192,98916,1,0,0:0:0:70:Hithat.wav
36,192,99075,1,0,0:0:0:70:Crash.wav
182,192,99075,1,0,0:0:0:0:
402,192,99075,1,0,0:0:0:0:
475,192,99075,1,0,0:0:0:0:
329,192,99235,1,0,0:0:0:70:Hithat.wav
109,192,99395,1,0,0:0:0:70:Kick.wav
256,192,99395,1,0,0:0:0:0:
329,192,99554,1,0,0:0:0:70:Hithat.wav
402,192,99634,1,0,0:0:0:70:Hithat.wav
36,192,99714,1,0,0:0:0:100:Clap.wav
256,192,99714,1,0,0:0:0:70:Hithat.wav
475,192,99714,1,0,0:0:0:0:
36,192,99873,1,0,0:0:0:100:Clap.wav
256,192,99873,1,0,0:0:0:70:Hithat.wav
475,192,99873,1,0,0:0:0:0:
182,192,100033,1,0,0:0:0:70:Hithat.wav
329,192,100113,1,0,0:0:0:70:Hithat.wav
182,192,100192,1,0,0:0:0:70:Hithat.wav
36,192,100352,1,0,0:0:0:70:Crash.wav
182,192,100352,1,0,0:0:0:70:Kick.wav
256,192,100352,1,0,0:0:0:0:
402,192,100352,1,0,0:0:0:0:
329,192,100512,1,0,0:0:0:70:Hithat.wav
182,192,100671,1,0,0:0:0:70:Hithat.wav
329,192,100831,1,0,0:0:0:70:Hithat.wav
182,192,100910,1,0,0:0:0:70:Hithat.wav
36,192,100990,1,0,0:0:0:70:Crash.wav
256,192,100990,1,0,0:0:0:70:Kick.wav
402,192,100990,1,0,0:0:0:70:Hithat.wav
475,192,100990,1,0,0:0:0:0:
182,192,101150,1,0,0:0:0:70:Hithat.wav
329,192,101309,1,0,0:0:0:70:Hithat.wav
182,192,101389,1,0,0:0:0:70:Hithat.wav
329,192,101469,1,0,0:0:0:70:Hithat.wav
475,192,101549,1,0,0:0:0:70:Hithat.wav
36,192,101629,1,0,0:0:0:70:Crash.wav
109,192,101629,1,0,0:0:0:70:Kick.wav
256,192,101629,1,0,0:0:0:70:Hithat.wav
329,192,101629,1,0,0:0:0:0:
36,192,101948,1,0,0:0:0:70:Crash.wav
182,192,101948,1,0,0:0:0:70:Kick.wav
329,192,101948,1,0,0:0:0:0:
402,192,101948,1,0,0:0:0:0:
256,192,102267,1,0,0:0:0:70:Crash.wav
329,192,102267,1,0,0:0:0:70:Kick.wav
402,192,102267,1,0,0:0:0:0:
475,192,102267,1,0,0:0:0:0:
36,192,102586,128,0,102746:0:0:0:100:Clap_old.wav
329,192,102586,1,0,0:0:0:0:
402,192,102586,1,0,0:0:0:0:
182,192,102666,128,0,102825:0:0:0:0:
329,192,102746,128,0,102905:0:0:0:0:
475,192,102825,128,0,102905:0:0:0:0:
36,192,102905,128,0,102985:0:0:0:70:Crash.wav
109,192,102905,1,0,0:0:0:100:Kick.wav
256,192,102905,128,0,102985:0:0:0:0:
402,192,102905,1,0,0:0:0:0:
36,192,103065,128,0,103145:0:0:0:0:
256,192,103065,128,0,103145:0:0:0:0:
36,192,103224,128,0,103384:0:0:0:100:Kick.wav
256,192,103224,128,0,103543:0:0:0:60:Clap.wav
475,192,103224,1,0,0:0:0:0:
402,192,103384,128,0,103543:0:0:0:0:
36,192,103543,128,0,103783:0:0:0:100:Kick.wav
182,192,103543,128,0,103783:0:0:0:0:
475,192,103543,1,0,0:0:0:0:
329,192,103703,1,0,0:0:0:0:
256,192,103783,128,0,103942:0:0:0:0:
475,192,103783,128,0,103942:0:0:0:0:
36,192,103863,1,0,0:0:0:100:Kick.wav
109,192,103863,1,0,0:0:0:60:Clap.wav
182,192,103863,1,0,0:0:0:0:
256,192,104022,128,0,104102:0:0:0:0:
475,192,104022,128,0,104102:0:0:0:0:
182,192,104182,128,0,104262:0:0:0:100:Kick.wav
329,192,104182,1,0,0:0:0:0:
475,192,104182,128,0,104262:0:0:0:0:
182,192,104341,128,0,104421:0:0:0:0:
475,192,104341,128,0,104421:0:0:0:0:
36,192,104501,1,0,0:0:0:100:Kick.wav
182,192,104501,128,0,104660:0:0:0:60:Clap.wav
475,192,104501,128,0,104820:0:0:0:0:
329,192,104660,128,0,104820:0:0:0:0:
36,192,104820,128,0,105059:0:0:0:100:Kick.wav
109,192,104820,128,0,105059:0:0:0:0:
256,192,104820,1,0,0:0:0:0:
329,192,104980,1,0,0:0:0:0:
182,192,105059,128,0,105139:0:0:0:0:
475,192,105059,128,0,105139:0:0:0:0:
109,192,105139,1,0,0:0:0:100:Kick.wav
256,192,105139,128,0,105219:0:0:0:60:Clap.wav
402,192,105139,128,0,105219:0:0:0:0:
109,192,105299,1,0,0:0:0:100:Kick.wav
256,192,105299,128,0,105379:0:0:0:0:
402,192,105299,128,0,105379:0:0:0:0:
109,192,105458,128,0,105538:0:0:0:100:Kick.wav
329,192,105458,128,0,105538:0:0:0:0:
402,192,105458,1,0,0:0:0:0:
109,192,105618,128,0,105698:0:0:0:0:
329,192,105618,128,0,105698:0:0:0:0:
109,192,105778,128,0,106097:0:0:0:100:Kick.wav
329,192,105778,128,0,105937:0:0:0:60:Clap.wav
475,192,105778,1,0,0:0:0:0:
256,192,105937,128,0,106097:0:0:0:0:
36,192,106097,128,0,106336:0:0:0:100:Kick.wav
402,192,106097,1,0,0:0:0:0:
475,192,106097,128,0,106336:0:0:0:0:
182,192,106256,1,0,0:0:0:0:
256,192,106336,128,0,106496:0:0:0:0:
329,192,106336,128,0,106496:0:0:0:0:
36,192,106416,1,0,0:0:0:100:Kick.wav
109,192,106416,1,0,0:0:0:60:Clap.wav
475,192,106416,1,0,0:0:0:0:
256,192,106575,128,0,106655:0:0:0:0:
329,192,106575,128,0,106655:0:0:0:0:
36,192,106735,1,0,0:0:0:100:Kick.wav
109,192,106735,1,0,0:0:0:0:
329,192,106735,128,0,107054:0:0:0:0:
182,192,106895,128,0,107214:0:0:0:0:
475,192,106895,128,0,107054:0:0:0:0:
36,192,107054,128,0,107373:0:0:0:100:Kick.wav
109,192,107054,128,0,107214:0:0:0:60:Clap.wav
256,192,107054,1,0,0:0:0:0:
329,192,107214,128,0,107373:0:0:0:0:
402,192,107214,128,0,107373:0:0:0:0:
182,192,107373,128,0,107533:0:0:0:100:Kick.wav
256,192,107373,1,0,0:0:0:0:
475,192,107373,128,0,107533:0:0:0:0:
36,192,107533,128,0,107692:0:0:0:0:
182,192,107613,128,0,107772:0:0:0:0:
256,192,107613,128,0,107772:0:0:0:0:
329,192,107692,1,0,0:0:0:100:Kick.wav
402,192,107692,1,0,0:0:0:60:Clap.wav
475,192,107692,1,0,0:0:0:0:
36,192,107772,128,0,107932:0:0:0:0:
182,192,107852,1,0,0:0:0:100:Kick.wav
256,192,107852,128,0,107932:0:0:0:0:
329,192,107932,1,0,0:0:0:100:Kick.wav
475,192,107932,128,0,108012:0:0:0:0:
36,192,108012,128,0,108490:0:0:0:100:Kick.wav
182,192,108012,1,0,0:0:0:0:
256,192,108012,128,0,108171:0:0:0:0:
402,192,108171,128,0,108331:0:0:0:0:
109,192,108331,128,0,108490:0:0:0:100:Kick.wav
182,192,108331,128,0,108490:0:0:0:60:Clap.wav
256,192,108331,1,0,0:0:0:0:
402,192,108490,128,0,108650:0:0:0:0:
475,192,108490,128,0,108969:0:0:0:0:
36,192,108650,1,0,0:0:0:100:Kick.wav
109,192,108650,128,0,108809:0:0:0:0:
182,192,108650,1,0,0:0:0:0:
256,192,108809,128,0,108969:0:0:0:0:
402,192,108809,128,0,108969:0:0:0:0:
36,192,108969,128,0,109448:0:0:0:100:Kick.wav
109,192,108969,128,0,109129:0:0:0:60:Clap.wav
329,192,108969,1,0,0:0:0:0:
402,192,109129,128,0,109288:0:0:0:0:
109,192,109288,128,0,109448:0:0:0:100:Kick.wav
182,192,109288,1,0,0:0:0:0:
256,192,109288,128,0,109607:0:0:0:0:
329,192,109448,128,0,109926:0:0:0:0:
475,192,109448,128,0,109607:0:0:0:0:
36,192,109607,1,0,0:0:0:100:Kick.wav
109,192,109607,128,0,109767:0:0:0:60:Clap.wav
182,192,109607,1,0,0:0:0:0:
402,192,109767,128,0,110086:0:0:0:0:
475,192,109767,128,0,109926:0:0:0:0:
36,192,109926,128,0,110086:0:0:0:100:Kick.wav
182,192,109926,128,0,110246:0:0:0:0:
256,192,109926,1,0,0:0:0:0:
109,192,110086,128,0,110246:0:0:0:0:
475,192,110086,128,0,110246:0:0:0:0:
256,192,110246,1,0,0:0:0:100:Kick.wav
329,192,110246,128,0,110565:0:0:0:60:Clap.wav
402,192,110246,128,0,110405:0:0:0:0:
109,192,110405,128,0,110565:0:0:0:0:
182,192,110405,1,0,0:0:0:0:
256,192,110485,1,0,0:0:0:0:
36,192,110565,1,0,0:0:0:100:Kick.wav
402,192,110565,1,0,0:0:0:0:
475,192,110565,128,0,110884:0:0:0:0:
182,192,110724,1,0,0:0:0:100:Kick.wav
329,192,110724,1,0,0:0:0:0:
402,192,110724,128,0,111043:0:0:0:0:
109,192,110884,1,0,0:0:0:100:Kick.wav
256,192,110884,1,0,0:0:0:60:Clap.wav
329,192,110884,128,0,111203:0:0:0:0:
36,192,111043,1,0,0:0:0:100:Kick.wav
182,192,111043,1,0,0:0:0:0:
256,192,111043,128,0,111363:0:0:0:0:
36,192,111203,128,0,111522:0:0:0:100:Kick.wav
109,192,111203,1,0,0:0:0:0:
475,192,111203,1,0,0:0:0:0:
109,192,111363,128,0,111682:0:0:0:100:Kick.wav
182,192,111363,1,0,0:0:0:0:
329,192,111363,1,0,0:0:0:0:
182,192,111522,128,0,111841:0:0:0:100:Kick.wav
256,192,111522,1,0,0:0:0:60:Clap.wav
402,192,111522,1,0,0:0:0:0:
256,192,111682,128,0,112001:0:0:0:100:Kick.wav
329,192,111682,1,0,0:0:0:0:
475,192,111682,1,0,0:0:0:0:
36,192,111841,1,0,0:0:0:100:Kick.wav
475,192,111841,128,0,112081:0:0:0:0:
402,192,111841,128,0,112320:0:0:0:0:
182,192,112001,1,0,0:0:0:0:
36,192,112081,128,0,112480:0:0:0:100:Kick.wav
109,192,112081,128,0,112320:0:0:0:0:
256,192,112160,1,0,0:0:0:60:Clap.wav
329,192,112160,1,0,0:0:0:0:
182,192,112320,1,0,0:0:0:70:Kick.wav
256,192,112360,1,0,0:0:0:70:Kick.wav
329,192,112400,1,0,0:0:0:70:Kick.wav
402,192,112440,1,0,0:0:0:70:Kick.wav
109,192,112480,1,0,0:0:0:70:Kick.wav
256,192,112480,128,0,112719:0:0:0:0:
475,192,112480,128,0,112958:0:0:0:0:
402,192,112639,1,0,0:0:0:70:Kick.wav
182,192,112719,128,0,113118:0:0:0:0:
36,192,112719,128,0,112958:0:0:0:100:Kick.wav
402,192,112799,1,0,0:0:0:60:Clap.wav
329,192,112799,1,0,0:0:0:0:
256,192,112958,1,0,0:0:0:70:Kick.wav
329,192,112998,1,0,0:0:0:70:Kick.wav
402,192,113038,1,0,0:0:0:70:Kick.wav
475,192,113078,1,0,0:0:0:70:Kick.wav
36,192,113118,1,0,0:0:0:0:
109,192,113278,1,0,0:0:0:100:Kick.wav
182,192,113278,1,0,0:0:0:0:
402,192,113278,1,0,0:0:0:0:
256,192,113357,1,0,0:0:0:100:Kick.wav
329,192,113357,1,0,0:0:0:0:
109,192,113437,1,0,0:0:0:100:Crash.wav
182,192,113437,128,0,113756:0:0:0:100:Kick.wav
402,192,113437,128,0,113597:0:0:0:60:Clap.wav
475,192,113437,1,0,0:0:0:0:
329,192,113597,128,0,113756:0:0:0:0:
36,192,113756,128,0,113996:0:0:0:100:Kick.wav
256,192,113756,128,0,113996:0:0:0:0:
475,192,113756,1,0,0:0:0:0:
402,192,113916,1,0,0:0:0:0:
182,192,113996,128,0,114155:0:0:0:0:
475,192,113996,128,0,114155:0:0:0:0:
36,192,114075,1,0,0:0:0:100:Kick.wav
256,192,114075,1,0,0:0:0:100:Clap.wav
329,192,114075,1,0,0:0:0:0:
182,192,114235,128,0,114315:0:0:0:0:
475,192,114235,128,0,114315:0:0:0:0:
182,192,114395,1,0,0:0:0:100:Kick.wav
256,192,114395,128,0,114474:0:0:0:0:
402,192,114395,128,0,114474:0:0:0:0:
256,192,114554,128,0,114634:0:0:0:0:
402,192,114554,128,0,114634:0:0:0:0:
36,192,114714,1,0,0:0:0:100:Clap.wav
256,192,114714,128,0,115033:0:0:0:100:Kick.wav
402,192,114714,128,0,114873:0:0:0:0:
109,192,114873,128,0,115033:0:0:0:0:
36,192,115033,1,0,0:0:0:100:Kick.wav
329,192,115033,128,0,115272:0:0:0:0:
475,192,115033,128,0,115272:0:0:0:0:
182,192,115192,1,0,0:0:0:0:
109,192,115272,128,0,115352:0:0:0:0:
256,192,115272,128,0,115352:0:0:0:0:
36,192,115352,128,0,115432:0:0:0:100:Clap.wav
402,192,115352,128,0,115432:0:0:0:100:Kick.wav
475,192,115352,1,0,0:0:0:0:
36,192,115512,128,0,115591:0:0:0:100:Kick.wav
256,192,115512,1,0,0:0:0:0:
402,192,115512,128,0,115591:0:0:0:0:
36,192,115671,1,0,0:0:0:100:Crash.wav
256,192,115671,128,0,115910:0:0:0:100:Kick.wav
402,192,115671,1,0,0:0:0:0:
475,192,115671,128,0,115910:0:0:0:0:
182,192,115831,1,0,0:0:0:0:
109,192,115910,128,0,116150:0:0:0:0:
329,192,115910,128,0,116150:0:0:0:0:
36,192,115990,1,0,0:0:0:100:Kick.wav
256,192,115990,1,0,0:0:0:100:Clap.wav
475,192,115990,128,0,116150:0:0:0:0:
182,192,116150,128,0,116230:0:0:0:0:
402,192,116150,128,0,116230:0:0:0:0:
182,192,116309,1,0,0:0:0:100:Kick.wav
256,192,116309,128,0,116549:0:0:0:0:
402,192,116309,128,0,116549:0:0:0:0:
36,192,116469,1,0,0:0:0:0:
109,192,116549,128,0,116788:0:0:0:0:
475,192,116549,128,0,116788:0:0:0:0:
256,192,116629,128,0,116788:0:0:0:100:Kick.wav
329,192,116629,1,0,0:0:0:100:Clap.wav
402,192,116629,1,0,0:0:0:0:
36,192,116788,128,0,116868:0:0:0:0:
182,192,116788,128,0,116868:0:0:0:0:
36,192,116948,1,0,0:0:0:100:Crash.wav
182,192,116948,1,0,0:0:0:100:Kick.wav
256,192,116948,1,0,0:0:0:0:
475,192,116948,128,0,117267:0:0:0:0:
109,192,117107,1,0,0:0:0:100:Kick.wav
182,192,117107,128,0,117426:0:0:0:0:
329,192,117107,1,0,0:0:0:0:
36,192,117267,1,0,0:0:0:100:Clap.wav
109,192,117267,1,0,0:0:0:100:Kick.wav
329,192,117267,128,0,117586:0:0:0:0:
256,192,117426,1,0,0:0:0:100:Kick.wav
402,192,117426,1,0,0:0:0:0:
475,192,117426,128,0,117746:0:0:0:0:
36,192,117586,128,0,117746:0:0:0:100:Crash.wav
109,192,117586,1,0,0:0:0:100:Kick.wav
182,192,117586,1,0,0:0:0:0:
256,192,117586,128,0,117746:0:0:0:0:
329,192,117746,1,0,0:0:0:0:
36,192,117825,128,0,117985:0:0:0:100:Crash.wav
256,192,117825,128,0,117985:0:0:0:100:Kick.wav
402,192,117825,1,0,0:0:0:0:
475,192,117825,1,0,0:0:0:0:
329,192,117985,1,0,0:0:0:0:
36,192,118065,128,0,118224:0:0:0:100:Crash.wav
182,192,118065,1,0,0:0:0:100:Kick.wav
402,192,118065,1,0,0:0:0:0:
475,192,118065,1,0,0:0:0:0:
329,192,118145,1,0,0:0:0:0:
109,192,118224,1,0,0:0:0:100:Crash.wav
182,192,118224,1,0,0:0:0:100:Kick.wav
256,192,118224,1,0,0:0:0:40:Snare-H.wav
475,192,118224,1,0,0:0:0:0:
402,192,118304,1,0,0:0:0:40:Snare-H.wav
36,192,118384,1,0,0:0:0:100:Kick.wav
109,192,118384,1,0,0:0:0:40:Snare-H.wav
256,192,118384,1,0,0:0:0:0:
329,192,118464,1,0,0:0:0:40:Snare-H.wav
182,192,118543,1,0,0:0:0:100:Kick.wav
402,192,118543,1,0,0:0:0:100:Clap.wav
475,192,118543,1,0,0:0:0:40:Snare-H.wav
109,192,118623,1,0,0:0:0:40:Snare-H.wav
36,192,118703,1,0,0:0:0:100:Kick.wav
256,192,118703,1,0,0:0:0:40:Snare-H.wav
475,192,118703,1,0,0:0:0:0:
402,192,118783,1,0,0:0:0:40:Snare-H.wav
36,192,118863,1,0,0:0:0:100:Kick.wav
256,192,118863,1,0,0:0:0:100:Crash.wav
329,192,118863,1,0,0:0:0:40:Snare-H.wav
109,192,118942,1,0,0:0:0:40:Snare-H.wav
182,192,119022,1,0,0:0:0:100:Kick.wav
402,192,119022,1,0,0:0:0:40:Snare-H.wav
109,192,119102,1,0,0:0:0:40:Snare-H.wav
329,192,119102,1,0,0:0:0:0:
256,192,119182,1,0,0:0:0:100:Kick.wav
402,192,119182,1,0,0:0:0:100:Clap.wav
475,192,119182,1,0,0:0:0:40:Snare-H.wav
36,192,119262,1,0,0:0:0:40:Snare-H.wav
109,192,119341,1,0,0:0:0:100:Kick.wav
182,192,119341,1,0,0:0:0:40:Snare-H.wav
329,192,119341,1,0,0:0:0:0:
402,192,119421,1,0,0:0:0:100:Kick.wav
475,192,119421,1,0,0:0:0:40:Snare-H.wav
36,192,119501,1,0,0:0:0:100:Crash.wav
109,192,119501,1,0,0:0:0:100:Kick.wav
182,192,119501,1,0,0:0:0:40:Snare-H.wav
256,192,119501,1,0,0:0:0:0:
402,192,119581,1,0,0:0:0:40:Snare-H.wav
36,192,119660,1,0,0:0:0:100:Kick.wav
256,192,119660,1,0,0:0:0:40:Snare-H.wav
402,192,119740,1,0,0:0:0:40:Snare-H.wav
475,192,119740,1,0,0:0:0:0:
109,192,119820,1,0,0:0:0:100:Clap.wav
182,192,119820,1,0,0:0:0:100:Kick.wav
329,192,119820,1,0,0:0:0:40:Snare-H.wav
256,192,119900,1,0,0:0:0:40:Snare-H.wav
36,192,119980,1,0,0:0:0:100:Kick.wav
182,192,119980,1,0,0:0:0:40:Snare-H.wav
402,192,119980,1,0,0:0:0:0:
256,192,120059,1,0,0:0:0:100:Kick.wav
329,192,120059,1,0,0:0:0:40:Snare-H.wav
36,192,120139,1,0,0:0:0:100:Crash.wav
109,192,120139,1,0,0:0:0:100:Kick.wav
402,192,120139,1,0,0:0:0:40:Snare-H.wav
475,192,120139,1,0,0:0:0:0:
182,192,120219,1,0,0:0:0:40:Snare-H.wav
256,192,120299,1,0,0:0:0:100:Kick.wav
475,192,120299,1,0,0:0:0:40:Snare-H.wav
182,192,120379,1,0,0:0:0:40:Snare-H.wav
402,192,120379,1,0,0:0:0:0:
36,192,120458,1,0,0:0:0:100:Clap.wav
109,192,120458,1,0,0:0:0:100:Kick.wav
329,192,120458,1,0,0:0:0:40:Snare-H.wav
402,192,120538,1,0,0:0:0:100:Kick.wav
475,192,120538,1,0,0:0:0:40:Snare-H.wav
36,192,120618,1,0,0:0:0:100:Kick.wav
109,192,120618,1,0,0:0:0:40:Snare-H.wav
182,192,120618,1,0,0:0:0:0:
256,192,120698,1,0,0:0:0:40:Snare-H.wav
329,192,120698,1,0,0:0:0:0:
109,192,120778,1,0,0:0:0:100:Crash.wav
182,192,120778,1,0,0:0:0:100:Kick.wav
402,192,120778,1,0,0:0:0:40:Snare-H.wav
475,192,120778,1,0,0:0:0:0:
36,192,120857,1,0,0:0:0:40:Snare-H.wav
256,192,120857,1,0,0:0:0:100:Kick.wav
329,192,120937,1,0,0:0:0:100:Kick.wav
475,192,120937,1,0,0:0:0:40:Snare-H.wav
109,192,121017,1,0,0:0:0:40:Snare-H.wav
182,192,121017,1,0,0:0:0:100:Kick.wav
36,192,121097,1,0,0:0:0:100:Crash.wav
256,192,121097,1,0,0:0:0:100:Kick.wav
475,192,121097,1,0,0:0:0:40:Snare-H.wav
329,192,121176,1,0,0:0:0:40:Snare-H.wav
402,192,121176,1,0,0:0:0:100:Kick.wav
36,192,121256,1,0,0:0:0:100:Kick.wav
182,192,121256,1,0,0:0:0:40:Snare-H.wav
256,192,121336,1,0,0:0:0:40:Snare-H.wav
402,192,121336,1,0,0:0:0:100:Kick.wav
36,192,121416,1,0,0:0:0:100:Kick.wav
109,192,121416,1,0,0:0:0:100:Crash.wav
475,192,121416,1,0,0:0:0:0:
182,192,121496,1,0,0:0:0:0:
329,192,121575,1,0,0:0:0:0:
36,192,121655,1,0,0:0:0:100:Kick.wav
402,192,121655,1,0,0:0:0:0:
475,192,121655,1,0,0:0:0:0:
182,192,121735,1,0,0:0:0:100:Crash.wav
329,192,121815,1,0,0:0:0:0:
36,192,121895,1,0,0:0:0:100:Kick.wav
109,192,121895,1,0,0:0:0:0:
475,192,121895,1,0,0:0:0:0:
329,192,121974,1,0,0:0:0:0:
36,192,122214,1,0,0:0:0:100:Crash.wav
109,192,122214,1,0,0:0:0:100:Kick.wav
182,192,122214,1,0,0:0:0:0:
329,192,122214,1,0,0:0:0:0:
36,192,122453,1,0,0:0:0:100:Crash.wav
109,192,122453,1,0,0:0:0:100:Kick.wav
256,192,122453,1,0,0:0:0:0:
402,192,122453,1,0,0:0:0:0:
109,192,122692,1,0,0:0:0:100:Crash.wav
182,192,122692,1,0,0:0:0:100:Kick.wav
256,192,122692,1,0,0:0:0:0:
402,192,122692,1,0,0:0:0:0:
109,192,122932,1,0,0:0:0:100:Crash.wav
256,192,122932,1,0,0:0:0:100:Kick.wav
329,192,122932,1,0,0:0:0:0:
475,192,122932,1,0,0:0:0:0:
36,192,123171,1,0,0:0:0:100:Crash.wav
182,192,123171,1,0,0:0:0:100:Kick.wav
256,192,123171,1,0,0:0:0:0:
329,192,123171,1,0,0:0:0:0:
402,192,123251,1,0,0:0:0:100:Kick.wav
475,192,123251,1,0,0:0:0:0:
36,192,123490,1,0,0:0:0:100:Crash.wav
109,192,123490,1,0,0:0:0:100:Kick.wav
256,192,123490,1,0,0:0:0:0:
329,192,123490,1,0,0:0:0:0:
36,192,123730,1,0,0:0:0:100:Crash.wav
182,192,123730,1,0,0:0:0:100:Kick.wav
329,192,123730,1,0,0:0:0:0:
402,192,123730,1,0,0:0:0:0:
36,192,123969,1,0,0:0:0:100:Crash.wav
182,192,123969,1,0,0:0:0:100:Kick.wav
329,192,123969,1,0,0:0:0:0:
475,192,123969,1,0,0:0:0:0:
109,192,124208,1,0,0:0:0:100:Crash.wav
182,192,124208,1,0,0:0:0:100:Kick.wav
329,192,124208,1,0,0:0:0:0:
475,192,124208,1,0,0:0:0:0:
256,192,124448,1,0,0:0:0:70:Kick.wav
402,192,124448,1,0,0:0:0:0:
475,192,124448,1,0,0:0:0:0:
36,192,124488,1,0,0:0:0:70:Kick.wav
109,192,124528,1,0,0:0:0:70:Kick.wav
182,192,124567,1,0,0:0:0:70:Kick.wav
256,192,124607,128,0,124767:0:0:0:100:Kick.wav
329,192,124607,1,0,0:0:0:100:Crash.wav
402,192,124607,128,0,124926:0:0:0:0:
475,192,124607,1,0,0:0:0:0:
109,192,124767,128,0,124926:0:0:0:0:
256,192,124847,128,0,124926:0:0:0:0:
36,192,124926,1,0,0:0:0:100:Kick.wav
182,192,124926,128,0,125086:0:0:0:100:Clap.wav
329,192,124926,128,0,125086:0:0:0:0:
402,192,125086,128,0,125246:0:0:0:0:
475,192,125086,128,0,125405:0:0:0:0:
36,192,125246,128,0,125485:0:0:0:100:Kick.wav
109,192,125246,1,0,0:0:0:0:
182,192,125246,128,0,125485:0:0:0:0:
329,192,125405,128,0,125485:0:0:0:0:
402,192,125485,128,0,125724:0:0:0:0:
475,192,125485,128,0,125724:0:0:0:0:
36,192,125565,1,0,0:0:0:100:Kick.wav
182,192,125565,128,0,125724:0:0:0:100:Clap.wav
256,192,125565,1,0,0:0:0:0:
36,192,125724,128,0,125884:0:0:0:0:
329,192,125724,128,0,125884:0:0:0:0:
109,192,125884,128,0,126203:0:0:0:100:Kick.wav
256,192,125884,1,0,0:0:0:0:
402,192,125884,128,0,126043:0:0:0:0:
182,192,126043,128,0,126203:0:0:0:0:
329,192,126043,128,0,126363:0:0:0:0:
36,192,126203,128,0,126442:0:0:0:100:Clap.wav
256,192,126203,1,0,0:0:0:100:Kick.wav
475,192,126203,128,0,126442:0:0:0:0:
182,192,126363,128,0,126442:0:0:0:0:
256,192,126442,128,0,127001:0:0:0:0:
329,192,126442,128,0,127001:0:0:0:0:
36,192,126522,1,0,0:0:0:100:Kick.wav
182,192,126522,1,0,0:0:0:0:
475,192,126522,1,0,0:0:0:0:
109,192,126682,128,0,126841:0:0:0:0:
36,192,126841,1,0,0:0:0:100:Clap.wav
402,192,126841,1,0,0:0:0:100:Kick.wav
475,192,126841,1,0,0:0:0:0:
109,192,127001,1,0,0:0:0:0:
329,192,127081,1,0,0:0:0:0:
182,192,127160,1,0,0:0:0:100:Kick.wav
256,192,127160,128,0,127320:0:0:0:0:
475,192,127160,128,0,127480:0:0:0:0:
109,192,127320,128,0,127480:0:0:0:0:
256,192,127400,128,0,127480:0:0:0:0:
36,192,127480,128,0,127639:0:0:0:100:Kick.wav
182,192,127480,1,0,0:0:0:100:Clap.wav
329,192,127480,128,0,127639:0:0:0:0:
256,192,127639,128,0,127799:0:0:0:0:
475,192,127639,128,0,127958:0:0:0:0:
36,192,127799,128,0,128038:0:0:0:100:Kick.wav
182,192,127799,1,0,0:0:0:0:
329,192,127799,128,0,128038:0:0:0:0:
109,192,127958,128,0,128038:0:0:0:0:
402,192,128038,128,0,128278:0:0:0:0:
475,192,128038,128,0,128278:0:0:0:0:
36,192,128118,128,0,128278:0:0:0:100:Kick.wav
182,192,128118,1,0,0:0:0:100:Clap.wav
329,192,128118,1,0,0:0:0:0:
109,192,128278,128,0,128437:0:0:0:0:
256,192,128278,128,0,128437:0:0:0:0:
36,192,128437,128,0,129395:0:0:0:100:Kick.wav
329,192,128437,128,0,129395:0:0:0:0:
475,192,128437,128,0,128756:0:0:0:0:
182,192,128597,128,0,128756:0:0:0:0:
109,192,128756,1,0,0:0:0:100:Clap.wav
256,192,128756,1,0,0:0:0:100:Kick.wav
402,192,128756,128,0,129075:0:0:0:0:
182,192,128916,128,0,129075:0:0:0:0:
109,192,129075,1,0,0:0:0:100:Kick.wav
256,192,129075,128,0,129395:0:0:0:0:
475,192,129075,1,0,0:0:0:0:
402,192,129235,128,0,129395:0:0:0:0:
109,192,129395,1,0,0:0:0:100:Clap.wav
182,192,129395,1,0,0:0:0:100:Kick.wav
475,192,129395,1,0,0:0:0:0:
329,192,129474,1,0,0:0:0:0:
36,192,129554,1,0,0:0:0:100:Kick.wav
182,192,129554,1,0,0:0:0:0:
402,192,129554,1,0,0:0:0:0:
256,192,129634,1,0,0:0:0:0:
36,192,129714,1,0,0:0:0:100:Kick.wav
329,192,129714,128,0,129873:0:0:0:0:
475,192,129714,128,0,130033:0:0:0:0:
182,192,129873,128,0,130033:0:0:0:0:
329,192,129953,128,0,130033:0:0:0:0:
36,192,130033,128,0,130192:0:0:0:100:Kick.wav
109,192,130033,1,0,0:0:0:100:Clap.wav
402,192,130033,128,0,130192:0:0:0:0:
182,192,130192,128,0,130352:0:0:0:0:
475,192,130192,128,0,130512:0:0:0:0:
109,192,130352,128,0,130591:0:0:0:100:Kick.wav
329,192,130352,128,0,130591:0:0:0:0:
402,192,130352,1,0,0:0:0:0:
256,192,130512,128,0,130591:0:0:0:0:
36,192,130591,128,0,130831:0:0:0:0:
475,192,130591,128,0,130831:0:0:0:0:
109,192,130671,1,0,0:0:0:100:Kick.wav
182,192,130671,128,0,130831:0:0:0:100:Clap.wav
329,192,130671,1,0,0:0:0:0:
256,192,130831,128,0,130990:0:0:0:0:
402,192,130831,128,0,130990:0:0:0:0:
109,192,130990,128,0,131309:0:0:0:100:Kick.wav
329,192,130990,128,0,131150:0:0:0:0:
475,192,130990,128,0,131309:0:0:0:0:
256,192,131150,128,0,131309:0:0:0:0:
402,192,131150,1,0,0:0:0:0:
36,192,131309,128,0,131629:0:0:0:100:Clap.wav
182,192,131309,128,0,131629:0:0:0:100:Kick.wav
402,192,131309,128,0,131469:0:0:0:0:
256,192,131469,128,0,131629:0:0:0:0:
475,192,131469,1,0,0:0:0:0:
109,192,131629,128,0,131948:0:0:0:100:Kick.wav
329,192,131629,128,0,131948:0:0:0:0:
475,192,131629,128,0,131788:0:0:0:0:
402,192,131788,1,0,0:0:0:0:
182,192,131788,128,0,131948:0:0:0:0:
36,192,131948,128,0,132107:0:0:0:100:Clap.wav
256,192,131948,128,0,132267:0:0:0:100:Kick.wav
402,192,131948,128,0,132267:0:0:0:0:
109,192,132107,128,0,132267:0:0:0:0:
182,192,132107,1,0,0:0:0:0:
329,192,132187,1,0,0:0:0:0:
36,192,132267,1,0,0:0:0:100:Kick.wav
182,192,132267,128,0,132506:0:0:0:0:
475,192,132267,128,0,132347:0:0:0:0:
256,192,132426,128,0,132506:0:0:0:0:
475,192,132426,128,0,132506:0:0:0:0:
109,192,132586,128,0,132666:0:0:0:100:Kick.wav
256,192,132586,1,0,0:0:0:100:Clap.wav
475,192,132586,128,0,132825:0:0:0:0:
109,192,132746,128,0,132825:0:0:0:0:
329,192,132746,128,0,132825:0:0:0:0:
36,192,132905,128,0,133065:0:0:0:100:Kick.wav
256,192,132905,1,0,0:0:0:0:
402,192,132905,128,0,133145:0:0:0:0:
182,192,133065,128,0,133145:0:0:0:0:
36,192,133145,128,0,133304:0:0:0:0:
256,192,133145,128,0,133384:0:0:0:0:
329,192,133224,1,0,0:0:0:100:Kick.wav
402,192,133224,1,0,0:0:0:100:Clap.wav
475,192,133224,128,0,133464:0:0:0:0:
36,192,133384,128,0,133464:0:0:0:0:
182,192,133384,128,0,133543:0:0:0:0:
36,192,133543,1,0,0:0:0:100:Crash.wav
256,192,133543,128,0,133703:0:0:0:100:Kick.wav
402,192,133543,128,0,133703:0:0:0:0:
475,192,133543,1,0,0:0:0:0:
36,192,133703,128,0,133863:0:0:0:100:Crash.wav
109,192,133703,1,0,0:0:0:100:Kick.wav
182,192,133703,128,0,133863:0:0:0:0:
329,192,133703,1,0,0:0:0:0:
329,192,133863,1,0,0:0:0:100:Crash.wav
402,192,133863,128,0,134022:0:0:0:100:Kick.wav
475,192,133863,128,0,134022:0:0:0:0:
36,192,133942,128,0,134022:0:0:0:100:Kick.wav
109,192,133942,128,0,134022:0:0:0:0:
256,192,133942,1,0,0:0:0:0:
36,192,134102,128,0,134262:0:0:0:100:Crash.wav
182,192,134102,128,0,134262:0:0:0:100:Kick.wav
329,192,134102,128,0,134262:0:0:0:0:
475,192,134102,128,0,134262:0:0:0:0:
36,192,134341,1,0,0:0:0:100:Kick.wav
109,192,134341,1,0,0:0:0:100:Crash.wav
329,192,134341,1,0,0:0:0:0:
475,192,134341,1,0,0:0:0:0:
182,192,134421,1,0,0:0:0:100:Kick.wav
256,192,134421,1,0,0:0:0:0:
36,192,134501,1,0,0:0:0:100:Kick.wav
402,192,134501,1,0,0:0:0:0:
475,192,134501,1,0,0:0:0:0:
182,192,134581,1,0,0:0:0:100:Kick.wav
329,192,134581,1,0,0:0:0:0:
36,192,134660,1,0,0:0:0:100:Kick.wav
109,192,134660,1,0,0:0:0:100:Crash.wav
256,192,134660,1,0,0:0:0:0:
329,192,134740,1,0,0:0:0:100:Kick.wav
402,192,134740,1,0,0:0:0:0:
36,192,134820,128,0,134980:0:0:0:100:Crash.wav
182,192,134820,1,0,0:0:0:100:Kick.wav
256,192,134820,1,0,0:0:0:0:
475,192,134820,128,0,135139:0:0:0:0:
109,192,134980,128,0,135139:0:0:0:0:
329,192,134980,1,0,0:0:0:0:
36,192,135139,128,0,135458:0:0:0:100:Clap.wav
182,192,135139,1,0,0:0:0:100:Kick.wav
256,192,135139,128,0,135299:0:0:0:0:
329,192,135299,128,0,135458:0:0:0:0:
402,192,135299,128,0,135618:0:0:0:0:
109,192,135458,128,0,135698:0:0:0:100:Kick.wav
256,192,135458,128,0,135698:0:0:0:0:
36,192,135618,128,0,135698:0:0:0:0:
329,192,135698,128,0,135937:0:0:0:0:
475,192,135698,128,0,135937:0:0:0:0:
36,192,135778,1,0,0:0:0:100:Clap.wav
182,192,135778,128,0,135937:0:0:0:100:Kick.wav
256,192,135778,1,0,0:0:0:0:
109,192,135937,128,0,136097:0:0:0:0:
402,192,135937,128,0,136097:0:0:0:0:
36,192,136097,128,0,136256:0:0:0:100:Kick.wav
256,192,136097,1,0,0:0:0:0:
329,192,136097,128,0,136416:0:0:0:0:
109,192,136256,128,0,136575:0:0:0:0:
182,192,136256,128,0,136416:0:0:0:0:
36,192,136416,1,0,0:0:0:100:Kick.wav
256,192,136416,128,0,136655:0:0:0:100:Clap.wav
475,192,136416,128,0,136655:0:0:0:0:
402,192,136575,128,0,136655:0:0:0:0:
36,192,136655,128,0,137214:0:0:0:0:
109,192,136655,128,0,137214:0:0:0:0:
256,192,136735,1,0,0:0:0:100:Kick.wav
402,192,136735,1,0,0:0:0:0:
475,192,136735,1,0,0:0:0:0:
329,192,136895,1,0,0:0:0:0:
182,192,137054,1,0,0:0:0:100:Kick.wav
329,192,137054,1,0,0:0:0:100:Clap.wav
475,192,137054,1,0,0:0:0:0:
402,192,137214,1,0,0:0:0:0:
256,192,137293,1,0,0:0:0:0:
36,192,137373,128,0,137692:0:0:0:100:Kick.wav
182,192,137373,128,0,137533:0:0:0:0:
475,192,137373,128,0,137692:0:0:0:0:
256,192,137533,1,0,0:0:0:0:
329,192,137533,128,0,137692:0:0:0:0:
109,192,137692,128,0,137852:0:0:0:100:Clap.wav
182,192,137692,128,0,138012:0:0:0:100:Kick.wav
402,192,137692,1,0,0:0:0:0:
36,192,137852,128,0,138012:0:0:0:0:
475,192,137852,128,0,138171:0:0:0:0:
109,192,138012,128,0,138251:0:0:0:100:Kick.wav
256,192,138012,128,0,138251:0:0:0:0:
329,192,138012,1,0,0:0:0:0:
402,192,138171,128,0,138251:0:0:0:0:
36,192,138251,128,0,138490:0:0:0:0:
182,192,138251,128,0,138490:0:0:0:0:
256,192,138331,1,0,0:0:0:100:Clap.wav
402,192,138331,1,0,0:0:0:100:Kick.wav
475,192,138331,128,0,138490:0:0:0:0:
109,192,138490,128,0,138570:0:0:0:100:Kick.wav
256,192,138490,1,0,0:0:0:0:
329,192,138490,128,0,138650:0:0:0:0:
36,192,138650,1,0,0:0:0:100:Crash.wav
109,192,138650,1,0,0:0:0:100:Kick.wav
402,192,138650,1,0,0:0:0:0:
475,192,138650,128,0,139607:0:0:0:0:
109,192,138809,1,0,0:0:0:100:Kick.wav
329,192,138809,1,0,0:0:0:0:
36,192,138969,1,0,0:0:0:100:Kick.wav
182,192,138969,1,0,0:0:0:100:Clap.wav
402,192,138969,1,0,0:0:0:100:Crash.wav
182,192,139129,1,0,0:0:0:100:Kick.wav
256,192,139129,1,0,0:0:0:0:
36,192,139288,1,0,0:0:0:100:Crash.wav
109,192,139288,1,0,0:0:0:100:Kick.wav
329,192,139288,1,0,0:0:0:0:
402,192,139288,1,0,0:0:0:0:
182,192,139368,1,0,0:0:0:100:Kick.wav
256,192,139368,1,0,0:0:0:0:
36,192,139448,1,0,0:0:0:100:Kick.wav
329,192,139448,1,0,0:0:0:0:
109,192,139528,1,0,0:0:0:100:Kick.wav
182,192,139528,1,0,0:0:0:0:
402,192,139528,1,0,0:0:0:0:
36,192,139607,1,0,0:0:0:100:Crash.wav
256,192,139607,1,0,0:0:0:100:Clap.wav
329,192,139607,1,0,0:0:0:100:Kick.wav
182,192,139687,1,0,0:0:0:100:Kick.wav
475,192,139687,1,0,0:0:0:0:
109,192,139767,1,0,0:0:0:100:Kick.wav
402,192,139767,1,0,0:0:0:0:
182,192,139847,1,0,0:0:0:100:Kick.wav
329,192,139847,1,0,0:0:0:0:
36,192,139926,1,0,0:0:0:100:Crash.wav
256,192,139926,1,0,0:0:0:100:Kick.wav
402,192,139926,1,0,0:0:0:40:Snare-H.wav
475,192,139926,1,0,0:0:0:0:
109,192,140006,1,0,0:0:0:40:Snare-H.wav
329,192,140086,1,0,0:0:0:40:Snare-H.wav
402,192,140086,1,0,0:0:0:0:
109,192,140166,1,0,0:0:0:40:Snare-H.wav
182,192,140246,1,0,0:0:0:100:Kick.wav
256,192,140246,1,0,0:0:0:100:Clap.wav
402,192,140246,1,0,0:0:0:40:Snare-H.wav
475,192,140325,1,0,0:0:0:40:Snare-H.wav
36,192,140405,1,0,0:0:0:40:Snare-H.wav
182,192,140405,1,0,0:0:0:0:
475,192,140485,1,0,0:0:0:40:Snare-H.wav
109,192,140565,1,0,0:0:0:100:Kick.wav
182,192,140565,1,0,0:0:0:40:Snare-H.wav
329,192,140565,1,0,0:0:0:0:
402,192,140645,1,0,0:0:0:40:Snare-H.wav
36,192,140724,1,0,0:0:0:40:Snare-H.wav
109,192,140724,1,0,0:0:0:0:
256,192,140804,1,0,0:0:0:100:Kick.wav
402,192,140804,1,0,0:0:0:40:Snare-H.wav
36,192,140884,1,0,0:0:0:100:Clap.wav
182,192,140884,1,0,0:0:0:40:Snare-H.wav
475,192,140884,1,0,0:0:0:0:
402,192,140964,1,0,0:0:0:40:Snare-H.wav
109,192,141043,1,0,0:0:0:100:Kick.wav
182,192,141043,1,0,0:0:0:40:Snare-H.wav
256,192,141043,1,0,0:0:0:0:
329,192,141123,1,0,0:0:0:40:Snare-H.wav
36,192,141203,128,0,141522:0:0:0:100:Crash.wav
256,192,141203,128,0,141363:0:0:0:100:Kick.wav
402,192,141203,1,0,0:0:0:40:Snare-H.wav
475,192,141203,128,0,141522:0:0:0:0:
182,192,141363,128,0,141442:0:0:0:40:Snare-H.wav
329,192,141442,128,0,141522:0:0:0:40:Snare-H.wav
109,192,141522,128,0,141841:0:0:0:100:Kick.wav
182,192,141522,1,0,0:0:0:100:Clap.wav
256,192,141522,128,0,141841:0:0:0:40:Snare-H.wav
402,192,141522,128,0,141682:0:0:0:0:
475,192,141682,128,0,141762:0:0:0:40:Snare-H.wav
329,192,141762,128,0,141841:0:0:0:40:Snare-H.wav
36,192,141841,128,0,142160:0:0:0:100:Kick.wav
182,192,141841,128,0,142001:0:0:0:40:Snare-H.wav
402,192,141841,128,0,142160:0:0:0:0:
475,192,141841,1,0,0:0:0:0:
256,192,142001,128,0,142081:0:0:0:40:Snare-H.wav
109,192,142081,128,0,142160:0:0:0:40:Snare-H.wav
182,192,142160,128,0,142480:0:0:0:100:Kick.wav
256,192,142160,1,0,0:0:0:100:Clap.wav
329,192,142160,128,0,142320:0:0:0:40:Snare-H.wav
475,192,142160,128,0,142480:0:0:0:0:
36,192,142320,128,0,142400:0:0:0:40:Snare-H.wav
256,192,142400,128,0,142480:0:0:0:40:Snare-H.wav
36,192,142480,1,0,0:0:0:100:Crash.wav
109,192,142480,1,0,0:0:0:100:Kick.wav
329,192,142480,1,0,0:0:0:40:Snare-H.wav
402,192,142480,1,0,0:0:0:0:
256,192,142559,1,0,0:0:0:40:Snare-H.wav
36,192,142639,1,0,0:0:0:100:Kick.wav
329,192,142639,1,0,0:0:0:40:Snare-H.wav
475,192,142639,1,0,0:0:0:0:
182,192,142719,1,0,0:0:0:40:Snare-H.wav
36,192,142799,1,0,0:0:0:100:Crash.wav
109,192,142799,1,0,0:0:0:100:Kick.wav
256,192,142799,1,0,0:0:0:40:Snare-H.wav
402,192,142799,1,0,0:0:0:0:
475,192,142879,1,0,0:0:0:40:Snare-H.wav
109,192,142958,1,0,0:0:0:100:Kick.wav
182,192,142958,1,0,0:0:0:40:Snare-H.wav
256,192,142958,1,0,0:0:0:0:
402,192,143038,1,0,0:0:0:40:Snare-H.wav
36,192,143118,1,0,0:0:0:100:Crash.wav
109,192,143118,1,0,0:0:0:100:Kick.wav
329,192,143118,1,0,0:0:0:40:Snare-H.wav
475,192,143118,1,0,0:0:0:0:
182,192,143198,1,0,0:0:0:100:Kick.wav
256,192,143198,1,0,0:0:0:40:Snare-H.wav
109,192,143278,1,0,0:0:0:100:Kick.wav
402,192,143278,1,0,0:0:0:40:Snare-H.wav
36,192,143357,1,0,0:0:0:100:Kick.wav
256,192,143357,1,0,0:0:0:40:Snare-H.wav
329,192,143357,1,0,0:0:0:0:
109,192,143437,1,0,0:0:0:100:Crash.wav
182,192,143437,1,0,0:0:0:100:Kick.wav
475,192,143437,1,0,0:0:0:40:Snare-H.wav
329,192,143517,1,0,0:0:0:100:Kick.wav
402,192,143517,1,0,0:0:0:40:Snare-H.wav
36,192,143597,1,0,0:0:0:100:Kick.wav
182,192,143597,1,0,0:0:0:40:Snare-H.wav
475,192,143597,1,0,0:0:0:0:
256,192,143676,1,0,0:0:0:100:Kick.wav
329,192,143676,1,0,0:0:0:40:Snare-H.wav
36,192,143916,1,0,0:0:0:100:Crash.wav
182,192,143916,1,0,0:0:0:100:Kick.wav
256,192,143916,1,0,0:0:0:0:
475,192,143916,1,0,0:0:0:0:
36,192,144235,1,0,0:0:0:100:Crash.wav
256,192,144235,1,0,0:0:0:100:Kick.wav
329,192,144235,1,0,0:0:0:0:
475,192,144235,1,0,0:0:0:0:
36,192,144554,1,0,0:0:0:100:Crash.wav
182,192,144554,1,0,0:0:0:100:Kick.wav
256,192,144554,1,0,0:0:0:0:
475,192,144554,1,0,0:0:0:0:
36,192,144714,1,0,0:0:0:70:Kick.wav
475,192,144714,1,0,0:0:0:0:
109,192,144754,1,0,0:0:0:70:Kick.wav
182,192,144793,1,0,0:0:0:70:Kick.wav
329,192,144833,1,0,0:0:0:70:Kick.wav
402,192,144873,1,0,0:0:0:70:Kick.wav
475,192,144873,1,0,0:0:0:0:
109,192,144913,1,0,0:0:0:70:Kick.wav
182,192,144953,1,0,0:0:0:70:Kick.wav
256,192,144993,1,0,0:0:0:70:Kick.wav
36,192,145033,1,0,0:0:0:100:Crash.wav
329,192,145033,128,0,145352:0:0:0:100:Kick.wav
402,192,145033,1,0,0:0:0:0:
475,192,145033,128,0,145352:0:0:0:0:
109,192,145192,128,0,145352:0:0:0:0:
182,192,145192,128,0,145352:0:0:0:0:
109,192,145512,128,0,145591:0:0:0:0:
256,192,145512,128,0,145591:0:0:0:0:
329,192,145591,128,0,145671:0:0:0:0:
475,192,145591,128,0,145671:0:0:0:0:
36,192,145671,1,0,0:0:0:100:Crash.wav
182,192,145671,1,0,0:0:0:100:Kick.wav
256,192,145671,128,0,145910:0:0:0:0:
402,192,145671,128,0,146150:0:0:0:0:
182,192,145910,128,0,146150:0:0:0:0:
329,192,145910,128,0,146309:0:0:0:0:
109,192,146150,128,0,146309:0:0:0:0:
256,192,146150,128,0,146309:0:0:0:0:
36,192,146309,1,0,0:0:0:100:Crash.wav
182,192,146309,1,0,0:0:0:100:Kick.wav
402,192,146309,128,0,146549:0:0:0:0:
475,192,146309,128,0,146549:0:0:0:0:
109,192,146469,128,0,146629:0:0:0:0:
256,192,146469,128,0,146629:0:0:0:0:
36,192,146629,1,0,0:0:0:100:Crash.wav
329,192,146629,128,0,146788:0:0:0:100:Kick.wav
402,192,146629,1,0,0:0:0:0:
475,192,146629,128,0,146788:0:0:0:0:
182,192,146708,128,0,146868:0:0:0:0:
256,192,146708,128,0,146868:0:0:0:0:
36,192,146868,128,0,147107:0:0:0:100:Crash.wav
109,192,146868,128,0,147107:0:0:0:100:Kick.wav
329,192,146868,1,0,0:0:0:0:
402,192,146868,1,0,0:0:0:0:
182,192,147107,1,0,0:0:0:70:Kick.wav
475,192,147107,1,0,0:0:0:0:
256,192,147147,1,0,0:0:0:70:Kick.wav
329,192,147187,1,0,0:0:0:70:Kick.wav
402,192,147227,1,0,0:0:0:70:Kick.wav
36,192,147267,128,0,147506:0:0:0:100:Clap_old.wav
109,192,147267,1,0,0:0:0:0:
182,192,147267,128,0,147506:0:0:0:0:
256,192,147267,128,0,147506:0:0:0:0:
36,192,147586,1,0,0:0:0:50:Kick-Deep.wav
182,192,147586,1,0,0:0:0:100:Kick.wav
256,192,147586,1,0,0:0:0:100:Crash.wav
475,192,147586,1,0,0:0:0:0:
329,192,147746,128,0,147905:0:0:0:0:
36,192,147905,1,0,0:0:0:100:Kick.wav
109,192,147905,1,0,0:0:0:100:Clap.wav
475,192,147905,1,0,0:0:0:0:
182,192,148065,128,0,148224:0:0:0:0:
256,192,148224,1,0,0:0:0:100:Kick.wav
475,192,148224,1,0,0:0:0:0:
329,192,148384,128,0,148543:0:0:0:0:
36,192,148543,1,0,0:0:0:100:Kick.wav
182,192,148543,1,0,0:0:0:100:Clap.wav
402,192,148543,1,0,0:0:0:0:
109,192,148703,128,0,148863:0:0:0:0:
256,192,148863,1,0,0:0:0:100:Kick.wav
475,192,148863,1,0,0:0:0:0:
329,192,149022,128,0,149182:0:0:0:0:
109,192,149182,1,0,0:0:0:100:Kick.wav
182,192,149182,1,0,0:0:0:100:Clap.wav
475,192,149182,1,0,0:0:0:0:
402,192,149341,128,0,149501:0:0:0:0:
36,192,149501,1,0,0:0:0:100:Kick.wav
256,192,149501,1,0,0:0:0:0:
109,192,149660,128,0,149820:0:0:0:0:
182,192,149820,1,0,0:0:0:100:Kick.wav
329,192,149820,1,0,0:0:0:100:Clap.wav
475,192,149820,1,0,0:0:0:0:
256,192,149980,1,0,0:0:0:0:
109,192,150059,1,0,0:0:0:0:
36,192,150139,1,0,0:0:0:100:Kick.wav
329,192,150139,1,0,0:0:0:0:
182,192,150299,128,0,150458:0:0:0:0:
256,192,150458,1,0,0:0:0:100:Kick.wav
402,192,150458,1,0,0:0:0:100:Clap.wav
475,192,150458,1,0,0:0:0:0:
36,192,150618,128,0,150778:0:0:0:0:
109,192,150778,1,0,0:0:0:100:Kick.wav
329,192,150778,1,0,0:0:0:0:
475,192,150937,128,0,151097:0:0:0:0:
109,192,151097,1,0,0:0:0:100:Kick.wav
256,192,151097,1,0,0:0:0:100:Clap.wav
329,192,151097,1,0,0:0:0:0:
36,192,151256,128,0,151416:0:0:0:0:
256,192,151416,128,0,151575:0:0:0:100:Kick.wav
475,192,151416,128,0,151735:0:0:0:0:
182,192,151575,128,0,151735:0:0:0:0:
329,192,151655,128,0,151735:0:0:0:0:
36,192,151735,1,0,0:0:0:100:Kick.wav
109,192,151735,128,0,152054:0:0:0:100:Clap.wav
402,192,151735,128,0,151895:0:0:0:0:
256,192,151895,128,0,152054:0:0:0:0:
329,192,152054,128,0,152214:0:0:0:100:Kick.wav
475,192,152054,128,0,152373:0:0:0:0:
36,192,152214,128,0,152692:0:0:0:0:
109,192,152373,128,0,152692:0:0:0:100:Kick.wav
182,192,152373,1,0,0:0:0:100:Clap.wav
329,192,152373,1,0,0:0:0:0:
256,192,152533,128,0,152692:0:0:0:0:
402,192,152613,1,0,0:0:0:0:
182,192,152692,1,0,0:0:0:100:Kick.wav
475,192,152692,1,0,0:0:0:0:
256,192,152852,128,0,153012:0:0:0:0:
36,192,153012,1,0,0:0:0:100:Kick.wav
329,192,153012,1,0,0:0:0:100:Clap.wav
475,192,153012,1,0,0:0:0:0:
402,192,153171,128,0,153331:0:0:0:0:
36,192,153331,1,0,0:0:0:100:Kick.wav
256,192,153331,1,0,0:0:0:0:
109,192,153490,128,0,153650:0:0:0:0:
182,192,153650,1,0,0:0:0:100:Kick.wav
329,192,153650,1,0,0:0:0:100:Clap.wav
475,192,153650,1,0,0:0:0:0:
402,192,153809,128,0,153969:0:0:0:0:
36,192,153969,1,0,0:0:0:100:Kick.wav
475,192,153969,1,0,0:0:0:0:
109,192,154129,128,0,154288:0:0:0:0:
256,192,154288,1,0,0:0:0:100:Kick.wav
402,192,154288,1,0,0:0:0:100:Clap.wav
475,192,154288,1,0,0:0:0:0:
329,192,154448,128,0,154607:0:0:0:0:
36,192,154607,1,0,0:0:0:100:Kick.wav
182,192,154607,1,0,0:0:0:0:
256,192,154767,128,0,154926:0:0:0:0:
109,192,154926,1,0,0:0:0:100:Kick.wav
402,192,154926,1,0,0:0:0:100:Clap.wav
475,192,154926,1,0,0:0:0:0:
329,192,155086,1,0,0:0:0:0:
182,192,155166,1,0,0:0:0:0:
36,192,155246,1,0,0:0:0:100:Kick.wav
402,192,155246,1,0,0:0:0:0:
256,192,155405,128,0,155565:0:0:0:0:
36,192,155565,1,0,0:0:0:100:Kick.wav
329,192,155565,1,0,0:0:0:100:Clap.wav
475,192,155565,1,0,0:0:0:0:
402,192,155724,128,0,155884:0:0:0:0:
109,192,155884,1,0,0:0:0:100:Kick.wav
256,192,155884,1,0,0:0:0:0:
182,192,156043,128,0,156203:0:0:0:0:
36,192,156203,1,0,0:0:0:100:Kick.wav
329,192,156203,1,0,0:0:0:100:Clap.wav
475,192,156203,1,0,0:0:0:0:
402,192,156363,128,0,156522:0:0:0:0:
36,192,156522,128,0,156841:0:0:0:100:Kick.wav
256,192,156522,128,0,156682:0:0:0:0:
109,192,156682,128,0,156841:0:0:0:0:
182,192,156841,128,0,157001:0:0:0:100:Kick.wav
402,192,156841,128,0,157160:0:0:0:100:Clap.wav
475,192,156841,1,0,0:0:0:0:
256,192,157001,128,0,157160:0:0:0:0:
329,192,157160,128,0,157320:0:0:0:100:Kick.wav
475,192,157160,128,0,157480:0:0:0:0:
36,192,157320,128,0,157639:0:0:0:0:
109,192,157480,1,0,0:0:0:100:Kick.wav
256,192,157480,128,0,157799:0:0:0:100:Clap.wav
329,192,157480,1,0,0:0:0:0:
475,192,157639,1,0,0:0:0:0:
329,192,157719,1,0,0:0:0:0:
36,192,157799,1,0,0:0:0:100:Snare-H.wav
109,192,157799,128,0,157958:0:0:0:100:Crash.wav
475,192,157799,1,0,0:0:0:0:
402,192,157799,1,0,0:0:0:0:
329,192,157958,128,0,158118:0:0:0:0:
475,192,158118,1,0,0:0:0:100:Clap.wav
36,192,158118,1,0,0:0:0:100:Snare-H.wav
182,192,158118,128,0,158278:0:0:0:0:
402,192,158278,128,0,158437:0:0:0:0:
109,192,158437,128,0,158597:0:0:0:100:Snare-H.wav
256,192,158437,1,0,0:0:0:0:
402,192,158597,128,0,158756:0:0:0:0:
36,192,158756,1,0,0:0:0:100:Snare-H.wav
182,192,158756,128,0,158916:0:0:0:0:
329,192,158756,1,0,0:0:0:100:Clap.wav
402,192,158916,128,0,159075:0:0:0:0:
36,192,159075,128,0,159235:0:0:0:100:Snare-H.wav
475,192,159075,1,0,0:0:0:0:
329,192,159235,128,0,159395:0:0:0:0:
36,192,159395,1,0,0:0:0:100:Snare-H.wav
182,192,159395,128,0,159554:0:0:0:0:
256,192,159395,1,0,0:0:0:100:Clap.wav
402,192,159554,128,0,159714:0:0:0:0:
182,192,159714,128,0,159873:0:0:0:100:Snare-H.wav
329,192,159714,1,0,0:0:0:0:
402,192,159873,128,0,160033:0:0:0:0:
109,192,160033,1,0,0:0:0:100:Snare-H.wav
256,192,160033,128,0,160192:0:0:0:0:
475,192,160033,1,0,0:0:0:100:Clap.wav
36,192,160192,1,0,0:0:0:100:Snare-H.wav
402,192,160192,128,0,160352:0:0:0:0:
109,192,160272,1,0,0:0:0:100:Snare-H.wav
182,192,160272,1,0,0:0:0:0:
36,192,160352,128,0,160512:0:0:0:100:Snare-H.wav
256,192,160352,1,0,0:0:0:100:Crash.wav
329,192,160352,1,0,0:0:0:0:
475,192,160352,1,0,0:0:0:0:
329,192,160512,128,0,160671:0:0:0:0:
36,192,160671,1,0,0:0:0:100:Snare-H.wav
109,192,160671,128,0,160831:0:0:0:0:
256,192,160671,1,0,0:0:0:100:Clap.wav
402,192,160831,128,0,160990:0:0:0:0:
36,192,160990,1,0,0:0:0:100:Snare-H.wav
182,192,160990,128,0,161150:0:0:0:0:
475,192,161150,128,0,161309:0:0:0:0:
182,192,161309,1,0,0:0:0:100:Snare-H.wav
256,192,161309,128,0,161469:0:0:0:0:
402,192,161309,1,0,0:0:0:100:Clap.wav
475,192,161469,128,0,161629:0:0:0:0:
36,192,161629,128,0,161948:0:0:0:100:Snare-H.wav
182,192,161629,128,0,161788:0:0:0:0:
402,192,161788,128,0,161948:0:0:0:0:
256,192,161868,128,0,161948:0:0:0:0:
109,192,161948,128,0,162267:0:0:0:100:Snare-H.wav
329,192,161948,1,0,0:0:0:100:Clap.wav
475,192,161948,128,0,162107:0:0:0:0:
182,192,162107,128,0,162267:0:0:0:0:
329,192,162187,128,0,162267:0:0:0:0:
475,192,162267,128,0,162586:0:0:0:0:
36,192,162267,128,0,162426:0:0:0:100:Snare-H.wav
182,192,162426,128,0,162905:0:0:0:0:
36,192,162586,1,0,0:0:0:100:Snare-H.wav
256,192,162586,1,0,0:0:0:0:
402,192,162586,1,0,0:0:0:100:Clap.wav
329,192,162746,1,0,0:0:0:100:Snare-H.wav
475,192,162746,1,0,0:0:0:0:
36,192,162825,1,0,0:0:0:100:Snare-H.wav
109,192,162825,1,0,0:0:0:0:
256,192,162905,1,0,0:0:0:50:Snare-H.wav
329,192,162905,1,0,0:0:0:100:Kick.wav
402,192,162905,1,0,0:0:0:100:Crash.wav
475,192,162905,1,0,0:0:0:0:
36,192,163065,1,0,0:0:0:50:Snare-H.wav
182,192,163065,1,0,0:0:0:0:
182,192,163224,1,0,0:0:0:100:Clap.wav
475,192,163224,1,0,0:0:0:50:Snare-H.wav
109,192,163384,1,0,0:0:0:50:Snare-H.wav
475,192,163384,1,0,0:0:0:0:
109,192,163543,1,0,0:0:0:50:Snare-H.wav
329,192,163543,1,0,0:0:0:0:
182,192,163703,1,0,0:0:0:50:Snare-H.wav
475,192,163703,1,0,0:0:0:0:
36,192,163863,1,0,0:0:0:100:Clap.wav
256,192,163863,1,0,0:0:0:50:Snare-H.wav
475,192,163863,1,0,0:0:0:100:Kick.wav
36,192,164022,1,0,0:0:0:50:Snare-H.wav
329,192,164022,1,0,0:0:0:0:
109,192,164182,1,0,0:0:0:100:Crash.wav
329,192,164182,1,0,0:0:0:100:Kick.wav
402,192,164182,1,0,0:0:0:50:Snare-H.wav
475,192,164182,1,0,0:0:0:0:
36,192,164341,1,0,0:0:0:50:Snare-H.wav
256,192,164341,1,0,0:0:0:0:
36,192,164501,1,0,0:0:0:100:Clap.wav
402,192,164501,1,0,0:0:0:50:Snare-H.wav
182,192,164660,1,0,0:0:0:50:Snare-H.wav
402,192,164660,1,0,0:0:0:0:
36,192,164820,1,0,0:0:0:100:Kick.wav
182,192,164820,1,0,0:0:0:50:Snare-H.wav
329,192,164820,1,0,0:0:0:0:
36,192,164980,1,0,0:0:0:50:Snare-H.wav
475,192,164980,1,0,0:0:0:0:
109,192,165139,1,0,0:0:0:100:Clap.wav
256,192,165139,1,0,0:0:0:100:Kick.wav
475,192,165139,1,0,0:0:0:50:Snare-H.wav
109,192,165299,1,0,0:0:0:50:Snare-H.wav
329,192,165299,1,0,0:0:0:0:
36,192,165458,1,0,0:0:0:100:Crash.wav
182,192,165458,1,0,0:0:0:100:Snare-H.wav
256,192,165458,1,0,0:0:0:100:Kick.wav
402,192,165458,1,0,0:0:0:0:
475,192,165538,1,0,0:0:0:70:Kick.wav
109,192,165618,1,0,0:0:0:100:Kick.wav
329,192,165618,1,0,0:0:0:0:
182,192,165698,1,0,0:0:0:70:Kick.wav
36,192,165778,1,0,0:0:0:100:Clap.wav
329,192,165778,1,0,0:0:0:100:Kick.wav
475,192,165778,1,0,0:0:0:0:
256,192,165857,1,0,0:0:0:70:Kick.wav
36,192,165937,1,0,0:0:0:100:Kick.wav
182,192,165937,1,0,0:0:0:0:
402,192,166017,1,0,0:0:0:70:Kick.wav
109,192,166097,1,0,0:0:0:100:Crash.wav
182,192,166097,1,0,0:0:0:100:Kick.wav
256,192,166097,1,0,0:0:0:0:
329,192,166097,1,0,0:0:0:0:
475,192,166176,1,0,0:0:0:70:Kick.wav
36,192,166256,1,0,0:0:0:100:Kick.wav
256,192,166256,1,0,0:0:0:0:
402,192,166336,1,0,0:0:0:70:Kick.wav
36,192,166416,1,0,0:0:0:100:Clap.wav
182,192,166416,1,0,0:0:0:100:Kick.wav
329,192,166416,1,0,0:0:0:0:
109,192,166496,1,0,0:0:0:70:Kick.wav
475,192,166496,1,0,0:0:0:0:
329,192,166575,1,0,0:0:0:100:Kick.wav
402,192,166575,1,0,0:0:0:0:
109,192,166655,1,0,0:0:0:70:Kick.wav
256,192,166655,1,0,0:0:0:0:
36,192,166735,1,0,0:0:0:100:Crash.wav
182,192,166735,1,0,0:0:0:100:Kick.wav
402,192,166735,1,0,0:0:0:0:
475,192,166735,1,0,0:0:0:0:
109,192,166815,1,0,0:0:0:100:Kick.wav
256,192,166815,1,0,0:0:0:0:
329,192,166895,1,0,0:0:0:100:Kick.wav
475,192,166895,1,0,0:0:0:0:
109,192,166974,1,0,0:0:0:100:Kick.wav
182,192,166974,1,0,0:0:0:0:
36,192,167054,1,0,0:0:0:100:Crash.wav
329,192,167054,1,0,0:0:0:100:Kick.wav
402,192,167054,1,0,0:0:0:0:
475,192,167054,1,0,0:0:0:0:
109,192,167134,1,0,0:0:0:100:Kick.wav
256,192,167134,1,0,0:0:0:0:
329,192,167214,1,0,0:0:0:100:Kick.wav
402,192,167214,1,0,0:0:0:0:
36,192,167293,1,0,0:0:0:100:Kick.wav
182,192,167293,1,0,0:0:0:0:
109,192,167373,1,0,0:0:0:100:Crash.wav
256,192,167373,1,0,0:0:0:100:Kick.wav
402,192,167373,1,0,0:0:0:0:
475,192,167373,1,0,0:0:0:0:
36,192,167533,1,0,0:0:0:100:Kick.wav
256,192,167533,1,0,0:0:0:0:
475,192,167533,1,0,0:0:0:0:
36,192,167692,1,0,0:0:0:70:Kick.wav
329,192,167692,1,0,0:0:0:0:
402,192,167692,1,0,0:0:0:0:
109,192,167732,1,0,0:0:0:70:Kick.wav
182,192,167772,1,0,0:0:0:70:Kick.wav
475,192,167812,1,0,0:0:0:70:Kick.wav
36,192,167852,1,0,0:0:0:70:Kick.wav
402,192,167852,1,0,0:0:0:0:
329,192,167892,1,0,0:0:0:70:Kick.wav
109,192,167932,1,0,0:0:0:70:Kick.wav
182,192,167972,1,0,0:0:0:70:Kick.wav
36,192,168012,1,0,0:0:0:100:Kick-Deep.wav
256,192,168012,1,0,0:0:0:0:
402,192,168012,1,0,0:0:0:0:
475,192,168012,1,0,0:0:0:0:
