osu file format v14

[General]
AudioFilename: audio.mp3
AudioLeadIn: 0
PreviewTime: 204869
Countdown: 0
SampleSet: Soft
StackLeniency: 0.3
Mode: 0
LetterboxInBreaks: 0
WidescreenStoryboard: 0

[Editor]
Bookmarks: 12448,22448,27448,32448,37448,39948,42448,47448,49948,52448,57448,59948,62448,64948,67448,69948,72448,76198,79166,79948,83698,93698,97448,101198,108698,116198,123698,131198,134948,136823,137760,138698,146198,153698,161198,164948,168698,176198,183698,191198,193073,196823,204948,214948,215260,224948,234948,239948,242448,243698,244948,254948,264948,274948,279948,282448,284948
DistanceSpacing: 1
BeatDivisor: 4
GridSize: 8
TimelineZoom: 2.699999

[Metadata]
Title:Salvation
TitleUnicode:Salvation
Artist:Yooh
ArtistUnicode:Yooh
Creator:caned
Version:
Source:
Tags:
BeatmapID:1185082
BeatmapSetID:560413

[Difficulty]
HPDrainRate:4.3
CircleSize:4.2
OverallDifficulty:8.3
ApproachRate:9.5
SliderMultiplier:1.8
SliderTickRate:2

[Events]
//Background and Video events
0,0,"0101010.jpg",0,0
//Break Periods
//Storyboard Layer 0 (Background)
//Storyboard Layer 1 (Fail)
//Storyboard Layer 2 (Pass)
//Storyboard Layer 3 (Foreground)
//Storyboard Layer 4 (Overlay)
//Storyboard Sound Samples

[TimingPoints]
807,312.5,4,1,0,5,1,0
2448,312.5,4,1,0,40,1,0
2448,-142.857142857143,4,2,0,60,0,0
12213,-142.857142857143,4,2,0,10,0,0
12448,-142.857142857143,4,2,0,60,0,0
22448,-133.333333333333,4,2,0,60,0,0
29948,-111.111111111111,4,2,0,60,0,0
31823,-133.333333333333,4,2,0,60,0,0
32448,-100,4,2,0,60,0,0
71198,-83.3333333333333,4,2,0,60,0,0
72448,312.5,3,2,0,60,1,0
79323,-90.9090909090909,3,2,0,60,0,0
79531,-83.3333333333333,3,2,0,60,0,0
79739,-76.9230769230769,3,2,0,60,0,0
79948,-90.9090909090909,3,2,0,60,0,0
87448,312.5,4,2,0,60,1,0
89244,-100,4,2,0,5,0,0
89479,-200,4,2,0,20,0,0
101198,-166.666666666667,4,2,0,20,0,0
108073,-200,4,2,0,20,0,0
108698,-125,4,2,0,80,0,0
123698,-100,4,2,0,70,0,0
124661,-100,4,2,0,5,0,0
124713,-100,4,2,0,70,0,0
124974,-100,4,2,0,5,0,0
125026,-100,4,2,0,70,0,0
126536,-100,4,2,0,5,0,0
126588,-100,4,2,0,70,0,0
126849,-100,4,2,0,5,0,0
126901,-100,4,2,0,70,0,0
128411,-100,4,2,0,5,0,0
128463,-100,4,2,0,70,0,0
128724,-100,4,2,0,5,0,0
128776,-100,4,2,0,70,0,0
138698,-83.3333333333333,4,2,0,65,0,0
168698,-100,4,2,0,60,0,0
183698,-100,4,2,0,5,0,0
191198,-200,4,2,0,60,0,0
191510,-166.666666666667,4,2,0,60,0,0
191823,-142.857142857143,4,2,0,60,0,0
192135,-125,4,2,0,60,0,0
192448,-111.111111111111,4,2,0,60,0,0
192760,-100,4,2,0,60,0,0
193073,-142.857142857143,4,2,0,60,0,0
193385,-125,4,2,0,60,0,0
193698,-111.111111111111,4,2,0,60,0,0
194010,-100,4,2,0,60,0,0
194323,-90.9090909090909,4,2,0,60,0,0
194635,-83.3333333333333,4,2,0,60,0,0
203698,-200,4,2,0,60,0,0
204010,-125,4,2,0,60,0,0
204323,-83.3333333333333,4,2,0,60,0,0
204635,-66.6666666666667,4,2,0,60,0,0
204948,-71.4285714285714,4,2,0,60,0,1
284948,-166.666666666667,4,2,0,60,0,0
294948,-200,4,2,0,5,0,0

[HitObjects]
256,192,807,12,0,2057,0:0:0:0:
104,120,2448,6,0,P|133:113|176:120,1,62.9999980773926
336,197,2760,2,0,P|347:159|331:116,1,62.9999980773926
143,184,3073,2,0,L|67:212,2,62.9999980773926
342,136,3541,1,0,0:0:0:0:
141,245,3698,2,0,P|148:207|132:167,1,62.9999980773926
13,45,4010,2,0,P|6:83|22:123,1,62.9999980773926
141,245,4323,2,0,L|208:240,1,62.9999980773926
256,56,4635,2,0,L|189:51,1,62.9999980773926
203,240,4948,6,0,B|195:272|195:272|211:312,1,62.9999980773926
394,285,5260,2,0,L|322:269,1,62.9999980773926
157,188,5573,2,0,P|186:173|222:173,2,62.9999980773926
275,324,6041,1,0,0:0:0:0:
318,128,6198,2,0,L|331:197,1,62.9999980773926
144,232,6510,2,0,L|131:163,1,62.9999980773926
329,189,6823,2,0,L|289:246,1,62.9999980773926
132,170,7135,2,0,L|171:112,1,62.9999980773926
184,96,7369,1,0,0:0:0:0:
208,64,7448,6,0,P|240:56|288:64,1,62.9999980773926
390,194,7760,2,0,P|358:186|310:194,1,62.9999980773926
224,352,8073,2,0,P|256:344|304:352,2,62.9999980773926
96,216,8541,1,0,0:0:0:0:
232,88,8698,2,0,L|321:82,1,62.9999980773926
96,216,9010,2,0,L|7:210,1,62.9999980773926
232,248,9323,2,0,L|321:242,1,62.9999980773926
136,352,9635,2,0,L|47:346,1,62.9999980773926
232,248,9948,6,0,P|237:210|226:173,1,62.9999980773926
101,49,10260,2,0,P|96:87|107:124,1,62.9999980773926
231,186,10573,2,0,L|313:173,2,62.9999980773926
44,217,11041,1,0,0:0:0:0:
228,248,11198,2,0,L|231:173,1,62.9999980773926
404,50,11510,2,0,L|401:125,1,62.9999980773926
452,149,11823,2,0,B|401:109|401:109|398:258,1,188.999994232178
96,232,12448,6,0,P|104:200|96:160,1,62.9999980773926
256,136,12760,2,0,P|227:152|205:186,1,62.9999980773926
360,224,13073,2,0,P|391:232|431:224,1,62.9999980773926
384,80,13385,2,0,P|367:51|333:29,1,62.9999980773926
256,136,13698,1,0,0:0:0:0:
360,224,13854,1,0,0:0:0:0:
248,144,14010,1,0,0:0:0:0:
336,256,14166,1,0,0:0:0:0:
240,152,14323,1,0,0:0:0:0:
312,288,14479,1,0,0:0:0:0:
232,160,14635,1,0,0:0:0:0:
272,320,14791,1,0,0:0:0:0:
228,85,14948,6,0,P|197:95|171:123,1,62.9999980773926
272,320,15260,2,0,P|303:310|329:282,1,62.9999980773926
363,164,15573,2,0,P|353:133|325:107,1,62.9999980773926
128,208,15885,2,0,P|138:239|166:265,1,62.9999980773926
332,111,16198,1,0,0:0:0:0:
228,199,16354,1,0,0:0:0:0:
340,119,16510,1,0,0:0:0:0:
252,231,16666,1,0,0:0:0:0:
348,127,16823,1,0,0:0:0:0:
276,263,16979,1,0,0:0:0:0:
356,135,17135,1,0,0:0:0:0:
316,295,17291,1,0,0:0:0:0:
232,160,17448,6,0,B|144:144,1,62.9999980773926
16,256,17760,2,0,B|104:240,1,62.9999980773926
264,256,18073,2,0,B|176:240,1,62.9999980773926
48,352,18385,2,0,B|136:336,1,62.9999980773926
202,244,18698,1,0,0:0:0:0:
306,156,18854,1,0,0:0:0:0:
194,236,19010,1,0,0:0:0:0:
282,124,19166,1,0,0:0:0:0:
186,228,19323,1,0,0:0:0:0:
258,92,19479,1,0,0:0:0:0:
178,220,19635,1,0,0:0:0:0:
218,60,19791,1,0,0:0:0:0:
256,192,19948,12,0,22135,0:0:0:0:
120,104,22448,6,0,P|158:98|192:104,1,67.5000025749208
136,296,22760,2,0,P|97:301|64:296,1,67.5000025749208
218,28,23073,2,0,P|248:51|268:78,1,67.5000025749208
93,175,23385,2,0,P|62:151|42:124,1,67.5000025749208
392,280,23698,6,0,P|353:285|320:280,1,67.5000025749208
400,57,24010,2,0,P|438:51|472:57,1,67.5000025749208
301,351,24323,2,0,P|270:327|250:300,1,67.5000025749208
438,123,24635,2,0,P|468:146|488:173,1,67.5000025749208
252,304,24948,6,0,L|175:310,1,67.5000025749208
370,117,25260,2,0,L|447:123,1,67.5000025749208
252,304,25573,2,0,L|329:310,1,67.5000025749208
134,117,25885,2,0,L|57:123,1,67.5000025749208
255,360,26198,6,0,L|178:366,1,67.5000025749208
411,77,26510,2,0,L|488:83,1,67.5000025749208
255,360,26823,2,0,L|332:366,1,67.5000025749208
101,77,27135,1,0,0:0:0:0:
150,185,27291,1,0,0:0:0:0:
225,96,27448,5,0,0:0:0:0:
190,244,27604,1,0,0:0:0:0:
169,35,27760,5,0,0:0:0:0:
230,180,27916,1,0,0:0:0:0:
245,23,28073,5,0,0:0:0:0:
190,244,28229,1,0,0:0:0:0:
169,35,28385,5,0,0:0:0:0:
266,248,28541,1,0,0:0:0:0:
297,68,28698,5,0,0:0:0:0:
230,180,28854,1,0,0:0:0:0:
158,106,29010,1,0,0:0:0:0:
310,139,29166,1,0,0:0:0:0:
220,312,29323,1,0,0:0:0:0:
231,100,29479,1,0,0:0:0:0:
336,222,29635,1,0,0:0:0:0:
145,184,29791,1,0,0:0:0:0:
256,45,29948,5,0,0:0:0:0:
295,38,30026,1,0,0:0:0:0:
336,41,30104,1,0,0:0:0:0:
374,53,30182,1,0,0:0:0:0:
409,73,30260,1,0,0:0:0:0:
439,100,30338,1,0,0:0:0:0:
461,134,30416,1,0,0:0:0:0:
476,172,30494,1,0,0:0:0:0:
480,208,30573,1,0,0:0:0:0:
477,252,30651,1,0,0:0:0:0:
465,290,30729,1,0,0:0:0:0:
443,325,30807,1,0,0:0:0:0:
409,351,30885,2,0,L|367:368,1,40.4999987640381
274,352,31041,2,0,L|232:335,1,40.4999987640381
140,280,31198,5,0,0:0:0:0:
296,217,31354,1,0,0:0:0:0:
143,114,31510,1,0,0:0:0:0:
409,351,31823,2,0,B|409:319|441:311|441:311|433:271|441:247|441:247|401:215|401:215|402:193|433:183,1,202.500007724762
262,331,32448,5,0,0:0:0:0:
244,333,32526,1,0,0:0:0:0:
226,336,32604,1,0,0:0:0:0:
208,338,32682,1,0,0:0:0:0:
190,339,32760,1,0,0:0:0:0:
172,337,32838,1,0,0:0:0:0:
154,334,32916,1,0,0:0:0:0:
136,330,32994,1,0,0:0:0:0:
119,321,33073,2,0,L|56:286,3,45
185,255,33385,2,0,L|248:220,3,45
105,187,33698,6,0,P|77:167|68:137,1,45
139,119,33854,2,0,P|120:90|122:59,1,45
195,72,34010,2,0,P|187:39|199:10,1,45
263,46,34166,2,0,P|266:12|288:-10,1,45
341,38,34323,1,0,0:0:0:0:
343,64,34401,1,0,0:0:0:0:
331,88,34479,1,0,0:0:0:0:
313,108,34557,1,0,0:0:0:0:
289,120,34635,1,0,0:0:0:0:
262,125,34713,1,0,0:0:0:0:
235,121,34791,1,0,0:0:0:0:
212,105,34869,1,0,0:0:0:0:
200,91,34948,6,0,P|192:64|200:32,3,45
152,178,35260,2,0,P|174:176|195:184,3,45
210,195,35573,1,0,0:0:0:0:
226,218,35651,1,0,0:0:0:0:
230,245,35729,1,0,0:0:0:0:
225,272,35807,1,0,0:0:0:0:
213,296,35885,1,0,0:0:0:0:
193,314,35963,1,0,0:0:0:0:
169,326,36041,1,0,0:0:0:0:
143,324,36119,1,0,0:0:0:0:
126,317,36197,6,0,B|98:310|86:312|78:291,1,45
111,161,36353,2,0,P|139:168|159:187,1,45
254,310,36510,2,0,B|226:303|214:305|206:284,1,45
239,154,36666,2,0,P|267:161|287:180,1,45
340,288,36823,1,0,0:0:0:0:
343,261,36901,1,0,0:0:0:0:
346,234,36979,1,0,0:0:0:0:
346,207,37057,1,0,0:0:0:0:
372,201,37135,1,0,0:0:0:0:
368,165,37213,1,0,0:0:0:0:
360,129,37291,1,0,0:0:0:0:
349,94,37369,1,0,0:0:0:0:
320,71,37448,6,0,P|293:62|262:63,3,45
195,144,37760,2,0,P|222:153|253:152,3,45
142,46,38073,2,0,P|115:37|84:38,3,45
17,119,38385,2,0,P|44:128|75:127,3,45
96,126,38698,1,0,0:0:0:0:
131,122,38776,1,0,0:0:0:0:
165,112,38854,1,0,0:0:0:0:
197,96,38932,1,0,0:0:0:0:
227,77,39010,1,0,0:0:0:0:
259,91,39088,1,0,0:0:0:0:
291,107,39166,1,0,0:0:0:0:
325,117,39244,1,0,0:0:0:0:
361,117,39323,2,0,L|422:111,1,45
474,190,39479,2,0,L|413:184,1,45
362,266,39635,2,0,L|423:260,1,45
475,339,39791,2,0,L|414:333,1,45
343,346,39948,5,0,0:0:0:0:
312,327,40026,1,0,0:0:0:0:
277,318,40104,1,0,0:0:0:0:
241,318,40182,1,0,0:0:0:0:
205,325,40260,1,0,0:0:0:0:
169,332,40338,1,0,0:0:0:0:
133,326,40416,1,0,0:0:0:0:
102,306,40494,1,0,0:0:0:0:
83,274,40573,5,0,0:0:0:0:
72,240,40651,1,0,0:0:0:0:
72,204,40729,1,0,0:0:0:0:
83,170,40807,1,0,0:0:0:0:
106,142,40885,1,0,0:0:0:0:
141,136,40963,1,0,0:0:0:0:
175,144,41041,1,0,0:0:0:0:
199,169,41119,1,0,0:0:0:0:
208,204,41198,5,0,0:0:0:0:
181,228,41276,1,0,0:0:0:0:
145,230,41354,1,0,0:0:0:0:
113,213,41432,1,0,0:0:0:0:
97,180,41510,1,0,0:0:0:0:
97,144,41588,1,0,0:0:0:0:
111,111,41666,1,0,0:0:0:0:
143,94,41744,1,0,0:0:0:0:
178,85,41823,6,0,P|236:77|319:100,1,135
342,89,42135,1,0,0:0:0:0:
305,238,42291,1,0,0:0:0:0:
230,369,42448,5,0,0:0:0:0:
226,342,42526,1,0,0:0:0:0:
221,315,42604,1,0,0:0:0:0:
217,288,42682,1,0,0:0:0:0:
190,287,42760,1,0,0:0:0:0:
200,262,42838,1,0,0:0:0:0:
214,239,42916,1,0,0:0:0:0:
229,216,42994,1,0,0:0:0:0:
242,192,43073,6,0,L|277:136,3,45
329,79,43385,2,0,L|364:135,3,45
400,201,43698,2,0,L|380:250,1,45
323,312,43854,2,0,L|303:263,1,45
242,192,44010,2,0,L|222:241,1,45
165,303,44166,2,0,L|145:254,1,45
76,192,44323,5,0,0:0:0:0:
68,166,44401,1,0,0:0:0:0:
60,140,44479,1,0,0:0:0:0:
53,113,44557,1,0,0:0:0:0:
26,113,44635,1,0,0:0:0:0:
45,93,44713,1,0,0:0:0:0:
66,77,44791,1,0,0:0:0:0:
87,61,44869,1,0,0:0:0:0:
111,48,44948,6,0,L|180:16,3,45
223,121,45260,2,0,L|154:89,3,45
284,188,45573,2,0,L|353:156,3,45
396,261,45885,2,0,L|327:229,3,45
283,281,46198,5,0,0:0:0:0:
258,269,46276,1,0,0:0:0:0:
231,263,46354,1,0,0:0:0:0:
204,263,46432,1,0,0:0:0:0:
177,268,46510,1,0,0:0:0:0:
153,281,46588,1,0,0:0:0:0:
134,300,46666,1,0,0:0:0:0:
120,323,46744,1,0,0:0:0:0:
110,348,46823,5,0,0:0:0:0:
104,312,46901,1,0,0:0:0:0:
98,276,46979,1,0,0:0:0:0:
93,240,47057,1,0,0:0:0:0:
90,204,47135,1,0,0:0:0:0:
85,168,47213,1,0,0:0:0:0:
82,132,47291,1,0,0:0:0:0:
77,96,47369,1,0,0:0:0:0:
72,59,47448,6,0,P|68:28|76:7,1,45
168,112,47604,2,0,P|172:143|164:164,1,45
264,56,47760,2,0,P|260:25|268:4,1,45
360,109,47916,2,0,P|364:140|356:161,1,45
304,240,48073,5,0,0:0:0:0:
280,264,48151,1,0,0:0:0:0:
248,280,48229,1,0,0:0:0:0:
216,280,48307,1,0,0:0:0:0:
184,272,48385,1,0,0:0:0:0:
160,248,48463,1,0,0:0:0:0:
144,216,48541,1,0,0:0:0:0:
136,184,48619,1,0,0:0:0:0:
136,144,48698,6,0,P|144:112|168:88,3,45
240,160,49010,2,0,P|268:143|302:143,3,45
304,240,49323,2,0,P|335:248|360:272,3,45
256,328,49635,2,0,P|272:356|272:390,3,45
168,352,49948,5,0,0:0:0:0:
160,320,50026,1,0,0:0:0:0:
160,288,50104,1,0,0:0:0:0:
176,256,50182,1,0,0:0:0:0:
208,232,50260,1,0,0:0:0:0:
240,224,50338,1,0,0:0:0:0:
272,232,50416,1,0,0:0:0:0:
304,248,50494,1,0,0:0:0:0:
328,280,50573,5,0,0:0:0:0:
368,296,50651,1,0,0:0:0:0:
408,288,50729,1,0,0:0:0:0:
440,256,50807,1,0,0:0:0:0:
448,208,50885,1,0,0:0:0:0:
440,168,50963,1,0,0:0:0:0:
408,136,51041,1,0,0:0:0:0:
368,120,51119,1,0,0:0:0:0:
326,139,51198,5,0,0:0:0:0:
288,136,51276,1,0,0:0:0:0:
256,128,51354,1,0,0:0:0:0:
224,120,51432,1,0,0:0:0:0:
200,80,51510,1,0,0:0:0:0:
168,112,51588,1,0,0:0:0:0:
136,144,51666,1,0,0:0:0:0:
104,176,51744,1,0,0:0:0:0:
64,200,51823,2,0,B|23:96,1,90
192,200,52135,1,0,0:0:0:0:
312,296,52291,1,0,0:0:0:0:
312,296,52369,1,0,0:0:0:0:
312,296,52448,6,0,L|368:304,3,45
240,192,52760,2,0,L|184:200,3,45
320,96,53073,1,0,0:0:0:0:
344,88,53151,1,0,0:0:0:0:
368,80,53229,1,0,0:0:0:0:
392,72,53307,1,0,0:0:0:0:
400,48,53385,1,0,0:0:0:0:
408,72,53463,1,0,0:0:0:0:
416,96,53541,1,0,0:0:0:0:
424,120,53619,1,0,0:0:0:0:
432,144,53698,6,0,L|456:224,1,45
400,288,53854,2,0,L|376:208,1,45
288,200,54010,2,0,L|312:280,1,45
256,344,54166,2,0,L|232:264,1,45
157,257,54323,1,0,0:0:0:0:
157,221,54401,1,0,0:0:0:0:
166,186,54479,1,0,0:0:0:0:
188,157,54557,1,0,0:0:0:0:
218,138,54635,1,0,0:0:0:0:
252,128,54713,1,0,0:0:0:0:
287,130,54791,1,0,0:0:0:0:
321,140,54869,1,0,0:0:0:0:
342,169,54948,6,0,P|349:196|343:227,3,45
228,275,55260,2,0,P|221:248|227:217,3,45
307,124,55573,2,0,P|334:117|365:123,3,45
413,238,55885,2,0,P|386:245|355:239,3,45
278,203,56198,1,0,0:0:0:0:
242,196,56276,1,0,0:0:0:0:
206,195,56354,1,0,0:0:0:0:
170,202,56432,1,0,0:0:0:0:
136,215,56510,1,0,0:0:0:0:
100,213,56588,1,0,0:0:0:0:
72,190,56666,1,0,0:0:0:0:
62,155,56744,1,0,0:0:0:0:
60,118,56823,5,0,0:0:0:0:
51,144,56901,1,0,0:0:0:0:
42,168,56979,1,0,0:0:0:0:
31,192,57057,1,0,0:0:0:0:
43,217,57135,1,0,0:0:0:0:
38,243,57213,1,0,0:0:0:0:
32,270,57291,1,0,0:0:0:0:
24,295,57369,1,0,0:0:0:0:
20,322,57448,6,0,L|63:312,1,45
142,260,57604,2,0,L|99:250,1,45
171,189,57760,2,0,L|214:179,1,45
293,127,57916,2,0,L|250:117,1,45
317,50,58073,5,0,0:0:0:0:
341,61,58151,1,0,0:0:0:0:
359,80,58229,1,0,0:0:0:0:
369,104,58307,1,0,0:0:0:0:
372,130,58385,1,0,0:0:0:0:
366,156,58463,1,0,0:0:0:0:
351,178,58541,1,0,0:0:0:0:
330,195,58619,1,0,0:0:0:0:
308,212,58698,6,0,P|290:225|254:233,3,45
209,137,59010,2,0,P|227:150|263:158,3,45
219,281,59323,2,0,P|206:263|198:227,3,45
295,107,59635,2,0,P|308:125|316:161,3,45
308,212,59948,5,0,0:0:0:0:
281,217,60026,1,0,0:0:0:0:
254,221,60104,1,0,0:0:0:0:
227,224,60182,1,0,0:0:0:0:
218,249,60260,1,0,0:0:0:0:
191,255,60338,1,0,0:0:0:0:
164,261,60416,1,0,0:0:0:0:
137,266,60494,1,0,0:0:0:0:
132,292,60573,5,0,0:0:0:0:
106,266,60651,1,0,0:0:0:0:
103,230,60729,1,0,0:0:0:0:
125,202,60807,1,0,0:0:0:0:
139,169,60885,1,0,0:0:0:0:
137,133,60963,1,0,0:0:0:0:
125,99,61041,1,0,0:0:0:0:
93,81,61119,1,0,0:0:0:0:
58,68,61198,5,0,0:0:0:0:
100,52,61276,1,0,0:0:0:0:
144,43,61354,1,0,0:0:0:0:
188,47,61432,1,0,0:0:0:0:
229,64,61510,1,0,0:0:0:0:
253,101,61588,1,0,0:0:0:0:
260,145,61666,1,0,0:0:0:0:
246,187,61744,1,0,0:0:0:0:
210,215,61823,6,0,P|182:152|208:75,1,135
229,64,62135,1,0,0:0:0:0:
324,179,62291,1,0,0:0:0:0:
414,35,62448,5,0,0:0:0:0:
440,34,62526,1,0,0:0:0:0:
454,56,62604,1,0,0:0:0:0:
458,82,62682,1,0,0:0:0:0:
441,103,62760,1,0,0:0:0:0:
414,105,62838,1,0,0:0:0:0:
392,89,62916,1,0,0:0:0:0:
367,78,62994,1,0,0:0:0:0:
340,70,63073,2,0,P|314:61|274:66,1,45
219,114,63229,2,0,P|245:123|285:118,1,45
220,38,63385,2,0,P|194:29|154:34,1,45
99,82,63541,2,0,P|125:91|165:86,1,45
219,114,63698,5,0,0:0:0:0:
253,122,63776,1,0,0:0:0:0:
280,144,63854,1,0,0:0:0:0:
291,178,63932,1,0,0:0:0:0:
295,213,64010,1,0,0:0:0:0:
289,248,64088,1,0,0:0:0:0:
272,279,64166,1,0,0:0:0:0:
238,291,64244,1,0,0:0:0:0:
202,299,64323,2,0,P|172:306|134:291,1,45
89,226,64479,2,0,P|119:219|156:233,1,45
175,126,64635,2,0,P|145:133|107:118,1,45
62,53,64791,2,0,P|92:46|129:60,1,45
175,126,64948,5,0,0:0:0:0:
209,135,65026,1,0,0:0:0:0:
244,133,65104,1,0,0:0:0:0:
277,120,65182,1,0,0:0:0:0:
309,104,65260,1,0,0:0:0:0:
343,94,65338,1,0,0:0:0:0:
378,98,65416,1,0,0:0:0:0:
410,114,65494,1,0,0:0:0:0:
437,137,65573,2,0,L|482:176,1,45
468,278,65729,2,0,L|423:239,1,45
321,243,65885,2,0,L|366:282,1,45
243,289,66041,2,0,L|198:250,1,45
97,198,66198,5,0,0:0:0:0:
125,162,66276,1,0,0:0:0:0:
167,147,66354,1,0,0:0:0:0:
211,151,66432,1,0,0:0:0:0:
248,175,66510,1,0,0:0:0:0:
270,213,66588,1,0,0:0:0:0:
274,257,66666,1,0,0:0:0:0:
243,289,66744,1,0,0:0:0:0:
229,245,66823,1,0,0:0:0:0:
214,202,66901,1,0,0:0:0:0:
201,158,66979,1,0,0:0:0:0:
188,114,67057,1,0,0:0:0:0:
174,71,67135,2,0,L|159:21,3,45
248,68,67448,5,0,0:0:0:0:
243,289,67604,1,0,0:0:0:0:
174,71,67760,5,0,0:0:0:0:
291,237,67916,1,0,0:0:0:0:
317,67,68073,5,0,0:0:0:0:
186,239,68229,1,0,0:0:0:0:
248,68,68385,1,0,0:0:0:0:
243,289,68541,1,0,0:0:0:0:
389,70,68698,5,0,0:0:0:0:
142,141,68854,1,0,0:0:0:0:
291,237,69010,1,0,0:0:0:0:
248,68,69166,1,0,0:0:0:0:
175,315,69323,1,0,0:0:0:0:
264,151,69479,1,0,0:0:0:0:
369,326,69635,1,0,0:0:0:0:
186,239,69791,1,0,0:0:0:0:
303,25,69948,5,0,0:0:0:0:
311,41,70026,1,0,0:0:0:0:
314,58,70104,1,0,0:0:0:0:
313,75,70182,1,0,0:0:0:0:
310,92,70260,5,0,0:0:0:0:
296,115,70338,1,0,0:0:0:0:
271,126,70416,1,0,0:0:0:0:
244,128,70494,1,0,0:0:0:0:
218,118,70573,5,0,0:0:0:0:
183,107,70651,1,0,0:0:0:0:
147,107,70729,1,0,0:0:0:0:
115,123,70807,1,0,0:0:0:0:
99,155,70885,5,0,0:0:0:0:
99,199,70963,1,0,0:0:0:0:
119,238,71041,1,0,0:0:0:0:
157,261,71119,1,0,0:0:0:0:
202,257,71198,6,0,B|198:212|198:212|263:184|309:238,4,161.999995056153
99,199,72291,2,0,L|115:239,3,26.9999991760254
43,151,72448,6,0,P|89:127|149:144,1,90
304,232,72760,2,0,P|350:256|410:239,1,90
248,304,73073,1,0,0:0:0:0:
195,132,73229,1,0,0:0:0:0:
361,182,73385,1,0,0:0:0:0:
177,44,73541,6,0,L|200:154,1,90
244,184,73854,2,0,L|221:74,1,90
280,142,74166,1,0,0:0:0:0:
292,265,74323,6,0,P|246:289|186:272,1,90
94,64,74635,2,0,P|140:40|200:57,1,90
232,216,74948,1,0,0:0:0:0:
94,64,75104,1,0,0:0:0:0:
280,142,75260,1,0,0:0:0:0:
94,64,75416,6,0,L|117:174,1,90
153,211,75729,2,0,L|130:101,1,90
184,152,76041,1,0,0:0:0:0:
184,152,76119,1,0,0:0:0:0:
184,152,76198,6,0,B|144:152|112:136|112:136|88:152,1,90
368,272,76510,2,0,B|408:272|440:256|440:256|464:272,1,90
336,352,76823,1,0,0:0:0:0:
159,179,76979,1,0,0:0:0:0:
389,198,77135,1,0,0:0:0:0:
173,262,77291,6,0,B|149:222|149:222|166:155,1,90
169,145,77604,2,0,B|193:185|193:185|176:252,1,90
121,199,77916,1,0,0:0:0:0:
249,114,78073,6,0,L|347:122,1,90
425,344,78385,2,0,L|327:352,1,90
200,264,78698,1,0,0:0:0:0:
338,121,78854,1,0,0:0:0:0:
335,70,79114,6,0,B|352:95|352:95|334:126,1,60
194,317,79323,6,0,B|177:292|177:292|209:251,1,66.0000020141602
176,56,79531,6,0,B|193:81|193:81|153:138,1,71.9999978027344
25,341,79739,6,0,B|8:316|8:316|56:251,1,77.9999964294435
176,56,79948,6,0,B|224:40|224:40|280:72,1,99.0000030212403
356,313,80260,1,0,0:0:0:0:
209,118,80416,1,0,0:0:0:0:
69,270,80573,2,0,P|53:214|69:166,1,99.0000030212403
266,64,80885,2,0,P|282:120|266:168,1,99.0000030212403
69,270,81198,5,0,0:0:0:0:
266,64,81354,1,0,0:0:0:0:
63,175,81510,1,0,0:0:0:0:
271,158,81666,1,0,0:0:0:0:
271,158,81744,1,0,0:0:0:0:
271,158,81823,6,0,B|375:142,1,99.0000030212403
266,64,82135,1,0,0:0:0:0:
154,342,82291,1,0,0:0:0:0:
8,128,82448,2,0,P|-8:184|15:231,1,99.0000030212403
216,120,82760,2,0,L|334:120,1,99.0000030212403
221,214,83073,5,0,0:0:0:0:
8,128,83229,1,0,0:0:0:0:
154,342,83385,1,0,0:0:0:0:
216,120,83541,2,0,L|236:73,1,49.5000015106202
328,22,83698,5,0,0:0:0:0:
372,43,83776,1,0,0:0:0:0:
408,77,83854,1,0,0:0:0:0:
431,120,83932,1,0,0:0:0:0:
441,169,84010,1,0,0:0:0:0:
435,218,84088,1,0,0:0:0:0:
415,263,84166,1,0,0:0:0:0:
381,299,84244,1,0,0:0:0:0:
339,324,84323,1,0,0:0:0:0:
291,335,84401,1,0,0:0:0:0:
242,330,84479,1,0,0:0:0:0:
196,311,84557,1,0,0:0:0:0:
159,279,84635,6,0,L|120:241,1,49.5000015106202
112,112,84791,2,0,L|135:161,1,49.5000015106202
224,208,84948,2,0,L|218:153,1,49.5000015106202
320,104,85104,2,0,L|296:153,1,49.5000015106202
448,128,85260,2,0,L|393:145,3,49.5000015106202
320,104,85573,5,0,0:0:0:0:
46,193,85885,1,0,0:0:0:0:
312,346,86198,1,0,0:0:0:0:
101,53,86510,5,0,0:0:0:0:
371,186,86822,1,0,0:0:0:0:
105,339,87135,1,0,0:0:0:0:
256,192,87448,12,0,89323,0:0:0:0:
139,123,89479,6,0,P|114:180|149:253,1,135
240,224,90104,2,0,P|197:179|261:171,1,135
312,120,90729,2,0,P|337:177|302:250,1,135
384,112,91354,6,0,B|384:80|360:48|312:48|312:48|272:48|240:64|208:82|208:82|220:97|220:97|208:128|138:142|85:68|85:68|138:142|105:212|28:189|32:144,1,585
34,223,93698,6,0,L|42:279,1,45
88,136,94010,2,0,L|80:80,1,45
152,216,94323,1,0,0:0:0:0:
208,144,94479,1,0,0:0:0:0:
326,137,94635,2,0,L|318:81,1,45
272,224,94947,2,0,L|280:280,1,45
208,144,95260,1,0,0:0:0:0:
152,216,95416,1,0,0:0:0:0:
179,64,95573,6,0,P|207:58|235:64,1,45
315,220,95885,2,0,P|287:226|259:220,1,45
152,216,96198,1,0,0:0:0:0:
208,144,96354,1,0,0:0:0:0:
181,296,96510,2,0,P|153:302|125:296,1,45
45,140,96822,2,0,P|73:134|101:140,1,45
208,144,97135,1,0,0:0:0:0:
152,216,97291,1,0,0:0:0:0:
181,296,97448,6,0,L|272:288,1,90
344,264,97916,1,0,0:0:0:0:
392,208,98073,1,0,0:0:0:0:
384,128,98229,1,0,0:0:0:0:
320,88,98385,2,0,L|256:80,1,45
208,176,98698,2,0,L|272:168,1,45
184,80,99010,2,0,L|120:72,1,45
48,64,99323,5,0,0:0:0:0:
96,144,99479,1,0,0:0:0:0:
40,216,99635,1,0,0:0:0:0:
96,288,99791,1,0,0:0:0:0:
160,224,99948,2,0,L|224:216,1,45
304,240,100260,1,0,0:0:0:0:
256,160,100416,1,0,0:0:0:0:
312,88,100572,1,0,0:0:0:0:
256,16,100728,1,0,0:0:0:0:
192,80,100885,2,0,L|112:88,1,67.5
88,104,101198,6,0,P|80:136|96:176,1,53.9999983520508
144,240,101510,2,0,L|216:224,1,53.9999983520508
190,303,101823,1,0,0:0:0:0:
152,168,101979,1,0,0:0:0:0:
277,241,102135,2,0,P|275:208|248:174,1,53.9999983520508
152,168,102447,2,0,L|80:184,1,53.9999983520508
113,102,102760,1,0,0:0:0:0:
144,240,102916,1,0,0:0:0:0:
123,35,103073,6,0,P|155:27|195:43,1,53.9999983520508
264,96,103385,2,0,L|248:168,1,53.9999983520508
332,131,103698,1,0,0:0:0:0:
192,104,103854,1,0,0:0:0:0:
265,229,104010,2,0,P|232:227|198:200,1,53.9999983520508
192,104,104322,2,0,L|208:32,1,53.9999983520508
126,67,104635,1,0,0:0:0:0:
264,96,104791,1,0,0:0:0:0:
213,217,104948,6,0,L|232:336,1,107.999996704102
328,272,105416,1,0,0:0:0:0:
344,168,105573,1,0,0:0:0:0:
264,96,105729,1,0,0:0:0:0:
213,217,105885,2,0,L|277:225,1,53.9999983520508
344,168,106198,2,0,L|418:178,1,53.9999983520508
210,90,106510,2,0,L|278:97,1,53.9999983520508
123,35,106823,6,0,P|94:101|146:173,1,161.999995056153
213,217,107448,2,0,P|227:180|225:153,1,53.9999983520508
263,95,107760,2,0,L|283:129,1,26.9999991760254
354,113,108073,6,0,L|358:127,15,11.25
332,87,108698,6,0,P|294:83|257:98,1,72
92,279,109010,2,0,L|72:180,1,72
182,254,109323,1,0,0:0:0:0:
33,129,109479,1,0,0:0:0:0:
154,327,109635,2,0,P|192:331|229:316,1,72
394,135,109947,2,0,L|414:234,1,72
290,240,110260,1,0,0:0:0:0:
154,327,110416,1,0,0:0:0:0:
361,267,110573,6,0,P|365:229|350:192,1,72
169,28,110885,2,0,L|268:8,1,72
128,160,111198,1,0,0:0:0:0:
354,198,111354,1,0,0:0:0:0:
121,90,111510,2,0,P|117:128|132:165,1,72
313,330,111822,2,0,L|214:350,1,72
57,144,112135,2,0,L|156:164,1,72
292,84,112448,6,0,L|305:176,1,72
208,331,112760,1,0,0:0:0:0:
127,270,112916,1,0,0:0:0:0:
86,180,113073,1,0,0:0:0:0:
118,89,113229,1,0,0:0:0:0:
221,97,113385,2,0,L|300:82,1,72
431,219,113698,2,0,L|352:204,1,72
208,331,114010,2,0,L|287:316,1,72
431,219,114323,6,0,P|438:183|428:143,1,72
221,97,114635,2,0,P|214:133|224:173,1,72
278,317,114948,1,0,0:0:0:0:
431,219,115104,1,0,0:0:0:0:
221,167,115260,2,0,P|183:160|140:171,1,72
278,317,115573,2,0,L|351:294,1,72
238,97,115885,2,0,L|218:179,1,72
206,326,116198,6,0,B|280:316,1,72
150,166,116510,2,0,L|51:146,1,72
128,272,116823,1,0,0:0:0:0:
240,176,116979,1,0,0:0:0:0:
271,28,117135,6,0,B|197:38,1,72
330,186,117447,2,0,L|429:206,1,72
352,80,117760,1,0,0:0:0:0:
240,176,117916,1,0,0:0:0:0:
410,271,118073,6,0,B|400:197,1,72
278,83,118385,2,0,L|258:182,1,72
244,322,118698,1,0,0:0:0:0:
353,155,118854,1,0,0:0:0:0:
169,291,119010,6,0,B|179:365,1,72
353,155,119322,2,0,L|373:56,1,72
236,116,119635,1,0,0:0:0:0:
396,232,119791,1,0,0:0:0:0:
220,300,119948,6,0,L|207:208,1,72
304,53,120260,1,0,0:0:0:0:
385,114,120416,1,0,0:0:0:0:
426,204,120573,1,0,0:0:0:0:
394,295,120729,1,0,0:0:0:0:
291,287,120885,2,0,L|212:302,1,72
81,165,121198,2,0,L|160:180,1,72
304,53,121510,2,0,L|225:68,1,72
81,165,121823,6,0,P|74:201|214:230,1,216
304,53,122448,2,0,L|287:136,1,72
256,192,122760,12,0,123541,0:0:0:0:
76,278,123698,6,0,B|58:329|58:329|107:307|152:335|152:335|124:270|158:194,1,270
86,160,124323,2,0,P|152:133|222:179,1,135
228,194,124635,6,0,L|233:152,1,30
394,59,124948,2,0,L|389:101,1,30
262,348,125260,5,0,0:0:0:0:
239,151,125416,1,0,0:0:0:0:
76,278,125573,6,0,B|66:234|27:189|27:189|93:184|148:134|147:66,1,270
239,151,126198,2,0,P|302:167|377:141,1,135
404,133,126510,6,0,L|399:175,1,30
238,268,126823,2,0,L|243:226,1,30
226,28,127135,5,0,0:0:0:0:
249,225,127291,1,0,0:0:0:0:
338,58,127448,6,0,B|361:23|400:17|400:17|443:33|446:78|446:78|426:108|386:115|386:115|376:152|392:192,1,270
448,262,128073,2,0,P|391:287|320:264,1,135
331,223,128385,6,0,L|326:181,1,30
165,88,128698,2,0,L|170:130,1,30
342,376,129010,5,0,0:0:0:0:
319,179,129166,1,0,0:0:0:0:
236,256,129323,6,0,L|144:240,1,90
319,179,129635,2,0,L|416:168,1,90
236,78,129948,2,0,L|136:56,1,90
35,127,130260,5,0,0:0:0:0:
483,190,130573,1,0,0:0:0:0:
35,257,130885,1,0,0:0:0:0:
99,91,131041,1,0,0:0:0:0:
180,283,131198,6,0,P|169:236|188:187,1,90
425,53,131510,2,0,P|436:100|417:149,1,90
181,197,131823,2,0,L|71:185,1,90
282,249,132135,2,0,P|293:202|274:153,1,90
37,19,132447,2,0,P|26:66|45:115,1,90
281,163,132760,2,0,L|391:151,1,90
163,95,133073,6,0,L|148:201,1,90
357,242,133385,2,0,L|372:136,1,90
230,49,133698,1,0,0:0:0:0:
296,308,133854,1,0,0:0:0:0:
150,184,134010,2,0,L|40:170,1,90
369,152,134323,2,0,L|479:138,1,90
167,32,134635,2,0,L|57:18,1,90
190,110,134948,5,0,0:0:0:0:
229,278,135104,1,0,0:0:0:0:
323,58,135260,1,0,0:0:0:0:
261,350,135416,1,0,0:0:0:0:
167,32,135573,1,0,0:0:0:0:
304,284,135729,1,0,0:0:0:0:
114,85,135885,5,0,0:0:0:0:
310,169,136041,1,0,0:0:0:0:
128,208,136198,1,0,0:0:0:0:
237,35,136354,1,0,0:0:0:0:
328,360,136510,1,0,0:0:0:0:
64,152,136666,1,0,0:0:0:0:
281,92,136823,5,0,0:0:0:0:
324,82,136901,1,0,0:0:0:0:
368,89,136979,1,0,0:0:0:0:
407,112,137057,1,0,0:0:0:0:
435,146,137135,1,0,0:0:0:0:
448,189,137213,1,0,0:0:0:0:
445,234,137291,1,0,0:0:0:0:
426,274,137369,1,0,0:0:0:0:
394,305,137448,1,0,0:0:0:0:
42,237,137604,6,0,L|11:227,4,22.5
487,208,138073,5,0,0:0:0:0:
51,51,138385,5,0,0:0:0:0:
280,216,138698,5,0,0:0:0:0:
297,188,138776,1,0,0:0:0:0:
315,161,138854,1,0,0:0:0:0:
342,143,138932,1,0,0:0:0:0:
364,128,139010,1,0,0:0:0:0:
331,130,139088,1,0,0:0:0:0:
299,123,139166,1,0,0:0:0:0:
269,109,139244,1,0,0:0:0:0:
240,92,139323,2,0,L|195:61,3,53.9999983520508
167,45,139635,5,0,0:0:0:0:
134,44,139713,1,0,0:0:0:0:
104,56,139791,1,0,0:0:0:0:
83,80,139869,1,0,0:0:0:0:
74,111,139948,1,0,0:0:0:0:
70,143,140026,1,0,0:0:0:0:
75,174,140104,1,0,0:0:0:0:
87,203,140182,1,0,0:0:0:0:
109,226,140260,2,0,L|165:261,3,53.9999983520508
183,270,140573,5,0,0:0:0:0:
213,281,140651,1,0,0:0:0:0:
245,282,140729,1,0,0:0:0:0:
276,277,140807,1,0,0:0:0:0:
302,259,140885,1,0,0:0:0:0:
318,231,140963,1,0,0:0:0:0:
321,198,141041,1,0,0:0:0:0:
306,169,141119,1,0,0:0:0:0:
281,146,141198,2,0,L|302:93,1,53.9999983520508
146,25,141354,2,0,L|167:78,1,53.9999983520508
181,104,141510,1,0,0:0:0:0:
194,133,141588,1,0,0:0:0:0:
205,163,141666,1,0,0:0:0:0:
218,192,141744,1,0,0:0:0:0:
246,210,141823,5,0,0:0:0:0:
214,205,141901,1,0,0:0:0:0:
182,205,141979,1,0,0:0:0:0:
151,196,142057,1,0,0:0:0:0:
120,190,142135,2,0,L|28:183,1,53.9999983520508
85,337,142291,2,0,L|177:330,1,53.9999983520508
174,328,142448,5,0,0:0:0:0:
202,312,142526,1,0,0:0:0:0:
231,299,142604,1,0,0:0:0:0:
262,292,142682,1,0,0:0:0:0:
294,291,142760,1,0,0:0:0:0:
326,294,142838,1,0,0:0:0:0:
357,302,142916,1,0,0:0:0:0:
387,313,142994,1,0,0:0:0:0:
409,336,143073,5,0,0:0:0:0:
408,303,143151,1,0,0:0:0:0:
405,270,143229,1,0,0:0:0:0:
395,238,143307,1,0,0:0:0:0:
385,207,143385,1,0,0:0:0:0:
370,178,143463,1,0,0:0:0:0:
350,151,143541,1,0,0:0:0:0:
327,127,143619,1,0,0:0:0:0:
299,108,143698,1,0,0:0:0:0:
269,95,143776,1,0,0:0:0:0:
237,89,143854,1,0,0:0:0:0:
204,89,143932,1,0,0:0:0:0:
172,93,144010,1,0,0:0:0:0:
141,104,144088,1,0,0:0:0:0:
112,119,144166,1,0,0:0:0:0:
89,142,144244,1,0,0:0:0:0:
73,170,144323,6,0,P|53:212|58:291,1,107.999996704102
292,347,144635,2,0,P|312:305|307:226,1,107.999996704102
132,232,144948,1,0,0:0:0:0:
400,178,145104,1,0,0:0:0:0:
113,67,145260,2,0,L|231:49,1,107.999996704102
400,178,145573,2,0,L|282:160,1,107.999996704102
80,292,145885,2,0,P|136:309|199:280,1,107.999996704102
219,50,146198,5,0,0:0:0:0:
222,82,146276,1,0,0:0:0:0:
224,114,146354,1,0,0:0:0:0:
225,146,146432,1,0,0:0:0:0:
227,178,146510,1,0,0:0:0:0:
230,210,146588,1,0,0:0:0:0:
233,242,146666,1,0,0:0:0:0:
235,274,146744,1,0,0:0:0:0:
236,306,146823,6,0,P|232:328|239:359,1,53.9999983520508
370,284,146979,2,0,P|374:262|367:231,1,53.9999983520508
317,138,147135,1,0,0:0:0:0:
286,127,147213,1,0,0:0:0:0:
253,123,147291,1,0,0:0:0:0:
220,125,147369,1,0,0:0:0:0:
187,131,147448,1,0,0:0:0:0:
157,143,147526,1,0,0:0:0:0:
132,164,147604,1,0,0:0:0:0:
117,192,147682,1,0,0:0:0:0:
104,224,147760,6,0,P|96:240|104:288,1,53.9999983520508
200,328,147916,2,0,P|208:312|200:264,1,53.9999983520508
288,192,148073,5,0,0:0:0:0:
304,224,148151,1,0,0:0:0:0:
320,256,148229,1,0,0:0:0:0:
336,288,148307,1,0,0:0:0:0:
344,320,148385,1,0,0:0:0:0:
360,288,148463,1,0,0:0:0:0:
376,256,148541,1,0,0:0:0:0:
392,224,148619,1,0,0:0:0:0:
400,192,148698,5,0,0:0:0:0:
376,160,148776,1,0,0:0:0:0:
336,144,148854,1,0,0:0:0:0:
296,144,148932,1,0,0:0:0:0:
256,152,149010,1,0,0:0:0:0:
224,176,149088,1,0,0:0:0:0:
200,216,149166,1,0,0:0:0:0:
191,258,149244,1,0,0:0:0:0:
187,301,149323,6,0,L|163:213,1,53.9999983520508
32,144,149479,2,0,L|56:232,1,53.9999983520508
270,204,149635,2,0,L|246:116,1,53.9999983520508
110,52,149791,2,0,L|134:140,1,53.9999983520508
375,303,149948,2,0,L|351:215,3,53.9999983520508
270,204,150260,2,0,L|294:116,3,53.9999983520508
471,232,150573,6,0,L|457:163,1,53.9999983520508
378,86,150729,2,0,L|366:141,1,53.9999983520508
293,211,150885,1,0,0:0:0:0:
259,253,150963,1,0,0:0:0:0:
211,277,151041,1,0,0:0:0:0:
157,281,151119,1,0,0:0:0:0:
106,259,151198,1,0,0:0:0:0:
77,213,151276,1,0,0:0:0:0:
69,159,151354,1,0,0:0:0:0:
97,113,151432,1,0,0:0:0:0:
143,85,151510,6,0,L|176:160,1,53.9999983520508
293,211,151666,2,0,L|272:144,1,53.9999983520508
304,40,151823,1,0,0:0:0:0:
352,56,151901,1,0,0:0:0:0:
396,86,151979,1,0,0:0:0:0:
422,133,152057,1,0,0:0:0:0:
431,186,152135,1,0,0:0:0:0:
414,237,152213,1,0,0:0:0:0:
377,276,152291,1,0,0:0:0:0:
327,297,152369,1,0,0:0:0:0:
272,297,152448,2,0,L|207:295,3,53.9999983520508
379,74,152760,6,0,L|281:99,1,53.9999983520508
224,158,152916,2,0,L|322:183,1,53.9999983520508
177,250,153073,2,0,L|79:275,1,53.9999983520508
22,334,153229,2,0,L|120:359,1,53.9999983520508
156,357,153385,5,0,0:0:0:0:
204,60,153541,1,0,0:0:0:0:
420,156,153698,5,0,0:0:0:0:
383,188,153776,1,0,0:0:0:0:
337,204,153854,1,0,0:0:0:0:
288,205,153932,1,0,0:0:0:0:
240,197,154010,1,0,0:0:0:0:
199,170,154088,1,0,0:0:0:0:
159,141,154166,1,0,0:0:0:0:
110,136,154244,1,0,0:0:0:0:
64,153,154323,6,0,L|11:175,1,53.9999983520508
106,230,154479,2,0,L|156:264,1,53.9999983520508
219,335,154635,1,0,0:0:0:0:
244,293,154713,1,0,0:0:0:0:
255,245,154791,1,0,0:0:0:0:
255,196,154869,1,0,0:0:0:0:
241,148,154948,1,0,0:0:0:0:
229,100,155026,1,0,0:0:0:0:
243,53,155104,1,0,0:0:0:0:
284,27,155182,1,0,0:0:0:0:
330,14,155260,6,0,L|390:3,1,53.9999983520508
498,102,155416,2,0,L|438:113,1,53.9999983520508
345,157,155573,1,0,0:0:0:0:
298,171,155651,1,0,0:0:0:0:
251,185,155729,1,0,0:0:0:0:
202,181,155807,1,0,0:0:0:0:
156,163,155885,1,0,0:0:0:0:
107,162,155963,1,0,0:0:0:0:
63,184,156041,1,0,0:0:0:0:
44,228,156119,1,0,0:0:0:0:
53,276,156198,6,0,L|68:331,1,53.9999983520508
205,368,156354,2,0,L|190:313,1,53.9999983520508
251,185,156510,2,0,L|266:240,1,53.9999983520508
403,277,156666,2,0,L|388:222,1,53.9999983520508
453,126,156823,6,0,L|508:109,3,53.9999983520508
388,224,157135,2,0,L|333:207,3,53.9999983520508
251,185,157448,1,0,0:0:0:0:
203,173,157526,1,0,0:0:0:0:
154,167,157604,1,0,0:0:0:0:
106,178,157682,1,0,0:0:0:0:
78,217,157760,1,0,0:0:0:0:
69,264,157838,1,0,0:0:0:0:
90,307,157916,1,0,0:0:0:0:
130,333,157994,1,0,0:0:0:0:
178,336,158073,6,0,L|248:327,1,53.9999983520508
323,242,158229,2,0,L|253:233,1,53.9999983520508
154,247,158385,1,0,0:0:0:0:
131,204,158463,1,0,0:0:0:0:
129,155,158541,1,0,0:0:0:0:
146,109,158619,1,0,0:0:0:0:
181,75,158698,1,0,0:0:0:0:
227,62,158776,1,0,0:0:0:0:
275,60,158854,1,0,0:0:0:0:
319,80,158932,1,0,0:0:0:0:
349,118,159010,6,0,L|367:194,1,53.9999983520508
273,297,159166,2,0,L|255:221,1,53.9999983520508
131,204,159323,1,0,0:0:0:0:
139,251,159401,1,0,0:0:0:0:
158,295,159479,1,0,0:0:0:0:
195,326,159557,1,0,0:0:0:0:
241,341,159635,1,0,0:0:0:0:
289,340,159713,1,0,0:0:0:0:
334,323,159791,1,0,0:0:0:0:
367,287,159869,1,0,0:0:0:0:
375,238,159948,6,0,P|385:208|374:164,1,53.9999983520508
289,179,160104,2,0,P|282:148|251:115,1,53.9999983520508
190,195,160260,2,0,P|169:171|125:158,1,53.9999983520508
106,261,160416,2,0,P|76:251|32:262,1,53.9999983520508
161,328,160573,5,0,0:0:0:0:
203,97,160729,1,0,0:0:0:0:
250,253,160885,1,0,0:0:0:0:
85,187,161041,1,0,0:0:0:0:
321,231,161198,6,0,P|323:262|308:298,3,53.9999983520508
250,253,161510,2,0,P|248:222|263:186,3,53.9999983520508
154,280,161823,2,0,P|156:311|141:347,3,53.9999983520508
85,187,162135,2,0,P|83:156|98:120,3,53.9999983520508
253,103,162448,2,0,P|222:101|186:116,3,53.9999983520508
321,231,162760,2,0,P|352:229|388:244,3,53.9999983520508
149,332,163073,6,0,P|118:330|82:345,3,53.9999983520508
373,235,163385,2,0,P|404:233|440:248,3,53.9999983520508
75,163,163698,2,0,P|44:161|8:176,3,53.9999983520508
456,54,164010,2,0,P|487:52|523:67,3,53.9999983520508
255,351,164323,2,0,P|257:320|242:284,3,53.9999983520508
56,54,164635,2,0,P|25:52|-11:67,3,53.9999983520508
107,45,164948,5,0,0:0:0:0:
147,249,165104,1,0,0:0:0:0:
153,100,165260,1,0,0:0:0:0:
62,300,165416,1,0,0:0:0:0:
240,173,165573,1,0,0:0:0:0:
82,115,165729,1,0,0:0:0:0:
127,347,165885,5,0,0:0:0:0:
225,43,166041,1,0,0:0:0:0:
9,203,166198,1,0,0:0:0:0:
260,317,166354,1,0,0:0:0:0:
82,115,166510,1,0,0:0:0:0:
341,26,166666,1,0,0:0:0:0:
1,114,166823,5,0,0:0:0:0:
0,166,166901,1,0,0:0:0:0:
6,218,166979,1,0,0:0:0:0:
42,258,167057,1,0,0:0:0:0:
91,278,167135,1,0,0:0:0:0:
145,274,167213,1,0,0:0:0:0:
191,248,167291,1,0,0:0:0:0:
222,204,167369,1,0,0:0:0:0:
230,151,167448,1,0,0:0:0:0:
116,51,167604,6,0,L|100:18,4,26.9999991760254
257,362,168073,5,0,0:0:0:0:
339,34,168385,5,0,0:0:0:0:
186,340,168698,5,0,0:0:0:0:
84,303,168854,1,0,0:0:0:0:
127,204,169010,2,0,L|236:181,1,90
364,204,169323,2,0,P|367:160|337:110,1,90
245,84,169635,1,0,0:0:0:0:
215,185,169791,1,0,0:0:0:0:
139,293,169948,2,0,L|125:190,1,90
250,345,170260,2,0,L|264:242,1,90
291,101,170573,5,0,0:0:0:0:
393,138,170729,1,0,0:0:0:0:
350,237,170885,2,0,L|241:260,1,90
113,237,171198,2,0,P|109:280|140:331,1,90
232,357,171510,1,0,0:0:0:0:
262,256,171666,1,0,0:0:0:0:
338,148,171823,2,0,L|352:251,1,90
227,96,172135,2,0,L|213:199,1,90
214,185,172369,1,0,0:0:0:0:
214,185,172448,5,0,0:0:0:0:
139,262,172604,1,0,0:0:0:0:
38,223,172760,1,0,0:0:0:0:
58,117,172916,1,0,0:0:0:0:
161,85,173073,1,0,0:0:0:0:
262,122,173229,1,0,0:0:0:0:
361,164,173385,1,0,0:0:0:0:
462,128,173541,1,0,0:0:0:0:
412,31,173698,1,0,0:0:0:0:
311,71,173854,1,0,0:0:0:0:
290,176,174010,1,0,0:0:0:0:
356,260,174166,1,0,0:0:0:0:
403,162,174323,6,0,L|424:62,1,90
232,255,174635,2,0,L|211:155,1,90
63,164,174948,2,0,L|84:64,1,90
81,75,175182,1,0,0:0:0:0:
81,75,175260,1,0,0:0:0:0:
213,166,175416,1,0,0:0:0:0:
179,33,175573,1,0,0:0:0:0:
63,164,175729,1,0,0:0:0:0:
196,99,175885,1,0,0:0:0:0:
133,258,176041,1,0,0:0:0:0:
133,258,176119,1,0,0:0:0:0:
133,258,176198,6,0,B|168:238|168:238|253:257,1,90
329,322,176510,2,0,P|338:278|315:208,1,90
270,142,176823,1,0,0:0:0:0:
216,248,176979,1,0,0:0:0:0:
79,132,177135,2,0,B|114:152|114:152|199:133,1,90
269,54,177447,2,0,P|278:98|255:168,1,90
216,248,177760,1,0,0:0:0:0:
162,142,177916,1,0,0:0:0:0:
91,261,178073,6,0,L|97:358,1,90
216,248,178385,1,0,0:0:0:0:
162,142,178541,1,0,0:0:0:0:
268,167,178698,1,0,0:0:0:0:
354,101,178854,1,0,0:0:0:0:
358,217,179010,2,0,L|372:313,1,90
216,248,179323,2,0,L|202:344,1,90
41,201,179635,2,0,L|55:297,1,90
53,290,179869,1,0,0:0:0:0:
53,290,179948,5,0,0:0:0:0:
216,248,180104,1,0,0:0:0:0:
102,142,180260,1,0,0:0:0:0:
130,318,180416,1,0,0:0:0:0:
247,177,180573,1,0,0:0:0:0:
106,221,180729,1,0,0:0:0:0:
122,49,180885,5,0,0:0:0:0:
171,179,181041,1,0,0:0:0:0:
254,41,181198,1,0,0:0:0:0:
102,142,181354,1,0,0:0:0:0:
247,177,181510,1,0,0:0:0:0:
52,78,181666,1,0,0:0:0:0:
52,78,181744,1,0,0:0:0:0:
52,78,181823,5,0,0:0:0:0:
76,229,181979,1,0,0:0:0:0:
131,85,182135,5,0,0:0:0:0:
140,265,182291,1,0,0:0:0:0:
200,115,182448,5,0,0:0:0:0:
207,297,182604,1,0,0:0:0:0:
273,138,182760,5,0,0:0:0:0:
273,138,182838,1,0,0:0:0:0:
273,138,182916,1,0,0:0:0:0:
148,344,183073,1,0,0:0:0:0:
55,138,183229,1,0,0:0:0:0:
55,138,183307,1,0,0:0:0:0:
55,138,183385,1,0,0:0:0:0:
333,186,183541,2,0,L|362:194,3,22.5
256,192,183698,12,0,187291,0:0:0:0:
256,192,187448,12,0,191041,0:0:0:0:
96,296,191198,6,0,P|88:272|104:240,1,45
332,198,191510,6,0,P|335:223|308:254,1,53.9999983520508
96,296,191823,6,0,P|92:270|112:216,1,62.9999980773926
340,128,192135,6,0,P|343:153|316:216,1,72
96,296,192448,6,0,P|92:270|112:200,1,80.9999975280763
352,41,192760,6,0,P|355:66|322:151,1,90
102,216,193073,6,0,L|182:208,1,62.9999980773926
384,168,193385,6,0,L|288:160,1,72
102,216,193698,6,0,L|200:208,1,80.9999975280763
384,168,194010,6,0,L|272:160,1,90
102,216,194323,6,0,L|216:208,1,99.0000030212403
384,168,194635,6,0,L|256:152,1,107.999996704102
80,96,194948,5,0,0:0:0:0:
119,77,195026,1,0,0:0:0:0:
162,74,195104,1,0,0:0:0:0:
201,92,195182,1,0,0:0:0:0:
222,129,195260,1,0,0:0:0:0:
218,172,195338,1,0,0:0:0:0:
200,209,195416,1,0,0:0:0:0:
161,228,195494,1,0,0:0:0:0:
128,256,195573,2,0,L|136:320,1,53.9999983520508
272,360,195729,2,0,L|264:296,1,53.9999983520508
299,237,195885,2,0,L|362:234,1,53.9999983520508
481,329,196041,2,0,L|418:326,1,53.9999983520508
462,234,196198,5,0,0:0:0:0:
462,234,196276,1,0,0:0:0:0:
462,234,196354,2,0,P|467:194|449:172,1,53.9999983520508
371,135,196510,1,0,0:0:0:0:
371,135,196588,1,0,0:0:0:0:
371,135,196666,2,0,L|307:123,1,53.9999983520508
247,54,196823,5,0,0:0:0:0:
481,329,197135,1,0,0:0:0:0:
35,350,197448,1,0,0:0:0:0:
466,196,197760,5,0,2:0:0:0:
60,22,198073,1,0,2:0:0:0:
234,361,198385,1,0,2:0:0:0:
256,192,198698,12,0,203541,0:0:0:0:
169,326,203698,6,0,B|177:308|177:308|168:276,1,45
69,263,204010,6,0,B|61:245|61:245|74:190,1,72
177,140,204323,6,0,B|185:122|185:122|113:51,1,107.999996704102
318,81,204635,6,0,B|295:62|295:62|317:12|436:30,1,135.000005149842
416,325,204948,6,0,L|428:175,1,125.999996154785
285,291,205260,1,0,0:0:0:0:
236,303,205338,1,0,0:0:0:0:
185,303,205416,1,0,0:0:0:0:
137,285,205494,1,0,0:0:0:0:
113,239,205573,1,0,0:0:0:0:
106,189,205651,1,0,0:0:0:0:
117,139,205729,1,0,0:0:0:0:
143,96,205807,1,0,0:0:0:0:
185,69,205885,2,0,L|249:57,1,62.9999980773926
418,160,206041,2,0,L|354:148,1,62.9999980773926
184,232,206198,6,0,P|267:199|347:271,1,188.999994232178
418,160,206510,2,0,B|429:226|429:226|384:341,1,188.999994232178
169,134,206823,2,0,L|27:95,1,125.999996154785
263,373,207135,2,0,L|405:334,1,125.999996154785
398,35,207448,6,0,L|424:202,1,125.999996154785
291,124,207760,1,0,0:0:0:0:
241,114,207838,1,0,0:0:0:0:
192,127,207916,1,0,0:0:0:0:
158,164,207994,1,0,0:0:0:0:
143,212,208073,1,0,0:0:0:0:
151,261,208151,1,0,0:0:0:0:
177,303,208229,1,0,0:0:0:0:
221,326,208307,1,0,0:0:0:0:
267,328,208385,2,0,L|359:317,1,62.9999980773926
435,213,208541,2,0,L|343:202,1,62.9999980773926
222,145,208698,6,0,B|266:164|305:142|305:142|257:194|296:258,1,188.999994232178
267,328,209010,2,0,P|173:294|203:221,1,188.999994232178
222,145,209323,2,0,B|144:114|144:114|97:129,1,125.999996154785
428,338,209635,2,0,L|436:174,1,125.999996154785
267,328,209948,5,0,0:0:0:0:
218,314,210026,1,0,0:0:0:0:
180,282,210104,1,0,0:0:0:0:
158,237,210182,1,0,0:0:0:0:
158,187,210260,1,0,0:0:0:0:
178,141,210338,1,0,0:0:0:0:
215,108,210416,1,0,0:0:0:0:
263,94,210494,1,0,0:0:0:0:
313,101,210573,5,0,0:0:0:0:
257,71,210651,1,0,0:0:0:0:
195,69,210729,1,0,0:0:0:0:
138,95,210807,1,0,0:0:0:0:
98,143,210885,1,0,0:0:0:0:
82,203,210963,1,0,0:0:0:0:
95,264,211041,1,0,0:0:0:0:
133,314,211119,1,0,0:0:0:0:
198,321,211198,6,0,L|282:304,1,62.9999980773926
401,244,211354,2,0,L|317:227,1,62.9999980773926
209,165,211510,2,0,L|293:148,1,62.9999980773926
412,88,211666,2,0,L|328:71,1,62.9999980773926
190,57,211823,2,0,L|274:74,1,62.9999980773926
409,157,211979,2,0,L|325:174,1,62.9999980773926
191,240,212135,2,0,L|275:257,1,62.9999980773926
474,309,212291,2,0,L|390:326,1,62.9999980773926
296,331,212448,5,0,0:0:0:0:
315,298,212526,1,0,0:0:0:0:
323,261,212604,1,0,0:0:0:0:
315,223,212682,1,0,0:0:0:0:
290,193,212761,1,0,0:0:0:0:
256,175,212839,1,0,0:0:0:0:
218,168,212917,1,0,0:0:0:0:
183,184,212995,1,0,0:0:0:0:
154,209,213073,5,0,0:0:0:0:
121,246,213151,1,0,0:0:0:0:
73,258,213229,1,0,0:0:0:0:
27,240,213307,1,0,0:0:0:0:
0,199,213385,1,0,0:0:0:0:
2,149,213463,1,0,0:0:0:0:
31,108,213541,1,0,0:0:0:0:
79,95,213619,1,0,0:0:0:0:
115,84,213698,6,0,P|147:83|188:94,1,62.9999980773926
284,162,213854,2,0,P|256:178|215:189,1,62.9999980773926
121,246,214010,2,0,P|104:218|93:177,1,62.9999980773926
115,84,214166,2,0,P|147:83|188:94,1,62.9999980773926
284,162,214323,2,0,L|383:173,3,62.9999980773926
121,246,214635,2,0,L|22:257,3,62.9999980773926
304,320,214948,5,0,0:0:0:0:
304,320,215026,1,0,0:0:0:0:
304,320,215104,2,0,P|310:280|296:248,1,62.9999980773926
120,185,215260,1,0,0:0:0:0:
120,185,215338,1,0,0:0:0:0:
120,185,215416,2,0,P|114:225|128:257,1,62.9999980773926
346,168,215573,1,0,0:0:0:0:
346,168,215651,1,0,0:0:0:0:
346,168,215729,2,0,P|352:128|338:96,1,62.9999980773926
85,30,215885,1,0,0:0:0:0:
85,30,215963,1,0,0:0:0:0:
85,30,216041,2,0,P|79:70|93:102,1,62.9999980773926
213,111,216198,6,0,L|292:127,1,62.9999980773926
120,185,216354,2,0,L|41:201,1,62.9999980773926
203,253,216510,2,0,L|282:269,1,62.9999980773926
110,327,216666,2,0,L|31:343,1,62.9999980773926
196,372,216823,1,0,0:0:0:0:
232,363,216901,1,0,0:0:0:0:
265,345,216979,1,0,0:0:0:0:
290,316,217057,1,0,0:0:0:0:
303,280,217135,1,0,0:0:0:0:
304,242,217213,1,0,0:0:0:0:
297,204,217291,1,0,0:0:0:0:
277,171,217369,1,0,0:0:0:0:
251,142,217448,6,0,L|196:84,3,62.9999980773926
180,243,217760,2,0,L|127:288,3,62.9999980773926
95,301,218073,1,0,0:0:0:0:
55,282,218151,1,0,0:0:0:0:
31,245,218229,1,0,0:0:0:0:
29,202,218307,1,0,0:0:0:0:
48,164,218385,1,0,0:0:0:0:
84,140,218463,1,0,0:0:0:0:
128,137,218541,1,0,0:0:0:0:
167,157,218619,1,0,0:0:0:0:
194,184,218698,6,0,L|242:118,1,62.9999980773926
330,115,218854,2,0,L|282:49,1,62.9999980773926
190,300,219010,2,0,L|238:234,1,62.9999980773926
326,231,219166,2,0,L|278:165,1,62.9999980773926
194,184,219323,6,0,L|121:204,1,62.9999980773926
59,79,219479,2,0,L|132:99,1,62.9999980773926
288,180,219635,2,0,L|361:200,1,62.9999980773926
423,75,219791,2,0,L|350:95,1,62.9999980773926
259,80,219948,5,0,0:0:0:0:
237,110,220026,1,0,0:0:0:0:
221,144,220104,1,0,0:0:0:0:
215,181,220182,1,0,0:0:0:0:
221,218,220260,1,0,0:0:0:0:
240,250,220338,1,0,0:0:0:0:
269,274,220416,1,0,0:0:0:0:
305,283,220494,1,0,0:0:0:0:
343,283,220573,5,0,0:0:0:0:
376,265,220651,1,0,0:0:0:0:
412,255,220729,1,0,0:0:0:0:
447,269,220807,1,0,0:0:0:0:
465,301,220885,1,0,0:0:0:0:
463,338,220963,1,0,0:0:0:0:
435,363,221041,1,0,0:0:0:0:
398,355,221119,1,0,0:0:0:0:
382,319,221198,5,0,0:0:0:0:
400,279,221276,1,0,0:0:0:0:
404,235,221354,1,0,0:0:0:0:
396,191,221432,1,0,0:0:0:0:
379,150,221510,1,0,0:0:0:0:
356,112,221588,1,0,0:0:0:0:
323,82,221666,1,0,0:0:0:0:
283,62,221744,1,0,0:0:0:0:
238,55,221823,5,0,0:0:0:0:
193,54,221901,1,0,0:0:0:0:
150,63,221979,1,0,0:0:0:0:
113,87,222057,1,0,0:0:0:0:
79,115,222135,1,0,0:0:0:0:
57,153,222213,1,0,0:0:0:0:
46,195,222291,1,0,0:0:0:0:
43,238,222369,1,0,0:0:0:0:
52,281,222448,5,0,0:0:0:0:
52,281,222526,1,0,0:0:0:0:
52,281,222604,2,0,L|132:281,1,62.9999980773926
130,170,222760,1,0,0:0:0:0:
130,170,222838,1,0,0:0:0:0:
130,170,222916,2,0,L|190:222,1,62.9999980773926
263,139,223073,1,0,0:0:0:0:
263,139,223151,1,0,0:0:0:0:
263,139,223229,2,0,L|276:218,1,62.9999980773926
294,285,223385,5,0,0:0:0:0:
336,258,223463,1,0,0:0:0:0:
359,213,223541,1,0,0:0:0:0:
359,162,223619,1,0,0:0:0:0:
339,114,223698,5,0,0:0:0:0:
294,69,223776,1,0,0:0:0:0:
233,53,223854,1,0,0:0:0:0:
171,64,223932,1,0,0:0:0:0:
118,98,224010,1,0,0:0:0:0:
92,155,224088,1,0,0:0:0:0:
89,217,224166,1,0,0:0:0:0:
106,277,224244,1,0,0:0:0:0:
149,323,224323,5,0,0:0:0:0:
210,337,224401,1,0,0:0:0:0:
272,332,224479,1,0,0:0:0:0:
321,293,224557,1,0,0:0:0:0:
364,247,224635,1,0,0:0:0:0:
357,184,224713,1,0,0:0:0:0:
314,137,224791,1,0,0:0:0:0:
253,120,224869,1,0,0:0:0:0:
189,114,224948,6,0,L|48:123,1,125.999996154785
140,251,225260,1,0,0:0:0:0:
176,260,225338,1,0,0:0:0:0:
213,257,225416,1,0,0:0:0:0:
249,246,225494,1,0,0:0:0:0:
282,226,225573,1,0,0:0:0:0:
305,196,225651,1,0,0:0:0:0:
318,160,225729,1,0,0:0:0:0:
314,122,225807,1,0,0:0:0:0:
306,84,225885,6,0,L|275:18,1,62.9999980773926
189,114,226041,2,0,L|158:180,1,62.9999980773926
52,288,226198,2,0,P|148:336|236:249,1,188.999994232178
282,226,226510,2,0,P|337:181|449:226,1,188.999994232178
334,299,226823,2,0,B|272:317|272:317|201:298,1,125.999996154785
67,116,227135,2,0,B|129:98|129:98|200:117,1,125.999996154785
282,226,227448,6,0,L|301:98,1,125.999996154785
186,94,227760,1,0,0:0:0:0:
163,124,227838,1,0,0:0:0:0:
149,159,227916,1,0,0:0:0:0:
151,196,227994,1,0,0:0:0:0:
167,230,228073,1,0,0:0:0:0:
194,256,228151,1,0,0:0:0:0:
230,264,228229,1,0,0:0:0:0:
267,261,228307,1,0,0:0:0:0:
282,226,228385,2,0,P|289:188|268:137,1,62.9999980773926
219,183,228541,2,0,P|197:151|146:129,1,62.9999980773926
70,267,228698,6,0,B|27:233|27:233|58:200|164:227,1,188.999994232178
205,350,229010,2,0,P|277:279|258:160,1,188.999994232178
191,97,229323,2,0,L|324:61,1,125.999996154785
155,224,229635,2,0,L|22:260,1,125.999996154785
205,350,229948,5,0,0:0:0:0:
241,340,230026,1,0,0:0:0:0:
277,330,230104,1,0,0:0:0:0:
313,321,230182,1,0,0:0:0:0:
349,312,230260,1,0,0:0:0:0:
385,303,230338,1,0,0:0:0:0:
421,295,230416,1,0,0:0:0:0:
457,287,230494,1,0,0:0:0:0:
493,277,230573,6,0,L|401:249,1,62.9999980773926
346,195,230729,2,0,L|438:167,1,62.9999980773926
318,111,230885,2,0,L|226:83,1,62.9999980773926
171,29,231041,2,0,L|263:1,1,62.9999980773926
369,24,231198,1,0,0:0:0:0:
398,47,231276,1,0,0:0:0:0:
422,76,231354,1,0,0:0:0:0:
439,110,231432,1,0,0:0:0:0:
447,146,231510,1,0,0:0:0:0:
447,184,231588,1,0,0:0:0:0:
439,221,231666,1,0,0:0:0:0:
423,255,231744,1,0,0:0:0:0:
399,284,231823,6,0,L|331:303,1,62.9999980773926
236,210,231979,2,0,L|304:228,1,62.9999980773926
206,125,232135,2,0,L|137:143,1,62.9999980773926
43,51,232291,2,0,L|111:69,1,62.9999980773926
210,63,232448,6,0,P|214:90|203:129,3,62.9999980773926
399,284,232760,2,0,P|395:257|406:218,3,62.9999980773926
423,190,233073,1,0,0:0:0:0:
426,152,233151,1,0,0:0:0:0:
411,117,233229,1,0,0:0:0:0:
380,94,233307,1,0,0:0:0:0:
343,86,233385,1,0,0:0:0:0:
305,91,233463,1,0,0:0:0:0:
277,116,233541,1,0,0:0:0:0:
261,150,233619,1,0,0:0:0:0:
258,188,233698,6,0,P|255:222|234:268,1,62.9999980773926
156,321,233854,2,0,P|147:288|151:237,1,62.9999980773926
119,121,234010,2,0,P|116:155|95:201,1,62.9999980773926
17,254,234166,2,0,P|8:221|12:170,1,62.9999980773926
34,73,234323,5,0,0:0:0:0:
79,51,234401,1,0,0:0:0:0:
128,44,234479,1,0,0:0:0:0:
175,59,234557,1,0,0:0:0:0:
217,85,234635,1,0,0:0:0:0:
259,111,234713,1,0,0:0:0:0:
307,125,234791,1,0,0:0:0:0:
357,123,234869,1,0,0:0:0:0:
404,103,234948,5,0,0:0:0:0:
422,69,235026,1,0,0:0:0:0:
419,31,235104,1,0,0:0:0:0:
390,6,235182,1,0,0:0:0:0:
352,9,235260,1,0,0:0:0:0:
330,39,235338,1,0,0:0:0:0:
324,76,235416,1,0,0:0:0:0:
348,104,235494,1,0,0:0:0:0:
384,116,235573,5,0,0:0:0:0:
414,137,235651,1,0,0:0:0:0:
431,170,235729,1,0,0:0:0:0:
432,207,235807,1,0,0:0:0:0:
420,242,235885,1,0,0:0:0:0:
384,254,235963,1,0,0:0:0:0:
346,254,236041,1,0,0:0:0:0:
310,240,236119,1,0,0:0:0:0:
285,210,236198,6,0,L|236:148,1,62.9999980773926
178,67,236354,2,0,L|130:135,1,62.9999980773926
50,171,236510,2,0,L|99:233,1,62.9999980773926
157,314,236666,2,0,L|205:246,1,62.9999980773926
316,211,236823,2,0,L|267:149,1,62.9999980773926
209,68,236979,2,0,L|161:136,1,62.9999980773926
81,172,237135,2,0,L|130:234,1,62.9999980773926
188,315,237291,2,0,L|236:247,1,62.9999980773926
316,211,237448,5,0,0:0:0:0:
343,185,237526,1,0,0:0:0:0:
364,153,237604,1,0,0:0:0:0:
372,116,237682,1,0,0:0:0:0:
366,78,237760,1,0,0:0:0:0:
342,48,237838,1,0,0:0:0:0:
307,31,237916,1,0,0:0:0:0:
269,26,237994,1,0,0:0:0:0:
230,24,238073,5,0,0:0:0:0:
191,56,238151,1,0,0:0:0:0:
186,106,238229,1,0,0:0:0:0:
203,153,238307,1,0,0:0:0:0:
237,189,238385,1,0,0:0:0:0:
257,235,238463,1,0,0:0:0:0:
257,285,238541,1,0,0:0:0:0:
226,325,238619,1,0,0:0:0:0:
180,348,238698,6,0,L|40:369,1,125.999996154785
237,189,239010,2,0,L|377:210,1,125.999996154785
164,48,239323,1,0,0:0:0:0:
237,189,239479,1,0,0:0:0:0:
114,138,239635,1,0,0:0:0:0:
148,282,239791,1,0,0:0:0:0:
313,85,239948,5,0,0:0:0:0:
345,104,240026,1,0,0:0:0:0:
370,132,240104,1,0,0:0:0:0:
387,165,240182,1,0,0:0:0:0:
394,202,240260,1,0,0:0:0:0:
391,240,240338,1,0,0:0:0:0:
377,275,240416,1,0,0:0:0:0:
354,305,240494,1,0,0:0:0:0:
324,327,240573,1,0,0:0:0:0:
289,340,240651,1,0,0:0:0:0:
251,343,240729,1,0,0:0:0:0:
214,335,240807,1,0,0:0:0:0:
181,317,240885,1,0,0:0:0:0:
154,291,240963,1,0,0:0:0:0:
137,257,241041,1,0,0:0:0:0:
135,219,241119,1,0,0:0:0:0:
145,182,241198,5,0,0:0:0:0:
169,225,241276,1,0,0:0:0:0:
208,256,241354,1,0,0:0:0:0:
257,269,241432,1,0,0:0:0:0:
306,261,241510,1,0,0:0:0:0:
348,234,241588,1,0,0:0:0:0:
376,193,241666,1,0,0:0:0:0:
386,143,241744,1,0,0:0:0:0:
375,95,241823,1,0,0:0:0:0:
345,54,241901,1,0,0:0:0:0:
302,29,241979,1,0,0:0:0:0:
253,18,242057,1,0,0:0:0:0:
202,20,242135,1,0,0:0:0:0:
160,48,242213,1,0,0:0:0:0:
132,90,242291,1,0,0:0:0:0:
133,140,242369,1,0,0:0:0:0:
120,189,242448,6,0,L|37:219,1,62.9999980773926
254,274,242604,2,0,L|337:304,1,62.9999980773926
261,132,242760,2,0,L|178:162,1,62.9999980773926
395,217,242916,2,0,L|478:247,1,62.9999980773926
459,111,243073,5,0,0:0:0:0:
406,76,243151,1,0,0:0:0:0:
346,56,243229,1,0,0:0:0:0:
283,49,243307,1,0,0:0:0:0:
220,52,243385,1,0,0:0:0:0:
159,69,243463,1,0,0:0:0:0:
107,104,243541,1,0,0:0:0:0:
78,160,243619,1,0,0:0:0:0:
63,222,243698,5,0,0:0:0:0:
477,50,244010,1,0,0:0:0:0:
18,358,244323,1,0,0:0:0:0:
500,363,244635,1,0,0:0:0:0:
107,104,244948,6,0,B|77:69|77:69|24:148|24:148|93:186,1,188.999994232178
109,196,245260,1,0,0:0:0:0:
152,221,245338,1,0,0:0:0:0:
197,242,245416,1,0,0:0:0:0:
246,249,245494,1,0,0:0:0:0:
296,250,245573,1,0,0:0:0:0:
345,239,245651,1,0,0:0:0:0:
386,210,245729,1,0,0:0:0:0:
410,166,245807,1,0,0:0:0:0:
405,115,245885,1,0,0:0:0:0:
370,78,245963,1,0,0:0:0:0:
324,55,246041,1,0,0:0:0:0:
273,55,246119,1,0,0:0:0:0:
245,98,246198,6,0,P|210:178|191:84,1,188.999994232178
169,77,246510,1,0,0:0:0:0:
139,36,246588,1,0,0:0:0:0:
89,24,246666,1,0,0:0:0:0:
43,45,246744,1,0,0:0:0:0:
27,93,246823,1,0,0:0:0:0:
30,143,246901,1,0,0:0:0:0:
54,186,246979,1,0,0:0:0:0:
94,215,247057,1,0,0:0:0:0:
141,231,247135,1,0,0:0:0:0:
191,227,247213,1,0,0:0:0:0:
240,216,247291,1,0,0:0:0:0:
290,220,247369,1,0,0:0:0:0:
340,215,247448,6,0,B|381:196|381:196|405:218|410:296|288:305,1,188.999994232178
275,301,247760,1,0,0:0:0:0:
233,271,247838,1,0,0:0:0:0:
209,226,247916,1,0,0:0:0:0:
199,176,247994,1,0,0:0:0:0:
203,125,248073,1,0,0:0:0:0:
230,82,248151,1,0,0:0:0:0:
275,59,248229,1,0,0:0:0:0:
325,53,248307,1,0,0:0:0:0:
370,73,248385,1,0,0:0:0:0:
390,118,248463,1,0,0:0:0:0:
386,168,248541,1,0,0:0:0:0:
350,203,248619,1,0,0:0:0:0:
301,219,248698,6,0,B|237:228|237:228|166:185|166:185|115:198|117:234,1,188.999994232178
94,239,249010,1,0,0:0:0:0:
92,289,249088,1,0,0:0:0:0:
121,329,249166,1,0,0:0:0:0:
168,346,249244,1,0,0:0:0:0:
218,340,249323,1,0,0:0:0:0:
258,309,249401,1,0,0:0:0:0:
279,263,249479,1,0,0:0:0:0:
270,213,249557,1,0,0:0:0:0:
238,173,249635,1,0,0:0:0:0:
230,123,249713,1,0,0:0:0:0:
249,76,249791,1,0,0:0:0:0:
290,47,249869,1,0,0:0:0:0:
340,38,249948,6,0,L|441:21,1,62.9999980773926
478,165,250104,2,0,L|377:148,1,62.9999980773926
322,69,250260,2,0,L|423:52,1,62.9999980773926
460,196,250416,2,0,L|359:179,1,62.9999980773926
296,108,250573,2,0,L|397:91,1,62.9999980773926
434,235,250729,2,0,L|333:218,1,62.9999980773926
262,152,250885,2,0,L|363:135,1,62.9999980773926
400,279,251041,2,0,L|299:262,1,62.9999980773926
234,184,251198,5,0,0:0:0:0:
187,202,251276,1,0,0:0:0:0:
157,241,251354,1,0,0:0:0:0:
150,291,251432,1,0,0:0:0:0:
170,336,251510,1,0,0:0:0:0:
210,366,251588,1,0,0:0:0:0:
259,371,251666,1,0,0:0:0:0:
305,350,251744,1,0,0:0:0:0:
333,310,251823,6,0,L|350:246,3,62.9999980773926
234,184,252135,2,0,L|217:119,3,62.9999980773926
314,86,252448,6,0,L|401:70,1,62.9999980773926
234,184,252604,2,0,L|147:168,1,62.9999980773926
349,249,252760,2,0,L|436:233,1,62.9999980773926
269,347,252916,2,0,L|182:331,1,62.9999980773926
106,307,253073,5,0,0:0:0:0:
72,269,253151,1,0,0:0:0:0:
52,223,253229,1,0,0:0:0:0:
49,173,253307,1,0,0:0:0:0:
61,125,253385,1,0,0:0:0:0:
89,83,253463,1,0,0:0:0:0:
129,52,253541,1,0,0:0:0:0:
177,37,253619,1,0,0:0:0:0:
227,42,253698,5,0,0:0:0:0:
172,72,253776,1,0,0:0:0:0:
137,124,253854,1,0,0:0:0:0:
131,186,253932,1,0,0:0:0:0:
153,244,254010,1,0,0:0:0:0:
200,285,254088,1,0,0:0:0:0:
261,300,254166,1,0,0:0:0:0:
321,285,254244,1,0,0:0:0:0:
371,245,254323,6,0,L|434:181,1,62.9999980773926
372,58,254479,2,0,L|309:122,1,62.9999980773926
335,238,254635,2,0,L|398:174,1,62.9999980773926
336,51,254791,2,0,L|273:115,1,62.9999980773926
243,195,254948,5,0,0:0:0:0:
196,213,255026,1,0,0:0:0:0:
146,221,255104,1,0,0:0:0:0:
98,204,255182,1,0,0:0:0:0:
70,161,255260,1,0,0:0:0:0:
65,110,255338,1,0,0:0:0:0:
91,67,255416,1,0,0:0:0:0:
135,42,255494,1,0,0:0:0:0:
185,37,255573,5,0,0:0:0:0:
175,86,255651,1,0,0:0:0:0:
182,136,255729,1,0,0:0:0:0:
204,181,255807,1,0,0:0:0:0:
240,216,255885,1,0,0:0:0:0:
284,239,255963,1,0,0:0:0:0:
334,246,256041,1,0,0:0:0:0:
383,236,256119,1,0,0:0:0:0:
419,200,256198,5,0,0:0:0:0:
392,157,256276,1,0,0:0:0:0:
354,124,256354,1,0,0:0:0:0:
308,105,256432,1,0,0:0:0:0:
258,99,256510,1,0,0:0:0:0:
208,110,256588,1,0,0:0:0:0:
165,134,256666,1,0,0:0:0:0:
130,170,256744,1,0,0:0:0:0:
119,220,256823,5,0,0:0:0:0:
128,269,256901,1,0,0:0:0:0:
155,310,256979,1,0,0:0:0:0:
198,336,257057,1,0,0:0:0:0:
248,342,257135,1,0,0:0:0:0:
295,327,257213,1,0,0:0:0:0:
332,293,257291,1,0,0:0:0:0:
351,247,257369,1,0,0:0:0:0:
366,198,257448,6,0,P|372:165|361:130,1,62.9999980773926
207,49,257604,2,0,P|201:82|212:117,1,62.9999980773926
387,218,257760,2,0,P|393:185|382:150,1,62.9999980773926
177,30,257916,2,0,P|171:63|182:98,1,62.9999980773926
266,248,258073,6,0,P|233:254|198:243,1,62.9999980773926
117,89,258229,2,0,P|150:83|185:94,1,62.9999980773926
286,269,258385,2,0,P|253:275|218:264,1,62.9999980773926
98,59,258541,2,0,P|131:53|166:64,1,62.9999980773926
369,329,258698,6,0,P|402:273|375:206,1,125.999996154785
98,59,259010,2,0,P|65:115|92:182,1,125.999996154785
386,217,259323,2,0,P|386:152|329:107,1,125.999996154785
86,249,259635,2,0,P|85:313|142:358,1,125.999996154785
261,350,259948,5,0,0:0:0:0:
323,342,260026,1,0,0:0:0:0:
378,312,260104,1,0,0:0:0:0:
420,265,260182,1,0,0:0:0:0:
439,205,260260,1,0,0:0:0:0:
441,142,260338,1,0,0:0:0:0:
418,83,260416,1,0,0:0:0:0:
362,54,260494,1,0,0:0:0:0:
300,38,260573,6,0,P|264:26|214:27,3,62.9999980773926
112,136,260885,2,0,P|148:124|198:125,3,62.9999980773926
236,126,261198,1,0,0:0:0:0:
296,140,261276,1,0,0:0:0:0:
341,183,261354,1,0,0:0:0:0:
360,243,261432,1,0,0:0:0:0:
346,303,261510,1,0,0:0:0:0:
305,350,261588,1,0,0:0:0:0:
245,370,261666,1,0,0:0:0:0:
184,357,261744,1,0,0:0:0:0:
135,317,261823,6,0,P|116:283|119:239,3,62.9999980773926
236,126,262135,2,0,P|254:92|252:48,3,62.9999980773926
182,73,262448,5,0,0:0:0:0:
247,263,262604,1,0,0:0:0:0:
96,64,262760,5,0,0:0:0:0:
285,271,262916,1,0,0:0:0:0:
17,119,263073,5,0,0:0:0:0:
329,287,263229,1,0,0:0:0:0:
0,229,263385,5,0,0:0:0:0:
378,299,263541,1,0,0:0:0:0:
232,32,263698,5,0,0:0:0:0:
272,352,263854,1,0,0:0:0:0:
80,48,264010,5,0,0:0:0:0:
432,336,264166,1,0,0:0:0:0:
8,234,264323,5,0,0:0:0:0:
506,169,264479,1,0,0:0:0:0:
335,88,264635,6,0,L|317:165,1,62.9999980773926
193,302,264791,2,0,L|175:225,1,62.9999980773926
85,85,264948,6,0,P|145:58|225:89,1,125.999996154785
320,149,265260,5,0,0:0:0:0:
348,190,265338,1,0,0:0:0:0:
350,240,265416,1,0,0:0:0:0:
332,287,265494,1,0,0:0:0:0:
291,317,265573,1,0,0:0:0:0:
242,330,265651,1,0,0:0:0:0:
191,326,265729,1,0,0:0:0:0:
151,295,265807,1,0,0:0:0:0:
128,248,265885,6,0,P|120:208|140:171,1,62.9999980773926
318,88,266041,2,0,P|326:128|306:165,1,62.9999980773926
81,231,266198,2,0,P|87:190|118:162,1,62.9999980773926
361,111,266354,2,0,P|354:151|323:179,1,62.9999980773926
55,174,266510,2,0,P|74:138|113:122,1,62.9999980773926
396,164,266666,2,0,P|376:199|337:215,1,62.9999980773926
232,256,266823,2,0,L|147:261,3,62.9999980773926
298,118,267135,2,0,L|362:110,3,62.9999980773926
243,63,267448,6,0,L|271:247,1,125.999996154785
323,343,267760,1,0,0:0:0:0:
362,312,267838,1,0,0:0:0:0:
389,269,267916,1,0,0:0:0:0:
401,221,267994,1,0,0:0:0:0:
395,171,268072,1,0,0:0:0:0:
374,126,268150,1,0,0:0:0:0:
338,90,268228,1,0,0:0:0:0:
293,69,268306,1,0,0:0:0:0:
243,63,268385,6,0,L|142:91,1,62.9999980773926
52,195,268541,2,0,L|153:223,1,62.9999980773926
285,278,268698,1,0,0:0:0:0:
285,278,268776,1,0,0:0:0:0:
285,278,268854,2,0,P|289:238|261:201,1,62.9999980773926
182,79,269010,1,0,0:0:0:0:
182,79,269088,1,0,0:0:0:0:
182,79,269166,2,0,P|177:118|206:156,1,62.9999980773926
390,312,269323,1,0,0:0:0:0:
390,312,269401,1,0,0:0:0:0:
390,312,269479,2,0,P|381:272|341:247,1,62.9999980773926
78,46,269635,1,0,0:0:0:0:
78,46,269713,1,0,0:0:0:0:
78,46,269791,2,0,P|86:85|126:110,1,62.9999980773926
194,146,269948,5,0,0:0:0:0:
241,163,270026,1,0,0:0:0:0:
289,174,270104,1,0,0:0:0:0:
339,172,270182,1,0,0:0:0:0:
387,157,270260,1,0,0:0:0:0:
423,121,270338,1,0,0:0:0:0:
423,70,270416,1,0,0:0:0:0:
388,33,270494,1,0,0:0:0:0:
337,23,270573,5,0,0:0:0:0:
297,53,270651,1,0,0:0:0:0:
299,103,270729,1,0,0:0:0:0:
333,139,270807,1,0,0:0:0:0:
355,183,270885,1,0,0:0:0:0:
363,232,270963,1,0,0:0:0:0:
356,281,271041,1,0,0:0:0:0:
321,317,271119,1,0,0:0:0:0:
273,334,271198,5,0,0:0:0:0:
220,312,271276,1,0,0:0:0:0:
201,258,271354,1,0,0:0:0:0:
224,206,271432,1,0,0:0:0:0:
277,186,271510,1,0,0:0:0:0:
333,188,271588,1,0,0:0:0:0:
389,180,271666,1,0,0:0:0:0:
429,140,271744,1,0,0:0:0:0:
445,85,271823,5,0,0:0:0:0:
393,48,271901,1,0,0:0:0:0:
333,31,271979,1,0,0:0:0:0:
270,34,272057,1,0,0:0:0:0:
212,57,272135,1,0,0:0:0:0:
165,98,272213,1,0,0:0:0:0:
133,153,272291,1,0,0:0:0:0:
121,214,272369,1,0,0:0:0:0:
128,271,272448,6,0,L|147:350,1,62.9999980773926
304,161,272604,2,0,L|285:82,1,62.9999980773926
204,291,272760,2,0,L|223:370,1,62.9999980773926
368,120,272916,2,0,L|349:41,1,62.9999980773926
282,309,273073,2,0,L|301:388,1,62.9999980773926
434,75,273229,2,0,L|415:-4,1,62.9999980773926
289,99,273385,2,0,L|210:117,1,62.9999980773926
128,271,273541,2,0,L|207:289,1,62.9999980773926
282,309,273698,5,0,0:0:0:0:
344,318,273776,1,0,0:0:0:0:
403,303,273854,1,0,0:0:0:0:
444,253,273932,1,0,0:0:0:0:
459,192,274010,1,0,0:0:0:0:
459,129,274088,1,0,0:0:0:0:
418,80,274166,1,0,0:0:0:0:
359,56,274244,1,0,0:0:0:0:
296,42,274323,5,0,0:0:0:0:
317,100,274401,1,0,0:0:0:0:
309,162,274479,1,0,0:0:0:0:
273,213,274557,1,0,0:0:0:0:
218,241,274635,1,0,0:0:0:0:
155,241,274713,1,0,0:0:0:0:
100,211,274791,1,0,0:0:0:0:
66,159,274869,1,0,0:0:0:0:
27,108,274948,5,0,0:0:0:0:
27,108,275026,1,0,0:0:0:0:
27,108,275104,2,0,P|0:136|8:184,1,62.9999980773926
160,248,275260,1,0,0:0:0:0:
160,248,275338,1,0,0:0:0:0:
160,248,275416,2,0,P|187:220|179:172,1,62.9999980773926
304,72,275573,5,0,0:0:0:0:
304,72,275651,1,0,0:0:0:0:
304,72,275729,2,0,P|331:100|323:148,1,62.9999980773926
282,181,275885,2,0,L|201:182,3,62.9999980773926
155,182,276198,5,0,0:0:0:0:
121,130,276276,1,0,0:0:0:0:
128,68,276354,1,0,0:0:0:0:
172,25,276432,1,0,0:0:0:0:
234,20,276510,1,0,0:0:0:0:
284,55,276588,1,0,0:0:0:0:
301,115,276666,1,0,0:0:0:0:
276,171,276744,1,0,0:0:0:0:
232,216,276823,5,0,0:0:0:0:
216,272,276901,1,0,0:0:0:0:
232,336,276979,1,0,0:0:0:0:
280,376,277057,1,0,0:0:0:0:
344,376,277135,1,0,0:0:0:0:
408,360,277213,1,0,0:0:0:0:
448,312,277291,1,0,0:0:0:0:
472,256,277369,1,0,0:0:0:0:
472,192,277448,5,0,0:0:0:0:
416,216,277526,1,0,0:0:0:0:
352,224,277604,1,0,0:0:0:0:
288,208,277682,1,0,0:0:0:0:
232,176,277760,1,0,0:0:0:0:
200,120,277838,1,0,0:0:0:0:
200,56,277916,1,0,0:0:0:0:
240,8,277994,1,0,0:0:0:0:
302,20,278073,5,0,0:0:0:0:
336,72,278151,1,0,0:0:0:0:
329,134,278229,1,0,0:0:0:0:
285,177,278307,1,0,0:0:0:0:
223,182,278385,1,0,0:0:0:0:
173,147,278463,1,0,0:0:0:0:
156,87,278541,1,0,0:0:0:0:
181,31,278619,1,0,0:0:0:0:
240,8,278698,5,0,0:0:0:0:
233,357,279010,1,0,0:0:0:0:
482,163,279323,1,0,0:0:0:0:
74,41,279635,2,0,L|95:175,1,125.999996154785
233,357,279948,5,0,0:0:0:0:
276,26,280104,1,0,0:0:0:0:
309,353,280260,5,0,0:0:0:0:
187,28,280416,1,0,0:0:0:0:
152,342,280573,5,0,0:0:0:0:
364,46,280729,1,0,0:0:0:0:
386,326,280885,5,0,0:0:0:0:
99,51,281041,1,0,0:0:0:0:
61,313,281198,5,0,0:0:0:0:
438,84,281354,1,0,0:0:0:0:
443,264,281510,5,0,0:0:0:0:
37,114,281666,1,0,0:0:0:0:
34,220,281823,5,0,0:0:0:0:
477,162,281979,1,0,0:0:0:0:
511,232,282135,5,0,0:0:0:0:
0,166,282291,1,0,0:0:0:0:
313,35,282448,5,0,0:0:0:0:
362,91,282526,1,0,0:0:0:0:
385,162,282604,1,0,0:0:0:0:
377,237,282682,1,0,0:0:0:0:
340,302,282760,1,0,0:0:0:0:
279,346,282838,1,0,0:0:0:0:
206,362,282916,1,0,0:0:0:0:
132,347,282994,1,0,0:0:0:0:
166,288,283073,1,0,0:0:0:0:
212,231,283151,1,0,0:0:0:0:
204,158,283229,1,0,0:0:0:0:
147,112,283307,1,0,0:0:0:0:
74,120,283385,1,0,0:0:0:0:
28,178,283463,1,0,0:0:0:0:
33,253,283541,1,0,0:0:0:0:
93,296,283619,1,0,0:0:0:0:
166,288,283698,6,0,L|164:323,3,31.4999990386963
122,256,283932,5,0,0:0:0:0:
454,90,284166,1,0,0:0:0:0:
45,80,284323,6,0,L|43:45,3,31.4999990386963
74,120,284557,5,0,0:0:0:0:
406,286,284791,1,0,0:0:0:0:
89,288,284948,6,0,B|114:298|133:325|133:325|152:298|176:283|176:283|143:198|74:176|74:176|122:45|293:78|320:195|235:229|235:229|209:193,1,647.99998022461
220,208,287448,2,0,B|216:147|140:123|140:123|218:61|288:128|288:128|346:192|283:270,1,445.499986404419
292,257,289948,2,0,B|208:224|112:256|112:256|144:168|131:137|96:120|64:112|32:128|16:160|24:224|48:264|229:160|229:160|296:128|376:144|376:144|422:155|472:176,1,863.999973632813
256,192,292760,12,0,294791,0:0:0:0:
120,288,294948,6,0,B|96:320|160:368|208:344|200:320|176:224|176:224|200:112|128:112|128:112|56:120|64:200|88:224|240:120|240:120|304:144|320:176|320:176|336:232|336:232|316:257|272:272|256:224|256:224|264:144|326:95|326:95|400:96|480:152|480:152|464:232|416:232|416:232|384:184|412:64|412:64|448:56|480:40|480:40|384:24|344:24|280:16|200:64|200:64|155:39|129:35|98:40|62:44|0:78|0:142|0:178|26:218,1,2160
