osu file format v14

[General]
AudioFilename: 09 Salvation.mp3
AudioLeadIn: 0
PreviewTime: 32383
Countdown: 0
SampleSet: Soft
StackLeniency: 0.7
Mode: 3
LetterboxInBreaks: 0
SpecialStyle: 0
WidescreenStoryboard: 0

[Editor]
DistanceSpacing: 0.8
BeatDivisor: 4
GridSize: 32
TimelineZoom: 1.8

[Metadata]
Title:Salvation
TitleUnicode:Salvation
Artist:Yooh
ArtistUnicode:Yooh
Creator:LuckyLemon
Version:Master Tapper
Source:
Tags:
BeatmapID:982342
BeatmapSetID:458441

[Difficulty]
HPDrainRate:8
CircleSize:4
OverallDifficulty:8
ApproachRate:5
SliderMultiplier:1.4
SliderTickRate:1

[Events]
//Background and Video events
0,0,"bg.jpg",0,0
//Break Periods
//Storyboard Layer 0 (Background)
//Storyboard Layer 1 (Fail)
//Storyboard Layer 2 (Pass)
//Storyboard Layer 3 (Foreground)
//Storyboard Layer 4 (Overlay)
//Storyboard Sound Samples

[TimingPoints]
2383,312.5,4,2,0,30,1,0
31758,-80,4,2,0,30,0,0
31914,-133.333333333333,4,2,0,30,0,0
32070,-80,4,2,0,30,0,0
32226,-133.333333333333,4,2,0,30,0,0
32383,-100,4,2,0,30,0,0
72383,-100,4,2,0,30,0,0
85508,-76.9230769230769,4,2,0,30,0,0
85664,-125,4,2,0,30,0,0
85820,-76.9230769230769,4,2,0,30,0,0
85976,-125,4,2,0,30,0,0
86133,-76.9230769230769,4,2,0,30,0,0
86289,-125,4,2,0,30,0,0
86445,-76.9230769230769,4,2,0,30,0,0
86601,-125,4,2,0,30,0,0
86758,-76.9230769230769,4,2,0,30,0,0
86914,-125,4,2,0,30,0,0
87070,-80,4,2,0,30,0,0
87226,-133.333333333333,4,2,0,30,0,0
87383,-100,4,2,0,30,0,0
93633,-100,4,2,0,10,0,0
108633,-100,4,2,0,30,0,0
183633,-100,4,2,0,10,0,0
191133,-100,4,2,0,30,0,0
204883,-100,4,2,0,30,0,1
244883,-100,4,2,0,30,0,0

[HitObjects]
448,192,2383,5,0,0:0:0:0:
64,192,2383,1,0,0:0:0:0:
320,192,2695,1,0,0:0:0:0:
192,192,3008,1,0,0:0:0:0:
64,192,3164,1,0,0:0:0:0:
320,192,3320,1,0,0:0:0:0:
192,192,3476,1,0,0:0:0:0:
448,192,3633,1,0,0:0:0:0:
448,192,3945,1,0,0:0:0:0:
320,192,4258,1,0,0:0:0:0:
192,192,4570,1,0,0:0:0:0:
64,192,4883,1,0,0:0:0:0:
320,192,5195,1,0,0:0:0:0:
192,192,5508,1,0,0:0:0:0:
64,192,5664,1,0,0:0:0:0:
448,192,5820,1,0,0:0:0:0:
320,192,5976,1,0,0:0:0:0:
192,192,6133,1,0,0:0:0:0:
448,192,6445,1,0,0:0:0:0:
192,192,6758,1,0,0:0:0:0:
320,192,7070,1,0,0:0:0:0:
448,192,7226,1,0,0:0:0:0:
320,192,7278,1,0,0:0:0:0:
192,192,7330,1,0,0:0:0:0:
64,192,7383,1,0,0:0:0:0:
320,192,7695,1,0,0:0:0:0:
192,192,8008,1,0,0:0:0:0:
64,192,8164,1,0,0:0:0:0:
320,192,8320,1,0,0:0:0:0:
192,192,8476,1,0,0:0:0:0:
448,192,8633,1,0,0:0:0:0:
320,192,8945,1,0,0:0:0:0:
64,192,9258,1,0,0:0:0:0:
192,192,9570,1,0,0:0:0:0:
64,192,9883,1,0,0:0:0:0:
320,192,9883,128,0,10351:0:0:0:0:
448,192,10195,1,0,0:0:0:0:
64,192,10351,1,0,0:0:0:0:
192,192,10351,128,0,10820:0:0:0:0:
448,192,10508,1,0,0:0:0:0:
64,192,10664,1,0,0:0:0:0:
448,192,10820,128,0,11758:0:0:0:0:
320,192,10820,1,0,0:0:0:0:
320,192,10976,1,0,0:0:0:0:
192,192,11133,1,0,0:0:0:0:
64,192,11445,1,0,0:0:0:0:
320,192,11758,1,0,0:0:0:0:
192,192,11758,128,0,12383:0:0:0:0:
64,192,12070,1,0,0:0:0:0:
448,192,12383,5,4,0:0:0:0:
64,192,12383,128,0,14883:0:0:0:0:
320,192,12695,1,0,0:0:0:0:
192,192,13008,1,0,0:0:0:0:
320,192,13164,1,0,0:0:0:0:
192,192,13320,1,0,0:0:0:0:
448,192,13476,1,0,0:0:0:0:
320,192,13633,1,0,0:0:0:0:
448,192,13945,1,0,0:0:0:0:
320,192,14258,1,0,0:0:0:0:
192,192,14570,1,0,0:0:0:0:
448,192,14883,1,4,0:0:0:0:
320,192,14883,128,0,17383:0:0:0:0:
192,192,15195,1,0,0:0:0:0:
192,192,15508,1,0,0:0:0:0:
64,192,15664,1,0,0:0:0:0:
448,192,15820,1,0,0:0:0:0:
192,192,15976,1,0,0:0:0:0:
64,192,16133,1,0,0:0:0:0:
448,192,16445,1,0,0:0:0:0:
192,192,16758,1,0,0:0:0:0:
64,192,17070,1,0,0:0:0:0:
64,192,17383,1,4,0:0:0:0:
192,192,17383,128,0,19883:0:0:0:0:
320,192,17695,1,0,0:0:0:0:
64,192,18008,1,0,0:0:0:0:
320,192,18164,1,0,0:0:0:0:
448,192,18320,1,0,0:0:0:0:
64,192,18476,1,0,0:0:0:0:
320,192,18633,1,0,0:0:0:0:
448,192,18945,1,0,0:0:0:0:
320,192,19258,1,0,0:0:0:0:
64,192,19570,1,0,0:0:0:0:
320,192,19883,1,4,0:0:0:0:
448,192,19883,128,0,22383:0:0:0:0:
320,192,20195,1,0,0:0:0:0:
64,192,20508,1,0,0:0:0:0:
320,192,20664,1,0,0:0:0:0:
192,192,20820,1,0,0:0:0:0:
64,192,20976,1,0,0:0:0:0:
192,192,21133,1,0,0:0:0:0:
320,192,21445,1,0,0:0:0:0:
192,192,21758,1,0,0:0:0:0:
64,192,22070,1,0,0:0:0:0:
192,192,22383,1,0,0:0:0:0:
64,192,22383,1,0,0:0:0:0:
320,192,22539,1,0,0:0:0:0:
448,192,22617,1,0,0:0:0:0:
64,192,22695,1,8,0:0:0:0:
192,192,22695,1,0,0:0:0:0:
448,192,22851,1,0,0:0:0:0:
192,192,23008,1,0,0:0:0:0:
64,192,23008,1,0,0:0:0:0:
320,192,23164,1,0,0:0:0:0:
448,192,23242,1,0,0:0:0:0:
64,192,23320,1,8,0:0:0:0:
192,192,23320,1,0,0:0:0:0:
320,192,23476,1,0,0:0:0:0:
64,192,23633,1,0,0:0:0:0:
192,192,23633,1,0,0:0:0:0:
448,192,23789,1,0,0:0:0:0:
320,192,23867,1,0,0:0:0:0:
192,192,23945,1,0,0:0:0:0:
64,192,23945,1,8,0:0:0:0:
320,192,24101,1,0,0:0:0:0:
192,192,24258,1,0,0:0:0:0:
64,192,24258,1,0,0:0:0:0:
448,192,24414,1,0,0:0:0:0:
320,192,24492,1,0,0:0:0:0:
192,192,24570,1,0,0:0:0:0:
64,192,24570,1,8,0:0:0:0:
320,192,24726,1,0,0:0:0:0:
448,192,24883,1,0,0:0:0:0:
64,192,24883,1,0,0:0:0:0:
320,192,25039,1,0,0:0:0:0:
192,192,25117,1,0,0:0:0:0:
64,192,25195,1,8,0:0:0:0:
448,192,25195,1,0,0:0:0:0:
192,192,25351,1,0,0:0:0:0:
448,192,25508,1,0,0:0:0:0:
64,192,25508,1,0,0:0:0:0:
192,192,25664,1,0,0:0:0:0:
320,192,25742,1,0,0:0:0:0:
448,192,25820,1,0,0:0:0:0:
64,192,25820,1,8,0:0:0:0:
320,192,25976,1,0,0:0:0:0:
448,192,26133,1,0,0:0:0:0:
64,192,26133,1,0,0:0:0:0:
320,192,26289,1,0,0:0:0:0:
192,192,26367,1,0,0:0:0:0:
64,192,26445,1,8,0:0:0:0:
448,192,26445,1,0,0:0:0:0:
192,192,26601,1,0,0:0:0:0:
320,192,26679,1,0,0:0:0:0:
448,192,26758,1,0,0:0:0:0:
64,192,26758,1,0,0:0:0:0:
320,192,26914,1,0,0:0:0:0:
192,192,26992,1,0,0:0:0:0:
448,192,27070,1,0,0:0:0:0:
64,192,27070,1,8,0:0:0:0:
320,192,27226,1,0,0:0:0:0:
64,192,27383,1,8,0:0:0:0:
192,192,27383,1,0,0:0:0:0:
448,192,27461,1,0,0:0:0:0:
320,192,27539,1,0,0:0:0:0:
192,192,27617,1,0,0:0:0:0:
320,192,27695,1,0,0:0:0:0:
64,192,27773,1,0,0:0:0:0:
192,192,27851,1,0,0:0:0:0:
320,192,27929,1,0,0:0:0:0:
64,192,28008,1,0,0:0:0:0:
192,192,28086,1,0,0:0:0:0:
448,192,28164,1,0,0:0:0:0:
320,192,28242,1,0,0:0:0:0:
192,192,28320,1,0,0:0:0:0:
64,192,28398,1,0,0:0:0:0:
448,192,28476,1,0,0:0:0:0:
320,192,28554,1,0,0:0:0:0:
64,192,28633,1,8,0:0:0:0:
192,192,28633,1,0,0:0:0:0:
448,192,28711,1,0,0:0:0:0:
320,192,28789,1,0,0:0:0:0:
192,192,28867,1,0,0:0:0:0:
64,192,28945,1,0,0:0:0:0:
192,192,29023,1,0,0:0:0:0:
448,192,29101,1,0,0:0:0:0:
320,192,29179,1,0,0:0:0:0:
64,192,29258,1,0,0:0:0:0:
192,192,29336,1,0,0:0:0:0:
320,192,29414,1,0,0:0:0:0:
192,192,29492,1,0,0:0:0:0:
448,192,29570,1,0,0:0:0:0:
320,192,29648,1,0,0:0:0:0:
192,192,29726,1,0,0:0:0:0:
320,192,29804,1,0,0:0:0:0:
448,192,29883,5,0,0:0:0:0:
64,192,29883,1,8,0:0:0:0:
192,192,29961,1,0,0:0:0:0:
320,192,30039,1,0,0:0:0:0:
64,192,30117,1,0,0:0:0:0:
192,192,30195,1,0,0:0:0:0:
448,192,30273,1,0,0:0:0:0:
320,192,30351,1,0,0:0:0:0:
192,192,30429,1,0,0:0:0:0:
64,192,30508,1,0,0:0:0:0:
448,192,30586,1,0,0:0:0:0:
320,192,30664,1,0,0:0:0:0:
64,192,30742,1,0,0:0:0:0:
192,192,30820,1,0,0:0:0:0:
448,192,30898,1,0,0:0:0:0:
320,192,30976,1,0,0:0:0:0:
192,192,31054,1,0,0:0:0:0:
64,192,31133,1,8,0:0:0:0:
448,192,31133,1,0,0:0:0:0:
320,192,31133,1,0,0:0:0:0:
320,192,31289,1,0,0:0:0:0:
448,192,31289,1,0,0:0:0:0:
64,192,31289,1,8,0:0:0:0:
64,192,31445,1,0,0:0:0:0:
192,192,31445,1,0,0:0:0:0:
448,192,31445,1,0,0:0:0:0:
448,192,31758,1,0,0:0:0:0:
320,192,31758,1,0,0:0:0:0:
192,192,31758,128,0,32070:0:0:0:0:
320,192,32070,128,0,32383:0:0:0:0:
64,192,32383,1,2,0:0:0:0:
448,192,32383,1,0,0:0:0:0:
192,192,32461,1,0,0:0:0:0:
320,192,32539,1,0,0:0:0:0:
448,192,32617,1,0,0:0:0:0:
64,192,32695,1,8,0:0:0:0:
192,192,32773,1,0,0:0:0:0:
448,192,32851,1,0,0:0:0:0:
320,192,32929,1,0,0:0:0:0:
64,192,33008,1,0,0:0:0:0:
192,192,33008,1,0,0:0:0:0:
448,192,33086,1,0,0:0:0:0:
320,192,33164,1,0,0:0:0:0:
192,192,33242,1,0,0:0:0:0:
64,192,33320,1,8,0:0:0:0:
192,192,33398,1,0,0:0:0:0:
320,192,33476,1,0,0:0:0:0:
192,192,33554,1,0,0:0:0:0:
448,192,33633,1,0,0:0:0:0:
64,192,33633,1,2,0:0:0:0:
320,192,33711,1,0,0:0:0:0:
64,192,33789,1,0,0:0:0:0:
192,192,33867,1,0,0:0:0:0:
448,192,33945,1,8,0:0:0:0:
320,192,34023,1,0,0:0:0:0:
192,192,34101,1,0,0:0:0:0:
64,192,34179,1,0,0:0:0:0:
448,192,34258,1,0,0:0:0:0:
320,192,34258,1,0,0:0:0:0:
192,192,34336,1,0,0:0:0:0:
64,192,34414,1,0,0:0:0:0:
320,192,34492,1,0,0:0:0:0:
192,192,34570,1,8,0:0:0:0:
448,192,34648,1,0,0:0:0:0:
320,192,34726,1,0,0:0:0:0:
192,192,34804,1,0,0:0:0:0:
64,192,34883,1,2,0:0:0:0:
448,192,34883,1,0,0:0:0:0:
320,192,34961,1,0,0:0:0:0:
192,192,35039,1,0,0:0:0:0:
64,192,35117,1,0,0:0:0:0:
192,192,35195,1,8,0:0:0:0:
320,192,35273,1,0,0:0:0:0:
448,192,35351,1,0,0:0:0:0:
320,192,35429,1,0,0:0:0:0:
192,192,35508,1,0,0:0:0:0:
64,192,35508,1,0,0:0:0:0:
448,192,35586,1,0,0:0:0:0:
320,192,35664,1,0,0:0:0:0:
64,192,35742,1,0,0:0:0:0:
192,192,35820,1,8,0:0:0:0:
448,192,35898,1,0,0:0:0:0:
320,192,35976,1,0,0:0:0:0:
192,192,36054,1,0,0:0:0:0:
64,192,36133,1,2,0:0:0:0:
448,192,36133,1,0,0:0:0:0:
320,192,36211,1,0,0:0:0:0:
192,192,36289,1,0,0:0:0:0:
448,192,36367,1,0,0:0:0:0:
320,192,36445,1,8,0:0:0:0:
192,192,36523,1,0,0:0:0:0:
64,192,36601,1,0,0:0:0:0:
192,192,36679,1,0,0:0:0:0:
320,192,36758,1,0,0:0:0:0:
448,192,36758,1,0,0:0:0:0:
64,192,36836,1,0,0:0:0:0:
192,192,36914,1,0,0:0:0:0:
320,192,36992,1,0,0:0:0:0:
448,192,37070,1,8,0:0:0:0:
320,192,37148,1,0,0:0:0:0:
64,192,37226,1,0,0:0:0:0:
192,192,37304,1,0,0:0:0:0:
320,192,37383,1,2,0:0:0:0:
448,192,37383,1,0,0:0:0:0:
64,192,37461,1,0,0:0:0:0:
192,192,37539,1,0,0:0:0:0:
320,192,37617,1,0,0:0:0:0:
64,192,37695,1,8,0:0:0:0:
448,192,37773,1,0,0:0:0:0:
192,192,37851,1,0,0:0:0:0:
320,192,37929,1,0,0:0:0:0:
448,192,38008,1,0,0:0:0:0:
64,192,38008,1,0,0:0:0:0:
192,192,38086,1,0,0:0:0:0:
320,192,38164,1,0,0:0:0:0:
192,192,38242,1,0,0:0:0:0:
64,192,38320,1,8,0:0:0:0:
448,192,38398,1,0,0:0:0:0:
320,192,38476,1,0,0:0:0:0:
192,192,38554,1,0,0:0:0:0:
64,192,38633,1,2,0:0:0:0:
448,192,38633,1,0,0:0:0:0:
192,192,38711,1,0,0:0:0:0:
320,192,38789,1,0,0:0:0:0:
448,192,38867,1,0,0:0:0:0:
192,192,38945,1,8,0:0:0:0:
320,192,39023,1,0,0:0:0:0:
64,192,39101,1,0,0:0:0:0:
192,192,39179,1,0,0:0:0:0:
320,192,39258,1,0,0:0:0:0:
448,192,39258,1,0,0:0:0:0:
192,192,39336,1,0,0:0:0:0:
64,192,39414,1,0,0:0:0:0:
448,192,39492,1,0,0:0:0:0:
320,192,39570,1,8,0:0:0:0:
192,192,39648,1,0,0:0:0:0:
448,192,39726,1,0,0:0:0:0:
320,192,39804,1,0,0:0:0:0:
64,192,39883,1,2,0:0:0:0:
192,192,39883,1,0,0:0:0:0:
448,192,39961,1,0,0:0:0:0:
320,192,40039,1,0,0:0:0:0:
192,192,40117,1,0,0:0:0:0:
64,192,40195,1,8,0:0:0:0:
192,192,40273,1,0,0:0:0:0:
320,192,40351,1,0,0:0:0:0:
448,192,40429,1,0,0:0:0:0:
64,192,40508,1,0,0:0:0:0:
320,192,40508,1,0,0:0:0:0:
192,192,40586,1,0,0:0:0:0:
448,192,40664,1,0,0:0:0:0:
64,192,40742,1,0,0:0:0:0:
192,192,40820,1,8,0:0:0:0:
448,192,40898,1,0,0:0:0:0:
320,192,40976,1,0,0:0:0:0:
192,192,41054,1,0,0:0:0:0:
448,192,41133,1,0,0:0:0:0:
64,192,41133,1,2,0:0:0:0:
320,192,41211,1,0,0:0:0:0:
192,192,41289,1,0,0:0:0:0:
448,192,41367,1,0,0:0:0:0:
64,192,41445,1,8,0:0:0:0:
192,192,41523,1,0,0:0:0:0:
320,192,41601,1,0,0:0:0:0:
448,192,41679,1,0,0:0:0:0:
64,192,41758,1,2,0:0:0:0:
192,192,41758,1,8,0:0:0:0:
320,192,41836,1,0,0:0:0:0:
448,192,41914,1,0,0:0:0:0:
64,192,41992,1,0,0:0:0:0:
192,192,42070,1,10,0:0:0:0:
320,192,42070,1,0,0:0:0:0:
448,192,42148,1,0,0:0:0:0:
64,192,42226,1,8,0:0:0:0:
192,192,42304,1,0,0:0:0:0:
448,192,42383,1,0,0:0:0:0:
320,192,42383,1,10,0:0:0:0:
64,192,42461,1,0,0:0:0:0:
192,192,42539,1,0,0:0:0:0:
320,192,42617,1,0,0:0:0:0:
192,192,42695,1,8,0:0:0:0:
448,192,42773,1,0,0:0:0:0:
320,192,42851,1,0,0:0:0:0:
192,192,42929,1,0,0:0:0:0:
64,192,43008,1,0,0:0:0:0:
448,192,43008,1,0,0:0:0:0:
192,192,43086,1,0,0:0:0:0:
320,192,43164,1,0,0:0:0:0:
448,192,43242,1,0,0:0:0:0:
64,192,43320,1,8,0:0:0:0:
192,192,43398,1,0,0:0:0:0:
320,192,43476,1,0,0:0:0:0:
448,192,43554,1,0,0:0:0:0:
192,192,43633,1,2,0:0:0:0:
320,192,43633,1,0,0:0:0:0:
64,192,43711,1,0,0:0:0:0:
192,192,43789,1,0,0:0:0:0:
448,192,43867,1,0,0:0:0:0:
320,192,43945,1,8,0:0:0:0:
192,192,44023,1,0,0:0:0:0:
448,192,44101,1,0,0:0:0:0:
320,192,44179,1,0,0:0:0:0:
64,192,44258,1,0,0:0:0:0:
192,192,44258,1,0,0:0:0:0:
448,192,44336,1,0,0:0:0:0:
320,192,44414,1,0,0:0:0:0:
192,192,44492,1,0,0:0:0:0:
448,192,44570,1,8,0:0:0:0:
320,192,44648,1,0,0:0:0:0:
192,192,44726,1,0,0:0:0:0:
64,192,44804,1,0,0:0:0:0:
320,192,44883,1,2,0:0:0:0:
448,192,44883,1,0,0:0:0:0:
192,192,44961,1,0,0:0:0:0:
64,192,45039,1,0,0:0:0:0:
448,192,45117,1,0,0:0:0:0:
320,192,45195,1,8,0:0:0:0:
64,192,45273,1,0,0:0:0:0:
192,192,45351,1,0,0:0:0:0:
320,192,45429,1,0,0:0:0:0:
64,192,45508,1,0,0:0:0:0:
448,192,45508,1,0,0:0:0:0:
192,192,45586,1,0,0:0:0:0:
320,192,45664,1,0,0:0:0:0:
448,192,45742,1,0,0:0:0:0:
192,192,45820,1,8,0:0:0:0:
320,192,45898,1,0,0:0:0:0:
64,192,45976,1,0,0:0:0:0:
192,192,46054,1,0,0:0:0:0:
448,192,46133,1,0,0:0:0:0:
320,192,46133,1,2,0:0:0:0:
64,192,46211,1,0,0:0:0:0:
192,192,46289,1,0,0:0:0:0:
448,192,46367,1,0,0:0:0:0:
320,192,46445,1,8,0:0:0:0:
192,192,46523,1,0,0:0:0:0:
448,192,46601,1,0,0:0:0:0:
320,192,46679,1,0,0:0:0:0:
64,192,46758,1,0,0:0:0:0:
192,192,46758,1,0,0:0:0:0:
448,192,46836,1,0,0:0:0:0:
320,192,46914,1,0,0:0:0:0:
192,192,46992,1,0,0:0:0:0:
64,192,47070,1,8,0:0:0:0:
320,192,47148,1,0,0:0:0:0:
192,192,47226,1,0,0:0:0:0:
64,192,47304,1,0,0:0:0:0:
192,192,47383,1,2,0:0:0:0:
448,192,47383,1,0,0:0:0:0:
320,192,47461,1,0,0:0:0:0:
64,192,47539,1,0,0:0:0:0:
192,192,47617,1,0,0:0:0:0:
448,192,47695,1,8,0:0:0:0:
320,192,47773,1,0,0:0:0:0:
64,192,47851,1,0,0:0:0:0:
192,192,47929,1,0,0:0:0:0:
448,192,48008,1,0,0:0:0:0:
320,192,48008,1,0,0:0:0:0:
64,192,48086,1,0,0:0:0:0:
192,192,48164,1,0,0:0:0:0:
320,192,48242,1,0,0:0:0:0:
448,192,48320,1,8,0:0:0:0:
64,192,48398,1,0,0:0:0:0:
192,192,48476,1,0,0:0:0:0:
320,192,48554,1,0,0:0:0:0:
64,192,48633,1,2,0:0:0:0:
448,192,48633,1,0,0:0:0:0:
192,192,48711,1,0,0:0:0:0:
320,192,48789,1,0,0:0:0:0:
448,192,48867,1,0,0:0:0:0:
64,192,48945,1,8,0:0:0:0:
192,192,49023,1,0,0:0:0:0:
448,192,49101,1,0,0:0:0:0:
320,192,49179,1,0,0:0:0:0:
64,192,49258,1,0,0:0:0:0:
192,192,49258,1,0,0:0:0:0:
448,192,49336,1,0,0:0:0:0:
320,192,49414,1,0,0:0:0:0:
192,192,49492,1,0,0:0:0:0:
64,192,49570,1,8,0:0:0:0:
448,192,49648,1,0,0:0:0:0:
320,192,49726,1,0,0:0:0:0:
192,192,49804,1,0,0:0:0:0:
448,192,49883,1,0,0:0:0:0:
64,192,49883,1,2,0:0:0:0:
320,192,49961,1,0,0:0:0:0:
192,192,50039,1,0,0:0:0:0:
64,192,50117,1,0,0:0:0:0:
320,192,50195,1,8,0:0:0:0:
192,192,50273,1,0,0:0:0:0:
448,192,50351,1,0,0:0:0:0:
320,192,50429,1,0,0:0:0:0:
64,192,50508,1,0,0:0:0:0:
192,192,50586,1,0,0:0:0:0:
320,192,50664,1,0,0:0:0:0:
192,192,50742,1,0,0:0:0:0:
64,192,50820,1,8,0:0:0:0:
448,192,50898,1,0,0:0:0:0:
320,192,50976,1,0,0:0:0:0:
192,192,51054,1,0,0:0:0:0:
448,192,51133,1,0,0:0:0:0:
64,192,51133,1,2,0:0:0:0:
320,192,51211,1,0,0:0:0:0:
192,192,51289,1,0,0:0:0:0:
64,192,51367,1,0,0:0:0:0:
320,192,51445,1,8,0:0:0:0:
448,192,51523,1,0,0:0:0:0:
64,192,51601,1,0,0:0:0:0:
192,192,51679,1,0,0:0:0:0:
320,192,51758,1,0,0:0:0:0:
64,192,51758,1,0,0:0:0:0:
448,192,51836,1,0,0:0:0:0:
192,192,51914,1,0,0:0:0:0:
64,192,51992,1,0,0:0:0:0:
320,192,52070,1,8,0:0:0:0:
448,192,52148,1,0,0:0:0:0:
192,192,52226,1,0,0:0:0:0:
320,192,52304,1,0,0:0:0:0:
192,192,52383,1,0,0:0:0:0:
64,192,52383,1,2,0:0:0:0:
448,192,52383,1,0,0:0:0:0:
320,192,52461,1,0,0:0:0:0:
192,192,52539,1,0,0:0:0:0:
64,192,52617,1,0,0:0:0:0:
448,192,52695,1,8,0:0:0:0:
320,192,52773,1,0,0:0:0:0:
64,192,52851,1,0,0:0:0:0:
192,192,52929,1,0,0:0:0:0:
448,192,53008,1,0,0:0:0:0:
320,192,53008,1,2,0:0:0:0:
64,192,53086,1,0,0:0:0:0:
192,192,53164,1,0,0:0:0:0:
320,192,53242,1,0,0:0:0:0:
448,192,53320,1,10,0:0:0:0:
64,192,53398,1,0,0:0:0:0:
320,192,53476,1,0,0:0:0:0:
192,192,53554,1,0,0:0:0:0:
448,192,53633,1,0,0:0:0:0:
64,192,53633,1,2,0:0:0:0:
192,192,53711,1,0,0:0:0:0:
320,192,53789,1,0,0:0:0:0:
448,192,53867,1,0,0:0:0:0:
64,192,53945,1,8,0:0:0:0:
192,192,54023,1,0,0:0:0:0:
320,192,54101,1,0,0:0:0:0:
448,192,54179,1,0,0:0:0:0:
64,192,54258,1,0,0:0:0:0:
192,192,54258,1,0,0:0:0:0:
320,192,54336,1,0,0:0:0:0:
448,192,54414,1,0,0:0:0:0:
192,192,54492,1,0,0:0:0:0:
320,192,54570,1,8,0:0:0:0:
64,192,54648,1,0,0:0:0:0:
192,192,54726,1,0,0:0:0:0:
320,192,54804,1,0,0:0:0:0:
448,192,54883,1,0,0:0:0:0:
64,192,54883,1,2,0:0:0:0:
192,192,54961,1,0,0:0:0:0:
320,192,55039,1,0,0:0:0:0:
448,192,55117,1,0,0:0:0:0:
320,192,55195,1,8,0:0:0:0:
192,192,55273,1,0,0:0:0:0:
64,192,55351,1,0,0:0:0:0:
192,192,55429,1,0,0:0:0:0:
320,192,55508,1,2,0:0:0:0:
448,192,55508,1,0,0:0:0:0:
64,192,55586,1,0,0:0:0:0:
192,192,55664,1,0,0:0:0:0:
448,192,55742,1,0,0:0:0:0:
320,192,55820,1,10,0:0:0:0:
64,192,55898,1,0,0:0:0:0:
192,192,55976,1,0,0:0:0:0:
320,192,56054,1,0,0:0:0:0:
448,192,56133,1,0,0:0:0:0:
64,192,56133,1,2,0:0:0:0:
192,192,56211,1,0,0:0:0:0:
320,192,56289,1,0,0:0:0:0:
64,192,56367,1,0,0:0:0:0:
192,192,56445,1,8,0:0:0:0:
320,192,56523,1,0,0:0:0:0:
448,192,56601,1,0,0:0:0:0:
320,192,56679,1,0,0:0:0:0:
192,192,56758,1,0,0:0:0:0:
64,192,56758,1,0,0:0:0:0:
448,192,56836,1,0,0:0:0:0:
320,192,56914,1,0,0:0:0:0:
192,192,56992,1,0,0:0:0:0:
64,192,57070,1,8,0:0:0:0:
192,192,57148,1,0,0:0:0:0:
320,192,57226,1,0,0:0:0:0:
448,192,57304,1,0,0:0:0:0:
192,192,57383,1,2,0:0:0:0:
320,192,57383,1,0,0:0:0:0:
64,192,57461,1,0,0:0:0:0:
192,192,57539,1,0,0:0:0:0:
448,192,57617,1,0,0:0:0:0:
320,192,57695,1,8,0:0:0:0:
192,192,57773,1,0,0:0:0:0:
64,192,57851,1,0,0:0:0:0:
320,192,57929,1,0,0:0:0:0:
192,192,58008,1,2,0:0:0:0:
448,192,58008,1,0,0:0:0:0:
64,192,58086,1,0,0:0:0:0:
192,192,58164,1,0,0:0:0:0:
320,192,58242,1,0,0:0:0:0:
448,192,58320,1,10,0:0:0:0:
64,192,58398,1,0,0:0:0:0:
192,192,58476,1,0,0:0:0:0:
320,192,58554,1,0,0:0:0:0:
448,192,58633,1,0,0:0:0:0:
64,192,58633,1,2,0:0:0:0:
320,192,58711,1,0,0:0:0:0:
192,192,58789,1,0,0:0:0:0:
64,192,58867,1,0,0:0:0:0:
320,192,58945,1,8,0:0:0:0:
192,192,59023,1,0,0:0:0:0:
448,192,59101,1,0,0:0:0:0:
320,192,59179,1,0,0:0:0:0:
192,192,59258,1,0,0:0:0:0:
64,192,59258,1,0,0:0:0:0:
320,192,59336,1,0,0:0:0:0:
448,192,59414,1,0,0:0:0:0:
64,192,59492,1,0,0:0:0:0:
192,192,59570,1,8,0:0:0:0:
320,192,59648,1,0,0:0:0:0:
64,192,59726,1,0,0:0:0:0:
192,192,59804,1,0,0:0:0:0:
448,192,59883,1,0,0:0:0:0:
320,192,59883,1,2,0:0:0:0:
64,192,59961,1,0,0:0:0:0:
192,192,60039,1,0,0:0:0:0:
448,192,60117,1,0,0:0:0:0:
320,192,60195,1,8,0:0:0:0:
192,192,60273,1,0,0:0:0:0:
64,192,60351,1,0,0:0:0:0:
320,192,60429,1,0,0:0:0:0:
448,192,60508,1,0,0:0:0:0:
192,192,60508,1,2,0:0:0:0:
64,192,60586,1,0,0:0:0:0:
192,192,60664,1,0,0:0:0:0:
320,192,60742,1,0,0:0:0:0:
448,192,60820,1,10,0:0:0:0:
64,192,60898,1,0,0:0:0:0:
192,192,60976,1,0,0:0:0:0:
320,192,61054,1,0,0:0:0:0:
64,192,61133,1,2,0:0:0:0:
448,192,61133,1,0,0:0:0:0:
320,192,61211,1,0,0:0:0:0:
192,192,61289,1,0,0:0:0:0:
64,192,61367,1,0,0:0:0:0:
192,192,61445,1,8,0:0:0:0:
448,192,61523,1,0,0:0:0:0:
320,192,61601,1,0,0:0:0:0:
192,192,61679,1,0,0:0:0:0:
448,192,61758,1,0,0:0:0:0:
64,192,61758,1,2,0:0:0:0:
192,192,61836,1,0,0:0:0:0:
320,192,61914,1,0,0:0:0:0:
448,192,61992,1,0,0:0:0:0:
64,192,62070,1,10,0:0:0:0:
192,192,62070,1,0,0:0:0:0:
320,192,62148,1,0,0:0:0:0:
448,192,62226,1,8,0:0:0:0:
64,192,62226,1,2,0:0:0:0:
192,192,62304,1,0,0:0:0:0:
64,192,62383,1,10,0:0:0:0:
320,192,62383,1,0,0:0:0:0:
448,192,62383,1,0,0:0:0:0:
192,192,62461,1,0,0:0:0:0:
320,192,62539,1,0,0:0:0:0:
448,192,62617,1,0,0:0:0:0:
192,192,62695,1,8,0:0:0:0:
320,192,62773,1,0,0:0:0:0:
192,192,62851,1,0,0:0:0:0:
320,192,62929,1,0,0:0:0:0:
448,192,63008,1,0,0:0:0:0:
64,192,63008,1,2,0:0:0:0:
320,192,63086,1,0,0:0:0:0:
192,192,63164,1,0,0:0:0:0:
64,192,63242,1,0,0:0:0:0:
448,192,63320,1,10,0:0:0:0:
320,192,63398,1,0,0:0:0:0:
192,192,63476,1,0,0:0:0:0:
64,192,63554,1,0,0:0:0:0:
320,192,63633,1,0,0:0:0:0:
192,192,63633,1,2,0:0:0:0:
448,192,63711,1,0,0:0:0:0:
320,192,63789,1,0,0:0:0:0:
64,192,63867,1,0,0:0:0:0:
192,192,63945,1,8,0:0:0:0:
448,192,64023,1,0,0:0:0:0:
320,192,64101,1,0,0:0:0:0:
192,192,64179,1,0,0:0:0:0:
448,192,64258,1,0,0:0:0:0:
64,192,64258,1,0,0:0:0:0:
320,192,64336,1,0,0:0:0:0:
192,192,64414,1,0,0:0:0:0:
320,192,64492,1,0,0:0:0:0:
192,192,64570,1,8,0:0:0:0:
448,192,64648,1,0,0:0:0:0:
320,192,64726,1,0,0:0:0:0:
192,192,64804,1,0,0:0:0:0:
320,192,64883,1,0,0:0:0:0:
64,192,64883,1,2,0:0:0:0:
448,192,64883,1,0,0:0:0:0:
192,192,64961,1,0,0:0:0:0:
320,192,65039,1,0,0:0:0:0:
448,192,65117,1,0,0:0:0:0:
64,192,65195,1,8,0:0:0:0:
192,192,65273,1,0,0:0:0:0:
320,192,65351,1,0,0:0:0:0:
448,192,65429,1,0,0:0:0:0:
192,192,65508,1,2,0:0:0:0:
64,192,65508,1,0,0:0:0:0:
320,192,65586,1,0,0:0:0:0:
448,192,65664,1,0,0:0:0:0:
192,192,65742,1,0,0:0:0:0:
64,192,65820,1,10,0:0:0:0:
448,192,65898,1,0,0:0:0:0:
320,192,65976,1,0,0:0:0:0:
192,192,66054,1,0,0:0:0:0:
64,192,66133,1,2,0:0:0:0:
448,192,66133,1,2,0:0:0:0:
192,192,66211,1,0,0:0:0:0:
320,192,66289,1,0,0:0:0:0:
192,192,66367,1,0,0:0:0:0:
64,192,66445,1,8,0:0:0:0:
448,192,66523,1,0,0:0:0:0:
320,192,66601,1,0,0:0:0:0:
192,192,66679,1,0,0:0:0:0:
448,192,66758,1,0,0:0:0:0:
320,192,66758,1,0,0:0:0:0:
64,192,66836,1,0,0:0:0:0:
192,192,66914,1,0,0:0:0:0:
320,192,66992,1,0,0:0:0:0:
448,192,67070,1,8,0:0:0:0:
64,192,67148,1,0,0:0:0:0:
192,192,67226,1,0,0:0:0:0:
320,192,67304,1,0,0:0:0:0:
64,192,67383,1,2,0:0:0:0:
192,192,67383,1,0,0:0:0:0:
448,192,67383,1,0,0:0:0:0:
320,192,67539,1,0,0:0:0:0:
448,192,67539,1,0,0:0:0:0:
64,192,67695,1,0,0:0:0:0:
192,192,67695,1,0,0:0:0:0:
64,192,67851,1,0,0:0:0:0:
448,192,67851,1,0,0:0:0:0:
320,192,68008,1,0,0:0:0:0:
192,192,68008,1,0,0:0:0:0:
64,192,68164,1,0,0:0:0:0:
192,192,68164,1,0,0:0:0:0:
320,192,68320,1,0,0:0:0:0:
448,192,68320,1,0,0:0:0:0:
448,192,68476,1,0,0:0:0:0:
192,192,68476,1,0,0:0:0:0:
64,192,68633,1,2,0:0:0:0:
448,192,68633,1,0,0:0:0:0:
192,192,68789,1,0,0:0:0:0:
64,192,68789,1,0,0:0:0:0:
448,192,68945,1,0,0:0:0:0:
192,192,68945,1,0,0:0:0:0:
320,192,69101,1,0,0:0:0:0:
448,192,69101,1,0,0:0:0:0:
64,192,69258,1,0,0:0:0:0:
192,192,69258,1,0,0:0:0:0:
320,192,69414,1,0,0:0:0:0:
192,192,69414,1,0,0:0:0:0:
64,192,69570,1,0,0:0:0:0:
448,192,69570,1,0,0:0:0:0:
192,192,69726,1,0,0:0:0:0:
64,192,69726,1,0,0:0:0:0:
448,192,69883,1,0,0:0:0:0:
320,192,69883,1,0,0:0:0:0:
64,192,69883,1,2,0:0:0:0:
192,192,69961,1,0,0:0:0:0:
320,192,70039,1,0,0:0:0:0:
448,192,70039,1,0,0:0:0:0:
192,192,70117,1,0,0:0:0:0:
64,192,70195,1,0,0:0:0:0:
448,192,70195,1,0,0:0:0:0:
320,192,70273,1,0,0:0:0:0:
192,192,70351,1,0,0:0:0:0:
64,192,70351,1,0,0:0:0:0:
320,192,70429,1,0,0:0:0:0:
448,192,70508,1,0,0:0:0:0:
64,192,70508,1,0,0:0:0:0:
192,192,70586,1,0,0:0:0:0:
320,192,70664,1,0,0:0:0:0:
448,192,70664,1,0,0:0:0:0:
192,192,70742,1,0,0:0:0:0:
64,192,70820,1,0,0:0:0:0:
448,192,70820,1,0,0:0:0:0:
320,192,70898,1,0,0:0:0:0:
192,192,70976,1,0,0:0:0:0:
64,192,70976,1,0,0:0:0:0:
320,192,71054,1,0,0:0:0:0:
64,192,71133,5,0,0:0:0:0:
192,192,71133,1,0,0:0:0:0:
448,192,71133,1,0,0:0:0:0:
448,192,71367,1,0,0:0:0:0:
320,192,71367,1,0,0:0:0:0:
64,192,71367,1,0,0:0:0:0:
448,192,71601,1,0,0:0:0:0:
320,192,71601,1,0,0:0:0:0:
192,192,71601,1,0,0:0:0:0:
64,192,71836,1,0,0:0:0:0:
192,192,71836,1,0,0:0:0:0:
448,192,71836,1,0,0:0:0:0:
64,192,72070,1,0,0:0:0:0:
192,192,72070,1,0,0:0:0:0:
320,192,72070,1,0,0:0:0:0:
448,192,72226,1,0,0:0:0:0:
320,192,72265,1,0,0:0:0:0:
192,192,72304,1,0,0:0:0:0:
64,192,72343,1,0,0:0:0:0:
448,192,72383,1,0,0:0:0:0:
320,192,72383,1,0,0:0:0:0:
192,192,72383,1,0,0:0:0:0:
64,192,72539,1,0,0:0:0:0:
448,192,72695,1,0,0:0:0:0:
320,192,72695,1,0,0:0:0:0:
192,192,72695,1,0,0:0:0:0:
64,192,73008,1,0,0:0:0:0:
192,192,73008,1,0,0:0:0:0:
448,192,73008,1,0,0:0:0:0:
192,192,73164,1,0,0:0:0:0:
64,192,73164,1,0,0:0:0:0:
448,192,73164,1,0,0:0:0:0:
448,192,73476,1,0,0:0:0:0:
320,192,73476,1,0,0:0:0:0:
192,192,73476,1,0,0:0:0:0:
448,192,73789,1,0,0:0:0:0:
320,192,73789,1,0,0:0:0:0:
192,192,73789,1,0,0:0:0:0:
448,192,74101,1,0,0:0:0:0:
320,192,74101,1,0,0:0:0:0:
192,192,74101,1,0,0:0:0:0:
64,192,74258,1,2,0:0:0:0:
320,192,74258,1,0,0:0:0:0:
448,192,74258,1,0,0:0:0:0:
64,192,74570,1,0,0:0:0:0:
192,192,74570,1,0,0:0:0:0:
320,192,74570,1,0,0:0:0:0:
64,192,74883,1,0,0:0:0:0:
192,192,74883,1,0,0:0:0:0:
320,192,74883,1,0,0:0:0:0:
64,192,75039,1,0,0:0:0:0:
192,192,75039,1,0,0:0:0:0:
320,192,75039,1,0,0:0:0:0:
448,192,75351,1,0,0:0:0:0:
320,192,75351,1,0,0:0:0:0:
64,192,75351,1,0,0:0:0:0:
448,192,75664,1,0,0:0:0:0:
320,192,75664,1,0,0:0:0:0:
64,192,75664,1,0,0:0:0:0:
64,192,75976,1,0,0:0:0:0:
192,192,75976,1,0,0:0:0:0:
320,192,76054,1,0,0:0:0:0:
192,192,76133,1,0,0:0:0:0:
64,192,76133,1,2,0:0:0:0:
448,192,76133,1,0,0:0:0:0:
64,192,76445,1,0,0:0:0:0:
192,192,76445,1,0,0:0:0:0:
448,192,76445,1,0,0:0:0:0:
448,192,76758,1,0,0:0:0:0:
320,192,76758,1,0,0:0:0:0:
192,192,76758,1,0,0:0:0:0:
448,192,76914,1,0,0:0:0:0:
320,192,76914,1,0,0:0:0:0:
192,192,76914,1,0,0:0:0:0:
64,192,77226,1,0,0:0:0:0:
192,192,77226,1,0,0:0:0:0:
320,192,77226,1,0,0:0:0:0:
64,192,77539,1,0,0:0:0:0:
192,192,77539,1,0,0:0:0:0:
320,192,77539,1,0,0:0:0:0:
64,192,77851,1,0,0:0:0:0:
320,192,77851,1,0,0:0:0:0:
448,192,77851,1,0,0:0:0:0:
192,192,78008,1,2,0:0:0:0:
320,192,78008,1,0,0:0:0:0:
448,192,78008,1,0,0:0:0:0:
448,192,78320,1,0,0:0:0:0:
192,192,78320,1,0,0:0:0:0:
320,192,78320,1,0,0:0:0:0:
64,192,78633,1,0,0:0:0:0:
192,192,78633,1,0,0:0:0:0:
448,192,78633,1,0,0:0:0:0:
64,192,78789,1,0,0:0:0:0:
192,192,78789,1,0,0:0:0:0:
448,192,78789,1,0,0:0:0:0:
64,192,79049,1,0,0:0:0:0:
448,192,79049,1,0,0:0:0:0:
192,192,79153,1,0,0:0:0:0:
320,192,79258,1,0,0:0:0:0:
448,192,79258,1,0,0:0:0:0:
192,192,79362,1,0,0:0:0:0:
448,192,79466,1,0,0:0:0:0:
64,192,79466,1,0,0:0:0:0:
192,192,79570,1,0,0:0:0:0:
448,192,79674,1,0,0:0:0:0:
320,192,79674,1,0,0:0:0:0:
192,192,79778,1,0,0:0:0:0:
320,192,79883,1,0,0:0:0:0:
448,192,79883,1,0,0:0:0:0:
64,192,79883,1,2,0:0:0:0:
192,192,80039,1,0,0:0:0:0:
448,192,80195,1,0,0:0:0:0:
320,192,80195,1,0,0:0:0:0:
64,192,80195,1,0,0:0:0:0:
448,192,80351,1,0,0:0:0:0:
64,192,80508,1,0,0:0:0:0:
192,192,80508,1,0,0:0:0:0:
320,192,80508,1,0,0:0:0:0:
448,192,80664,1,0,0:0:0:0:
64,192,80820,1,0,0:0:0:0:
192,192,80820,1,0,0:0:0:0:
320,192,80820,1,0,0:0:0:0:
448,192,80976,1,0,0:0:0:0:
192,192,80976,1,0,0:0:0:0:
64,192,80976,1,0,0:0:0:0:
192,192,81133,1,0,0:0:0:0:
448,192,81289,1,0,0:0:0:0:
320,192,81289,1,0,0:0:0:0:
64,192,81289,1,0,0:0:0:0:
192,192,81445,1,0,0:0:0:0:
448,192,81601,1,0,0:0:0:0:
320,192,81601,1,0,0:0:0:0:
192,192,81679,1,0,0:0:0:0:
320,192,81758,1,0,0:0:0:0:
448,192,81758,1,0,0:0:0:0:
64,192,81758,1,2,0:0:0:0:
448,192,81914,1,0,0:0:0:0:
64,192,82070,1,0,0:0:0:0:
192,192,82070,1,0,0:0:0:0:
320,192,82070,1,0,0:0:0:0:
448,192,82226,1,0,0:0:0:0:
64,192,82383,1,0,0:0:0:0:
192,192,82383,1,0,0:0:0:0:
320,192,82383,1,0,0:0:0:0:
320,192,82539,1,0,0:0:0:0:
192,192,82539,1,0,0:0:0:0:
64,192,82539,1,0,0:0:0:0:
192,192,82695,1,0,0:0:0:0:
448,192,82851,1,0,0:0:0:0:
320,192,82851,1,0,0:0:0:0:
64,192,82851,1,0,0:0:0:0:
192,192,83008,1,0,0:0:0:0:
320,192,83164,1,0,0:0:0:0:
448,192,83164,1,0,0:0:0:0:
64,192,83164,1,0,0:0:0:0:
192,192,83320,1,0,0:0:0:0:
320,192,83398,1,0,0:0:0:0:
192,192,83476,1,0,0:0:0:0:
320,192,83554,1,0,0:0:0:0:
64,192,83633,1,2,0:0:0:0:
192,192,83633,1,0,0:0:0:0:
448,192,83633,1,0,0:0:0:0:
320,192,83711,1,0,0:0:0:0:
192,192,83789,1,0,0:0:0:0:
448,192,83867,1,0,0:0:0:0:
320,192,83945,1,0,0:0:0:0:
64,192,84023,1,0,0:0:0:0:
192,192,84101,1,0,0:0:0:0:
320,192,84179,1,0,0:0:0:0:
64,192,84258,1,0,0:0:0:0:
192,192,84336,1,0,0:0:0:0:
448,192,84414,1,0,0:0:0:0:
320,192,84492,1,0,0:0:0:0:
64,192,84570,1,0,0:0:0:0:
192,192,84570,1,0,0:0:0:0:
448,192,84648,1,0,0:0:0:0:
320,192,84726,1,0,0:0:0:0:
192,192,84804,1,0,0:0:0:0:
64,192,84883,1,0,0:0:0:0:
448,192,84961,1,0,0:0:0:0:
320,192,85039,1,0,0:0:0:0:
64,192,85117,1,0,0:0:0:0:
192,192,85195,1,0,0:0:0:0:
320,192,85273,1,0,0:0:0:0:
192,192,85351,1,0,0:0:0:0:
320,192,85429,1,0,0:0:0:0:
448,192,85508,1,0,0:0:0:0:
64,192,85508,1,0,0:0:0:0:
192,192,85508,1,0,0:0:0:0:
448,192,85820,1,0,0:0:0:0:
64,192,85820,1,0,0:0:0:0:
192,192,85820,1,0,0:0:0:0:
64,192,86133,1,0,0:0:0:0:
192,192,86133,1,0,0:0:0:0:
448,192,86133,1,0,0:0:0:0:
320,192,86445,1,0,0:0:0:0:
192,192,86445,1,0,0:0:0:0:
64,192,86445,1,0,0:0:0:0:
448,192,86758,1,0,0:0:0:0:
320,192,86758,1,0,0:0:0:0:
192,192,86758,1,0,0:0:0:0:
448,192,87070,1,0,0:0:0:0:
320,192,87070,1,0,0:0:0:0:
64,192,87070,1,0,0:0:0:0:
64,192,87383,128,0,93242:0:0:0:0:
448,192,87383,128,0,89414:0:0:0:0:
192,192,89414,128,0,90039:0:0:0:0:
448,192,90039,128,0,90664:0:0:0:0:
192,192,90664,128,0,91289:0:0:0:0:
448,192,91289,128,0,91914:0:0:0:0:
192,192,91914,128,0,92539:0:0:0:0:
320,192,92539,128,0,93242:0:0:0:0:
448,192,92539,128,0,93242:0:0:0:0:
192,192,93242,1,0,0:0:0:0:
64,192,93633,1,2,0:0:0:0:
448,192,93633,1,0,0:0:0:0:
320,192,93789,1,0,0:0:0:0:
192,192,93945,1,0,0:0:0:0:
64,192,94101,1,0,0:0:0:0:
192,192,94258,1,0,0:0:0:0:
320,192,94414,1,0,0:0:0:0:
448,192,94570,1,0,0:0:0:0:
192,192,94570,1,2,0:0:0:0:
320,192,94726,1,0,0:0:0:0:
192,192,94883,1,0,0:0:0:0:
64,192,95039,1,0,0:0:0:0:
448,192,95195,1,0,0:0:0:0:
320,192,95351,1,0,0:0:0:0:
64,192,95508,1,2,0:0:0:0:
192,192,95508,1,0,0:0:0:0:
320,192,95664,1,0,0:0:0:0:
192,192,95820,1,0,0:0:0:0:
64,192,95976,1,0,0:0:0:0:
192,192,96133,1,0,0:0:0:0:
320,192,96289,1,0,0:0:0:0:
192,192,96445,1,2,0:0:0:0:
448,192,96445,1,0,0:0:0:0:
320,192,96601,1,0,0:0:0:0:
448,192,96758,1,0,0:0:0:0:
192,192,96914,1,0,0:0:0:0:
320,192,97070,1,0,0:0:0:0:
192,192,97226,1,0,0:0:0:0:
64,192,97383,1,2,0:0:0:0:
448,192,97383,1,0,0:0:0:0:
192,192,97539,1,0,0:0:0:0:
320,192,97695,1,0,0:0:0:0:
448,192,97851,1,0,0:0:0:0:
320,192,98008,1,0,0:0:0:0:
448,192,98164,1,0,0:0:0:0:
192,192,98320,1,0,0:0:0:0:
64,192,98320,1,2,0:0:0:0:
448,192,98476,1,0,0:0:0:0:
320,192,98633,1,0,0:0:0:0:
192,192,98789,1,0,0:0:0:0:
448,192,98945,1,0,0:0:0:0:
192,192,99101,1,0,0:0:0:0:
320,192,99258,1,2,0:0:0:0:
448,192,99258,1,0,0:0:0:0:
64,192,99414,1,0,0:0:0:0:
320,192,99570,1,0,0:0:0:0:
192,192,99726,1,0,0:0:0:0:
448,192,99883,1,0,0:0:0:0:
320,192,100039,1,0,0:0:0:0:
64,192,100195,1,2,0:0:0:0:
448,192,100195,1,0,0:0:0:0:
192,192,100351,1,0,0:0:0:0:
64,192,100508,1,0,0:0:0:0:
448,192,100508,1,0,0:0:0:0:
320,192,100664,1,0,0:0:0:0:
64,192,100820,1,0,0:0:0:0:
192,192,100976,1,0,0:0:0:0:
320,192,101133,1,0,0:0:0:0:
64,192,101133,1,2,0:0:0:0:
448,192,101133,128,0,102070:0:0:0:0:
64,192,101289,1,0,0:0:0:0:
192,192,101445,1,2,0:0:0:0:
320,192,101445,1,0,0:0:0:0:
64,192,101601,1,0,0:0:0:0:
192,192,101758,1,2,0:0:0:0:
64,192,101758,1,0,0:0:0:0:
320,192,101914,1,0,0:0:0:0:
320,192,102070,128,0,103008:0:0:0:0:
64,192,102070,1,2,0:0:0:0:
192,192,102226,1,0,0:0:0:0:
448,192,102383,1,0,0:0:0:0:
192,192,102383,1,2,0:0:0:0:
64,192,102539,1,0,0:0:0:0:
64,192,102695,1,0,0:0:0:0:
448,192,102695,1,2,0:0:0:0:
192,192,102851,1,0,0:0:0:0:
448,192,103008,1,2,0:0:0:0:
192,192,103008,128,0,103945:0:0:0:0:
64,192,103164,1,0,0:0:0:0:
64,192,103320,1,0,0:0:0:0:
320,192,103320,1,2,0:0:0:0:
448,192,103476,1,0,0:0:0:0:
448,192,103633,1,0,0:0:0:0:
320,192,103633,1,2,0:0:0:0:
64,192,103789,1,0,0:0:0:0:
448,192,103945,1,2,0:0:0:0:
64,192,103945,128,0,104883:0:0:0:0:
320,192,104101,1,0,0:0:0:0:
448,192,104258,1,0,0:0:0:0:
320,192,104258,1,2,0:0:0:0:
192,192,104414,1,0,0:0:0:0:
448,192,104570,1,0,0:0:0:0:
192,192,104570,1,2,0:0:0:0:
320,192,104726,1,0,0:0:0:0:
448,192,104883,1,2,0:0:0:0:
320,192,104883,128,0,105820:0:0:0:0:
192,192,105039,1,0,0:0:0:0:
192,192,105195,1,2,0:0:0:0:
64,192,105195,1,0,0:0:0:0:
448,192,105351,1,0,0:0:0:0:
448,192,105508,1,0,0:0:0:0:
64,192,105508,1,2,0:0:0:0:
192,192,105664,1,0,0:0:0:0:
64,192,105820,1,2,0:0:0:0:
192,192,105820,128,0,106758:0:0:0:0:
448,192,105976,1,0,0:0:0:0:
64,192,106133,1,2,0:0:0:0:
448,192,106133,1,0,0:0:0:0:
320,192,106289,1,0,0:0:0:0:
320,192,106445,1,2,0:0:0:0:
448,192,106445,1,0,0:0:0:0:
64,192,106601,1,0,0:0:0:0:
448,192,106758,1,2,0:0:0:0:
64,192,106758,128,0,108633:0:0:0:0:
320,192,106914,1,0,0:0:0:0:
192,192,107070,1,0,0:0:0:0:
320,192,107226,1,0,0:0:0:0:
448,192,107383,1,0,0:0:0:0:
320,192,107383,1,0,0:0:0:0:
192,192,107539,1,0,0:0:0:0:
320,192,107695,1,0,0:0:0:0:
448,192,107851,1,0,0:0:0:0:
192,192,108008,1,0,0:0:0:0:
320,192,108164,1,0,0:0:0:0:
448,192,108320,1,0,0:0:0:0:
320,192,108476,1,0,0:0:0:0:
448,192,108633,1,0,0:0:0:0:
192,192,108633,1,0,0:0:0:0:
64,192,108789,1,0,0:0:0:0:
320,192,108945,1,0,0:0:0:0:
448,192,108945,1,0,0:0:0:0:
192,192,109101,1,0,0:0:0:0:
64,192,109258,1,0,0:0:0:0:
448,192,109258,1,0,0:0:0:0:
320,192,109414,1,0,0:0:0:0:
448,192,109570,1,0,0:0:0:0:
192,192,109570,1,0,0:0:0:0:
64,192,109570,1,0,0:0:0:0:
320,192,109726,1,0,0:0:0:0:
448,192,109883,1,0,0:0:0:0:
192,192,109883,1,0,0:0:0:0:
64,192,110039,1,0,0:0:0:0:
320,192,110195,1,0,0:0:0:0:
192,192,110195,1,0,0:0:0:0:
448,192,110351,1,0,0:0:0:0:
64,192,110508,1,0,0:0:0:0:
192,192,110508,1,0,0:0:0:0:
320,192,110508,1,0,0:0:0:0:
448,192,110664,1,0,0:0:0:0:
64,192,110820,1,0,0:0:0:0:
192,192,110820,1,0,0:0:0:0:
448,192,110976,1,0,0:0:0:0:
192,192,111133,1,0,0:0:0:0:
64,192,111133,1,0,0:0:0:0:
320,192,111289,1,0,0:0:0:0:
192,192,111289,1,0,0:0:0:0:
448,192,111445,1,0,0:0:0:0:
320,192,111445,1,0,0:0:0:0:
64,192,111445,1,0,0:0:0:0:
192,192,111601,1,0,0:0:0:0:
64,192,111758,1,0,0:0:0:0:
448,192,111758,1,0,0:0:0:0:
320,192,111914,1,0,0:0:0:0:
192,192,112070,1,0,0:0:0:0:
64,192,112070,1,0,0:0:0:0:
320,192,112226,1,0,0:0:0:0:
448,192,112383,1,0,0:0:0:0:
192,192,112383,1,0,0:0:0:0:
64,192,112383,1,0,0:0:0:0:
320,192,112539,1,0,0:0:0:0:
448,192,112695,1,0,0:0:0:0:
64,192,112695,1,0,0:0:0:0:
192,192,112851,1,0,0:0:0:0:
320,192,112851,1,0,0:0:0:0:
320,192,113008,1,0,0:0:0:0:
448,192,113008,1,0,0:0:0:0:
192,192,113164,1,0,0:0:0:0:
64,192,113164,1,0,0:0:0:0:
192,192,113320,1,0,0:0:0:0:
64,192,113320,1,0,0:0:0:0:
448,192,113320,1,0,0:0:0:0:
320,192,113476,1,0,0:0:0:0:
64,192,113633,1,0,0:0:0:0:
448,192,113633,1,0,0:0:0:0:
192,192,113789,1,0,0:0:0:0:
320,192,113945,1,0,0:0:0:0:
448,192,113945,1,0,0:0:0:0:
64,192,114101,1,0,0:0:0:0:
192,192,114258,1,0,0:0:0:0:
320,192,114258,1,0,0:0:0:0:
448,192,114258,1,0,0:0:0:0:
64,192,114414,1,0,0:0:0:0:
320,192,114570,1,0,0:0:0:0:
192,192,114570,1,0,0:0:0:0:
448,192,114726,1,0,0:0:0:0:
64,192,114883,1,0,0:0:0:0:
320,192,114883,1,0,0:0:0:0:
192,192,115039,1,0,0:0:0:0:
448,192,115039,1,0,0:0:0:0:
64,192,115195,1,0,0:0:0:0:
320,192,115195,1,0,0:0:0:0:
448,192,115195,1,0,0:0:0:0:
192,192,115351,1,0,0:0:0:0:
448,192,115508,1,0,0:0:0:0:
320,192,115508,1,0,0:0:0:0:
192,192,115664,1,0,0:0:0:0:
64,192,115820,1,0,0:0:0:0:
448,192,115820,1,0,0:0:0:0:
320,192,115976,1,0,0:0:0:0:
192,192,116133,1,0,0:0:0:0:
64,192,116133,1,0,0:0:0:0:
448,192,116133,1,0,0:0:0:0:
320,192,116289,1,0,0:0:0:0:
64,192,116445,1,0,0:0:0:0:
448,192,116445,1,0,0:0:0:0:
320,192,116601,1,0,0:0:0:0:
192,192,116758,1,0,0:0:0:0:
64,192,116758,1,0,0:0:0:0:
448,192,116914,1,0,0:0:0:0:
320,192,117070,1,0,0:0:0:0:
64,192,117070,1,0,0:0:0:0:
192,192,117070,1,0,0:0:0:0:
448,192,117226,1,0,0:0:0:0:
64,192,117383,1,0,0:0:0:0:
192,192,117383,1,0,0:0:0:0:
320,192,117539,1,0,0:0:0:0:
448,192,117695,1,0,0:0:0:0:
64,192,117695,1,0,0:0:0:0:
192,192,117851,1,0,0:0:0:0:
448,192,118008,1,0,0:0:0:0:
320,192,118008,1,0,0:0:0:0:
64,192,118008,1,0,0:0:0:0:
192,192,118164,1,0,0:0:0:0:
64,192,118320,1,0,0:0:0:0:
320,192,118320,1,0,0:0:0:0:
448,192,118476,1,0,0:0:0:0:
192,192,118633,1,0,0:0:0:0:
64,192,118633,1,0,0:0:0:0:
448,192,118789,1,0,0:0:0:0:
320,192,118789,1,0,0:0:0:0:
192,192,118945,1,0,0:0:0:0:
320,192,118945,1,0,0:0:0:0:
448,192,118945,1,0,0:0:0:0:
64,192,119101,1,0,0:0:0:0:
448,192,119258,1,0,0:0:0:0:
320,192,119258,1,0,0:0:0:0:
192,192,119414,1,0,0:0:0:0:
64,192,119570,1,0,0:0:0:0:
448,192,119570,1,0,0:0:0:0:
320,192,119726,1,0,0:0:0:0:
448,192,119883,1,0,0:0:0:0:
192,192,119883,1,0,0:0:0:0:
64,192,119883,1,0,0:0:0:0:
320,192,120039,1,0,0:0:0:0:
64,192,120195,1,0,0:0:0:0:
192,192,120195,1,0,0:0:0:0:
448,192,120351,1,0,0:0:0:0:
320,192,120351,1,0,0:0:0:0:
64,192,120508,1,0,0:0:0:0:
192,192,120508,1,0,0:0:0:0:
320,192,120664,1,0,0:0:0:0:
192,192,120664,1,0,0:0:0:0:
64,192,120820,1,0,0:0:0:0:
320,192,120820,1,0,0:0:0:0:
448,192,120820,1,0,0:0:0:0:
192,192,120976,1,0,0:0:0:0:
64,192,121133,1,0,0:0:0:0:
448,192,121133,1,0,0:0:0:0:
192,192,121289,1,0,0:0:0:0:
320,192,121445,1,0,0:0:0:0:
448,192,121445,1,0,0:0:0:0:
192,192,121601,1,0,0:0:0:0:
320,192,121758,1,0,0:0:0:0:
448,192,121758,1,0,0:0:0:0:
64,192,121758,1,0,0:0:0:0:
192,192,121914,1,0,0:0:0:0:
320,192,122070,1,0,0:0:0:0:
320,192,122226,1,0,0:0:0:0:
64,192,122226,1,0,0:0:0:0:
192,192,122383,1,0,0:0:0:0:
448,192,122383,1,0,0:0:0:0:
64,192,122539,1,0,0:0:0:0:
192,192,122539,1,0,0:0:0:0:
320,192,122695,1,0,0:0:0:0:
448,192,122695,128,0,123633:0:0:0:0:
64,192,122695,1,0,0:0:0:0:
64,192,123633,1,2,0:0:0:0:
320,192,123633,1,0,0:0:0:0:
192,192,123633,1,0,0:0:0:0:
64,192,123789,1,0,0:0:0:0:
448,192,123945,1,0,0:0:0:0:
320,192,123945,1,0,0:0:0:0:
192,192,124101,1,0,0:0:0:0:
64,192,124101,1,2,0:0:0:0:
448,192,124101,1,0,0:0:0:0:
448,192,124258,1,0,0:0:0:0:
64,192,124258,1,0,0:0:0:0:
320,192,124414,1,0,0:0:0:0:
64,192,124570,1,2,0:0:0:0:
192,192,124570,1,0,0:0:0:0:
448,192,124570,1,0,0:0:0:0:
320,192,124726,1,0,0:0:0:0:
192,192,124883,1,0,0:0:0:0:
448,192,124883,1,0,0:0:0:0:
64,192,124883,1,2,0:0:0:0:
64,192,125039,1,0,0:0:0:0:
192,192,125195,1,0,0:0:0:0:
320,192,125195,1,0,0:0:0:0:
448,192,125351,1,0,0:0:0:0:
320,192,125508,1,0,0:0:0:0:
192,192,125508,1,0,0:0:0:0:
64,192,125508,1,2,0:0:0:0:
448,192,125664,1,0,0:0:0:0:
192,192,125820,1,0,0:0:0:0:
64,192,125820,1,0,0:0:0:0:
448,192,125976,1,0,0:0:0:0:
320,192,125976,1,0,0:0:0:0:
64,192,125976,1,2,0:0:0:0:
64,192,126133,1,0,0:0:0:0:
192,192,126133,1,0,0:0:0:0:
192,192,126289,1,0,0:0:0:0:
320,192,126289,1,0,0:0:0:0:
64,192,126445,1,2,0:0:0:0:
320,192,126445,1,0,0:0:0:0:
448,192,126445,1,0,0:0:0:0:
192,192,126601,1,0,0:0:0:0:
448,192,126758,1,0,0:0:0:0:
64,192,126758,1,2,0:0:0:0:
320,192,126758,1,0,0:0:0:0:
320,192,126914,1,0,0:0:0:0:
64,192,127070,1,0,0:0:0:0:
192,192,127070,1,0,0:0:0:0:
320,192,127226,1,0,0:0:0:0:
64,192,127383,1,2,0:0:0:0:
192,192,127383,1,0,0:0:0:0:
448,192,127383,1,0,0:0:0:0:
320,192,127539,1,0,0:0:0:0:
64,192,127695,1,0,0:0:0:0:
448,192,127695,1,0,0:0:0:0:
320,192,127851,1,0,0:0:0:0:
192,192,127851,1,0,0:0:0:0:
64,192,127851,1,2,0:0:0:0:
448,192,128008,1,0,0:0:0:0:
320,192,128008,1,0,0:0:0:0:
64,192,128164,1,0,0:0:0:0:
192,192,128164,1,0,0:0:0:0:
448,192,128320,1,0,0:0:0:0:
64,192,128320,1,2,0:0:0:0:
192,192,128320,1,0,0:0:0:0:
320,192,128476,1,0,0:0:0:0:
448,192,128633,1,0,0:0:0:0:
64,192,128633,1,2,0:0:0:0:
192,192,128633,1,0,0:0:0:0:
192,192,128789,1,0,0:0:0:0:
448,192,128945,1,0,0:0:0:0:
320,192,128945,1,0,0:0:0:0:
64,192,129101,1,0,0:0:0:0:
448,192,129258,1,0,0:0:0:0:
320,192,129258,1,0,0:0:0:0:
192,192,129258,1,2,0:0:0:0:
64,192,129414,1,0,0:0:0:0:
192,192,129570,1,0,0:0:0:0:
320,192,129570,1,0,0:0:0:0:
448,192,129726,1,0,0:0:0:0:
64,192,129726,1,2,0:0:0:0:
192,192,129726,1,0,0:0:0:0:
320,192,129883,1,0,0:0:0:0:
64,192,129883,1,0,0:0:0:0:
448,192,130039,1,0,0:0:0:0:
192,192,130039,1,0,0:0:0:0:
448,192,130195,1,0,0:0:0:0:
320,192,130195,1,0,0:0:0:0:
64,192,130195,1,2,0:0:0:0:
64,192,130351,1,0,0:0:0:0:
320,192,130508,1,0,0:0:0:0:
448,192,130508,1,0,0:0:0:0:
192,192,130508,1,2,0:0:0:0:
192,192,130664,1,0,0:0:0:0:
448,192,130820,1,0,0:0:0:0:
64,192,130820,1,2,0:0:0:0:
320,192,130820,1,0,0:0:0:0:
320,192,130976,1,0,0:0:0:0:
192,192,130976,1,0,0:0:0:0:
448,192,131133,1,0,0:0:0:0:
64,192,131133,1,2,0:0:0:0:
192,192,131133,1,0,0:0:0:0:
320,192,131289,1,0,0:0:0:0:
448,192,131445,1,0,0:0:0:0:
64,192,131445,1,2,0:0:0:0:
192,192,131445,1,0,0:0:0:0:
320,192,131601,1,0,0:0:0:0:
64,192,131758,1,2,0:0:0:0:
192,192,131758,1,0,0:0:0:0:
448,192,131758,1,0,0:0:0:0:
448,192,131914,1,0,0:0:0:0:
192,192,132070,1,0,0:0:0:0:
64,192,132070,1,2,0:0:0:0:
320,192,132070,1,0,0:0:0:0:
448,192,132226,1,0,0:0:0:0:
192,192,132383,1,0,0:0:0:0:
64,192,132383,1,2,0:0:0:0:
320,192,132383,1,0,0:0:0:0:
448,192,132539,1,0,0:0:0:0:
64,192,132695,1,2,0:0:0:0:
192,192,132695,1,0,0:0:0:0:
320,192,132695,1,0,0:0:0:0:
192,192,132851,1,0,0:0:0:0:
64,192,133008,1,2,0:0:0:0:
320,192,133008,1,0,0:0:0:0:
448,192,133008,1,0,0:0:0:0:
192,192,133164,1,0,0:0:0:0:
320,192,133320,1,0,0:0:0:0:
64,192,133320,1,2,0:0:0:0:
448,192,133320,1,0,0:0:0:0:
192,192,133476,1,0,0:0:0:0:
64,192,133633,1,2,0:0:0:0:
320,192,133633,1,0,0:0:0:0:
448,192,133633,1,0,0:0:0:0:
320,192,133789,1,0,0:0:0:0:
448,192,133789,1,0,0:0:0:0:
448,192,133945,1,0,0:0:0:0:
64,192,133945,1,2,0:0:0:0:
192,192,133945,1,0,0:0:0:0:
64,192,134101,1,0,0:0:0:0:
320,192,134258,1,2,0:0:0:0:
448,192,134258,1,0,0:0:0:0:
192,192,134414,1,0,0:0:0:0:
448,192,134570,1,0,0:0:0:0:
64,192,134570,1,2,0:0:0:0:
320,192,134726,1,0,0:0:0:0:
64,192,134883,1,2,0:0:0:0:
192,192,134883,1,0,0:0:0:0:
448,192,134883,1,0,0:0:0:0:
320,192,135039,1,0,0:0:0:0:
448,192,135039,1,0,0:0:0:0:
192,192,135195,1,0,0:0:0:0:
64,192,135195,1,0,0:0:0:0:
320,192,135351,1,0,0:0:0:0:
448,192,135351,1,0,0:0:0:0:
192,192,135508,1,0,0:0:0:0:
64,192,135508,1,0,0:0:0:0:
192,192,135664,1,0,0:0:0:0:
320,192,135664,1,0,0:0:0:0:
448,192,135820,1,0,0:0:0:0:
320,192,135820,1,0,0:0:0:0:
64,192,135820,1,2,0:0:0:0:
192,192,135976,1,0,0:0:0:0:
448,192,135976,1,0,0:0:0:0:
64,192,136133,1,0,0:0:0:0:
320,192,136133,1,0,0:0:0:0:
192,192,136289,1,0,0:0:0:0:
448,192,136289,1,0,0:0:0:0:
320,192,136445,1,0,0:0:0:0:
192,192,136445,1,0,0:0:0:0:
64,192,136601,1,0,0:0:0:0:
448,192,136601,1,0,0:0:0:0:
64,192,136758,1,2,0:0:0:0:
448,192,136758,1,0,0:0:0:0:
320,192,136758,1,0,0:0:0:0:
192,192,136836,1,0,0:0:0:0:
320,192,136914,1,0,0:0:0:0:
448,192,136992,1,0,0:0:0:0:
64,192,137070,1,0,0:0:0:0:
192,192,137148,1,0,0:0:0:0:
448,192,137226,1,0,0:0:0:0:
320,192,137304,1,0,0:0:0:0:
192,192,137383,1,0,0:0:0:0:
64,192,137383,1,0,0:0:0:0:
448,192,137539,1,0,0:0:0:0:
320,192,137578,1,0,0:0:0:0:
192,192,137617,1,0,0:0:0:0:
64,192,137656,1,0,0:0:0:0:
448,192,137695,1,0,0:0:0:0:
320,192,137695,1,0,0:0:0:0:
192,192,137695,1,0,0:0:0:0:
64,192,138008,1,0,0:0:0:0:
192,192,138008,1,0,0:0:0:0:
448,192,138008,1,0,0:0:0:0:
320,192,138320,1,0,0:0:0:0:
192,192,138320,1,0,0:0:0:0:
64,192,138320,1,0,0:0:0:0:
448,192,138633,1,0,0:0:0:0:
64,192,138633,1,2,0:0:0:0:
192,192,138633,1,0,0:0:0:0:
320,192,138789,1,0,0:0:0:0:
448,192,138945,1,0,0:0:0:0:
192,192,138945,1,0,0:0:0:0:
64,192,138945,1,0,0:0:0:0:
320,192,139101,1,0,0:0:0:0:
448,192,139258,1,0,0:0:0:0:
64,192,139258,1,0,0:0:0:0:
192,192,139414,1,0,0:0:0:0:
320,192,139570,1,0,0:0:0:0:
64,192,139570,1,2,0:0:0:0:
448,192,139570,1,0,0:0:0:0:
192,192,139726,1,0,0:0:0:0:
448,192,139883,1,0,0:0:0:0:
64,192,139883,1,0,0:0:0:0:
320,192,139883,1,0,0:0:0:0:
192,192,140039,1,0,0:0:0:0:
448,192,140195,1,0,0:0:0:0:
64,192,140195,1,0,0:0:0:0:
320,192,140351,1,0,0:0:0:0:
320,192,140508,1,0,0:0:0:0:
64,192,140508,1,2,0:0:0:0:
192,192,140508,1,0,0:0:0:0:
448,192,140664,1,0,0:0:0:0:
64,192,140820,1,0,0:0:0:0:
320,192,140820,1,0,0:0:0:0:
192,192,140820,1,0,0:0:0:0:
448,192,140976,1,0,0:0:0:0:
320,192,141133,1,0,0:0:0:0:
192,192,141133,1,0,0:0:0:0:
64,192,141133,1,0,0:0:0:0:
448,192,141289,1,0,0:0:0:0:
320,192,141289,1,0,0:0:0:0:
64,192,141445,1,2,0:0:0:0:
448,192,141445,1,0,0:0:0:0:
192,192,141445,1,0,0:0:0:0:
320,192,141601,1,0,0:0:0:0:
448,192,141758,1,0,0:0:0:0:
192,192,141758,1,0,0:0:0:0:
64,192,141758,1,0,0:0:0:0:
320,192,141914,1,0,0:0:0:0:
192,192,142070,1,0,0:0:0:0:
64,192,142070,1,0,0:0:0:0:
320,192,142070,1,0,0:0:0:0:
192,192,142226,1,0,0:0:0:0:
64,192,142226,1,0,0:0:0:0:
320,192,142304,1,0,0:0:0:0:
448,192,142383,1,0,0:0:0:0:
192,192,142383,1,0,0:0:0:0:
64,192,142383,1,2,0:0:0:0:
320,192,142539,1,0,0:0:0:0:
448,192,142695,1,0,0:0:0:0:
64,192,142695,1,0,0:0:0:0:
192,192,142695,1,0,0:0:0:0:
448,192,142851,1,0,0:0:0:0:
320,192,142851,1,0,0:0:0:0:
64,192,143008,1,0,0:0:0:0:
192,192,143008,1,0,0:0:0:0:
448,192,143008,1,0,0:0:0:0:
320,192,143164,1,0,0:0:0:0:
192,192,143164,1,0,0:0:0:0:
448,192,143320,1,0,0:0:0:0:
64,192,143320,1,2,0:0:0:0:
192,192,143320,1,0,0:0:0:0:
320,192,143476,1,0,0:0:0:0:
192,192,143633,1,0,0:0:0:0:
448,192,143633,1,0,0:0:0:0:
64,192,143633,1,0,0:0:0:0:
320,192,143789,1,0,0:0:0:0:
64,192,143945,1,0,0:0:0:0:
448,192,143945,1,0,0:0:0:0:
192,192,144101,1,0,0:0:0:0:
192,192,144258,1,2,0:0:0:0:
320,192,144258,1,0,0:0:0:0:
448,192,144258,1,0,0:0:0:0:
64,192,144414,1,0,0:0:0:0:
192,192,144570,1,0,0:0:0:0:
320,192,144570,1,0,0:0:0:0:
448,192,144570,1,0,0:0:0:0:
64,192,144726,1,0,0:0:0:0:
320,192,144883,1,0,0:0:0:0:
64,192,144883,1,0,0:0:0:0:
448,192,144883,1,0,0:0:0:0:
64,192,145039,1,0,0:0:0:0:
320,192,145117,1,0,0:0:0:0:
448,192,145117,1,0,0:0:0:0:
192,192,145195,1,0,0:0:0:0:
64,192,145195,1,0,0:0:0:0:
192,192,145351,1,0,0:0:0:0:
64,192,145508,1,0,0:0:0:0:
448,192,145508,1,0,0:0:0:0:
320,192,145508,1,0,0:0:0:0:
192,192,145664,1,0,0:0:0:0:
192,192,145820,1,0,0:0:0:0:
64,192,145820,1,0,0:0:0:0:
320,192,145820,1,0,0:0:0:0:
320,192,145976,1,0,0:0:0:0:
448,192,145976,1,0,0:0:0:0:
192,192,146054,1,0,0:0:0:0:
64,192,146133,1,2,0:0:0:0:
448,192,146133,1,0,0:0:0:0:
320,192,146133,1,0,0:0:0:0:
320,192,146289,1,0,0:0:0:0:
448,192,146445,1,0,0:0:0:0:
192,192,146445,1,0,0:0:0:0:
64,192,146445,1,0,0:0:0:0:
320,192,146601,1,0,0:0:0:0:
448,192,146758,1,0,0:0:0:0:
64,192,146758,1,0,0:0:0:0:
192,192,146914,1,0,0:0:0:0:
320,192,147070,1,0,0:0:0:0:
64,192,147070,1,2,0:0:0:0:
448,192,147070,1,0,0:0:0:0:
192,192,147226,1,0,0:0:0:0:
448,192,147383,1,0,0:0:0:0:
64,192,147383,1,0,0:0:0:0:
320,192,147383,1,0,0:0:0:0:
192,192,147539,1,0,0:0:0:0:
448,192,147695,1,0,0:0:0:0:
64,192,147695,1,0,0:0:0:0:
320,192,147851,1,0,0:0:0:0:
320,192,148008,1,0,0:0:0:0:
64,192,148008,1,2,0:0:0:0:
192,192,148008,1,0,0:0:0:0:
448,192,148164,1,0,0:0:0:0:
64,192,148320,1,0,0:0:0:0:
320,192,148320,1,0,0:0:0:0:
192,192,148320,1,0,0:0:0:0:
448,192,148476,1,0,0:0:0:0:
320,192,148633,1,0,0:0:0:0:
192,192,148633,1,0,0:0:0:0:
64,192,148633,1,0,0:0:0:0:
448,192,148789,1,0,0:0:0:0:
320,192,148789,1,0,0:0:0:0:
64,192,148945,1,2,0:0:0:0:
448,192,148945,1,0,0:0:0:0:
192,192,148945,1,0,0:0:0:0:
320,192,149101,1,0,0:0:0:0:
448,192,149258,1,0,0:0:0:0:
192,192,149258,1,0,0:0:0:0:
64,192,149258,1,0,0:0:0:0:
320,192,149414,1,0,0:0:0:0:
192,192,149570,1,0,0:0:0:0:
64,192,149570,1,0,0:0:0:0:
320,192,149570,1,0,0:0:0:0:
192,192,149726,1,0,0:0:0:0:
64,192,149726,1,0,0:0:0:0:
320,192,149804,1,0,0:0:0:0:
448,192,149883,1,0,0:0:0:0:
192,192,149883,1,0,0:0:0:0:
64,192,149883,1,2,0:0:0:0:
320,192,150039,1,0,0:0:0:0:
448,192,150195,1,0,0:0:0:0:
64,192,150195,1,0,0:0:0:0:
192,192,150195,1,0,0:0:0:0:
448,192,150351,1,0,0:0:0:0:
320,192,150351,1,0,0:0:0:0:
64,192,150508,1,0,0:0:0:0:
192,192,150508,1,0,0:0:0:0:
448,192,150508,1,0,0:0:0:0:
320,192,150664,1,0,0:0:0:0:
192,192,150664,1,0,0:0:0:0:
448,192,150820,1,0,0:0:0:0:
64,192,150820,1,2,0:0:0:0:
192,192,150820,1,0,0:0:0:0:
320,192,150976,1,0,0:0:0:0:
192,192,151133,1,0,0:0:0:0:
448,192,151133,1,0,0:0:0:0:
64,192,151133,1,0,0:0:0:0:
320,192,151289,1,0,0:0:0:0:
64,192,151445,1,0,0:0:0:0:
448,192,151445,1,0,0:0:0:0:
192,192,151601,1,0,0:0:0:0:
192,192,151758,1,2,0:0:0:0:
320,192,151758,1,0,0:0:0:0:
448,192,151758,1,0,0:0:0:0:
448,192,151914,1,0,0:0:0:0:
320,192,151914,1,0,0:0:0:0:
192,192,151992,1,0,0:0:0:0:
64,192,151992,1,0,0:0:0:0:
320,192,152070,1,0,0:0:0:0:
448,192,152070,1,0,0:0:0:0:
320,192,152226,1,0,0:0:0:0:
192,192,152226,1,0,0:0:0:0:
320,192,152383,1,0,0:0:0:0:
64,192,152383,1,0,0:0:0:0:
448,192,152383,1,0,0:0:0:0:
192,192,152539,1,0,0:0:0:0:
448,192,152539,1,0,0:0:0:0:
448,192,152695,1,0,0:0:0:0:
64,192,152695,1,2,0:0:0:0:
320,192,152695,1,0,0:0:0:0:
192,192,152851,1,2,0:0:0:0:
320,192,152851,1,0,0:0:0:0:
64,192,153008,1,0,0:0:0:0:
448,192,153008,1,0,0:0:0:0:
320,192,153008,1,2,0:0:0:0:
192,192,153164,1,0,0:0:0:0:
192,192,153320,1,0,0:0:0:0:
64,192,153320,1,2,0:0:0:0:
320,192,153320,1,0,0:0:0:0:
320,192,153476,1,0,0:0:0:0:
192,192,153476,1,0,0:0:0:0:
64,192,153633,1,2,0:1:0:0:
448,192,153633,1,0,0:0:0:0:
192,192,153633,1,0,0:0:0:0:
320,192,153789,1,0,0:0:0:0:
448,192,153945,1,0,0:0:0:0:
192,192,153945,1,0,0:0:0:0:
64,192,153945,1,0,0:0:0:0:
320,192,154101,1,0,0:0:0:0:
448,192,154258,1,0,0:0:0:0:
64,192,154258,1,0,0:0:0:0:
320,192,154258,1,0,0:0:0:0:
192,192,154414,1,0,0:0:0:0:
64,192,154570,1,2,0:0:0:0:
320,192,154570,1,0,0:0:0:0:
448,192,154570,1,0,0:0:0:0:
192,192,154726,1,0,0:0:0:0:
448,192,154883,1,0,0:0:0:0:
64,192,154883,1,0,0:0:0:0:
320,192,154883,1,0,0:0:0:0:
192,192,155039,1,0,0:0:0:0:
448,192,155195,1,0,0:0:0:0:
64,192,155195,1,0,0:0:0:0:
192,192,155195,1,0,0:0:0:0:
320,192,155351,1,0,0:0:0:0:
320,192,155508,1,0,0:0:0:0:
64,192,155508,1,2,0:0:0:0:
192,192,155508,1,0,0:0:0:0:
448,192,155664,1,0,0:0:0:0:
64,192,155820,1,0,0:0:0:0:
192,192,155820,1,0,0:0:0:0:
448,192,155820,1,0,0:0:0:0:
192,192,155976,1,0,0:0:0:0:
320,192,156133,1,0,0:0:0:0:
64,192,156133,1,0,0:0:0:0:
448,192,156133,1,0,0:0:0:0:
448,192,156289,1,0,0:0:0:0:
320,192,156289,1,0,0:0:0:0:
64,192,156445,1,2,0:0:0:0:
448,192,156445,1,0,0:0:0:0:
192,192,156445,1,0,0:0:0:0:
320,192,156601,1,0,0:0:0:0:
64,192,156758,1,0,0:0:0:0:
320,192,156758,1,0,0:0:0:0:
448,192,156758,1,0,0:0:0:0:
192,192,156914,1,0,0:0:0:0:
192,192,157070,1,0,0:0:0:0:
64,192,157070,1,0,0:0:0:0:
448,192,157070,1,0,0:0:0:0:
320,192,157226,1,0,0:0:0:0:
448,192,157226,1,0,0:0:0:0:
192,192,157304,1,0,0:0:0:0:
448,192,157383,1,0,0:0:0:0:
320,192,157383,1,0,0:0:0:0:
64,192,157383,1,2,0:0:0:0:
192,192,157539,1,0,0:0:0:0:
448,192,157695,1,0,0:0:0:0:
64,192,157695,1,0,0:0:0:0:
192,192,157695,1,0,0:0:0:0:
448,192,157851,1,0,0:0:0:0:
320,192,157851,1,0,0:0:0:0:
64,192,158008,1,0,0:0:0:0:
192,192,158008,1,0,0:0:0:0:
320,192,158164,1,0,0:0:0:0:
192,192,158164,1,0,0:0:0:0:
448,192,158320,1,0,0:0:0:0:
64,192,158320,1,2,0:0:0:0:
192,192,158320,1,0,0:0:0:0:
320,192,158476,1,0,0:0:0:0:
192,192,158633,1,0,0:0:0:0:
448,192,158633,1,0,0:0:0:0:
64,192,158633,1,0,0:0:0:0:
320,192,158789,1,0,0:0:0:0:
64,192,158945,1,0,0:0:0:0:
448,192,158945,1,0,0:0:0:0:
320,192,158945,1,0,0:0:0:0:
192,192,159101,1,0,0:0:0:0:
192,192,159258,1,2,0:0:0:0:
320,192,159258,1,0,0:0:0:0:
448,192,159258,1,0,0:0:0:0:
320,192,159414,1,0,0:0:0:0:
64,192,159570,1,0,0:0:0:0:
448,192,159570,1,0,0:0:0:0:
192,192,159570,1,0,0:0:0:0:
320,192,159726,1,0,0:0:0:0:
64,192,159726,1,0,0:0:0:0:
320,192,159883,1,0,0:0:0:0:
64,192,159883,1,0,0:0:0:0:
448,192,159883,1,0,0:0:0:0:
320,192,160039,1,0,0:0:0:0:
448,192,160039,1,0,0:0:0:0:
192,192,160117,1,0,0:0:0:0:
448,192,160195,1,0,0:0:0:0:
64,192,160195,1,2,0:0:0:0:
320,192,160195,1,0,0:0:0:0:
192,192,160351,1,0,0:0:0:0:
320,192,160351,1,0,0:0:0:0:
64,192,160508,1,2,0:0:0:0:
448,192,160508,1,0,0:0:0:0:
192,192,160508,1,0,0:0:0:0:
320,192,160664,1,0,0:0:0:0:
192,192,160820,1,0,0:0:0:0:
64,192,160820,1,2,0:0:0:0:
320,192,160820,1,0,0:0:0:0:
192,192,160976,1,0,0:0:0:0:
448,192,160976,1,0,0:0:0:0:
320,192,161054,1,0,0:0:0:0:
192,192,161133,1,0,0:0:0:0:
64,192,161133,1,2,0:0:0:0:
448,192,161133,1,0,0:0:0:0:
320,192,161289,1,0,0:0:0:0:
448,192,161445,1,0,0:0:0:0:
192,192,161445,1,0,0:0:0:0:
64,192,161445,1,0,0:0:0:0:
192,192,161601,1,0,0:0:0:0:
448,192,161758,1,0,0:0:0:0:
64,192,161758,1,0,0:0:0:0:
320,192,161758,1,0,0:0:0:0:
192,192,161914,1,0,0:0:0:0:
320,192,162070,1,0,0:0:0:0:
448,192,162070,1,0,0:0:0:0:
192,192,162070,1,2,0:0:0:0:
64,192,162226,1,0,0:0:0:0:
448,192,162383,1,0,0:0:0:0:
320,192,162383,1,0,0:0:0:0:
192,192,162383,1,0,0:0:0:0:
192,192,162539,1,0,0:0:0:0:
448,192,162695,1,0,0:0:0:0:
64,192,162695,1,0,0:0:0:0:
320,192,162695,1,0,0:0:0:0:
192,192,162851,1,0,0:0:0:0:
64,192,163008,1,2,0:0:0:0:
192,192,163008,1,0,0:0:0:0:
448,192,163008,1,0,0:0:0:0:
448,192,163164,1,0,0:0:0:0:
64,192,163320,1,0,0:0:0:0:
320,192,163320,1,0,0:0:0:0:
192,192,163320,1,0,0:0:0:0:
448,192,163476,1,0,0:0:0:0:
320,192,163633,1,0,0:0:0:0:
192,192,163633,1,0,0:0:0:0:
64,192,163633,1,0,0:0:0:0:
448,192,163789,5,0,0:0:0:0:
320,192,163789,1,0,0:0:0:0:
64,192,163945,1,2,0:0:0:0:
448,192,163945,1,0,0:0:0:0:
192,192,163945,1,0,0:0:0:0:
320,192,164101,1,0,0:0:0:0:
192,192,164258,1,0,0:0:0:0:
64,192,164258,1,0,0:0:0:0:
320,192,164258,1,0,0:0:0:0:
192,192,164414,1,0,0:0:0:0:
64,192,164570,1,0,0:0:0:0:
320,192,164570,1,0,0:0:0:0:
448,192,164570,1,0,0:0:0:0:
448,192,164726,1,0,0:0:0:0:
320,192,164726,1,0,0:0:0:0:
192,192,164804,1,0,0:0:0:0:
64,192,164883,1,2,0:0:0:0:
448,192,164883,1,0,0:0:0:0:
320,192,164883,1,0,0:0:0:0:
192,192,165039,1,2,0:0:0:0:
64,192,165039,1,0,0:0:0:0:
448,192,165195,1,0,0:0:0:0:
192,192,165195,1,2,0:0:0:0:
448,192,165351,1,0,0:0:0:0:
320,192,165351,1,2,0:0:0:0:
64,192,165508,1,0,0:0:0:0:
192,192,165508,1,2,0:0:0:0:
320,192,165664,1,2,0:0:0:0:
192,192,165664,1,0,0:0:0:0:
64,192,165820,1,2,0:0:0:0:
448,192,165820,1,0,0:0:0:0:
448,192,165976,1,0,0:0:0:0:
192,192,165976,1,2,0:0:0:0:
64,192,166133,1,2,0:0:0:0:
192,192,166133,1,0,0:0:0:0:
320,192,166211,1,0,0:0:0:0:
448,192,166289,1,0,0:0:0:0:
64,192,166289,1,0,0:0:0:0:
192,192,166367,1,0,0:0:0:0:
320,192,166445,1,2,0:0:0:0:
448,192,166445,1,0,0:0:0:0:
64,192,166523,1,0,0:0:0:0:
192,192,166601,1,0,0:0:0:0:
448,192,166601,1,0,0:0:0:0:
320,192,166679,1,0,0:0:0:0:
64,192,166758,1,2,0:0:0:0:
192,192,166758,1,2,0:0:0:0:
448,192,166836,1,0,0:0:0:0:
320,192,166914,1,0,0:0:0:0:
192,192,166992,1,0,0:0:0:0:
64,192,167070,1,2,0:0:0:0:
320,192,167070,1,0,0:0:0:0:
448,192,167148,1,0,0:0:0:0:
192,192,167226,1,0,0:0:0:0:
320,192,167304,1,0,0:0:0:0:
64,192,167383,1,0,0:0:0:0:
192,192,167383,1,0,0:0:0:0:
64,192,167539,1,2,0:0:0:0:
192,192,167578,1,0,0:0:0:0:
320,192,167617,1,0,0:0:0:0:
448,192,167656,1,0,0:0:0:0:
320,192,167695,1,0,0:0:0:0:
192,192,167695,1,0,0:0:0:0:
64,192,167695,1,0,0:0:0:0:
192,192,168008,1,0,0:0:0:0:
64,192,168008,1,0,0:0:0:0:
448,192,168008,1,0,0:0:0:0:
448,192,168320,1,0,0:0:0:0:
320,192,168320,1,0,0:0:0:0:
192,192,168320,1,0,0:0:0:0:
320,192,168633,1,0,0:0:0:0:
64,192,168633,128,0,169570:0:0:0:0:
192,192,168789,1,0,0:0:0:0:
320,192,168789,1,0,0:0:0:0:
448,192,168945,1,0,0:0:0:0:
192,192,169101,1,0,0:0:0:0:
320,192,169101,1,0,0:0:0:0:
448,192,169258,1,0,0:0:0:0:
320,192,169414,1,0,0:0:0:0:
192,192,169570,128,0,170508:0:0:0:0:
448,192,169570,1,0,0:0:0:0:
320,192,169726,1,0,0:0:0:0:
448,192,169726,1,0,0:0:0:0:
64,192,169883,1,0,0:0:0:0:
320,192,170039,1,0,0:0:0:0:
448,192,170039,1,0,0:0:0:0:
64,192,170195,1,0,0:0:0:0:
448,192,170351,1,0,0:0:0:0:
64,192,170508,1,0,0:0:0:0:
320,192,170508,128,0,171445:0:0:0:0:
448,192,170664,1,0,0:0:0:0:
64,192,170664,1,0,0:0:0:0:
192,192,170820,1,0,0:0:0:0:
448,192,170976,1,0,0:0:0:0:
192,192,170976,1,0,0:0:0:0:
64,192,171133,1,0,0:0:0:0:
192,192,171289,1,0,0:0:0:0:
64,192,171445,1,0,0:0:0:0:
448,192,171445,128,0,172383:0:0:0:0:
192,192,171601,1,0,0:0:0:0:
64,192,171601,1,0,0:0:0:0:
320,192,171758,1,0,0:0:0:0:
192,192,171914,1,0,0:0:0:0:
64,192,171914,1,0,0:0:0:0:
320,192,172070,1,0,0:0:0:0:
64,192,172226,1,0,0:0:0:0:
192,192,172383,128,0,173320:0:0:0:0:
320,192,172383,1,0,0:0:0:0:
320,192,172539,1,0,0:0:0:0:
448,192,172539,1,0,0:0:0:0:
64,192,172695,1,0,0:0:0:0:
448,192,172851,1,0,0:0:0:0:
64,192,172851,1,0,0:0:0:0:
320,192,173008,1,0,0:0:0:0:
448,192,173164,1,0,0:0:0:0:
64,192,173320,128,0,174258:0:0:0:0:
320,192,173320,1,0,0:0:0:0:
448,192,173476,1,0,0:0:0:0:
192,192,173476,1,0,0:0:0:0:
320,192,173633,1,0,0:0:0:0:
192,192,173789,1,0,0:0:0:0:
448,192,173789,1,0,0:0:0:0:
320,192,173945,1,0,0:0:0:0:
448,192,174101,1,0,0:0:0:0:
320,192,174258,128,0,175195:0:0:0:0:
192,192,174258,1,0,0:0:0:0:
448,192,174414,1,0,0:0:0:0:
192,192,174414,1,0,0:0:0:0:
64,192,174570,1,0,0:0:0:0:
192,192,174726,1,0,0:0:0:0:
64,192,174726,1,0,0:0:0:0:
448,192,174883,1,0,0:0:0:0:
192,192,175039,1,0,0:0:0:0:
64,192,175195,128,0,175508:0:0:0:0:
448,192,175195,1,0,0:0:0:0:
448,192,175351,1,0,0:0:0:0:
192,192,175351,1,0,0:0:0:0:
320,192,175508,128,0,175820:0:0:0:0:
192,192,175820,128,0,176133:0:0:0:0:
320,192,176133,1,0,0:0:0:0:
448,192,176133,1,0,0:0:0:0:
64,192,176133,128,0,177070:0:0:0:0:
320,192,176289,1,0,0:0:0:0:
192,192,176289,1,0,0:0:0:0:
448,192,176445,1,0,0:0:0:0:
448,192,176601,1,0,0:0:0:0:
192,192,176601,1,0,0:0:0:0:
320,192,176758,1,0,0:0:0:0:
448,192,176914,1,0,0:0:0:0:
320,192,177070,128,0,178008:0:0:0:0:
192,192,177070,1,0,0:0:0:0:
192,192,177226,1,0,0:0:0:0:
448,192,177226,1,0,0:0:0:0:
64,192,177383,1,0,0:0:0:0:
192,192,177539,1,0,0:0:0:0:
448,192,177539,1,0,0:0:0:0:
448,192,177695,1,0,0:0:0:0:
64,192,177851,1,0,0:0:0:0:
448,192,178008,128,0,178945:0:0:0:0:
192,192,178008,1,0,0:0:0:0:
192,192,178164,1,0,0:0:0:0:
64,192,178164,1,0,0:0:0:0:
320,192,178320,1,0,0:0:0:0:
192,192,178476,1,0,0:0:0:0:
64,192,178476,1,0,0:0:0:0:
192,192,178633,1,0,0:0:0:0:
320,192,178789,1,0,0:0:0:0:
192,192,178945,128,0,179883:0:0:0:0:
64,192,178945,1,0,0:0:0:0:
320,192,179101,1,0,0:0:0:0:
64,192,179101,1,0,0:0:0:0:
448,192,179258,1,0,0:0:0:0:
448,192,179414,1,0,0:0:0:0:
64,192,179414,1,0,0:0:0:0:
320,192,179570,1,0,0:0:0:0:
448,192,179726,1,0,0:0:0:0:
64,192,179883,1,0,0:0:0:0:
320,192,179883,1,0,0:0:0:0:
320,192,180039,1,0,0:0:0:0:
448,192,180039,1,0,0:0:0:0:
192,192,180195,1,0,0:0:0:0:
448,192,180195,1,0,0:0:0:0:
64,192,180351,1,0,0:0:0:0:
448,192,180508,1,0,0:0:0:0:
320,192,180508,1,0,0:0:0:0:
64,192,180664,1,0,0:0:0:0:
192,192,180664,1,0,0:0:0:0:
448,192,180820,1,0,0:0:0:0:
320,192,180820,1,0,0:0:0:0:
192,192,180820,1,0,0:0:0:0:
64,192,180976,1,0,0:0:0:0:
448,192,180976,1,0,0:0:0:0:
192,192,181133,1,0,0:0:0:0:
320,192,181133,1,0,0:0:0:0:
448,192,181289,1,0,0:0:0:0:
64,192,181445,1,0,0:0:0:0:
192,192,181445,1,0,0:0:0:0:
320,192,181601,1,0,0:0:0:0:
448,192,181601,1,0,0:0:0:0:
192,192,181758,1,0,0:0:0:0:
64,192,181758,1,0,0:0:0:0:
448,192,181758,1,0,0:0:0:0:
448,192,181914,1,0,0:0:0:0:
192,192,181914,1,0,0:0:0:0:
64,192,182070,1,0,0:0:0:0:
320,192,182070,1,0,0:0:0:0:
448,192,182226,1,0,0:0:0:0:
192,192,182226,1,0,0:0:0:0:
64,192,182383,1,0,0:0:0:0:
192,192,182383,1,0,0:0:0:0:
448,192,182539,1,0,0:0:0:0:
320,192,182539,1,0,0:0:0:0:
64,192,182695,1,0,0:0:0:0:
448,192,182695,1,0,0:0:0:0:
320,192,182773,1,0,0:0:0:0:
192,192,182773,1,0,0:0:0:0:
64,192,182851,1,0,0:0:0:0:
448,192,182851,1,0,0:0:0:0:
192,192,183008,1,0,0:0:0:0:
64,192,183008,1,0,0:0:0:0:
320,192,183164,1,0,0:0:0:0:
448,192,183164,1,0,0:0:0:0:
192,192,183242,1,0,0:0:0:0:
64,192,183242,1,0,0:0:0:0:
448,192,183320,1,0,0:0:0:0:
320,192,183320,1,0,0:0:0:0:
64,192,183476,1,0,0:0:0:0:
192,192,183528,1,0,0:0:0:0:
320,192,183580,1,0,0:0:0:0:
448,192,183633,128,2,183789:0:0:0:0:
192,192,183789,1,2,0:0:0:0:
320,192,183945,1,0,0:0:0:0:
64,192,184101,1,2,0:0:0:0:
448,192,184258,128,0,184414:0:0:0:0:
192,192,184414,1,2,0:0:0:0:
64,192,184570,128,2,184726:0:0:0:0:
192,192,184726,1,2,0:0:0:0:
448,192,184883,1,0,0:0:0:0:
320,192,185039,1,2,0:0:0:0:
192,192,185195,128,0,185351:0:0:0:0:
320,192,185351,1,2,0:0:0:0:
448,192,185508,128,2,185664:0:0:0:0:
320,192,185664,1,0,0:0:0:0:
64,192,185820,1,0,0:0:0:0:
192,192,185976,1,0,0:0:0:0:
448,192,186133,128,2,186289:0:0:0:0:
320,192,186289,1,0,0:0:0:0:
64,192,186445,128,2,186601:0:0:0:0:
320,192,186601,1,2,0:0:0:0:
192,192,186758,128,0,186914:0:0:0:0:
448,192,186914,1,2,0:0:0:0:
320,192,187070,128,0,187226:0:0:0:0:
192,192,187226,1,2,0:0:0:0:
64,192,187383,128,2,187539:0:0:0:0:
320,192,187539,1,2,0:0:0:0:
192,192,187695,1,0,0:0:0:0:
320,192,187851,1,2,0:0:0:0:
448,192,188008,128,2,188164:0:0:0:0:
192,192,188164,1,0,0:0:0:0:
320,192,188320,128,2,188476:0:0:0:0:
192,192,188476,1,2,0:0:0:0:
64,192,188633,1,0,0:0:0:0:
192,192,188789,1,0,0:0:0:0:
320,192,188945,128,2,189101:0:0:0:0:
192,192,189101,1,0,0:0:0:0:
448,192,189258,128,2,189414:0:0:0:0:
320,192,189414,1,2,0:0:0:0:
192,192,189570,1,0,0:0:0:0:
64,192,189726,1,0,0:0:0:0:
448,192,189883,128,2,190039:0:0:0:0:
192,192,190039,1,0,0:0:0:0:
320,192,190195,128,2,190351:0:0:0:0:
64,192,190351,1,2,0:0:0:0:
192,192,190508,128,0,190664:0:0:0:0:
320,192,190664,1,2,0:0:0:0:
448,192,190820,128,2,190976:0:0:0:0:
192,192,190976,1,2,0:0:0:0:
448,192,191133,1,0,0:0:0:0:
64,192,191133,1,2,0:0:0:0:
320,192,191133,1,0,0:0:0:0:
192,192,191289,1,0,0:0:0:0:
320,192,191445,1,8,0:0:0:0:
448,192,191445,1,0,0:0:0:0:
64,192,191601,1,0,0:0:0:0:
192,192,191758,1,2,0:0:0:0:
448,192,191758,1,0,0:0:0:0:
320,192,191914,1,0,0:0:0:0:
64,192,192070,1,2,0:0:0:0:
192,192,192070,1,0,0:0:0:0:
448,192,192226,1,2,0:0:0:0:
320,192,192383,1,0,0:0:0:0:
192,192,192383,1,2,0:0:0:0:
64,192,192461,1,0,0:0:0:0:
448,192,192539,1,0,0:0:0:0:
192,192,192617,1,0,0:0:0:0:
320,192,192695,1,0,0:0:0:0:
64,192,192773,1,0,0:0:0:0:
448,192,192851,1,0,0:0:0:0:
320,192,192929,1,0,0:0:0:0:
64,192,193008,1,2,0:0:0:0:
192,192,193008,1,0,0:0:0:0:
448,192,193008,1,0,0:0:0:0:
320,192,193164,1,0,0:0:0:0:
448,192,193320,1,0,0:0:0:0:
192,192,193320,1,8,0:0:0:0:
64,192,193398,1,0,0:0:0:0:
320,192,193476,1,0,0:0:0:0:
192,192,193554,1,0,0:0:0:0:
448,192,193633,1,0,0:0:0:0:
64,192,193633,1,2,0:0:0:0:
320,192,193789,1,0,0:0:0:0:
192,192,193945,1,0,0:0:0:0:
64,192,193945,1,2,0:0:0:0:
448,192,194101,1,2,0:0:0:0:
320,192,194258,1,0,0:0:0:0:
192,192,194258,1,2,0:0:0:0:
64,192,194336,1,0,0:0:0:0:
448,192,194414,1,0,0:0:0:0:
192,192,194492,1,0,0:0:0:0:
320,192,194570,1,0,0:0:0:0:
448,192,194570,1,0,0:0:0:0:
448,192,194726,1,0,0:0:0:0:
320,192,194726,1,0,0:0:0:0:
192,192,194883,1,0,0:0:0:0:
64,192,194883,1,2,0:0:0:0:
320,192,194883,1,0,0:0:0:0:
448,192,194961,1,0,0:0:0:0:
320,192,195039,1,0,0:0:0:0:
64,192,195117,1,0,0:0:0:0:
192,192,195195,1,10,0:0:0:0:
320,192,195273,1,0,0:0:0:0:
448,192,195351,1,0,0:0:0:0:
64,192,195429,1,0,0:0:0:0:
192,192,195508,1,2,0:0:0:0:
320,192,195586,1,0,0:0:0:0:
448,192,195664,1,0,0:0:0:0:
192,192,195742,1,0,0:0:0:0:
64,192,195820,1,2,0:0:0:0:
320,192,195898,1,0,0:0:0:0:
448,192,195976,1,0,0:0:0:0:
64,192,196054,1,0,0:0:0:0:
192,192,196133,1,2,0:0:0:0:
320,192,196211,1,0,0:0:0:0:
448,192,196289,1,0,0:0:0:0:
192,192,196367,1,0,0:0:0:0:
64,192,196445,1,2,0:0:0:0:
192,192,196523,1,0,0:0:0:0:
448,192,196601,1,0,0:0:0:0:
320,192,196640,1,0,0:0:0:0:
192,192,196679,1,0,0:0:0:0:
64,192,196718,1,0,0:0:0:0:
448,192,196758,1,4,0:0:0:0:
320,192,196758,1,4,0:0:0:0:
192,192,196758,1,4,0:0:0:0:
64,192,197070,1,4,0:0:0:0:
320,192,197070,1,4,0:0:0:0:
448,192,197070,1,4,0:0:0:0:
64,192,197383,1,4,0:0:0:0:
448,192,197383,1,4,0:0:0:0:
320,192,197383,1,4,0:0:0:0:
192,192,197695,1,4,0:0:0:0:
64,192,197695,1,4,0:0:0:0:
448,192,197695,1,4,0:0:0:0:
320,192,198008,1,4,0:0:0:0:
192,192,198008,1,4,0:0:0:0:
64,192,198008,1,4,0:0:0:0:
64,192,198320,1,4,0:0:0:0:
192,192,198320,1,4,0:0:0:0:
320,192,198320,1,4,0:0:0:0:
64,192,198633,128,0,203008:0:0:0:0:
192,192,198633,128,0,203008:0:0:0:0:
448,192,203008,128,0,204883:0:0:0:0:
64,192,203633,1,2,0:0:0:0:
192,192,203789,1,2,0:0:0:0:
320,192,203945,1,2,0:0:0:0:
192,192,204101,1,2,0:0:0:0:
64,192,204258,1,2,0:0:0:0:
320,192,204258,128,0,204883:0:0:0:0:
192,192,204414,1,2,0:0:0:0:
64,192,204570,1,2,0:0:0:0:
192,192,204726,1,2,0:0:0:0:
64,192,204883,1,2,0:0:0:0:
192,192,204883,1,0,0:0:0:0:
320,192,204961,1,0,0:0:0:0:
448,192,205039,1,0,0:0:0:0:
192,192,205117,1,0,0:0:0:0:
64,192,205195,1,0,0:0:0:0:
448,192,205273,1,0,0:0:0:0:
320,192,205351,1,0,0:0:0:0:
192,192,205429,1,0,0:0:0:0:
64,192,205508,1,0,0:0:0:0:
448,192,205586,1,0,0:0:0:0:
320,192,205664,1,0,0:0:0:0:
64,192,205742,1,0,0:0:0:0:
192,192,205820,1,0,0:0:0:0:
448,192,205820,1,0,0:0:0:0:
320,192,205898,1,0,0:0:0:0:
64,192,205898,1,0,0:0:0:0:
192,192,205976,1,0,0:0:0:0:
448,192,205976,1,0,0:0:0:0:
320,192,206054,1,0,0:0:0:0:
192,192,206133,1,0,0:0:0:0:
64,192,206133,1,2,0:0:0:0:
320,192,206211,1,2,0:0:0:0:
448,192,206211,1,0,0:0:0:0:
320,192,206445,1,2,0:0:0:0:
448,192,206445,1,0,0:0:0:0:
64,192,206601,1,0,0:0:0:0:
192,192,206601,1,0,0:0:0:0:
320,192,206679,1,2,0:0:0:0:
448,192,206679,1,0,0:0:0:0:
192,192,206758,1,2,0:0:0:0:
64,192,206758,1,0,0:0:0:0:
64,192,206914,1,0,0:0:0:0:
448,192,206914,1,2,0:0:0:0:
192,192,207070,1,2,0:0:0:0:
448,192,207070,1,0,0:0:0:0:
64,192,207226,1,2,0:0:0:0:
192,192,207226,1,0,0:0:0:0:
320,192,207383,1,0,0:0:0:0:
192,192,207383,1,2,0:0:0:0:
64,192,207461,1,0,0:0:0:0:
448,192,207539,1,0,0:0:0:0:
320,192,207617,1,0,0:0:0:0:
64,192,207695,1,0,0:0:0:0:
192,192,207773,1,0,0:0:0:0:
320,192,207851,1,0,0:0:0:0:
448,192,207929,1,0,0:0:0:0:
64,192,208008,1,0,0:0:0:0:
192,192,208086,1,0,0:0:0:0:
448,192,208164,1,0,0:0:0:0:
320,192,208242,1,0,0:0:0:0:
192,192,208320,1,0,0:0:0:0:
64,192,208320,1,0,0:0:0:0:
448,192,208398,1,0,0:0:0:0:
320,192,208398,1,0,0:0:0:0:
192,192,208476,1,0,0:0:0:0:
64,192,208476,1,0,0:0:0:0:
320,192,208554,1,0,0:0:0:0:
448,192,208633,1,0,0:0:0:0:
64,192,208633,1,2,0:0:0:0:
192,192,208711,1,2,0:0:0:0:
320,192,208711,1,0,0:0:0:0:
448,192,208945,1,0,0:0:0:0:
64,192,208945,1,2,0:0:0:0:
192,192,209101,1,2,0:0:0:0:
320,192,209101,1,0,0:0:0:0:
448,192,209179,1,0,0:0:0:0:
64,192,209179,1,2,0:0:0:0:
192,192,209258,1,2,0:0:0:0:
320,192,209258,1,0,0:0:0:0:
64,192,209414,1,2,0:0:0:0:
192,192,209414,1,0,0:0:0:0:
448,192,209570,1,0,0:0:0:0:
320,192,209570,1,2,0:0:0:0:
448,192,209726,1,0,0:0:0:0:
64,192,209726,1,2,0:0:0:0:
320,192,209883,1,0,0:0:0:0:
64,192,209883,1,2,0:0:0:0:
448,192,209961,1,0,0:0:0:0:
192,192,210039,1,0,0:0:0:0:
64,192,210117,1,0,0:0:0:0:
320,192,210195,1,0,0:0:0:0:
448,192,210273,1,0,0:0:0:0:
192,192,210351,1,0,0:0:0:0:
320,192,210429,1,0,0:0:0:0:
64,192,210508,1,0,0:0:0:0:
448,192,210508,1,0,0:0:0:0:
192,192,210586,1,0,0:0:0:0:
448,192,210664,1,0,0:0:0:0:
320,192,210742,1,0,0:0:0:0:
192,192,210820,1,0,0:0:0:0:
64,192,210820,1,0,0:0:0:0:
448,192,210898,1,0,0:0:0:0:
320,192,210976,1,0,0:0:0:0:
192,192,211054,1,0,0:0:0:0:
448,192,211133,1,0,0:0:0:0:
64,192,211133,1,2,0:0:0:0:
320,192,211211,1,0,0:0:0:0:
192,192,211289,1,0,0:0:0:0:
448,192,211367,1,0,0:0:0:0:
64,192,211445,1,0,0:0:0:0:
320,192,211445,1,0,0:0:0:0:
192,192,211523,1,0,0:0:0:0:
448,192,211601,1,0,0:0:0:0:
64,192,211679,1,0,0:0:0:0:
192,192,211758,1,2,0:0:0:0:
320,192,211758,1,0,0:0:0:0:
448,192,211836,1,0,0:0:0:0:
64,192,211914,1,2,0:0:0:0:
192,192,211914,1,0,0:0:0:0:
320,192,211992,1,2,0:0:0:0:
448,192,211992,1,0,0:0:0:0:
64,192,212070,1,0,0:0:0:0:
192,192,212148,1,0,0:0:0:0:
448,192,212226,1,2,0:0:0:0:
320,192,212304,1,0,0:0:0:0:
64,192,212383,1,2,0:0:0:0:
192,192,212383,1,0,0:0:0:0:
64,192,212617,1,2,0:0:0:0:
192,192,212617,1,0,0:0:0:0:
448,192,212851,1,0,0:0:0:0:
320,192,212851,1,2,0:0:0:0:
320,192,213086,1,0,0:0:0:0:
64,192,213086,1,2,0:0:0:0:
192,192,213320,1,2,0:0:0:0:
448,192,213320,1,0,0:0:0:0:
320,192,213476,1,0,0:0:0:0:
64,192,213476,1,2,0:0:0:0:
192,192,213633,1,0,0:0:0:0:
64,192,213633,1,2,0:0:0:0:
192,192,213867,1,0,0:0:0:0:
64,192,213867,1,2,0:0:0:0:
320,192,214101,1,0,0:0:0:0:
192,192,214101,1,2,0:0:0:0:
448,192,214258,1,0,0:0:0:0:
64,192,214258,1,2,0:0:0:0:
448,192,214492,1,0,0:0:0:0:
64,192,214492,1,2,0:0:0:0:
320,192,214570,1,0,0:0:0:0:
192,192,214570,1,2,0:0:0:0:
448,192,214726,1,0,0:0:0:0:
320,192,214726,1,2,0:0:0:0:
192,192,214883,1,0,0:0:0:0:
64,192,214883,1,2,0:0:0:0:
64,192,215117,1,2,0:0:0:0:
320,192,215117,1,0,0:0:0:0:
448,192,215351,1,0,0:0:0:0:
192,192,215351,1,2,0:0:0:0:
448,192,215586,1,0,0:0:0:0:
192,192,215586,1,2,0:0:0:0:
448,192,215820,1,0,0:0:0:0:
320,192,215820,1,2,0:0:0:0:
64,192,215976,1,2,0:0:0:0:
320,192,215976,1,0,0:0:0:0:
64,192,216133,1,2,0:0:0:0:
192,192,216133,1,0,0:0:0:0:
192,192,216367,1,0,0:0:0:0:
64,192,216367,1,2,0:0:0:0:
448,192,216601,1,0,0:0:0:0:
64,192,216601,1,2,0:0:0:0:
320,192,216758,1,0,0:0:0:0:
192,192,216758,1,2,0:0:0:0:
192,192,216992,1,2,0:0:0:0:
320,192,216992,1,0,0:0:0:0:
448,192,217226,1,0,0:0:0:0:
320,192,217226,1,0,0:0:0:0:
320,192,217383,1,0,0:0:0:0:
64,192,217383,1,2,0:0:0:0:
64,192,217617,1,2,0:0:0:0:
320,192,217617,1,0,0:0:0:0:
192,192,217851,1,2,0:0:0:0:
448,192,217851,1,0,0:0:0:0:
64,192,218008,1,2,0:0:0:0:
192,192,218008,1,0,0:0:0:0:
64,192,218242,1,2,0:0:0:0:
192,192,218242,1,0,0:0:0:0:
320,192,218476,1,0,0:0:0:0:
192,192,218476,1,2,0:0:0:0:
448,192,218633,1,0,0:0:0:0:
64,192,218633,1,2,0:0:0:0:
448,192,218945,1,0,0:0:0:0:
192,192,218945,1,2,0:0:0:0:
64,192,219258,1,2,0:0:0:0:
320,192,219258,1,0,0:0:0:0:
192,192,219570,1,0,0:0:0:0:
64,192,219570,1,2,0:0:0:0:
192,192,219726,1,0,0:0:0:0:
64,192,219726,1,2,0:0:0:0:
64,192,219883,1,2,0:0:0:0:
192,192,219883,1,0,0:0:0:0:
448,192,219961,1,0,0:0:0:0:
320,192,220039,1,0,0:0:0:0:
64,192,220117,1,0,0:0:0:0:
192,192,220195,1,0,0:0:0:0:
320,192,220273,1,0,0:0:0:0:
448,192,220351,1,0,0:0:0:0:
192,192,220429,1,0,0:0:0:0:
64,192,220508,1,0,0:0:0:0:
448,192,220586,1,0,0:0:0:0:
320,192,220664,1,0,0:0:0:0:
192,192,220742,1,0,0:0:0:0:
64,192,220820,1,0,0:0:0:0:
192,192,220898,1,0,0:0:0:0:
448,192,220976,1,0,0:0:0:0:
320,192,221054,1,0,0:0:0:0:
192,192,221133,1,2,0:0:0:0:
320,192,221211,1,0,0:0:0:0:
192,192,221289,1,0,0:0:0:0:
448,192,221367,1,0,0:0:0:0:
320,192,221445,1,0,0:0:0:0:
64,192,221523,1,0,0:0:0:0:
192,192,221601,1,0,0:0:0:0:
448,192,221679,1,0,0:0:0:0:
320,192,221758,1,2,0:0:0:0:
192,192,221836,1,0,0:0:0:0:
320,192,221914,1,0,0:0:0:0:
64,192,221992,1,0,0:0:0:0:
192,192,222070,1,0,0:0:0:0:
448,192,222148,1,0,0:0:0:0:
320,192,222226,1,0,0:0:0:0:
192,192,222304,1,0,0:0:0:0:
64,192,222383,1,2,0:0:0:0:
448,192,222383,1,0,0:0:0:0:
192,192,222539,1,2,0:0:0:0:
320,192,222539,1,0,0:0:0:0:
64,192,222695,1,2,0:0:0:0:
448,192,222695,1,0,0:0:0:0:
320,192,222851,1,2,0:0:0:0:
448,192,222851,1,0,0:0:0:0:
192,192,223008,1,0,0:0:0:0:
64,192,223008,1,2,0:0:0:0:
448,192,223164,1,0,0:0:0:0:
192,192,223164,1,2,0:0:0:0:
448,192,223320,1,0,0:0:0:0:
64,192,223320,1,2,0:0:0:0:
192,192,223476,1,0,0:0:0:0:
320,192,223476,1,0,0:0:0:0:
192,192,223633,1,0,0:0:0:0:
64,192,223633,1,2,0:0:0:0:
448,192,223633,1,0,0:0:0:0:
192,192,223945,1,2,0:0:0:0:
320,192,223945,1,0,0:0:0:0:
448,192,224101,1,0,0:0:0:0:
64,192,224101,1,2,0:0:0:0:
192,192,224258,1,0,0:0:0:0:
64,192,224258,1,2,0:0:0:0:
320,192,224336,1,2,0:0:0:0:
448,192,224336,1,0,0:0:0:0:
192,192,224414,1,0,0:0:0:0:
64,192,224414,1,2,0:0:0:0:
320,192,224492,1,0,0:0:0:0:
448,192,224492,1,0,0:0:0:0:
192,192,224570,1,0,0:0:0:0:
64,192,224570,1,2,0:0:0:0:
320,192,224726,1,2,0:0:0:0:
448,192,224726,1,0,0:0:0:0:
192,192,224804,1,0,0:0:0:0:
448,192,224883,1,0,0:0:0:0:
64,192,224883,1,2,0:0:0:0:
320,192,224883,1,0,0:0:0:0:
192,192,224961,1,0,0:0:0:0:
64,192,225039,1,0,0:0:0:0:
320,192,225117,1,0,0:0:0:0:
448,192,225195,1,0,0:0:0:0:
64,192,225273,1,0,0:0:0:0:
192,192,225351,1,0,0:0:0:0:
320,192,225429,1,0,0:0:0:0:
448,192,225508,1,0,0:0:0:0:
64,192,225586,1,0,0:0:0:0:
192,192,225664,1,0,0:0:0:0:
448,192,225742,1,0,0:0:0:0:
192,192,225820,1,0,0:0:0:0:
64,192,225820,1,0,0:0:0:0:
448,192,225898,1,0,0:0:0:0:
320,192,225898,1,0,0:0:0:0:
192,192,225976,1,0,0:0:0:0:
64,192,225976,1,0,0:0:0:0:
320,192,226054,1,0,0:0:0:0:
448,192,226133,1,0,0:0:0:0:
64,192,226133,1,2,0:0:0:0:
320,192,226211,1,0,0:0:0:0:
192,192,226211,1,2,0:0:0:0:
64,192,226445,1,2,0:0:0:0:
192,192,226445,1,0,0:0:0:0:
320,192,226601,1,2,0:0:0:0:
448,192,226601,1,0,0:0:0:0:
192,192,226679,1,0,0:0:0:0:
64,192,226679,1,2,0:0:0:0:
448,192,226758,1,0,0:0:0:0:
320,192,226758,1,2,0:0:0:0:
448,192,226914,1,0,0:0:0:0:
64,192,226914,1,2,0:0:0:0:
320,192,227070,1,0,0:0:0:0:
64,192,227070,1,2,0:0:0:0:
320,192,227226,1,2,0:0:0:0:
448,192,227226,1,0,0:0:0:0:
320,192,227383,1,0,0:0:0:0:
192,192,227383,1,2,0:0:0:0:
448,192,227461,1,0,0:0:0:0:
64,192,227539,1,0,0:0:0:0:
192,192,227617,1,0,0:0:0:0:
448,192,227695,1,0,0:0:0:0:
320,192,227773,1,0,0:0:0:0:
192,192,227851,1,0,0:0:0:0:
64,192,227929,1,0,0:0:0:0:
448,192,228008,1,0,0:0:0:0:
320,192,228086,1,0,0:0:0:0:
64,192,228164,1,0,0:0:0:0:
192,192,228242,1,0,0:0:0:0:
448,192,228320,1,0,0:0:0:0:
320,192,228320,1,0,0:0:0:0:
64,192,228398,1,0,0:0:0:0:
192,192,228398,1,0,0:0:0:0:
320,192,228476,1,0,0:0:0:0:
448,192,228476,1,0,0:0:0:0:
192,192,228554,1,0,0:0:0:0:
64,192,228633,1,2,0:0:0:0:
448,192,228633,1,0,0:0:0:0:
320,192,228711,1,0,0:0:0:0:
192,192,228711,1,2,0:0:0:0:
448,192,228945,1,0,0:0:0:0:
64,192,228945,1,2,0:0:0:0:
320,192,229101,1,0,0:0:0:0:
192,192,229101,1,2,0:0:0:0:
448,192,229179,1,0,0:0:0:0:
64,192,229179,1,2,0:0:0:0:
192,192,229258,1,2,0:0:0:0:
320,192,229258,1,0,0:0:0:0:
320,192,229414,1,2,0:0:0:0:
448,192,229414,1,0,0:0:0:0:
192,192,229570,1,0,0:0:0:0:
64,192,229570,1,2,0:0:0:0:
448,192,229726,1,0,0:0:0:0:
64,192,229726,1,2,0:0:0:0:
448,192,229883,1,0,0:0:0:0:
192,192,229883,1,2,0:0:0:0:
64,192,229961,1,0,0:0:0:0:
320,192,230039,1,0,0:0:0:0:
448,192,230117,1,0,0:0:0:0:
192,192,230195,1,0,0:0:0:0:
64,192,230273,1,0,0:0:0:0:
320,192,230351,1,0,0:0:0:0:
192,192,230429,1,0,0:0:0:0:
448,192,230508,1,0,0:0:0:0:
64,192,230508,1,0,0:0:0:0:
320,192,230586,1,0,0:0:0:0:
64,192,230664,1,0,0:0:0:0:
192,192,230742,1,0,0:0:0:0:
320,192,230820,1,0,0:0:0:0:
448,192,230820,1,0,0:0:0:0:
64,192,230898,1,0,0:0:0:0:
192,192,230976,1,0,0:0:0:0:
320,192,231054,1,0,0:0:0:0:
64,192,231133,1,2,0:0:0:0:
448,192,231133,1,0,0:0:0:0:
192,192,231211,1,0,0:0:0:0:
320,192,231289,1,0,0:0:0:0:
64,192,231367,1,0,0:0:0:0:
192,192,231445,1,0,0:0:0:0:
448,192,231445,1,0,0:0:0:0:
320,192,231523,1,0,0:0:0:0:
64,192,231601,1,0,0:0:0:0:
448,192,231679,1,0,0:0:0:0:
192,192,231758,1,2,0:0:0:0:
320,192,231758,1,0,0:0:0:0:
64,192,231836,1,0,0:0:0:0:
448,192,231914,1,0,0:0:0:0:
320,192,231914,1,2,0:0:0:0:
64,192,231992,1,0,0:0:0:0:
192,192,231992,1,2,0:0:0:0:
448,192,232070,1,0,0:0:0:0:
320,192,232148,1,0,0:0:0:0:
64,192,232226,1,2,0:0:0:0:
192,192,232226,1,0,0:0:0:0:
448,192,232304,1,0,0:0:0:0:
320,192,232383,1,2,0:0:0:0:
192,192,232383,1,0,0:0:0:0:
320,192,232617,1,2,0:0:0:0:
448,192,232617,1,0,0:0:0:0:
64,192,232851,1,2,0:0:0:0:
192,192,232851,1,0,0:0:0:0:
448,192,233086,1,0,0:0:0:0:
192,192,233086,1,2,0:0:0:0:
320,192,233320,1,0,0:0:0:0:
64,192,233320,1,2,0:0:0:0:
448,192,233476,1,0,0:0:0:0:
192,192,233476,1,2,0:0:0:0:
448,192,233633,1,0,0:0:0:0:
320,192,233633,1,2,0:0:0:0:
320,192,233867,1,2,0:0:0:0:
448,192,233867,1,0,0:0:0:0:
192,192,234101,1,2,0:0:0:0:
320,192,234101,1,0,0:0:0:0:
448,192,234258,1,0,0:0:0:0:
64,192,234258,1,2,0:0:0:0:
64,192,234492,1,2,0:0:0:0:
448,192,234492,1,0,0:0:0:0:
192,192,234570,1,2,0:0:0:0:
320,192,234570,1,0,0:0:0:0:
192,192,234726,1,0,0:0:0:0:
64,192,234726,1,2,0:0:0:0:
448,192,234883,1,0,0:0:0:0:
320,192,234883,1,2,0:0:0:0:
192,192,235117,1,2,0:0:0:0:
448,192,235117,1,0,0:0:0:0:
64,192,235351,1,2,0:0:0:0:
320,192,235351,1,0,0:0:0:0:
64,192,235586,1,2,0:0:0:0:
320,192,235586,1,0,0:0:0:0:
192,192,235820,1,0,0:0:0:0:
64,192,235820,1,2,0:0:0:0:
192,192,235976,1,2,0:0:0:0:
448,192,235976,1,0,0:0:0:0:
320,192,236133,1,2,0:0:0:0:
448,192,236133,1,0,0:0:0:0:
448,192,236367,1,0,0:0:0:0:
320,192,236367,1,2,0:0:0:0:
64,192,236601,1,2,0:0:0:0:
448,192,236601,1,0,0:0:0:0:
320,192,236758,1,0,0:0:0:0:
192,192,236758,1,2,0:0:0:0:
320,192,236992,1,0,0:0:0:0:
192,192,236992,1,2,0:0:0:0:
64,192,237226,1,2,0:0:0:0:
192,192,237226,1,0,0:0:0:0:
448,192,237383,1,0,0:0:0:0:
192,192,237383,1,2,0:0:0:0:
448,192,237617,1,0,0:0:0:0:
192,192,237617,1,2,0:0:0:0:
64,192,237851,1,2,0:0:0:0:
320,192,237851,1,0,0:0:0:0:
448,192,238008,1,0,0:0:0:0:
320,192,238008,1,2,0:0:0:0:
448,192,238242,1,0,0:0:0:0:
320,192,238242,1,2,0:0:0:0:
320,192,238476,1,0,0:0:0:0:
192,192,238476,1,2,0:0:0:0:
448,192,238633,1,0,0:0:0:0:
64,192,238633,1,2,0:0:0:0:
64,192,238945,1,2,0:0:0:0:
320,192,238945,1,0,0:0:0:0:
448,192,239258,1,0,0:0:0:0:
192,192,239258,1,2,0:0:0:0:
320,192,239570,1,0,0:0:0:0:
192,192,239570,1,2,0:0:0:0:
448,192,239726,1,0,0:0:0:0:
64,192,239726,1,2,0:0:0:0:
320,192,239883,1,2,0:0:0:0:
448,192,239883,1,0,0:0:0:0:
64,192,239961,1,0,0:0:0:0:
192,192,240039,1,0,0:0:0:0:
448,192,240117,1,0,0:0:0:0:
320,192,240195,1,0,0:0:0:0:
192,192,240273,1,0,0:0:0:0:
64,192,240351,1,0,0:0:0:0:
320,192,240429,1,0,0:0:0:0:
448,192,240508,1,0,0:0:0:0:
64,192,240586,1,0,0:0:0:0:
192,192,240664,1,0,0:0:0:0:
320,192,240742,1,0,0:0:0:0:
448,192,240820,1,0,0:0:0:0:
320,192,240898,1,0,0:0:0:0:
64,192,240976,1,0,0:0:0:0:
192,192,241054,1,0,0:0:0:0:
320,192,241133,1,2,0:0:0:0:
192,192,241211,1,0,0:0:0:0:
320,192,241289,1,0,0:0:0:0:
64,192,241367,1,0,0:0:0:0:
192,192,241445,1,0,0:0:0:0:
448,192,241523,1,0,0:0:0:0:
320,192,241601,1,0,0:0:0:0:
64,192,241679,1,0,0:0:0:0:
192,192,241758,1,2,0:0:0:0:
320,192,241836,1,0,0:0:0:0:
192,192,241914,1,0,0:0:0:0:
448,192,241992,1,0,0:0:0:0:
320,192,242070,1,2,0:0:0:0:
64,192,242148,1,0,0:0:0:0:
192,192,242226,1,0,0:0:0:0:
320,192,242304,1,0,0:0:0:0:
448,192,242383,1,0,0:0:0:0:
64,192,242383,1,2,0:0:0:0:
192,192,242539,1,2,0:0:0:0:
320,192,242539,1,0,0:0:0:0:
64,192,242695,1,2,0:0:0:0:
448,192,242695,1,0,0:0:0:0:
64,192,242851,1,2,0:0:0:0:
192,192,242851,1,0,0:0:0:0:
448,192,243008,1,0,0:0:0:0:
320,192,243008,1,2,0:0:0:0:
64,192,243164,1,2,0:0:0:0:
320,192,243164,1,0,0:0:0:0:
64,192,243320,1,2,0:0:0:0:
192,192,243320,1,0,0:0:0:0:
448,192,243398,1,0,0:0:0:0:
320,192,243476,1,0,0:0:0:0:
192,192,243554,1,0,0:0:0:0:
448,192,243633,1,0,0:0:0:0:
64,192,243633,1,2,0:0:0:0:
320,192,243633,1,0,0:0:0:0:
192,192,243945,1,0,0:0:0:0:
320,192,243945,1,0,0:0:0:0:
64,192,243945,1,2,0:0:0:0:
448,192,244258,1,0,0:0:0:0:
192,192,244258,1,0,0:0:0:0:
64,192,244258,1,2,0:0:0:0:
320,192,244570,1,0,0:0:0:0:
448,192,244570,1,0,0:0:0:0:
64,192,244570,1,2,0:0:0:0:
64,192,244883,1,2,0:0:0:0:
192,192,244883,1,0,0:0:0:0:
448,192,244883,1,0,0:0:0:0:
320,192,244961,1,0,0:0:0:0:
448,192,245039,1,0,0:0:0:0:
192,192,245117,1,0,0:0:0:0:
64,192,245195,1,0,0:0:0:0:
448,192,245273,1,0,0:0:0:0:
320,192,245351,1,0,0:0:0:0:
192,192,245429,1,0,0:0:0:0:
64,192,245508,1,0,0:0:0:0:
448,192,245586,1,0,0:0:0:0:
320,192,245664,1,0,0:0:0:0:
64,192,245742,1,0,0:0:0:0:
192,192,245820,1,0,0:0:0:0:
320,192,245820,1,0,0:0:0:0:
448,192,245898,1,0,0:0:0:0:
64,192,245898,1,0,0:0:0:0:
192,192,245976,1,0,0:0:0:0:
320,192,245976,1,0,0:0:0:0:
448,192,246054,1,0,0:0:0:0:
192,192,246133,1,0,0:0:0:0:
64,192,246133,1,2,0:0:0:0:
448,192,246211,1,0,0:0:0:0:
320,192,246211,1,2,0:0:0:0:
448,192,246445,1,0,0:0:0:0:
320,192,246445,1,2,0:0:0:0:
64,192,246601,1,0,0:0:0:0:
192,192,246601,1,0,0:0:0:0:
320,192,246679,1,2,0:0:0:0:
448,192,246679,1,0,0:0:0:0:
192,192,246758,1,2,0:0:0:0:
64,192,246758,1,0,0:0:0:0:
64,192,246914,1,2,0:0:0:0:
448,192,246914,1,0,0:0:0:0:
192,192,247070,1,2,0:0:0:0:
448,192,247070,1,0,0:0:0:0:
64,192,247226,1,2,0:0:0:0:
192,192,247226,1,0,0:0:0:0:
320,192,247383,1,0,0:0:0:0:
192,192,247383,1,2,0:0:0:0:
64,192,247461,1,0,0:0:0:0:
448,192,247539,1,0,0:0:0:0:
320,192,247617,1,0,0:0:0:0:
64,192,247695,1,0,0:0:0:0:
192,192,247773,1,0,0:0:0:0:
320,192,247851,1,0,0:0:0:0:
448,192,247929,1,0,0:0:0:0:
64,192,248008,1,0,0:0:0:0:
192,192,248086,1,0,0:0:0:0:
448,192,248164,1,0,0:0:0:0:
320,192,248242,1,0,0:0:0:0:
192,192,248320,1,0,0:0:0:0:
64,192,248320,1,0,0:0:0:0:
448,192,248398,1,0,0:0:0:0:
320,192,248398,1,0,0:0:0:0:
192,192,248476,1,0,0:0:0:0:
64,192,248476,1,0,0:0:0:0:
320,192,248554,1,0,0:0:0:0:
448,192,248633,1,0,0:0:0:0:
64,192,248633,1,2,0:0:0:0:
320,192,248711,1,0,0:0:0:0:
192,192,248711,1,2,0:0:0:0:
448,192,248945,1,2,0:0:0:0:
64,192,248945,1,2,0:0:0:0:
64,192,249101,1,0,0:0:0:0:
192,192,249101,1,0,0:0:0:0:
320,192,249179,1,2,0:0:0:0:
448,192,249179,1,0,0:0:0:0:
64,192,249258,1,0,0:0:0:0:
192,192,249258,1,2,0:0:0:0:
64,192,249414,1,2,0:0:0:0:
192,192,249414,1,0,0:0:0:0:
448,192,249570,1,0,0:0:0:0:
320,192,249570,1,2,0:0:0:0:
64,192,249726,1,2,0:0:0:0:
448,192,249726,1,0,0:0:0:0:
320,192,249883,1,0,0:0:0:0:
192,192,249883,1,2,0:0:0:0:
64,192,249961,1,0,0:0:0:0:
192,192,250039,1,0,0:0:0:0:
320,192,250117,1,0,0:0:0:0:
448,192,250195,1,0,0:0:0:0:
64,192,250273,1,0,0:0:0:0:
192,192,250351,1,0,0:0:0:0:
320,192,250429,1,0,0:0:0:0:
64,192,250508,1,0,0:0:0:0:
448,192,250508,1,0,0:0:0:0:
192,192,250586,1,0,0:0:0:0:
448,192,250664,1,0,0:0:0:0:
320,192,250742,1,0,0:0:0:0:
64,192,250820,1,0,0:0:0:0:
192,192,250820,1,0,0:0:0:0:
448,192,250898,1,0,0:0:0:0:
320,192,250976,1,0,0:0:0:0:
192,192,251054,1,0,0:0:0:0:
64,192,251133,1,2,0:0:0:0:
448,192,251133,1,0,0:0:0:0:
192,192,251211,1,0,0:0:0:0:
320,192,251289,1,0,0:0:0:0:
448,192,251367,1,0,0:0:0:0:
320,192,251445,1,0,0:0:0:0:
192,192,251445,1,0,0:0:0:0:
64,192,251523,1,0,0:0:0:0:
448,192,251601,1,0,0:0:0:0:
320,192,251679,1,0,0:0:0:0:
192,192,251758,1,2,0:0:0:0:
64,192,251758,1,0,0:0:0:0:
320,192,251836,1,0,0:0:0:0:
448,192,251914,1,0,0:0:0:0:
64,192,251914,1,2,0:0:0:0:
320,192,251992,1,2,0:0:0:0:
192,192,251992,1,0,0:0:0:0:
448,192,252070,1,0,0:0:0:0:
64,192,252148,1,0,0:0:0:0:
192,192,252226,1,2,0:0:0:0:
448,192,252226,1,0,0:0:0:0:
320,192,252304,1,0,0:0:0:0:
448,192,252383,1,0,0:0:0:0:
64,192,252383,1,2,0:0:0:0:
64,192,252617,1,2,0:0:0:0:
192,192,252617,1,0,0:0:0:0:
320,192,252851,1,2,0:0:0:0:
448,192,252851,1,0,0:0:0:0:
64,192,253086,1,2,0:0:0:0:
320,192,253086,1,0,0:0:0:0:
448,192,253320,1,0,0:0:0:0:
192,192,253320,1,2,0:0:0:0:
64,192,253476,1,2,0:0:0:0:
320,192,253476,1,0,0:0:0:0:
64,192,253633,1,2,0:0:0:0:
192,192,253633,1,0,0:0:0:0:
64,192,253867,1,2,0:0:0:0:
192,192,253867,1,0,0:0:0:0:
320,192,254101,1,0,0:0:0:0:
192,192,254101,1,2,0:0:0:0:
448,192,254258,1,0,0:0:0:0:
64,192,254258,1,2,0:0:0:0:
448,192,254492,1,0,0:0:0:0:
64,192,254492,1,2,0:0:0:0:
192,192,254570,1,2,0:0:0:0:
320,192,254570,1,0,0:0:0:0:
448,192,254726,1,0,0:0:0:0:
320,192,254726,1,2,0:0:0:0:
192,192,254883,1,0,0:0:0:0:
64,192,254883,1,2,0:0:0:0:
64,192,255117,1,2,0:0:0:0:
320,192,255117,1,0,0:0:0:0:
448,192,255351,1,0,0:0:0:0:
192,192,255351,1,2,0:0:0:0:
448,192,255586,1,0,0:0:0:0:
192,192,255586,1,2,0:0:0:0:
320,192,255820,1,2,0:0:0:0:
448,192,255820,1,0,0:0:0:0:
64,192,255976,1,2,0:0:0:0:
320,192,255976,1,0,0:0:0:0:
64,192,256133,1,2,0:0:0:0:
192,192,256133,1,0,0:0:0:0:
192,192,256367,1,0,0:0:0:0:
64,192,256367,1,2,0:0:0:0:
64,192,256601,1,2,0:0:0:0:
448,192,256601,1,0,0:0:0:0:
320,192,256758,1,0,0:0:0:0:
192,192,256758,1,2,0:0:0:0:
192,192,256992,1,2,0:0:0:0:
320,192,256992,1,0,0:0:0:0:
448,192,257226,1,0,0:0:0:0:
320,192,257226,1,2,0:0:0:0:
320,192,257383,1,0,0:0:0:0:
64,192,257383,1,2,0:0:0:0:
64,192,257617,1,2,0:0:0:0:
320,192,257617,1,0,0:0:0:0:
192,192,257851,1,2,0:0:0:0:
448,192,257851,1,0,0:0:0:0:
64,192,258008,1,2,0:0:0:0:
192,192,258008,1,0,0:0:0:0:
192,192,258242,1,0,0:0:0:0:
64,192,258242,1,2,0:0:0:0:
320,192,258476,1,0,0:0:0:0:
192,192,258476,1,2,0:0:0:0:
448,192,258633,1,0,0:0:0:0:
64,192,258633,1,2,0:0:0:0:
448,192,258945,1,0,0:0:0:0:
192,192,258945,1,2,0:0:0:0:
64,192,259258,1,2,0:0:0:0:
320,192,259258,1,0,0:0:0:0:
448,192,259570,1,0,0:0:0:0:
64,192,259570,1,2,0:0:0:0:
448,192,259726,1,0,0:0:0:0:
64,192,259726,1,2,0:0:0:0:
64,192,259883,1,2,0:0:0:0:
448,192,259883,1,0,0:0:0:0:
320,192,259961,1,0,0:0:0:0:
192,192,260039,1,0,0:0:0:0:
64,192,260117,1,0,0:0:0:0:
192,192,260195,1,0,0:0:0:0:
320,192,260273,1,0,0:0:0:0:
448,192,260351,1,0,0:0:0:0:
192,192,260429,1,0,0:0:0:0:
64,192,260508,1,0,0:0:0:0:
448,192,260586,1,0,0:0:0:0:
320,192,260664,1,0,0:0:0:0:
192,192,260742,1,0,0:0:0:0:
64,192,260820,1,0,0:0:0:0:
192,192,260898,1,0,0:0:0:0:
448,192,260976,1,0,0:0:0:0:
320,192,261054,1,0,0:0:0:0:
192,192,261133,1,2,0:0:0:0:
320,192,261211,1,0,0:0:0:0:
192,192,261289,1,0,0:0:0:0:
448,192,261367,1,0,0:0:0:0:
320,192,261445,1,0,0:0:0:0:
64,192,261523,1,0,0:0:0:0:
192,192,261601,1,0,0:0:0:0:
448,192,261679,1,0,0:0:0:0:
320,192,261758,1,2,0:0:0:0:
192,192,261836,1,0,0:0:0:0:
320,192,261914,1,0,0:0:0:0:
64,192,261992,1,0,0:0:0:0:
192,192,262070,1,0,0:0:0:0:
448,192,262148,1,0,0:0:0:0:
320,192,262226,1,0,0:0:0:0:
192,192,262304,1,0,0:0:0:0:
64,192,262383,1,2,0:0:0:0:
448,192,262383,1,0,0:0:0:0:
192,192,262617,1,2,0:0:0:0:
320,192,262617,1,4,0:0:0:0:
448,192,262851,1,0,0:0:0:0:
320,192,262851,1,2,0:0:0:0:
192,192,263008,1,0,0:0:0:0:
64,192,263008,1,2,0:0:0:0:
448,192,263242,1,4,0:0:0:0:
192,192,263242,1,2,0:0:0:0:
448,192,263476,1,0,0:0:0:0:
64,192,263476,1,2,0:0:0:0:
192,192,263633,1,2,0:0:0:0:
320,192,263633,1,4,0:0:0:0:
64,192,263867,1,2,0:0:0:0:
192,192,263867,1,0,0:0:0:0:
448,192,264101,1,4,0:0:0:0:
192,192,264101,1,2,0:0:0:0:
64,192,264258,1,2,0:0:0:0:
320,192,264258,1,0,0:0:0:0:
64,192,264492,1,2,0:0:0:0:
320,192,264492,1,0,0:0:0:0:
448,192,264570,1,0,0:0:0:0:
192,192,264570,1,4,0:0:0:0:
64,192,264648,1,0,0:0:0:0:
320,192,264726,1,2,0:0:0:0:
448,192,264726,1,0,0:0:0:0:
192,192,264804,1,0,0:0:0:0:
448,192,264883,1,0,0:0:0:0:
320,192,264883,1,0,0:0:0:0:
64,192,264883,1,2,0:0:0:0:
192,192,264961,1,0,0:0:0:0:
64,192,265039,1,0,0:0:0:0:
320,192,265117,1,0,0:0:0:0:
448,192,265195,1,0,0:0:0:0:
64,192,265273,1,0,0:0:0:0:
192,192,265351,1,0,0:0:0:0:
320,192,265429,1,0,0:0:0:0:
448,192,265508,1,0,0:0:0:0:
64,192,265586,1,0,0:0:0:0:
192,192,265664,1,0,0:0:0:0:
320,192,265742,1,0,0:0:0:0:
64,192,265820,1,0,0:0:0:0:
192,192,265820,1,0,0:0:0:0:
320,192,265898,1,0,0:0:0:0:
448,192,265898,1,0,0:0:0:0:
64,192,265976,1,0,0:0:0:0:
192,192,265976,1,0,0:0:0:0:
320,192,266054,1,0,0:0:0:0:
64,192,266133,1,2,0:0:0:0:
448,192,266133,1,0,0:0:0:0:
320,192,266211,1,0,0:0:0:0:
192,192,266211,1,2,0:0:0:0:
192,192,266445,1,0,0:0:0:0:
64,192,266445,1,2,0:0:0:0:
448,192,266601,1,0,0:0:0:0:
320,192,266601,1,0,0:0:0:0:
192,192,266679,1,0,0:0:0:0:
64,192,266679,1,2,0:0:0:0:
448,192,266758,1,0,0:0:0:0:
320,192,266758,1,2,0:0:0:0:
64,192,266914,1,2,0:0:0:0:
448,192,266914,1,0,0:0:0:0:
64,192,267070,1,2,0:0:0:0:
320,192,267070,1,0,0:0:0:0:
320,192,267226,1,2,0:0:0:0:
448,192,267226,1,0,0:0:0:0:
320,192,267383,1,0,0:0:0:0:
192,192,267383,1,2,0:0:0:0:
448,192,267461,1,0,0:0:0:0:
64,192,267539,1,0,0:0:0:0:
192,192,267617,1,0,0:0:0:0:
448,192,267695,1,0,0:0:0:0:
320,192,267773,1,0,0:0:0:0:
192,192,267851,1,0,0:0:0:0:
64,192,267929,1,0,0:0:0:0:
448,192,268008,1,0,0:0:0:0:
320,192,268086,1,0,0:0:0:0:
64,192,268164,1,0,0:0:0:0:
192,192,268242,1,0,0:0:0:0:
448,192,268320,1,0,0:0:0:0:
320,192,268320,1,0,0:0:0:0:
64,192,268398,1,0,0:0:0:0:
192,192,268398,1,0,0:0:0:0:
448,192,268476,1,0,0:0:0:0:
320,192,268476,1,0,0:0:0:0:
192,192,268554,1,0,0:0:0:0:
64,192,268633,1,2,0:0:0:0:
448,192,268633,1,0,0:0:0:0:
192,192,268711,1,2,0:0:0:0:
320,192,268711,1,0,0:0:0:0:
448,192,268945,1,0,0:0:0:0:
64,192,268945,1,2,0:0:0:0:
320,192,269101,1,0,0:0:0:0:
192,192,269101,1,0,0:0:0:0:
448,192,269179,1,0,0:0:0:0:
64,192,269179,1,2,0:0:0:0:
192,192,269258,1,2,0:0:0:0:
320,192,269258,1,0,0:0:0:0:
320,192,269414,1,2,0:0:0:0:
448,192,269414,1,0,0:0:0:0:
64,192,269570,1,2,0:0:0:0:
192,192,269570,1,0,0:0:0:0:
64,192,269726,1,2,0:0:0:0:
448,192,269726,1,0,0:0:0:0:
448,192,269883,1,0,0:0:0:0:
320,192,269883,1,2,0:0:0:0:
192,192,269961,1,0,0:0:0:0:
64,192,270039,1,0,0:0:0:0:
448,192,270117,1,0,0:0:0:0:
320,192,270195,1,0,0:0:0:0:
192,192,270273,1,0,0:0:0:0:
64,192,270351,1,0,0:0:0:0:
320,192,270429,1,0,0:0:0:0:
192,192,270508,1,0,0:0:0:0:
448,192,270508,1,0,0:0:0:0:
64,192,270586,1,0,0:0:0:0:
192,192,270664,1,0,0:0:0:0:
320,192,270742,1,0,0:0:0:0:
64,192,270820,1,0,0:0:0:0:
448,192,270820,1,0,0:0:0:0:
192,192,270898,1,0,0:0:0:0:
320,192,270976,1,0,0:0:0:0:
192,192,271054,1,0,0:0:0:0:
64,192,271133,1,2,0:0:0:0:
448,192,271133,1,0,0:0:0:0:
192,192,271211,1,0,0:0:0:0:
448,192,271289,1,0,0:0:0:0:
320,192,271367,1,0,0:0:0:0:
192,192,271445,1,0,0:0:0:0:
64,192,271445,1,0,0:0:0:0:
448,192,271523,1,0,0:0:0:0:
320,192,271601,1,0,0:0:0:0:
192,192,271679,1,0,0:0:0:0:
64,192,271758,1,2,0:0:0:0:
448,192,271758,1,0,0:0:0:0:
320,192,271836,1,0,0:0:0:0:
192,192,271914,1,0,0:0:0:0:
64,192,271914,1,2,0:0:0:0:
320,192,271992,1,2,0:0:0:0:
448,192,271992,1,0,0:0:0:0:
192,192,272070,1,0,0:0:0:0:
64,192,272148,1,0,0:0:0:0:
448,192,272226,1,0,0:0:0:0:
192,192,272226,1,2,0:0:0:0:
320,192,272304,1,0,0:0:0:0:
192,192,272383,1,0,0:0:0:0:
64,192,272383,1,2,0:0:0:0:
448,192,272617,1,0,0:0:0:0:
320,192,272617,1,2,0:0:0:0:
192,192,272851,1,0,0:0:0:0:
64,192,272851,1,2,0:0:0:0:
448,192,273086,1,0,0:0:0:0:
192,192,273086,1,2,0:0:0:0:
64,192,273320,1,2,0:0:0:0:
320,192,273320,1,0,0:0:0:0:
192,192,273476,1,2,0:0:0:0:
448,192,273476,1,0,0:0:0:0:
448,192,273633,1,0,0:0:0:0:
320,192,273633,1,2,0:0:0:0:
320,192,273867,1,2,0:0:0:0:
448,192,273867,1,0,0:0:0:0:
192,192,274101,1,2,0:0:0:0:
320,192,274101,1,0,0:0:0:0:
448,192,274258,1,0,0:0:0:0:
64,192,274258,1,2,0:0:0:0:
64,192,274492,1,2,0:0:0:0:
192,192,274492,1,0,0:0:0:0:
320,192,274570,1,2,0:0:0:0:
448,192,274570,1,0,0:0:0:0:
192,192,274726,1,0,0:0:0:0:
64,192,274726,1,2,0:0:0:0:
448,192,274883,1,0,0:0:0:0:
320,192,274883,1,2,0:0:0:0:
192,192,275117,1,2,0:0:0:0:
448,192,275117,1,0,0:0:0:0:
64,192,275351,1,2,0:0:0:0:
320,192,275351,1,0,0:0:0:0:
64,192,275586,1,2,0:0:0:0:
320,192,275586,1,0,0:0:0:0:
192,192,275820,1,0,0:0:0:0:
64,192,275820,1,2,0:0:0:0:
192,192,275976,1,2,0:0:0:0:
448,192,275976,1,0,0:0:0:0:
320,192,276133,1,2,0:0:0:0:
448,192,276133,1,0,0:0:0:0:
448,192,276367,1,0,0:0:0:0:
320,192,276367,1,2,0:0:0:0:
64,192,276601,1,2,0:0:0:0:
448,192,276601,1,0,0:0:0:0:
320,192,276758,1,0,0:0:0:0:
192,192,276758,1,2,0:0:0:0:
320,192,276992,1,0,0:0:0:0:
192,192,276992,1,2,0:0:0:0:
64,192,277226,1,2,0:0:0:0:
192,192,277226,1,0,0:0:0:0:
448,192,277383,1,0,0:0:0:0:
192,192,277383,1,2,0:0:0:0:
448,192,277617,1,0,0:0:0:0:
192,192,277617,1,2,0:0:0:0:
64,192,277851,1,2,0:0:0:0:
320,192,277851,1,0,0:0:0:0:
448,192,278008,1,0,0:0:0:0:
320,192,278008,1,2,0:0:0:0:
448,192,278242,1,0,0:0:0:0:
320,192,278242,1,2,0:0:0:0:
320,192,278476,1,0,0:0:0:0:
192,192,278476,1,2,0:0:0:0:
448,192,278633,1,0,0:0:0:0:
64,192,278633,1,2,0:0:0:0:
64,192,278945,1,2,0:0:0:0:
320,192,278945,1,0,0:0:0:0:
448,192,279258,1,0,0:0:0:0:
192,192,279258,1,2,0:0:0:0:
320,192,279570,1,0,0:0:0:0:
192,192,279570,1,2,0:0:0:0:
448,192,279726,1,0,0:0:0:0:
64,192,279726,1,2,0:0:0:0:
320,192,279883,1,2,0:0:0:0:
448,192,279883,1,0,0:0:0:0:
64,192,280039,1,2,0:0:0:0:
192,192,280039,1,0,0:0:0:0:
448,192,280195,1,0,0:0:0:0:
64,192,280195,1,2,0:0:0:0:
192,192,280351,1,2,0:0:0:0:
320,192,280351,1,0,0:0:0:0:
448,192,280508,1,0,0:0:0:0:
320,192,280508,1,2,0:0:0:0:
64,192,280664,1,2,0:0:0:0:
320,192,280664,1,0,0:0:0:0:
192,192,280820,1,2,0:0:0:0:
448,192,280820,1,0,0:0:0:0:
64,192,280976,1,2,0:0:0:0:
192,192,280976,1,0,0:0:0:0:
320,192,281133,1,2,0:0:0:0:
448,192,281133,1,0,0:0:0:0:
64,192,281289,1,2,0:0:0:0:
448,192,281289,1,0,0:0:0:0:
192,192,281445,1,2,0:0:0:0:
320,192,281445,1,0,0:0:0:0:
448,192,281601,1,0,0:0:0:0:
192,192,281601,1,2,0:0:0:0:
64,192,281758,1,2,0:0:0:0:
192,192,281758,1,0,0:0:0:0:
448,192,281914,1,0,0:0:0:0:
320,192,281914,1,2,0:0:0:0:
448,192,282070,1,0,0:0:0:0:
64,192,282070,1,2,0:0:0:0:
320,192,282148,1,0,0:0:0:0:
192,192,282226,1,2,0:0:0:0:
320,192,282304,1,0,0:0:0:0:
64,192,282383,1,2,0:0:0:0:
192,192,282383,1,2,0:0:0:0:
448,192,282461,1,0,0:0:0:0:
320,192,282539,1,2,0:0:0:0:
192,192,282539,1,2,0:0:0:0:
64,192,282617,1,0,0:0:0:0:
448,192,282695,1,2,0:0:0:0:
320,192,282695,1,2,0:0:0:0:
192,192,282773,1,0,0:0:0:0:
64,192,282851,1,2,0:0:0:0:
448,192,282851,1,2,0:0:0:0:
320,192,282929,1,0,0:0:0:0:
192,192,283008,1,2,0:0:0:0:
64,192,283008,1,2,0:0:0:0:
320,192,283086,1,0,0:0:0:0:
448,192,283164,1,2,0:0:0:0:
64,192,283164,1,2,0:0:0:0:
192,192,283242,1,0,0:0:0:0:
448,192,283320,1,2,0:0:0:0:
320,192,283320,1,2,0:0:0:0:
64,192,283398,1,0,0:0:0:0:
192,192,283476,1,2,0:0:0:0:
320,192,283476,1,2,0:0:0:0:
448,192,283554,1,0,0:0:0:0:
64,192,283633,1,2,0:0:0:0:
320,192,283633,1,0,0:0:0:0:
192,192,283633,1,2,0:0:0:0:
448,192,283867,1,0,0:0:0:0:
192,192,283867,1,2,0:0:0:0:
64,192,283867,1,2,0:0:0:0:
448,192,284101,1,0,0:0:0:0:
320,192,284153,1,0,0:0:0:0:
192,192,284205,1,0,0:0:0:0:
64,192,284258,1,2,0:0:0:0:
448,192,284258,1,0,0:0:0:0:
320,192,284258,1,2,0:0:0:0:
320,192,284492,1,2,0:0:0:0:
192,192,284492,1,2,0:0:0:0:
448,192,284492,1,0,0:0:0:0:
448,192,284726,1,0,0:0:0:0:
192,192,284726,1,2,0:0:0:0:
64,192,284726,1,2,0:0:0:0:
320,192,284804,1,0,0:0:0:0:
64,192,284883,1,2,0:0:0:0:
448,192,284883,1,0,0:0:0:0:
192,192,284883,128,0,286758:0:0:0:0:
64,192,286758,128,0,287383:0:0:0:0:
448,192,286758,1,0,0:0:0:0:
320,192,287383,128,0,288633:0:0:0:0:
192,192,287383,1,0,0:0:0:0:
448,192,288633,128,0,289883:0:0:0:0:
192,192,289883,128,0,292383:0:0:0:0:
320,192,289883,1,0,0:0:0:0:
448,192,292383,128,0,294883:0:0:0:0:
64,192,292383,128,0,294883:0:0:0:0:
320,192,292383,1,0,0:0:0:0:
192,192,294883,128,0,301133:0:0:0:0:
320,192,294883,128,0,301133:0:0:0:0:
