osu file format v14

[General]
AudioFilename: audio.mp3
AudioLeadIn: 0
PreviewTime: 170675
Countdown: 0
SampleSet: Normal
StackLeniency: 0.2
Mode: 2
LetterboxInBreaks: 0
WidescreenStoryboard: 1

[Editor]
Bookmarks: 19271,38442,47808,66539,75905,85271,94637,104003,114539,189466,208198,226930
DistanceSpacing: 1
BeatDivisor: 4
GridSize: 16
TimelineZoom: 3.599999

[Metadata]
Title:Road To The LegenD,
TitleUnicode:Road To The LegenD,
Artist:Yooh
ArtistUnicode:Yooh
Creator:Zyzyx
Version:LegenD.
Source:SOUND VOLTEX III GRAVITY WARS
Tags:Red Road, Hardcore, EDM, Electronic,
BeatmapID:1516987
BeatmapSetID:718186

[Difficulty]
HPDrainRate:6
CircleSize:4.2
OverallDifficulty:9.7
ApproachRate:9.7
SliderMultiplier:1.8
SliderTickRate:2

[Events]
//Background and Video events
0,0,"BG.png",0,0
//Break Periods
2,19910,23591
2,24447,27396
2,114832,132776
2,152202,155898
2,252686,270923
//Storyboard Layer 0 (Background)
//Storyboard Layer 1 (Fail)
//Storyboard Layer 2 (Pass)
//Storyboard Layer 3 (Foreground)
//Storyboard Sound Samples

[TimingPoints]
979,292.682926829268,4,2,1,20,1,0
979,-400,4,1,1,70,0,0
19710,-200,4,1,1,70,0,0
27905,-71.4285714285714,4,1,1,70,0,0
29076,-90.9090909090909,4,1,1,70,0,0
38442,-71.4285714285714,4,1,1,80,0,1
38588,-71.4285714285714,4,1,1,80,0,0
47808,-71.4285714285714,4,1,1,80,0,1
47954,-71.4285714285714,4,1,1,80,0,0
57174,-71.4285714285714,4,1,1,80,0,1
66247,-71.4285714285714,4,1,1,80,0,0
66539,-71.4285714285714,4,1,1,80,0,1
75905,-71.4285714285714,4,1,1,80,0,0
85271,-100,4,1,1,75,0,0
91125,-111.111111111111,4,1,1,75,0,0
93466,-90.9090909090908,4,1,1,75,0,0
94637,-71.4285714285714,4,1,1,80,0,0
104003,-90.9090909090909,4,1,1,75,0,0
106564,-71.4285714285714,4,1,1,75,0,0
106710,-90.9090909090909,4,1,1,75,0,0
107149,-71.4285714285714,4,1,1,75,0,0
107296,-90.9090909090909,4,1,1,75,0,0
114539,-133.333333333333,4,2,1,100,0,0
114832,-133.333333333333,4,2,1,40,0,0
133271,-86.9565217391304,4,2,1,60,0,0
152003,-86.9565217391304,4,1,1,70,0,0
156686,-86.9565217391304,4,1,1,30,0,0
160198,-86.9565217391304,4,1,1,70,0,0
161369,-76.9230769230769,4,3,1,38,0,0
166052,-71.4285714285714,4,3,1,62,0,0
170735,-66.6666666666667,4,1,1,60,0,0
173076,-71.4285714285714,4,1,1,75,0,1
189174,-71.4285714285714,4,1,1,75,0,0
189466,-76.9230769230769,4,1,1,75,0,1
207905,-76.9230769230769,4,1,1,75,0,0
208198,-71.4285714285714,4,1,1,75,0,1
217564,-71.4285714285714,4,1,1,75,0,0
222247,-90.9090909090909,4,1,1,75,0,0
222539,-83.3333333333333,4,1,1,75,0,0
222759,-90.9090909090909,4,1,1,75,0,0
223125,-83.3333333333333,4,1,1,75,0,0
223344,-71.4285714285714,4,1,1,75,0,0
226637,-83.3333333333333,4,1,1,75,0,0
226930,-80,4,1,1,75,0,1
243320,-80,4,1,1,65,0,1
244491,-80,4,1,1,75,0,1
245661,-50,4,1,1,100,0,0
248003,-52.6315789473684,4,2,1,70,0,0
250344,-52.6315789473684,4,2,1,30,0,0
271418,-76.9230769230769,4,2,1,30,0,0
276100,-181.818181818182,4,2,1,30,0,0
280783,-125,4,2,1,30,0,0
285466,-95.2380952380952,4,2,1,30,0,0
294539,-100,4,2,1,60,0,0
294905,-100,4,2,1,40,0,0

[Colours]
Combo1 : 234,234,234
Combo2 : 227,0,41
Combo3 : 197,83,104

[HitObjects]
256,192,15027,12,0,19125,0:0:0:0:
192,192,19271,5,0,0:0:0:0:
320,192,19418,1,0,0:0:0:0:
192,192,19564,1,0,0:0:0:0:
480,192,19710,1,4,3:0:0:0:
480,192,24100,5,8,0:0:0:0:
256,192,24247,5,2,0:0:0:0:
256,192,28052,5,2,0:0:0:0:
144,192,28198,1,8,0:0:0:0:
368,192,28344,2,0,L|304:192,1,62.9999980773926,2|0,0:0|0:0,0:0:0:0:
144,192,28491,1,0,0:0:0:0:
32,272,28637,2,0,L|96:272,1,62.9999980773926,2|0,0:0|0:0,0:0:0:0:
256,272,28783,2,2,L|320:272,1,62.9999980773926,10|2,0:0|0:0,0:0:0:0:
96,352,28930,2,2,L|160:352,1,62.9999980773926
336,352,29076,6,0,L|400:352,1,49.5000015106202,6|0,0:0|0:0,0:0:0:0:
464,352,29222,2,0,L|480:304,1,49.5000015106202
320,272,29369,2,0,L|256:272,1,49.5000015106202,8|0,0:0|0:0,0:0:0:0:
448,272,29515,2,0,L|384:272,1,49.5000015106202
112,160,29661,6,0,L|112:224,1,49.5000015106202
192,224,29808,2,0,L|192:288,1,49.5000015106202
32,320,29954,2,0,L|96:320,1,49.5000015106202,8|0,0:0|0:0,0:0:0:0:
256,320,30100,2,0,L|192:320,1,49.5000015106202
32,272,30247,5,2,0:0:0:0:
64,272,30320,1,0,0:0:0:0:
112,272,30393,1,0,0:0:0:0:
192,272,30466,1,0,0:0:0:0:
384,272,30539,2,0,L|448:272,1,49.5000015106202,8|0,0:0|0:0,0:0:0:0:
256,224,30686,2,0,L|256:160,1,49.5000015106202
400,80,30832,6,0,L|400:144,1,49.5000015106202,2|0,0:0|0:0,0:0:0:0:
320,144,30978,2,0,L|320:208,1,49.5000015106202
480,192,31125,2,0,L|480:256,1,49.5000015106202,8|0,0:0|0:0,0:0:0:0:
288,288,31271,2,0,L|224:288,1,49.5000015106202
384,288,31418,5,6,0:0:0:0:
376,240,31491,1,0,0:0:0:0:
336,208,31564,1,0,0:0:0:0:
288,200,31637,1,0,0:0:0:0:
128,160,31710,2,0,L|192:160,1,49.5000015106202,8|0,0:0|0:0,0:0:0:0:
352,160,31857,2,0,L|416:160,1,49.5000015106202
256,208,32003,6,0,L|240:256,1,49.5000015106202,2|0,0:0|0:0,0:0:0:0:
320,288,32149,2,0,L|304:336,1,49.5000015106202
128,352,32296,2,0,L|112:304,1,49.5000015106202,8|0,0:0|0:0,0:0:0:0:
288,288,32442,2,0,L|304:240,1,49.5000015106202
64,224,32588,6,0,L|48:176,1,49.5000015106202,2|0,0:0|0:0,0:0:0:0:
128,160,32735,2,0,L|192:160,1,49.5000015106202
336,160,32881,2,0,L|400:160,1,49.5000015106202,8|0,0:0|0:0,0:0:0:0:
160,240,33027,2,0,L|160:304,1,49.5000015106202
320,272,33174,6,0,L|336:368,2,49.5000015106202,10|0|0,0:0|0:0|0:0,0:0:0:0:
192,352,33466,2,0,L|128:352,1,49.5000015106202,8|0,0:0|0:0,0:0:0:0:
320,352,33613,2,0,L|384:352,1,49.5000015106202
32,224,33759,5,6,0:0:0:0:
256,192,33905,1,2,0:0:0:0:
144,192,34052,1,8,0:0:0:0:
288,240,34198,2,0,L|272:304,1,49.5000015106202
480,224,34344,5,6,0:0:0:0:
256,192,34490,1,2,0:0:0:0:
368,192,34637,1,8,0:0:0:0:
224,240,34783,2,0,L|240:304,1,49.5000015106202
48,256,34930,6,0,L|32:144,1,99.0000030212403,2|8,0:0|3:3,0:0:0:0:
464,256,35222,2,0,L|480:144,1,99.0000030212403,2|8,0:0|3:3,0:0:0:0:
192,144,35515,2,0,L|128:144,1,49.5000015106202
368,144,35661,2,0,L|304:144,1,49.5000015106202
112,208,35808,2,0,L|48:208,1,49.5000015106202
320,208,35954,2,0,L|256:208,1,49.5000015106202
80,160,36100,6,0,L|192:160,7,99.0000030212403
464,160,37271,6,0,L|480:272,1,99.0000030212403
352,240,37564,2,0,L|336:352,1,99.0000030212403
464,224,37857,5,0,0:0:0:0:
384,128,38003,1,0,0:0:0:0:
256,96,38149,1,0,0:0:0:0:
128,128,38296,1,0,0:0:0:0:
368,352,38442,5,4,3:0:0:0:
480,256,38588,1,0,0:0:0:0:
256,240,38735,1,0,3:0:0:0:
368,144,38881,1,0,0:0:0:0:
144,160,39027,1,0,3:0:0:0:
256,80,39174,1,0,0:0:0:0:
32,32,39320,1,0,3:0:0:0:
368,32,39466,1,0,0:0:0:0:
144,32,39613,5,0,3:0:0:0:
32,128,39759,1,0,0:0:0:0:
256,144,39906,1,0,3:0:0:0:
144,240,40052,1,0,0:0:0:0:
368,224,40198,1,0,3:0:0:0:
256,304,40345,1,0,0:0:0:0:
480,352,40491,1,0,3:0:0:0:
144,352,40637,1,0,0:0:0:0:
480,112,40783,5,0,3:0:0:0:
256,160,40930,1,0,0:0:0:0:
368,160,41076,1,0,3:0:0:0:
160,208,41222,1,0,0:0:0:0:
368,208,41369,1,0,3:0:0:0:
144,272,41516,1,0,0:0:0:0:
256,272,41661,1,0,3:0:0:0:
48,352,41808,1,0,0:0:0:0:
384,352,41954,6,0,L|256:352,1,125.999996154785,0|0,3:0|0:0,0:0:0:0:
128,288,42247,2,0,L|256:288,1,125.999996154785,0|0,3:0|0:0,0:0:0:0:
48,256,42539,2,0,L|32:112,1,125.999996154785,0|0,3:0|0:0,0:0:0:0:
400,160,42832,5,0,0:0:0:0:
112,160,42978,1,0,0:0:0:0:
320,240,43125,6,0,L|192:238,1,125.999996154785,0|0,3:0|0:0,0:0:0:0:
464,224,43418,2,0,L|480:96,1,125.999996154785,0|0,3:0|0:0,0:0:0:0:
31,147,43710,6,0,L|159:147,1,125.999996154785,0|0,3:0|0:0,0:0:0:0:
384,112,44003,1,0,3:0:0:0:
128,112,44149,1,0,3:0:0:0:
340,209,44296,6,0,L|470:211,1,125.999996154785,0|0,3:0|0:0,0:0:0:0:
192,240,44588,1,0,3:0:0:0:
416,256,44735,1,0,0:0:0:0:
144,160,44881,1,0,3:0:0:0:
256,160,45027,1,0,0:0:0:0:
368,160,45174,1,0,3:0:0:0:
96,224,45320,1,0,3:0:0:0:
320,240,45466,5,0,3:0:0:0:
192,240,45613,1,0,3:0:0:0:
448,224,45759,2,0,L|480:128,1,83.9999974365235,8|0,3:1|0:0,0:0:0:0:
368,128,45954,1,0,0:0:0:0:
192,144,46052,5,0,3:0:0:0:
320,144,46198,1,0,3:0:0:0:
64,112,46344,2,0,L|32:16,1,83.9999974365235,8|0,3:1|0:0,0:0:0:0:
144,16,46539,1,0,0:0:0:0:
368,32,46637,6,0,P|432:64|361:123,1,188.999994232178,0|0,3:0|3:0,0:0:0:0:
224,144,46930,2,0,P|160:176|231:235,1,188.999994232178,0|0,3:0|3:0,0:0:0:0:
416,304,47222,1,0,3:0:0:0:
256,240,47320,1,0,3:0:0:0:
432,240,47405,1,0,3:0:0:0:
256,192,47515,5,0,3:0:0:0:
240,224,47552,1,0,3:0:0:0:
240,256,47588,1,0,3:0:0:0:
256,288,47625,1,0,3:0:0:0:
288,304,47661,1,0,3:0:0:0:
320,304,47698,1,0,3:0:0:0:
144,320,47808,5,4,3:0:0:0:
32,320,47954,1,0,0:0:0:0:
256,272,48100,1,8,3:1:0:0:
144,272,48247,1,0,0:0:0:0:
368,208,48393,1,0,3:0:0:0:
256,208,48540,1,0,0:0:0:0:
464,176,48686,1,8,3:1:0:0:
224,176,48832,1,0,0:0:0:0:
464,224,48978,6,0,L|336:224,1,125.999996154785,0|0,3:0|0:0,0:0:0:0:
208,224,49271,1,8,3:1:0:0:
448,192,49418,1,0,0:0:0:0:
48,128,49564,6,0,L|176:128,1,125.999996154785,0|0,3:0|0:0,0:0:0:0:
304,96,49857,1,8,3:1:0:0:
64,96,50003,1,0,0:0:0:0:
368,64,50149,5,0,3:0:0:0:
480,64,50295,1,0,0:0:0:0:
240,112,50441,1,8,3:1:0:0:
352,112,50588,1,0,0:0:0:0:
128,160,50734,1,0,3:0:0:0:
240,160,50881,1,0,0:0:0:0:
32,208,51027,1,8,3:1:0:0:
288,160,51173,1,0,0:0:0:0:
32,288,51320,6,0,L|160:288,1,125.999996154785,0|0,3:0|0:0,0:0:0:0:
288,224,51613,2,0,L|160:224,1,125.999996154785,8|0,3:1|0:0,0:0:0:0:
400,160,51905,1,8,3:1:0:0:
112,160,52052,1,0,0:0:0:0:
400,240,52198,2,0,L|416:304,2,62.9999980773926,8|0|0,3:1|0:0|0:0,0:0:0:0:
192,288,52491,5,4,3:0:0:0:
320,288,52637,1,0,0:0:0:0:
112,224,52783,1,8,3:1:0:0:
400,224,52930,1,0,0:0:0:0:
112,160,53076,6,0,L|96:96,2,62.9999980773926,0|0|0,3:0|0:0|0:0,0:0:0:0:
320,96,53369,1,8,3:1:0:0:
192,96,53515,1,0,3:0:0:0:
400,144,53661,6,0,L|384:272,1,125.999996154785,4|0,3:0|0:0,0:0:0:0:
128,269,53954,1,8,3:1:0:0:
384,269,54100,1,0,3:0:0:0:
176,221,54247,2,0,P|96:205|16:125,1,188.999994232178,4|0,3:0|3:0,0:0:0:0:
256,112,54539,2,0,L|384:116,1,125.999996154785,8|0,3:1|3:0,0:0:0:0:
144,288,54832,5,4,3:0:0:0:
272,288,54978,1,0,3:0:0:0:
48,256,55125,2,0,L|32:192,1,62.9999980773926,8|0,1:1|3:0,0:0:0:0:
112,160,55271,2,0,L|176:160,1,62.9999980773926,0|0,3:0|3:0,3:0:0:0:
368,96,55418,5,4,3:0:0:0:
240,96,55564,1,0,3:0:0:0:
464,128,55711,2,0,L|480:192,1,62.9999980773926,8|0,1:1|3:0,0:0:0:0:
400,224,55857,2,0,L|336:224,1,62.9999980773926,0|0,3:0|3:0,3:0:0:0:
192,336,56003,5,8,0:0:0:0:
320,336,56149,1,0,3:0:0:0:
112,272,56296,1,8,0:0:0:0:
400,272,56442,1,0,3:0:0:0:
64,192,56588,1,8,0:0:0:0:
448,192,56735,1,0,3:0:0:0:
128,176,56881,2,0,L|112:240,1,62.9999980773926,8|0,1:1|3:0,3:0:0:0:
384,176,57027,2,0,L|400:240,1,62.9999980773926,0|0,3:0|3:0,3:0:0:0:
240,192,57174,5,4,3:0:0:0:
128,192,57320,1,0,0:0:0:0:
272,192,57466,1,8,3:1:0:0:
96,192,57613,1,0,0:0:0:0:
272,192,57759,5,0,3:0:0:0:
64,240,57905,1,0,0:0:0:0:
304,240,58051,1,8,3:1:0:0:
48,288,58198,1,0,0:0:0:0:
256,311,58344,6,0,L|400:311,1,125.999996154785,0|0,3:0|0:0,0:0:0:0:
160,252,58637,2,0,L|32:252,1,125.999996154785,8|0,3:1|0:0,0:0:0:0:
256,192,58930,1,0,3:0:0:0:
144,192,59076,1,0,0:0:0:0:
352,128,59222,1,8,3:1:0:0:
64,128,59369,1,0,0:0:0:0:
272,192,59515,5,0,3:1:0:0:
384,192,59661,1,0,0:0:0:0:
240,192,59807,1,8,3:1:0:0:
416,192,59954,1,0,0:0:0:0:
240,192,60100,5,0,3:0:0:0:
448,144,60246,1,0,0:0:0:0:
208,144,60392,1,8,3:1:0:0:
464,96,60539,1,0,0:0:0:0:
256,73,60685,6,0,L|112:73,1,125.999996154785,0|0,3:0|0:0,0:0:0:0:
352,132,60978,2,0,L|480:132,1,125.999996154785,8|0,3:1|0:0,0:0:0:0:
256,192,61271,1,8,3:1:0:0:
368,192,61418,1,0,0:0:0:0:
144,224,61564,1,8,0:0:0:0:
288,224,61637,1,0,3:0:0:0:
432,224,61710,1,0,3:0:0:0:
288,224,61783,1,0,3:0:0:0:
122,160,61857,6,0,L|248:152,1,125.999996154785,4|0,3:0|0:0,0:0:0:0:
375,113,62149,2,0,L|233:102,1,125.999996154785,8|0,3:1|0:0,0:0:0:0:
480,128,62442,2,0,L|464:256,1,125.999996154785,0|0,3:0|0:0,0:0:0:0:
192,240,62735,2,0,L|335:238,1,125.999996154785,8|0,3:1|3:0,0:0:0:0:
112,112,63027,2,0,L|96:208,2,62.9999980773926,4|0|0,3:0|0:0|0:0,0:0:0:0:
400,112,63320,2,0,L|416:240,1,125.999996154785,8|0,3:1|0:0,0:0:0:0:
97,237,63613,5,4,3:0:0:0:
415,237,63759,1,0,0:0:0:0:
192,176,63905,1,8,3:1:0:0:
320,176,64052,1,0,3:0:0:0:
112,288,64198,6,0,L|96:256,1,31.4999990386963,0|0,3:0|3:0,3:0:0:0:
288,224,64344,2,0,L|320:224,1,31.4999990386963,0|0,3:0|3:0,3:0:0:0:
80,208,64564,1,12,3:1:0:0:
128,208,64637,1,0,0:0:0:0:
208,208,64710,1,0,0:0:0:0:
400,96,64783,2,0,L|416:64,1,31.4999990386963,0|0,3:0|3:0,3:0:0:0:
224,96,64929,2,0,L|176:96,1,31.4999990386963,0|0,3:0|3:0,3:0:0:0:
432,176,65149,1,12,3:1:0:0:
384,176,65222,1,0,0:0:0:0:
304,176,65295,1,0,0:0:0:0:
144,144,65369,6,0,P|96:192|96:288,1,167.999994873047,0|0,3:0|3:0,0:0:0:0:
368,144,65662,2,0,P|416:192|416:288,1,167.999994873047,0|0,3:0|3:0,0:0:0:0:
176,192,65954,5,0,3:0:0:0:
256,208,66052,1,0,3:0:0:0:
336,192,66150,1,0,3:0:0:0:
144,160,66247,2,0,L|96:160,6,31.4999990386963,0|0|0|0|0|0|0,3:0|3:0|3:0|3:0|3:0|3:0|3:0,3:0:0:0:
352,160,66539,6,0,L|496:160,1,125.999996154785,4|0,3:0|0:0,0:0:0:0:
320,160,66832,2,0,L|320:288,1,125.999996154785,8|0,3:1|0:0,0:0:0:0:
160,304,67124,2,0,L|16:304,1,125.999996154785,0|0,3:0|0:0,0:0:0:0:
240,304,67418,2,0,L|240:176,1,125.999996154785,8|0,3:1|0:0,0:0:0:0:
448,160,67710,6,0,L|304:160,1,125.999996154785,0|0,3:0|0:0,0:0:0:0:
192,160,68003,2,0,L|64:160,1,125.999996154785,8|0,3:1|0:0,0:0:0:0:
320,224,68296,1,0,3:0:0:0:
192,224,68442,1,0,0:0:0:0:
416,192,68588,1,8,3:1:0:0:
96,192,68735,1,0,0:0:0:0:
352,192,68881,6,0,L|368:320,1,125.999996154785,0|0,3:0|0:0,0:0:0:0:
160,192,69174,2,0,L|144:320,1,125.999996154785,8|0,3:1|0:0,0:0:0:0:
304,336,69467,2,0,L|448:336,1,125.999996154785,0|0,3:0|0:0,0:0:0:0:
208,304,69760,2,0,L|64:304,1,125.999996154785,8|0,3:1|0:0,0:0:0:0:
320,224,70052,6,0,L|320:96,1,125.999996154785,0|0,3:0|0:0,0:0:0:0:
192,96,70344,2,0,L|192:224,1,125.999996154785,8|0,3:1|0:0,0:0:0:0:
320,272,70637,1,8,3:1:0:0:
192,272,70783,1,0,0:0:0:0:
432,320,70930,6,0,L|368:320,1,62.9999980773926,8|0,3:1|3:0,0:0:0:0:
80,320,71076,2,0,L|144:320,1,62.9999980773926,0|0,3:0|3:0,3:0:0:0:
336,256,71222,6,0,P|400:240|432:192,1,125.999996154785,4|0,3:0|0:0,0:0:0:0:
288,160,71514,2,0,L|144:160,1,125.999996154785,8|0,3:1|0:0,0:0:0:0:
368,96,71808,6,0,L|384:224,1,125.999996154785,0|0,3:0|0:0,0:0:0:0:
256,224,72100,1,8,3:1:0:0:
480,224,72247,1,0,0:0:0:0:
160,336,72393,6,0,L|32:336,1,125.999996154785,4|0,3:0|0:0,0:0:0:0:
256,304,72686,1,8,3:1:0:0:
32,304,72832,1,0,0:0:0:0:
288,272,72978,6,0,P|304:224|256:176,1,125.999996154785,4|0,3:0|0:0,0:0:0:0:
112,176,73198,2,0,L|48:176,1,62.9999980773926,0|12,3:0|3:1,0:0:0:0:
192,176,73418,1,0,3:0:0:0:
64,224,73564,5,4,3:0:0:0:
288,224,73710,1,0,0:0:0:0:
32,304,73857,1,8,3:1:0:0:
64,336,73930,1,0,3:0:0:0:
112,352,74003,1,0,3:0:0:0:
160,352,74076,1,0,3:0:0:0:
448,160,74149,5,4,3:0:0:0:
224,160,74295,1,0,0:0:0:0:
480,240,74442,1,8,3:1:0:0:
448,272,74515,1,0,3:0:0:0:
400,288,74588,1,0,3:0:0:0:
352,288,74661,1,0,3:0:0:0:
176,192,74734,5,8,0:0:0:0:
48,192,74881,1,0,3:0:0:0:
288,288,75027,1,8,0:0:0:0:
160,288,75173,1,0,3:0:0:0:
400,336,75320,1,8,0:0:0:0:
112,336,75466,1,0,3:0:0:0:
432,224,75613,2,0,P|432:320|352:352,1,188.999994232178,8|0,0:0|0:0,0:0:0:0:
80,224,75905,6,0,P|80:320|160:352,1,188.999994232178,4|0,3:0|0:0,0:0:0:0:
288,352,76198,2,0,L|160:352,1,125.999996154785,8|0,3:1|0:0,0:0:0:0:
368,352,76491,2,0,P|384:256|320:192,1,188.999994232178,0|0,3:0|0:0,0:0:0:0:
112,192,76783,2,0,L|32:192,2,62.9999980773926,8|0|0,3:1|3:0|3:0,0:0:0:0:
325,194,77076,6,0,P|349:259|309:306,1,125.999996154785,0|0,3:0|0:0,0:0:0:0:
96,336,77369,6,0,L|160:336,1,62.9999980773926,8|0,0:0|3:0,0:0:0:0:
288,336,77515,2,0,L|352:336,1,62.9999980773926,0|0,3:0|3:0,3:0:0:0:
96,304,77661,6,0,L|240:304,2,125.999996154785,0|0|8,3:0|3:0|0:0,0:0:0:0:
368,304,78100,1,0,3:0:0:0:
160,272,78247,6,0,P|64:224|64:144,1,188.999994232178,0|0,3:0|0:0,0:0:0:0:
256,160,78539,2,0,L|128:160,1,125.999996154785,8|0,0:0|0:0,0:0:0:0:
352,272,78832,6,0,P|448:224|448:144,1,188.999994232178,0|0,3:0|0:0,0:0:0:0:
256,160,79125,2,0,L|384:160,1,125.999996154785,8|0,0:0|0:0,0:0:0:0:
48,192,79418,6,0,L|32:256,2,62.9999980773926,0|0|0,3:0|0:0|0:0,0:0:0:0:
192,192,79710,2,0,L|256:192,2,62.9999980773926,8|0|0,0:0|0:0|0:0,0:0:0:0:
400,160,80003,5,8,0:0:0:0:
112,160,80149,1,0,3:0:0:0:
416,96,80296,1,8,0:0:0:0:
96,96,80442,1,0,3:0:0:0:
432,192,80588,6,0,P|480:272|416:352,1,188.999994232178,0|0,3:0|0:0,0:0:0:0:
192,192,80881,2,0,L|320:192,1,125.999996154785,8|0,0:0|0:0,0:0:0:0:
80,352,81174,2,0,P|32:272|96:192,1,188.999994232178,0|0,3:0|0:0,0:0:0:0:
256,160,81466,6,0,L|320:160,2,62.9999980773926,8|0|0,0:0|3:0|3:0,0:0:0:0:
480,160,81759,6,0,L|352:160,2,125.999996154785,0|0|8,3:0|3:0|0:0,0:0:0:0:
416,160,82125,2,0,L|352:160,1,62.9999980773926,0|0,3:0|3:0,3:0:0:0:
112,224,82344,5,8,0:0:0:0:
400,224,82490,1,0,3:0:0:0:
96,288,82637,1,8,0:0:0:0:
416,288,82783,1,0,3:0:0:0:
192,32,82930,6,0,L|176:160,1,125.999996154785,0|0,3:0|0:0,0:0:0:0:
320,144,83222,2,0,L|336:272,1,125.999996154785,8|0,0:0|0:0,0:0:0:0:
112,272,83515,1,0,3:0:0:0:
256,272,83661,2,0,L|320:272,1,62.9999980773926,0|0,3:0|3:0,3:0:0:0:
480,272,83808,5,8,0:0:0:0:
256,272,83954,1,0,3:0:0:0:
464,192,84100,6,0,L|480:128,2,62.9999980773926,0|0|0,3:0|3:0|3:0,0:0:0:0:
320,192,84392,2,0,L|256:192,2,62.9999980773926,8|0|0,0:0|3:0|3:0,0:0:0:0:
112,224,84686,5,8,0:0:0:0:
400,224,84832,1,0,3:0:0:0:
80,192,84978,2,0,L|96:128,1,62.9999980773926,8|0,0:0|3:0,0:0:0:0:
288,176,85125,2,0,L|304:240,1,62.9999980773926,0|0,3:0|3:0,3:0:0:0:
480,224,85271,6,0,P|480:295|416:320,1,135,4|0,3:0|0:0,0:0:0:0:
256,320,85564,1,8,0:0:0:0:
368,320,85710,1,0,0:0:0:0:
160,320,85857,2,0,P|96:288|64:224,1,135,0|0,3:0|0:0,0:0:0:0:
256,192,86149,2,0,L|368:192,1,90,8|0,0:0|0:0,0:0:0:0:
128,192,86442,6,0,L|32:192,1,90,0|0,3:0|0:0,0:0:0:0:
256,192,86735,2,0,L|272:240,1,45,8|0,0:0|0:0,0:0:0:0:
112,256,86881,2,0,L|128:304,1,45
288,320,87027,6,0,L|384:320,1,90,0|0,3:0|3:0,3:0:0:0:
208,320,87320,1,0,0:0:0:0:
416,320,87466,1,0,0:0:0:0:
32,240,87613,6,0,P|32:169|96:144,1,135,0|0,3:0|0:0,0:0:0:0:
256,144,87906,1,8,0:0:0:0:
144,144,88052,1,0,0:0:0:0:
352,144,88198,2,0,P|416:176|448:240,1,135,0|0,3:0|0:0,0:0:0:0:
256,272,88491,2,0,L|144:272,1,90,8|0,0:0|0:0,0:0:0:0:
368,272,88783,6,0,P|416:224|384:176,1,135,0|0,3:0|0:0,0:0:0:0:
208,160,89076,2,0,L|160:160,1,45
349,160,89222,2,0,L|304:160,1,45
127,176,89369,2,0,P|79:224|111:272,1,135,8|0,0:0|0:0,0:0:0:0:
385,176,89661,2,0,P|433:224|401:272,1,135
96,352,89954,6,0,L|240:352,1,135,0|0,3:0|0:0,0:0:0:0:
80,320,90247,2,0,L|176:320,1,90,8|0,0:0|0:0,0:0:0:0:
416,288,90539,2,0,L|272:288,1,135,0|0,3:0|3:0,3:0:0:0:
432,256,90832,2,0,L|336:256,1,90,8|0,0:0|3:0,0:0:0:0:
128,224,91125,6,0,L|32:224,1,80.9999975280763,0|0,3:0|3:0,0:0:0:0:
384,96,91418,2,0,L|464:96,1,80.9999975280763,8|0,0:0|0:0,0:0:0:0:
200,160,91710,1,0,0:0:0:0:
312,160,91857,1,0,0:0:0:0:
96,192,92003,2,0,L|80:256,1,40.4999987640381
416,272,92149,2,0,L|432:320,1,40.4999987640381
160,352,92296,6,0,P|96:336|64:288,1,121.499996292114,0|0,3:0|0:0,0:0:0:0:
224,272,92589,2,0,L|128:272,1,80.9999975280763,8|0,0:0|0:0,0:0:0:0:
352,240,92881,2,0,P|416:224|448:176,1,121.499996292114,0|0,3:0|0:0,0:0:0:0:
288,160,93174,2,0,L|384:160,1,80.9999975280763,8|0,0:0|3:0,0:0:0:0:
144,272,93466,6,0,L|256:272,1,99.0000030212403,0|0,3:0|0:0,0:0:0:0:
48,192,93686,2,0,L|160:192,1,99.0000030212403,0|0,3:0|0:0,0:0:0:0:
368,192,93905,2,0,L|256:192,1,99.0000030212403,0|0,3:0|0:0,0:0:0:0:
464,112,94125,2,0,L|352:112,1,99.0000030212403,0|0,3:0|0:0,0:0:0:0:
64,112,94344,6,0,L|80:176,1,49.5000015106202
224,208,94491,2,0,L|288:208,1,49.5000015106202
464,256,94637,6,0,P|464:160|384:128,1,188.999994232178,4|0,3:0|0:0,0:0:0:0:
224,128,94930,2,0,L|352:128,1,125.999996154785,8|0,0:0|0:0,0:0:0:0:
48,128,95222,2,0,P|48:224|128:256,1,188.999994232178,0|0,3:0|0:0,0:0:0:0:
288,256,95515,2,0,L|224:256,1,62.9999980773926,8|0,0:0|0:0,0:0:0:0:
160,256,95661,1,0,0:0:0:0:
384,192,95808,6,0,L|256:192,1,125.999996154785,0|0,3:0|0:0,0:0:0:0:
480,224,96100,2,0,L|464:96,1,125.999996154785,8|0,0:0|0:0,0:0:0:0:
256,112,96393,6,0,L|336:112,1,62.9999980773926,0|0,3:0|0:0,0:0:0:0:
464,98,96539,2,0,L|475:177,1,62.9999980773926,0|0,3:0|0:0,0:0:0:0:
192,192,96686,2,0,L|336:192,2,125.999996154785,8|0|0,0:0|3:0|3:0,0:0:0:0:
416,192,97125,1,0,0:0:0:0:
192,192,97271,6,0,P|96:240|96:320,1,188.999994232178,8|0,0:0|0:0,0:0:0:0:
288,304,97564,2,0,L|416:304,1,125.999996154785,0|0,3:0|0:0,0:0:0:0:
480,304,97783,1,0,3:0:0:0:
288,272,97857,6,0,L|160:272,1,125.999996154785,8|0,0:0|3:0,0:0:0:0:
464,160,98149,6,0,L|480:288,1,125.999996154785,0|0,3:0|0:0,0:0:0:0:
48,160,98442,2,0,L|32:288,1,125.999996154785,8|0,0:0|0:0,0:0:0:0:
384,128,98735,5,8,0:0:0:0:
128,128,98881,1,0,0:0:0:0:
384,160,99027,2,0,L|432:208,1,62.9999980773926,8|0,0:0|0:0,0:0:0:0:
128,160,99174,2,0,L|80:208,1,62.9999980773926
256,304,99320,6,0,P|336:272|272:208,1,188.999994232178,4|0,3:0|0:0,0:0:0:0:
480,160,99613,2,0,L|496:288,1,125.999996154785,8|0,0:0|0:0,0:0:0:0:
256,304,99905,2,0,P|176:272|224:208,1,188.999994232178,0|0,3:0|3:0,0:0:0:0:
32,160,100198,2,0,L|16:288,1,125.999996154785,8|0,0:0|3:0,0:0:0:0:
320,192,100491,6,0,L|448:192,1,125.999996154785,0|0,3:0|0:0,0:0:0:0:
192,192,100783,2,0,L|64:192,1,125.999996154785,8|0,0:0|0:0,0:0:0:0:
352,192,101076,6,0,L|336:256,1,62.9999980773926,0|0,3:0|0:0,0:0:0:0:
176,256,101222,2,0,L|112:256,1,62.9999980773926,0|0,3:0|0:0,0:0:0:0:
336,256,101369,2,0,L|208:256,2,125.999996154785,8|0|0,0:0|3:0|3:0,0:0:0:0:
96,256,101808,1,0,0:0:0:0:
336,256,101954,6,0,P|432:208|432:128,1,188.999994232178,8|0,0:0|0:0,0:0:0:0:
192,128,102247,2,0,L|176:208,3,62.9999980773926,0|0|0|0,3:0|3:0|3:0|3:0,0:0:0:0:
320,304,102540,2,0,L|336:176,1,125.999996154785,8|0,0:0|3:0,0:0:0:0:
32,160,102832,6,0,L|48:288,1,125.999996154785,0|0,3:0|0:0,0:0:0:0:
480,160,103125,2,0,L|464:288,1,125.999996154785,8|0,0:0|0:0,0:0:0:0:
144,144,103418,5,8,0:0:0:0:
368,144,103564,1,0,0:0:0:0:
32,160,103710,2,0,L|48:224,1,62.9999980773926,8|0,0:0|3:0,0:0:0:0:
96,256,103857,2,0,L|160:256,1,62.9999980773926,0|0,3:0|3:0,0:0:0:0:
384,224,104003,5,4,3:0:0:0:
256,208,104149,2,0,L|256:144,2,49.5000015106202,0|0|8,0:0|0:0|0:0,0:0:0:0:
480,160,104442,1,0,3:0:0:0:
128,160,104588,1,0,3:0:0:0:
256,176,104735,2,0,L|256:240,2,49.5000015106202,0|0|8,3:0|0:0|0:0,0:0:0:0:
32,224,105027,1,0,0:0:0:0:
240,128,105174,6,0,L|128:128,1,99.0000030212403,0|0,3:0|0:0,0:0:0:0:
128,80,105393,1,0,0:0:0:0:
272,256,105466,2,0,L|384:256,1,99.0000030212403,8|0,0:0|0:0,0:0:0:0:
384,304,105686,1,0,0:0:0:0:
192,176,105759,1,0,3:0:0:0:
320,176,105905,1,0,3:0:0:0:
112,176,106052,1,8,0:0:0:0:
400,176,106198,1,0,0:0:0:0:
128,176,106344,6,0,L|128:288,1,99.0000030212403,0|0,3:0|0:0,0:0:0:0:
192,272,106564,2,0,L|256:272,1,62.9999980773926,0|8,0:0|0:0,0:0:0:0:
32,272,106783,1,0,0:0:0:0:
384,208,106930,2,0,L|384:96,1,99.0000030212403,0|0,3:0|0:0,0:0:0:0:
320,112,107149,2,0,L|256:112,1,62.9999980773926,0|8,0:0|0:0,0:0:0:0:
480,112,107369,1,0,3:0:0:0:
112,160,107515,5,8,0:0:0:0:
400,160,107661,1,0,0:0:0:0:
192,208,107808,1,8,0:0:0:0:
320,208,107954,1,0,0:0:0:0:
112,160,108100,1,8,0:0:0:0:
400,160,108246,1,0,0:0:0:0:
112,128,108393,6,0,L|48:128,1,49.5000015106202,8|0,0:0|0:0,0:0:0:0:
400,128,108539,2,0,L|464:128,1,49.5000015106202,0|0,3:0|3:0,3:0:0:0:
192,128,108686,5,0,0:0:0:0:
256,128,108783,1,0,0:0:0:0:
320,128,108881,1,0,0:0:0:0:
32,176,108978,6,0,L|16:288,1,99.0000030212403,12|0,0:0|0:0,0:0:0:0:
400,240,109271,1,0,3:0:0:0:
192,192,109418,1,0,0:0:0:0:
256,192,109491,1,0,0:0:0:0:
320,192,109564,1,8,0:0:0:0:
112,144,109710,1,0,3:0:0:0:
480,176,109857,6,0,L|496:288,1,99.0000030212403,0|0,3:0|3:0,0:0:0:0:
144,160,110149,2,0,L|80:160,1,49.5000015106202,8|0,0:0|0:0,0:0:0:0:
368,160,110296,2,0,L|432:160,1,49.5000015106202,0|0,3:0|3:0,3:0:0:0:
144,256,110442,1,0,0:0:0:0:
256,224,110588,1,0,0:0:0:0:
368,256,110735,1,0,0:0:0:0:
104,112,110881,1,0,0:0:0:0:
320,96,111027,6,0,L|336:208,1,99.0000030212403,8|0,0:0|0:0,0:0:0:0:
192,96,111320,2,0,L|176:208,1,99.0000030212403,8|0,0:0|0:0,0:0:0:0:
416,224,111613,5,8,0:0:0:0:
192,192,111759,1,0,0:0:0:0:
320,192,111905,1,8,0:0:0:0:
96,224,112052,1,0,3:0:0:0:
400,240,112198,6,8,L|384:352,1,99.0000030212403,0|0,0:0|0:0,0:0:0:0:
112,240,112491,2,0,L|128:352,1,99.0000030212403
480,336,112783,5,0,0:0:0:0:
32,336,112930,1,0,0:0:0:0:
432,272,113076,2,0,L|496:272,1,49.5000015106202,8|0,0:0|0:0,0:0:0:0:
80,272,113222,2,0,L|16:272,1,49.5000015106202
256,192,113369,6,0,L|144:192,1,99.0000030212403,0|0,3:0|3:3,0:3:0:0:
416,160,113661,6,0,L|480:160,1,49.5000015106202,0|0,3:0|3:0,3:0:0:0:
112,160,113808,2,0,L|32:160,1,49.5000015106202,0|0,3:0|3:0,3:0:0:0:
384,128,113954,2,0,L|448:128,1,49.5000015106202,0|0,3:0|3:0,3:0:0:0:
144,128,114100,2,0,L|80:128,1,49.5000015106202,0|0,3:0|3:0,3:0:0:0:
256,192,114247,2,0,L|368:192,1,99.0000030212403,8|0,0:0|3:0,3:0:0:0:
32,192,114539,5,4,3:0:0:0:
448,144,133271,6,0,P|480:208|400:304,1,207.000003948212,0|0,3:0|0:0,0:0:0:0:
192,288,133710,1,0,0:0:0:0:
320,288,133857,1,8,0:3:0:0:
400,240,134149,1,0,0:0:0:0:
112,240,134296,1,0,0:0:0:0:
400,240,134442,6,0,L|288:240,2,103.500001974106,0|0|0,3:0|0:0|3:0,0:0:0:0:
32,240,135027,1,8,0:3:0:0:
208,240,135320,1,0,3:0:0:0:
64,240,135613,6,0,P|32:176|112:80,1,207.000003948212,0|0,3:0|0:0,0:0:0:0:
320,96,136052,1,0,0:0:0:0:
192,96,136198,1,8,0:3:0:0:
112,144,136491,1,0,0:0:0:0:
400,144,136638,1,0,0:0:0:0:
112,144,136784,6,0,L|224:144,2,103.500001974106,0|0|0,3:0|0:0|3:0,0:0:0:0:
480,144,137369,1,8,0:3:0:0:
32,144,137661,1,0,3:0:0:0:
480,272,137954,6,0,P|480:208|352:160,1,207.000003948212,0|0,3:0|0:0,0:0:0:0:
256,208,138393,1,0,0:0:0:0:
363,154,138540,1,8,0:3:0:0:
192,96,138832,1,0,0:0:0:0:
320,96,138979,1,0,0:0:0:0:
96,160,139125,6,0,L|208:160,2,103.500001974106,0|0|0,3:0|0:0|3:0,0:0:0:0:
359,160,139710,2,0,L|135:160,1,207.000003948212,8|0,0:3|0:0,0:0:0:0:
32,272,140296,6,0,P|32:208|160:160,1,207.000003948212,0|0,3:0|0:0,0:0:0:0:
256,208,140735,1,0,0:0:0:0:
149,154,140882,1,8,0:3:0:0:
320,96,141174,1,0,0:0:0:0:
192,96,141321,1,0,0:0:0:0:
416,160,141467,6,0,L|304:160,2,103.500001974106,0|0|0,3:0|0:0|3:0,0:0:0:0:
153,160,142052,2,0,L|377:160,1,207.000003948212
96,144,142637,6,0,P|96:256|112:352,1,207.000003948212,0|0,3:0|0:0,0:0:0:0:
256,352,143076,1,0,0:0:0:0:
384,352,143222,1,8,0:3:0:0:
384,304,143515,1,0,0:0:0:0:
272,304,143661,1,0,0:0:0:0:
400,256,143808,1,0,3:0:0:0:
256,256,143954,1,0,0:0:0:0:
480,240,144100,1,0,3:0:0:0:
128,240,144393,1,8,0:3:0:0:
256,240,144686,1,0,3:0:0:0:
416,240,144978,6,0,P|416:128|400:32,1,207.000003948212,0|0,3:0|0:0,0:0:0:0:
256,32,145417,1,0,0:0:0:0:
128,32,145563,1,8,0:3:0:0:
128,80,145856,1,0,0:0:0:0:
240,80,146002,1,0,0:0:0:0:
112,128,146149,1,0,3:0:0:0:
256,128,146295,1,0,0:0:0:0:
32,144,146441,1,0,3:0:0:0:
432,144,146734,1,8,0:3:0:0:
80,144,147027,1,0,3:0:0:0:
480,368,147320,6,0,P|496:300|400:192,1,207.000003948212,0|0,3:0|0:0,0:0:0:0:
336,192,147759,1,0,0:0:0:0:
256,192,147905,6,0,P|176:128|224:32,1,207.000003948212,0|0,3:0|0:0,0:0:0:0:
416,48,148344,1,0,0:0:0:0:
32,16,148491,6,0,P|16:84|112:192,1,207.000003948212,0|0,3:0|0:0,0:0:0:0:
176,192,148930,1,0,0:0:0:0:
256,192,149076,6,0,P|336:256|288:352,1,207.000003948212,0|0,3:0|0:0,0:0:0:0:
96,336,149515,1,0,0:0:0:0:
480,192,149661,5,0,0:0:0:0:
288,192,149954,1,0,0:0:0:0:
448,192,150247,1,0,0:0:0:0:
224,192,150539,1,0,0:0:0:0:
320,64,150832,5,0,3:0:0:0:
192,64,150978,1,0,3:0:0:0:
400,128,151125,1,0,3:0:0:0:
112,128,151271,1,0,3:0:0:0:
384,224,151418,6,0,L|432:256,1,51.7500009870529
144,240,151564,2,0,L|96:272,1,51.7500009870529
384,160,151710,2,0,L|272:160,2,103.500001974106,0|0|0,0:0|1:0|3:0,0:0:0:0:
320,160,156393,5,8,0:0:0:0:
96,160,156539,1,0,3:0:0:0:
320,160,156686,5,0,0:0:0:0:
112,160,157271,5,0,0:0:0:0:
352,160,157857,5,0,0:0:0:0:
112,160,158442,5,0,0:0:0:0:
400,160,159027,5,0,0:0:0:0:
38,172,159613,5,0,0:0:0:0:
480,176,160198,5,0,0:0:0:0:
192,160,160344,5,2,0:0:0:0:
320,160,160491,1,8,0:0:0:0:
192,160,160637,1,0,3:0:0:0:
400,208,160783,2,0,L|416:272,2,51.7500009870529,0|0|0,3:0|0:0|0:0,0:0:0:0:
80,192,161076,2,0,L|64:128,1,51.7500009870529,8|0,0:0|0:0,0:0:0:0:
432,192,161222,2,0,L|448:128,1,51.7500009870529,0|0,3:0|3:0,3:0:0:0:
128,304,161369,6,0,L|144:240,1,58.4999973220826
224,224,161515,2,0,L|288:224,1,58.4999973220826
112,192,161661,2,0,L|96:256,1,58.4999973220826
240,288,161808,2,0,L|320:288,1,58.4999973220826
240,320,161954,2,0,L|176:320,1,58.4999973220826
384,192,162100,6,0,L|400:112,1,58.4999973220826
256,112,162247,2,0,L|240:48,1,58.4999973220826
416,32,162394,2,0,L|352:32,1,58.4999973220826
272,48,162539,2,0,L|288:112,1,58.4999973220826
480,224,162686,6,0,L|416:224,1,58.4999973220826
256,224,162832,2,0,L|176:224,1,58.4999973220826
352,240,162978,2,0,L|336:304,1,58.4999973220826
256,304,163125,2,0,L|176:304,1,58.4999973220826
384,192,163271,6,0,L|400:128,1,58.4999973220826
144,128,163418,2,0,L|160:64,1,58.4999973220826
304,272,163564,2,0,L|320:208,1,58.4999973220826
240,208,163710,2,0,L|256:144,1,58.4999973220826
448,176,163857,6,0,L|464:112,1,58.4999973220826
320,112,164003,2,0,L|304:48,1,58.4999973220826
128,64,164149,2,0,L|112:128,1,58.4999973220826
192,144,164296,2,0,L|208:208,1,58.4999973220826
64,208,164442,6,0,L|48:272,1,58.4999973220826
240,272,164588,2,0,L|256:336,1,58.4999973220826
112,256,164735,2,0,L|96:192,1,58.4999973220826
176,160,164881,2,0,L|256:160,1,58.4999973220826
400,144,165027,6,0,L|416:208,1,58.4999973220826
256,224,165174,2,0,L|256:288,1,58.4999973220826
112,272,165320,2,0,L|96:336,1,58.4999973220826
144,272,165466,2,0,L|224:272,1,58.4999973220826
400,192,165613,6,0,L|384:128,1,58.4999973220826
256,80,165759,2,0,L|176:80,1,58.4999973220826
256,112,165905,2,0,L|320:112,1,58.4999973220826
48,160,166052,6,0,L|32:224,1,62.9999980773926
224,224,166198,2,0,L|288:224,1,62.9999980773926
464,160,166344,2,0,L|480:224,1,62.9999980773926
287,224,166491,2,0,L|207:224,1,62.9999980773926
48,224,166637,6,0,L|32:160,1,62.9999980773926
224,160,166783,2,0,L|288:160,1,62.9999980773926
464,224,166929,2,0,L|480:160,1,62.9999980773926
287,160,167076,2,0,L|207:160,1,62.9999980773926
32,96,167222,6,0,L|48:160,1,62.9999980773926
256,192,167369,2,0,L|272:256,1,62.9999980773926
480,336,167515,2,0,L|464:272,1,62.9999980773926
256,192,167661,2,0,L|240:128,1,62.9999980773926
32,96,167808,6,0,L|32:160,1,62.9999980773926
88,192,167954,2,0,L|152:192,1,62.9999980773926
480,336,168101,2,0,L|480:272,1,62.9999980773926
424,240,168247,2,0,L|344:240,1,62.9999980773926
232,32,168393,6,0,L|216:96,1,62.9999980773926
280,32,168539,2,0,L|296:96,1,62.9999980773926
200,96,168686,6,0,L|168:160,1,62.9999980773926
312,96,168832,2,0,L|344:160,1,62.9999980773926
144,144,168978,6,0,L|96:192,1,62.9999980773926
368,144,169124,2,0,L|416:192,1,62.9999980773926
80,192,169271,6,0,L|16:224,1,62.9999980773926
432,192,169417,2,0,L|496:224,1,62.9999980773926
32,256,169564,6,0,L|96:240,1,62.9999980773926
479,272,169710,2,0,L|416:256,1,62.9999980773926
32,256,169857,6,0,L|96:240,1,62.9999980773926
479,272,170003,2,0,L|415:256,1,62.9999980773926
32,128,170149,6,0,L|96:128,1,62.9999980773926
480,128,170295,2,0,L|417:128,1,62.9999980773926
32,128,170442,1,8,3:1:0:0:
256,160,170735,5,0,3:0:0:0:
394,162,171027,2,0,B|258:162|258:162|402:162,1,270.000010299683
122,160,171613,2,0,L|266:160,2,135.000005149842
378,346,172198,6,0,P|394:234|346:154,1,202.500007724762
48,160,172491,2,0,L|32:240,1,67.5000025749208
224,224,172637,2,0,L|304:224,1,67.5000025749208
48,160,172783,2,0,L|32:80,1,67.5000025749208,10|0,0:0|3:0,0:0:0:0:
464,160,172930,2,0,L|480:80,1,67.5000025749208,0|0,3:0|3:0,3:0:0:0:
112,304,173076,6,0,P|64:208|112:128,1,188.999994232178,4|0,3:0|0:0,0:0:0:0:
400,304,173369,2,0,P|448:208|400:128,1,188.999994232178,8|0,0:0|0:0,0:0:0:0:
224,224,173661,2,0,L|208:288,1,62.9999980773926,0|0,3:0|0:0,0:0:0:0:
288,256,173808,2,0,L|304:320,1,62.9999980773926,0|0,0:0|0:0,0:0:0:0:
144,336,173954,2,0,L|96:288,1,62.9999980773926,8|0,0:0|0:0,0:0:0:0:
368,336,174100,2,0,L|416:288,1,62.9999980773926
112,160,174247,6,0,L|97:289,1,125.999996154785,0|0,3:0|0:0,0:0:0:0:
223,285,174539,2,0,L|95:285,1,125.999996154785,8|0,0:0|0:0,0:0:0:0:
400,160,174832,2,0,L|416:288,1,125.999996154785,0|0,3:0|0:0,0:0:0:0:
290,284,175125,1,8,0:0:0:0:
352,288,175198,1,0,0:0:0:0:
416,288,175271,1,0,3:0:0:0:
144,256,175418,6,0,L|80:256,1,62.9999980773926,4|0,3:0|3:0,3:0:0:0:
256,256,175564,2,0,L|240:192,1,62.9999980773926,0|0,3:0|3:0,3:0:0:0:
64,192,175710,2,0,L|128:192,1,62.9999980773926,8|0,0:0|0:0,0:0:0:0:
288,192,175857,2,0,L|224:192,1,62.9999980773926,0|0,0:0|0:0,0:0:0:0:
64,192,176003,5,0,3:0:0:0:
320,160,176149,2,0,L|192:160,2,125.999996154785,0|8|0,0:0|0:0|3:0,0:0:0:0:
32,224,176588,6,0,L|96:224,1,62.9999980773926,0|0,3:0|3:0,3:0:0:0:
256,224,176734,2,0,L|240:288,1,62.9999980773926,0|0,3:0|3:0,3:0:0:0:
96,224,176880,2,0,L|16:224,1,62.9999980773926,8|0,0:0|0:0,0:0:0:0:
224,224,177027,2,0,L|288:224,1,62.9999980773926,0|0,0:0|0:0,0:0:0:0:
432,224,177174,5,0,3:0:0:0:
192,160,177320,2,0,L|320:160,2,125.999996154785,0|8|0,0:0|0:0|3:0,0:0:0:0:
480,352,177759,6,0,P|480:272|464:224,1,125.999996154785,0|0,3:0|0:0,0:0:0:0:
384,224,177978,1,0,0:0:0:0:
256,224,178052,2,0,L|320:224,1,62.9999980773926,8|0,0:0|0:0,0:0:0:0:
448,224,178198,1,0,3:0:0:0:
32,352,178344,6,0,P|32:272|48:224,1,125.999996154785,0|0,3:0|0:0,0:0:0:0:
128,224,178563,1,0,0:0:0:0:
256,224,178637,2,0,L|192:224,1,62.9999980773926,8|0,0:0|0:0,0:0:0:0:
64,224,178783,1,0,3:0:0:0:
384,96,178930,6,0,P|400:160|376:223,1,125.999996154785,0|0,3:0|0:0,0:0:0:0:
304,224,179149,1,0,0:0:0:0:
128,224,179222,2,0,L|192:224,1,62.9999980773926,8|0,0:0|0:0,0:0:0:0:
336,224,179369,1,0,3:0:0:0:
112,160,179515,5,8,3:1:0:0:
400,160,179661,1,0,0:0:0:0:
96,96,179808,1,8,3:1:0:0:
416,96,179954,1,0,1:0:0:0:
192,144,180100,6,0,L|176:288,1,125.999996154785,4|0,3:0|0:0,0:0:0:0:
320,176,180393,2,0,L|336:304,1,125.999996154785,8|0,0:0|0:0,0:0:0:0:
64,192,180686,2,0,L|48:320,1,125.999996154785,0|0,3:0|0:0,0:0:0:0:
320,304,180978,2,0,L|256:304,1,62.9999980773926,8|0,0:0|0:0,0:0:0:0:
112,304,181125,2,0,L|48:304,1,62.9999980773926
256,224,181271,6,0,P|337:201|400:112,1,188.999994232178,0|0,3:0|0:0,0:0:0:0:
256,224,181564,2,0,P|175:201|112:112,1,188.999994232178,8|0,0:0|0:0,0:0:0:0:
464,160,181857,2,0,L|480:224,1,62.9999980773926,0|0,3:0|0:0,0:0:0:0:
288,224,182003,2,0,L|224:224,1,62.9999980773926,0|0,0:0|0:0,0:0:0:0:
448,240,182149,2,0,L|464:304,1,62.9999980773926,8|0,0:0|0:0,0:0:0:0:
64,240,182296,2,0,L|48:304,1,62.9999980773926,0|0,0:0|0:0,0:0:0:0:
400,304,182442,6,0,P|448:208|400:128,1,188.999994232178,0|0,3:0|0:0,0:0:0:0:
112,304,182735,2,0,P|64:208|112:128,1,188.999994232178,8|0,0:0|0:0,0:0:0:0:
288,144,183027,2,0,L|304:208,1,62.9999980773926,0|0,3:0|0:0,0:0:0:0:
208,224,183174,2,0,L|192:288,1,62.9999980773926
336,304,183320,2,0,L|400:304,1,62.9999980773926,8|0,0:0|0:0,0:0:0:0:
175,304,183466,2,0,L|112:304,1,62.9999980773926
433,159,183613,6,0,L|448:288,1,125.999996154785,0|0,3:0|0:0,0:0:0:0:
79,159,183905,2,0,L|64:288,1,125.999996154785,8|0,3:1|0:0,0:0:0:0:
368,272,184198,1,8,3:1:0:0:
144,272,184344,1,0,0:0:0:0:
368,272,184491,2,0,L|432:272,2,62.9999980773926,8|0|0,3:1|0:0|3:0,0:0:0:0:
160,192,184784,6,0,L|176:128,1,62.9999980773926,4|0,3:0|3:0,3:0:0:0:
336,128,184930,2,0,L|400:128,1,62.9999980773926,0|0,3:0|3:0,3:0:0:0:
160,224,185076,2,0,L|96:224,1,62.9999980773926,8|0,0:0|0:0,0:0:0:0:
288,224,185223,2,0,L|304:288,1,62.9999980773926,0|0,0:0|0:0,0:0:0:0:
144,288,185369,5,0,3:0:0:0:
352,160,185515,2,0,L|224:160,2,125.999996154785,0|8|0,0:0|0:0|3:0,0:0:0:0:
128,192,185954,6,0,L|112:256,1,62.9999980773926,4|0,3:0|3:0,3:0:0:0:
256,256,186100,2,0,L|272:320,1,62.9999980773926,0|0,3:0|3:0,3:0:0:0:
400,336,186246,2,0,L|480:336,1,62.9999980773926,8|0,0:0|0:0,0:0:0:0:
272,336,186393,2,0,L|256:272,1,62.9999980773926,0|0,0:0|0:0,0:0:0:0:
400,272,186539,5,0,3:0:0:0:
160,224,186686,2,0,L|288:224,2,125.999996154785,0|8|0,0:0|0:0|3:0,0:0:0:0:
416,112,187125,6,0,L|288:112,1,125.999996154785,4|0,3:0|0:0,0:0:0:0:
224,112,187344,1,0,0:0:0:0:
416,112,187418,2,0,L|432:192,1,62.9999980773926,8|0,0:0|0:0,0:0:0:0:
400,224,187564,1,0,3:0:0:0:
96,272,187710,6,0,L|224:272,1,125.999996154785,4|0,3:0|0:0,0:0:0:0:
288,272,187929,1,0,0:0:0:0:
96,272,188003,2,0,L|80:192,1,62.9999980773926,8|0,0:0|0:0,0:0:0:0:
112,160,188149,1,0,3:0:0:0:
400,48,188296,5,8,0:1:0:0:
112,48,188442,1,0,3:0:0:0:
416,112,188589,1,8,0:1:0:0:
96,112,188735,1,0,3:0:0:0:
432,176,188881,1,8,0:1:0:0:
80,176,189027,1,0,3:0:0:0:
448,240,189174,2,0,P|416:128|368:64,1,188.999994232178,8|0,0:1|0:0,0:0:0:0:
144,48,189466,5,4,3:3:0:0:
24,48,189613,1,0,0:0:0:0:
256,128,189759,1,8,0:0:0:0:
136,128,189905,1,0,0:0:0:0:
368,128,190052,2,0,L|384:256,1,116.999994644165,0|0,3:0|0:0,0:0:0:0:
130,244,190344,1,8,0:0:0:0:
382,244,190491,1,0,0:0:0:0:
32,128,190637,6,0,L|160:128,1,116.999994644165,0|0,3:0|0:0,0:0:0:0:
368,128,190930,2,0,L|496:128,1,116.999994644165,8|0,0:0|0:0,0:0:0:0:
208,224,191222,2,0,L|144:224,1,58.4999973220826,0|0,3:0|0:0,0:0:0:0:
304,224,191369,2,0,L|368:224,1,58.4999973220826,0|0,0:0|0:0,0:0:0:0:
192,192,191515,1,8,0:0:0:0:
320,192,191661,1,0,0:0:0:0:
32,160,191808,6,0,L|32:288,1,116.999994644165,0|0,3:0|0:0,0:0:0:0:
288,304,192100,2,0,L|416:304,1,116.999994644165,8|0,0:0|0:0,0:0:0:0:
192,192,192393,1,0,3:0:0:0:
320,192,192539,1,0,0:0:0:0:
112,144,192686,1,8,0:0:0:0:
400,144,192832,1,0,0:0:0:0:
144,192,192978,6,0,L|16:192,1,116.999994644165,0|0,3:0|0:0,0:0:0:0:
272,256,193271,1,8,0:0:0:0:
155,256,193418,1,0,0:0:0:0:
368,192,193564,2,0,L|496:192,1,116.999994644165,0|0,3:0|0:0,0:0:0:0:
240,160,193857,1,8,0:0:0:0:
464,160,194003,1,0,3:0:0:0:
256,224,194149,6,0,L|192:224,1,58.4999973220826,4|0,0:3|3:0,0:0:0:0:
32,224,194296,2,0,L|96:224,1,58.4999973220826,0|0,3:0|3:0,3:0:0:0:
336,224,194442,1,8,0:0:0:0:
224,224,194588,1,0,3:0:0:0:
448,192,194735,5,0,3:0:0:0:
336,192,194881,1,0,0:0:0:0:
448,192,195027,1,8,0:0:0:0:
224,192,195174,1,0,3:0:0:0:
480,240,195320,6,0,L|416:240,1,58.4999973220826,0|0,0:0|3:0,0:0:0:0:
256,240,195467,2,0,L|192:240,1,58.4999973220826,0|0,3:0|3:0,3:0:0:0:
32,240,195613,1,8,0:0:0:0:
144,240,195759,1,0,3:0:0:0:
368,240,195906,5,0,3:0:0:0:
256,240,196052,1,0,0:0:0:0:
480,192,196198,1,8,0:0:0:0:
224,192,196345,1,0,3:0:0:0:
480,192,196491,6,0,P|462:253|416:272,1,116.999994644165,0|0,3:0|0:0,0:0:0:0:
224,272,196710,2,0,L|208:208,1,58.4999973220826,0|8,0:0|0:0,0:0:0:0:
416,271,196930,1,0,3:0:0:0:
32,192,197076,6,0,P|50:253|96:272,1,116.999994644165,0|0,3:0|0:0,0:0:0:0:
288,272,197295,2,0,L|304:208,1,58.4999973220826,0|8,0:0|0:0,0:0:0:0:
96,271,197515,1,0,3:0:0:0:
480,192,197661,6,0,P|462:131|416:112,1,116.999994644165,0|0,3:0|0:0,0:0:0:0:
224,112,197880,2,0,L|208:176,1,58.4999973220826,0|8,0:0|0:0,0:0:0:0:
416,113,198100,1,0,3:0:0:0:
192,192,198247,5,8,0:0:0:0:
320,192,198393,1,0,3:0:0:0:
96,240,198539,1,8,0:0:0:0:
416,240,198686,1,0,3:0:0:0:
77,192,198832,6,0,L|205:192,1,116.999994644165,4|0,3:3|0:0,0:0:0:0:
320,192,199125,2,0,L|448:192,1,116.999994644165,8|0,0:0|0:0,0:0:0:0:
194,192,199418,2,0,L|66:192,1,116.999994644165,0|0,3:0|0:0,0:0:0:0:
368,96,199710,1,8,0:0:0:0:
144,96,199857,1,0,0:0:0:0:
400,160,200003,6,0,L|416:288,1,116.999994644165,0|0,3:0|0:0,0:0:0:0:
112,224,200296,2,0,L|96:352,1,116.999994644165,8|0,0:0|0:0,0:0:0:0:
304,224,200588,2,0,L|368:224,1,58.4999973220826,0|0,3:0|0:0,0:0:0:0:
208,224,200735,2,0,L|144:224,1,58.4999973220826
320,192,200881,1,8,0:0:0:0:
192,192,201027,1,0,0:0:0:0:
480,192,201174,6,0,L|352:192,1,116.999994644165,0|0,3:0|0:0,0:0:0:0:
144,192,201466,2,0,L|16:192,1,116.999994644165,8|0,0:0|0:0,0:0:0:0:
256,192,201759,1,0,3:0:0:0:
384,192,201905,1,0,0:0:0:0:
128,144,202052,1,8,0:0:0:0:
384,144,202198,1,0,0:0:0:0:
176,192,202344,6,0,L|304:192,1,116.999994644165,0|0,3:0|0:0,0:0:0:0:
48,192,202637,2,0,L|32:320,1,116.999994644165,8|0,3:1|0:0,0:0:0:0:
352,320,202930,2,0,L|480:320,1,116.999994644165,8|0,3:1|0:0,0:0:0:0:
160,256,203222,2,0,L|32:256,1,116.999994644165,8|0,3:1|3:0,0:0:0:0:
256,160,203515,6,0,L|320:160,1,58.4999973220826,4|0,0:3|3:0,0:0:0:0:
480,160,203662,2,0,L|416:160,1,58.4999973220826,0|0,3:0|3:0,3:0:0:0:
176,160,203808,1,8,0:0:0:0:
288,160,203954,1,0,3:0:0:0:
64,192,204101,5,0,3:0:0:0:
176,192,204247,1,0,3:0:0:0:
64,192,204393,1,8,0:0:0:0:
288,192,204539,1,0,3:0:0:0:
32,144,204686,6,0,L|96:144,1,58.4999973220826,4|0,0:0|3:0,0:0:0:0:
256,144,204833,2,0,L|320:144,1,58.4999973220826,0|0,3:0|3:0,3:0:0:0:
480,144,204979,1,8,0:0:0:0:
368,144,205125,1,0,3:0:0:0:
144,144,205272,5,0,3:0:0:0:
256,144,205418,1,0,3:0:0:0:
32,192,205564,1,8,3:1:0:0:
288,192,205710,1,0,3:0:0:0:
48,128,205857,6,0,L|176:128,1,116.999994644165,4|0,3:3|0:0,0:0:0:0:
405,128,206076,2,0,L|464:128,2,58.4999973220826,0|8|0,0:0|0:0|0:0,0:0:0:0:
256,128,206296,1,0,3:0:0:0:
464,208,206442,6,0,L|336:208,1,116.999994644165,4|0,3:3|0:0,0:0:0:0:
106,208,206661,2,0,L|48:208,2,58.4999973220826,0|8|0,0:0|0:0|0:0,0:0:0:0:
256,208,206881,1,0,3:0:0:0:
32,160,207027,6,0,L|16:288,1,116.999994644165,8|0,0:0|3:0,0:0:0:0:
320,240,207320,1,8,0:0:0:0:
192,240,207466,1,0,3:0:0:0:
480,160,207613,2,0,L|496:288,1,116.999994644165,8|0,0:0|3:0,0:0:0:0:
32,160,207905,2,0,L|16:288,1,116.999994644165,8|0,0:0|3:0,0:0:0:0:
384,304,208198,6,0,L|368:240,1,62.9999980773926,4|0,3:0|0:0,0:0:0:0:
144,160,208344,2,0,L|208:160,1,62.9999980773926
352,160,208491,2,0,L|432:160,1,62.9999980773926,8|0,0:0|0:0,0:0:0:0:
270,160,208637,2,0,L|207:160,1,62.9999980773926
480,160,208783,6,0,L|464:288,1,125.999996154785,0|0,3:0|0:0,0:0:0:0:
256,320,209003,2,0,L|224:240,1,62.9999980773926,0|8,0:0|0:0,0:0:0:0:
256,224,209149,1,0,0:0:0:0:
400,224,209222,2,0,L|336:224,1,62.9999980773926
32,160,209369,6,0,L|48:288,1,125.999996154785,0|0,3:0|0:0,0:0:0:0:
256,320,209589,2,0,L|288:240,1,62.9999980773926,0|8,0:0|0:0,0:0:0:0:
256,224,209735,1,0,0:0:0:0:
112,224,209808,2,0,L|176:224,1,62.9999980773926
337,224,209954,6,0,L|417:224,1,62.9999980773926,0|0,3:0|0:0,0:0:0:0:
176,224,210100,2,0,L|112:224,1,62.9999980773926
256,192,210247,2,0,L|336:192,1,62.9999980773926,8|0,0:0|0:0,0:0:0:0:
256,192,210393,2,0,L|192:192,1,62.9999980773926
480,224,210539,6,0,L|464:288,1,62.9999980773926,0|0,3:0|0:0,0:0:0:0:
224,192,210686,1,0,0:0:0:0:
208,144,210759,1,0,0:0:0:0:
224,96,210832,1,8,0:0:0:0:
272,80,210905,1,0,0:0:0:0:
416,80,210978,2,0,L|480:80,1,62.9999980773926
176,224,211125,5,0,3:0:0:0:
128,192,211198,1,0,0:0:0:0:
96,144,211271,1,0,0:0:0:0:
336,224,211344,5,0,0:0:0:0:
384,192,211417,1,8,0:0:0:0:
416,144,211490,1,0,0:0:0:0:
128,192,211564,2,0,L|91:137,1,62.9999980773926
368,144,211710,6,0,L|496:144,1,125.999996154785,0|0,3:0|0:0,0:0:0:0:
224,192,212003,1,8,3:1:0:0:
352,192,212149,1,0,0:0:0:0:
144,160,212296,2,0,L|16:160,1,125.999996154785,0|0,3:0|0:0,0:0:0:0:
288,112,212588,1,8,3:1:0:0:
64,112,212735,1,0,3:0:0:0:
336,160,212881,6,0,L|352:224,1,62.9999980773926,4|0,3:0|0:0,0:0:0:0:
192,224,213027,2,0,L|256:224,1,62.9999980773926
416,304,213174,2,0,L|352:288,1,62.9999980773926,8|0,0:0|0:0,0:0:0:0:
432,272,213320,2,0,L|449:206,1,62.9999980773926
256,224,213466,6,0,L|320:96,1,125.999996154785,0|0,3:0|0:0,0:0:0:0:
176,80,213686,2,0,L|160:144,2,62.9999980773926,0|8|0,0:0|0:0|0:0,0:0:0:0:
32,160,213905,2,0,L|16:224,1,62.9999980773926
256,224,214052,6,0,L|192:96,1,125.999996154785,0|0,3:0|0:0,0:0:0:0:
336,304,214271,2,0,L|352:240,2,62.9999980773926,0|8|0,0:0|0:0|0:0,0:0:0:0:
480,224,214491,2,0,L|496:160,1,62.9999980773926,0|0,3:0|0:0,0:0:0:0:
160,112,214637,6,0,L|16:112,1,125.999996154785,0|0,3:0|0:0,0:0:0:0:
176,144,214857,2,0,L|240:176,1,62.9999980773926,0|8,0:0|0:0,0:0:0:0:
256,224,215003,1,0,0:0:0:0:
112,224,215076,2,0,L|48:192,1,62.9999980773926
352,112,215222,6,0,L|496:112,1,125.999996154785,0|0,3:0|0:0,0:0:0:0:
336,144,215442,2,0,L|272:176,1,62.9999980773926,0|8,0:0|0:0,0:0:0:0:
256,224,215588,1,0,0:0:0:0:
400,224,215661,2,0,L|464:192,1,62.9999980773926
32,144,215808,5,0,3:0:0:0:
64,192,215881,1,0,0:0:0:0:
112,224,215954,1,0,0:0:0:0:
256,240,216027,5,0,0:0:0:0:
224,288,216100,1,8,0:0:0:0:
176,320,216173,1,0,0:0:0:0:
128,336,216247,1,0,3:0:0:0:
368,192,216393,6,0,L|432:192,1,62.9999980773926,0|0,3:0|0:0,0:0:0:0:
192,192,216539,2,0,L|208:256,1,62.9999980773926
288,288,216686,1,8,0:0:0:0:
32,160,216832,1,0,3:0:0:0:
288,160,216978,1,0,3:0:0:0:
80,160,217125,1,0,3:0:0:0:
320,224,217271,6,0,L|384:224,1,62.9999980773926,8|0,0:0|3:0,0:0:0:0:
192,224,217418,2,0,L|128:224,1,62.9999980773926,0|0,3:0|3:0,3:0:0:0:
432,112,217564,6,0,P|480:224|416:336,1,251.999992309571,12|0,0:0|0:0,0:0:0:0:
272,192,218003,2,0,L|336:192,1,62.9999980773926,8|0,0:0|0:0,0:0:0:0:
480,192,218149,1,0,0:0:0:0:
80,112,218442,6,0,P|32:224|96:336,1,251.999992309571,8|0,0:0|0:0,0:0:0:0:
240,192,218881,2,0,L|176:192,1,62.9999980773926,8|0,0:0|0:0,0:0:0:0:
32,192,219027,1,0,0:0:0:0:
432,112,219320,5,8,0:0:0:0:
80,112,219466,1,0,0:0:0:0:
400,192,219613,6,0,L|320:192,1,62.9999980773926,8|0,0:0|0:0,0:0:0:0:
112,192,219759,2,0,L|176:192,1,62.9999980773926
336,192,219905,5,12,0:0:0:0:
32,224,220052,1,0,0:0:0:0:
88,224,220125,1,0,0:0:0:0:
144,224,220198,1,0,0:0:0:0:
48,176,220344,5,8,0:0:0:0:
480,160,220491,1,0,0:0:0:0:
424,160,220564,1,0,0:0:0:0:
368,160,220637,1,0,0:0:0:0:
464,128,220783,5,8,0:0:0:0:
200,160,220930,1,0,0:0:0:0:
256,160,221003,1,0,0:0:0:0:
312,160,221076,1,0,0:0:0:0:
96,192,221222,5,8,0:0:0:0:
312,224,221369,1,0,0:0:0:0:
256,224,221442,1,0,0:0:0:0:
200,224,221515,1,0,0:0:0:0:
416,224,221661,5,8,3:1:0:0:
96,224,221808,1,0,0:0:0:0:
336,160,221954,2,0,L|400:160,1,62.9999980773926,8|0,0:0|0:0,0:0:0:0:
176,160,222100,2,0,L|96:160,1,62.9999980773926
480,224,222247,6,0,L|368:224,1,99.0000030212403,12|0,0:0|3:0,0:0:0:0:
304,224,222466,1,0,3:0:0:0:
128,288,222539,2,0,L|192:288,1,53.9999983520508,8|0,0:0|3:0,0:0:0:0:
240,288,222685,2,0,L|304:288,1,53.9999983520508,0|0,3:0|3:0,3:0:0:0:
32,224,222832,6,0,L|144:224,1,99.0000030212403,8|0,0:0|3:0,0:0:0:0:
208,224,223051,1,0,3:0:0:0:
384,160,223125,2,0,L|320:160,1,53.9999983520508,8|0,0:0|3:0,0:0:0:0:
272,160,223271,2,0,L|208:160,1,53.9999983520508,0|0,3:0|3:0,3:0:0:0:
464,192,223418,6,0,P|480:256|464:336,1,125.999996154785,8|0,0:0|3:0,0:0:0:0:
400,320,223637,1,0,3:0:0:0:
128,272,223710,2,0,L|144:208,1,62.9999980773926,8|0,0:0|3:0,0:0:0:0:
192,160,223856,2,0,L|256:160,1,62.9999980773926,0|0,3:0|3:0,3:0:0:0:
48,128,224003,6,0,P|32:192|48:272,1,125.999996154785,8|0,0:0|3:0,0:0:0:0:
112,256,224222,1,0,3:0:0:0:
464,272,224296,2,0,L|448:208,1,62.9999980773926,8|0,0:0|3:0,0:0:0:0:
400,160,224442,2,0,L|336:160,1,62.9999980773926,0|0,3:0|3:0,3:0:0:0:
200,96,224588,5,0,0:0:0:0:
312,96,224735,1,0,3:0:0:0:
96,192,224881,1,0,0:0:0:0:
416,192,225027,1,0,3:0:0:0:
144,208,225174,6,0,L|96:256,1,62.9999980773926,0|0,0:0|3:0,3:0:0:0:
368,208,225320,2,0,L|416:256,1,62.9999980773926,0|0,3:0|3:0,3:0:0:0:
112,224,225466,2,0,L|64:272,1,62.9999980773926,0|0,0:0|3:0,3:0:0:0:
400,224,225613,2,0,L|448:272,1,62.9999980773926,0|0,3:0|3:0,3:0:0:0:
176,272,225759,6,0,P|224:48|336:272,1,629.999980773926
232,191,226637,6,0,L|296:191,3,53.9999983520508
80,96,226930,6,0,L|192:96,1,112.5,4|0,0:0|0:0,0:0:0:0:
320,96,227222,2,0,L|432:96,1,112.5,8|0,0:0|3:0,0:0:0:0:
144,192,227515,2,0,L|16:192,1,112.5,0|8,0:0|0:0,0:0:0:0:
368,160,227808,1,0,3:0:0:0:
144,160,227954,1,0,0:0:0:0:
480,192,228100,6,0,L|368:192,1,112.5,8|0,0:0|3:0,0:0:0:0:
144,256,228393,2,0,L|256:256,1,112.5,0|8,0:0|0:0,0:0:0:0:
32,240,228686,2,0,L|96:240,1,56.25,0|0,0:0|3:0,3:0:0:0:
256,176,228832,2,0,L|176:176,1,56.25,0|0,3:1|3:1,3:1:0:0:
128,176,228978,1,8,3:1:0:0:
368,176,229125,1,8,3:1:0:0:
89,144,229271,6,0,L|25:144,1,56.25,0|0,3:0|0:0,3:0:0:0:
256,128,229418,1,0,0:0:0:0:
288,160,229491,1,0,0:0:0:0:
304,208,229564,1,8,0:0:0:0:
288,256,229637,1,0,0:0:0:0:
256,288,229710,1,0,0:0:0:0:
208,304,229783,1,0,0:0:0:0:
368,336,229857,6,0,L|480:336,1,112.5,0|8,0:0|0:0,0:0:0:0:
144,208,230149,2,0,L|80:208,1,56.25,0|0,3:0|0:0,0:0:0:0:
352,208,230296,2,0,L|432:208,1,56.25
144,336,230442,6,0,L|32:336,1,112.5,8|0,0:0|3:0,0:0:0:0:
256,256,230735,2,0,L|192:256,1,56.25,8|0,0:0|0:0,0:0:0:0:
144,256,230881,1,0,3:0:0:0:
368,48,231027,6,0,L|480:48,1,112.5,8|0,0:0|3:0,0:0:0:0:
256,128,231320,2,0,L|320:128,1,56.25,8|0,0:0|0:0,0:0:0:0:
368,128,231466,1,0,3:0:0:0:
48,176,231613,6,0,L|112:176,1,56.25,4|0,0:0|0:0,0:0:0:0:
256,176,231759,2,0,L|320:176,1,56.25
464,176,231905,1,8,0:0:0:0:
48,224,232052,1,0,3:0:0:0:
320,224,232198,5,0,3:0:0:0:
192,224,232344,1,8,0:0:0:0:
416,272,232490,1,0,3:0:0:0:
96,272,232637,1,0,3:0:0:0:
480,176,232783,6,0,L|416:176,1,56.25,4|0,3:0|0:0,0:0:0:0:
272,176,232930,2,0,L|208:176,1,56.25,0|0,3:0|0:0,0:0:0:0:
32,176,233076,1,8,0:0:0:0:
464,224,233222,1,0,3:0:0:0:
192,256,233369,5,0,3:0:0:0:
320,256,233515,1,8,0:0:0:0:
96,288,233661,1,0,3:0:0:0:
416,288,233808,1,8,0:0:0:0:
128,176,233954,6,0,L|64:176,1,56.25,12|0,0:0|0:0,0:0:0:0:
368,176,234100,2,0,L|448:176,1,56.25
192,144,234247,1,0,3:0:0:0:
320,144,234393,1,0,3:0:0:0:
32,208,234539,6,0,P|96:240|144:240,1,112.5,8|0,0:0|0:0,0:0:0:0:
368,208,234759,2,0,P|304:240|256:240,1,112.5
200,291,234978,1,8,3:1:0:0:
480,256,235125,6,0,P|416:288|368:288,1,112.5,8|0,0:0|0:0,0:0:0:0:
144,208,235344,2,0,P|208:240|256:240,1,112.5
312,291,235564,1,0,3:0:0:0:
64,144,235710,5,8,0:0:0:0:
192,144,235857,1,0,3:0:0:0:
432,144,236003,1,8,0:0:0:0:
32,208,236149,1,0,3:0:0:0:
480,224,236296,5,12,0:0:0:0:
256,208,236442,1,0,0:0:0:0:
304,208,236515,1,0,0:0:0:0:
368,208,236588,1,0,0:0:0:0:
32,160,236735,1,8,0:0:0:0:
256,272,236881,1,0,0:0:0:0:
208,272,236954,1,0,0:0:0:0:
144,272,237027,1,0,0:0:0:0:
480,128,237174,5,8,0:0:0:0:
192,144,237320,2,0,L|256:144,1,56.25
320,144,237466,1,0,0:0:0:0:
32,128,237613,1,8,0:0:0:0:
320,240,237759,2,0,L|256:240,1,56.25
192,240,237905,1,0,0:0:0:0:
496,176,238052,5,8,0:0:0:0:
32,176,238198,1,0,0:0:0:0:
320,144,238344,2,0,L|400:144,1,56.25,8|0,0:0|3:0,0:0:0:0:
192,144,238491,2,0,L|128:144,1,56.25,0|0,3:0|0:0,0:0:0:0:
448,176,238637,6,0,L|384:176,1,56.25,4|0,3:0|0:0,0:0:0:0:
256,176,238783,2,0,L|192:176,1,56.25
64,176,238930,1,8,0:0:0:0:
496,240,239076,5,0,0:0:0:0:
208,240,239222,2,0,L|288:240,1,56.25,0|0,0:0|0:0,0:0:0:0:
416,240,239369,1,8,0:0:0:0:
32,240,239515,5,0,0:0:0:0:
320,176,239661,2,0,L|240:176,1,56.25
112,176,239808,1,8,0:0:0:0:
480,112,239954,1,0,0:0:0:0:
192,96,240100,2,0,L|272:96,1,56.25,8|0,0:0|0:0,0:0:0:0:
400,144,240247,1,0,0:0:0:0:
32,320,240393,5,8,0:0:0:0:
480,320,240539,1,0,0:0:0:0:
192,224,240686,1,8,0:0:0:0:
320,224,240832,1,0,0:0:0:0:
32,96,240978,6,0,L|160:96,1,112.5,12|0,0:0|3:0,0:0:0:0:
368,96,241271,2,0,L|256:96,1,112.5,8|0,0:0|3:0,0:0:0:0:
480,160,241564,2,0,L|496:272,1,112.5,8|0,0:0|3:0,0:0:0:0:
48,160,241857,2,0,L|32:272,1,112.5,8|0,0:0|3:0,0:0:0:0:
480,288,242149,6,0,L|352:288,1,112.5,8|0,0:0|3:0,0:0:0:0:
144,288,242442,2,0,L|256:288,1,112.5,8|0,0:0|3:0,0:0:0:0:
32,224,242735,2,0,L|16:112,1,112.5,8|0,0:0|3:0,0:0:0:0:
480,224,243028,2,0,L|496:112,1,112.5,8|0,0:0|3:0,0:0:0:0:
32,224,243320,5,12,0:0:0:0:
480,224,243466,1,8,0:0:0:0:
144,192,243613,1,8,0:0:0:0:
368,192,243759,1,8,0:0:0:0:
32,240,243905,5,8,0:0:0:0:
480,240,244051,1,8,0:0:0:0:
144,208,244198,1,8,0:0:0:0:
368,208,244344,1,8,0:0:0:0:
48,176,244491,6,0,L|32:240,1,56.25,0|0,3:0|3:0,3:0:0:0:
224,224,244637,2,0,L|240:288,1,56.25,0|0,3:0|3:0,3:0:0:0:
468,221,244783,2,0,L|484:157,1,56.25,0|0,3:0|3:0,3:0:0:0:
288,224,244930,2,0,L|272:160,1,56.25,0|0,3:0|3:0,3:0:0:0:
432,192,245076,6,0,L|496:160,1,56.25,0|0,3:0|3:0,3:0:0:0:
80,192,245222,2,0,L|16:160,1,56.25,0|0,3:0|3:0,3:0:0:0:
448,224,245369,2,0,L|512:192,1,56.25,0|0,3:0|3:0,3:0:0:0:
64,224,245515,2,0,L|0:192,1,56.25,0|0,3:0|3:0,3:0:0:0:
432,144,245661,5,4,3:0:0:0:
80,144,246247,1,0,3:0:0:0:
480,192,246832,1,0,3:0:0:0:
32,192,247418,1,0,3:0:0:0:
368,352,248003,6,0,B|40:352|40:32|304:32,1,598.499984018326,4|0,0:3|0:0,0:0:0:0:
368,32,248588,6,0,B|40:32|40:352|304:352,1,598.499984018326,0|0,0:3|0:0,0:0:0:0:
368,352,249174,6,0,B|40:352|40:32|304:32,1,598.499984018326,0|0,0:3|0:0,0:0:0:0:
368,32,249759,6,0,B|40:32|40:352|304:352,1,598.499984018326,0|0,0:3|0:0,0:0:0:0:
368,352,250344,5,0,0:0:0:0:
48,336,271418,6,0,B|-16:144|144:48|240:32|400:320|112:368|48:256|16:112|32:80|224:112|224:112|241:164|208:256|126:234,1,935.999957153322
464,336,273759,6,0,B|528:144|368:48|272:32|112:320|400:368|464:256|496:112|480:80|288:112|288:112|270:164|304:256|386:234,1,935.999957153322
80,48,276100,6,0,B|32:32|160:96|32:144|32:144|128:176|160:336|160:336|-48:368|-16:208|192:192|192:192|103:222|103:222|160:128|160:128|112:0|192:128|192:128|272:128,1,1188.00003625488
464,368,280783,6,0,B|320:304|400:128|240:128|240:128|496:128,1,576
48,368,283125,6,0,B|192:304|112:128|272:128|272:128|16:128,1,576
128,128,285466,6,0,B|240:224|240:224|384:16|176:288|176:288|409:222|409:222|320:192|320:192|528:208|560:368|352:336|352:336|384:176|480:144|480:144|352:96|480:32|432:48,2,1511.99995385742
304,96,290442,1,0,0:0:0:0:
96,96,290735,1,0,0:0:0:0:
192,160,291027,1,0,0:0:0:0:
368,192,291320,1,0,0:0:0:0:
160,288,291613,5,0,0:0:0:0:
368,96,291905,1,0,0:0:0:0:
176,144,292198,1,0,0:0:0:0:
368,256,292491,1,0,0:0:0:0:
160,96,292783,5,0,0:0:0:0:
368,288,293075,1,0,0:0:0:0:
176,240,293368,1,0,0:0:0:0:
368,128,293661,1,0,0:0:0:0:
160,160,293954,5,0,0:0:0:0:
352,160,294247,1,0,0:0:0:0:
176,160,294539,5,0,0:0:0:0:
336,160,294686,1,0,0:0:0:0:
32,192,294832,1,4,3:0:0:0:
256,192,294905,12,0,300686,0:0:0:0:
