osu file format v14

[General]
AudioFilename: audio.mp3
AudioLeadIn: 0
PreviewTime: 170588
Countdown: 0
SampleSet: Normal
StackLeniency: 0.7
Mode: 1
LetterboxInBreaks: 0
WidescreenStoryboard: 0

[Editor]
DistanceSpacing: 0.8
BeatDivisor: 4
GridSize: 4
TimelineZoom: 1.899999

[Metadata]
Title:Road To The LegenD,
TitleUnicode:Road To The LegenD,
Artist:Yooh
ArtistUnicode:Yooh
Creator:Rhytoly
Version:WinneR,
Source:SOUND VOLTEX III GRAVITY WARS
Tags:red road hardcore edm electronic sdvx 3 sdvx3 the 4th kac オリジナル楽曲コンテスト konami arcade championship original song contest
BeatmapID:1543556
BeatmapSetID:731443

[Difficulty]
HPDrainRate:5
CircleSize:2
OverallDifficulty:7
ApproachRate:5
SliderMultiplier:1.4
SliderTickRate:1

[Events]
//Background and Video events
0,0,"girl_anime_brunette_art_108539.jpg",0,50
//Break Periods
//Storyboard Layer 0 (Background)
//Storyboard Layer 1 (Fail)
//Storyboard Layer 2 (Pass)
//Storyboard Layer 3 (Foreground)
//Storyboard Sound Samples

[TimingPoints]
979,292.682926829268,4,1,0,70,1,0
979,-200,4,1,0,70,0,0
19710,-133.333333333333,4,1,0,70,0,0
27905,-119.047619047619,4,1,0,70,0,0
28052,-116.279069767442,4,1,0,70,0,0
28125,-114.942528735632,4,1,0,70,0,0
28198,-113.636363636364,4,1,0,70,0,0
28344,-111.111111111111,4,1,0,70,0,0
28491,-108.695652173913,4,1,0,70,0,0
28564,-107.52688172043,4,1,0,70,0,0
28637,-106.382978723404,4,1,0,70,0,0
28710,-105.263157894737,4,1,0,70,0,0
28783,-104.166666666667,4,1,0,70,0,0
28857,-103.092783505155,4,1,0,70,0,0
28930,-102.040816326531,4,1,0,70,0,0
29076,-100,4,1,0,70,0,0
31125,-99.009900990099,4,1,0,70,0,0
31198,-98.0392156862745,4,1,0,70,0,0
31271,-97.0873786407767,4,1,0,70,0,0
31344,-96.1538461538461,4,1,0,70,0,0
31418,-95.2380952380952,4,1,0,70,0,0
33466,-94.3396226415094,4,1,0,70,0,0
33539,-93.4579439252336,4,1,0,70,0,0
33613,-92.5925925925926,4,1,0,70,0,0
33686,-91.743119266055,4,1,0,70,0,0
33759,-90.9090909090909,4,1,0,70,0,0
34052,-90.0900900900901,4,1,0,70,0,0
34344,-89.2857142857143,4,1,0,70,0,0
34637,-88.4955752212389,4,1,0,70,0,0
34930,-87.719298245614,4,1,0,70,0,0
35222,-86.9565217391304,4,1,0,70,0,0
35515,-86.2068965517241,4,1,0,70,0,0
35588,-86.9565217391304,4,1,0,70,0,0
35661,-87.719298245614,4,1,0,70,0,0
35735,-88.4955752212389,4,1,0,70,0,0
35808,-89.2857142857143,4,1,0,70,0,0
35881,-90.0900900900901,4,1,0,70,0,0
35954,-90.9090909090909,4,1,0,70,0,0
36027,-91.743119266055,4,1,0,70,0,0
36100,-92.5925925925926,4,1,0,70,0,0
37271,-131.578947368421,4,1,0,70,0,0
37418,-126.582278481013,4,1,0,70,0,0
37564,-121.951219512195,4,1,0,70,0,0
37710,-117.647058823529,4,1,0,70,0,0
37857,-113.636363636364,4,1,0,70,0,0
38003,-108.695652173913,4,1,0,70,0,0
38149,-104.166666666667,4,1,0,70,0,0
38296,-100,4,1,0,70,0,0
38442,-95.2380952380952,4,1,0,70,0,0
75905,-90.9090909090909,4,1,0,70,0,0
87466,-84.7457627118644,4,1,0,70,0,0
87515,-85.4700854700855,4,1,0,70,0,0
87564,-86.2068965517241,4,1,0,70,0,0
87613,-86.9565217391304,4,1,0,70,0,0
87759,-90.9090909090909,4,1,0,70,0,0
89076,-66.6666666666667,4,1,0,70,0,0
89661,-80,4,1,0,70,0,0
89954,-90.9090909090909,4,1,0,70,0,0
91710,-92.5925925925926,4,1,0,70,0,0
91857,-94.3396226415094,4,1,0,70,0,0
92003,-96.1538461538461,4,1,0,70,0,0
92076,-97.0873786407767,4,1,0,70,0,0
92149,-98.0392156862745,4,1,0,70,0,0
92222,-99.009900990099,4,1,0,70,0,0
92296,-100,4,1,0,70,0,0
92442,-90.9090909090909,4,1,0,70,0,0
94637,-86.9565217391304,4,1,0,70,0,0
111027,-86.2068965517241,4,1,0,70,0,0
111320,-85.4700854700855,4,1,0,70,0,0
111613,-84.7457627118644,4,1,0,70,0,0
111905,-84.0336134453781,4,1,0,70,0,0
112198,-83.3333333333333,4,1,0,70,0,0
112344,-81.9672131147541,4,1,0,70,0,0
112418,-81.3008130081301,4,1,0,70,0,0
112491,-80.6451612903226,4,1,0,70,0,0
112564,-80,4,1,0,70,0,0
112637,-79.3650793650794,4,1,0,70,0,0
112710,-78.7401574803149,4,1,0,70,0,0
112783,-78.125,4,1,0,70,0,0
112857,-77.5193798449612,4,1,0,70,0,0
112930,-76.9230769230769,4,1,0,70,0,0
113003,-76.3358778625954,4,1,0,70,0,0
113076,-75.7575757575758,4,1,0,70,0,0
113149,-75.187969924812,4,1,0,70,0,0
113222,-74.6268656716418,4,1,0,70,0,0
113296,-74.0740740740741,4,1,0,70,0,0
113369,-73.5294117647059,4,1,0,70,0,0
113515,-76.9230769230769,4,1,0,70,0,0
113588,-78.125,4,1,0,70,0,0
113661,-79.3650793650794,4,1,0,70,0,0
113735,-80.6451612903226,4,1,0,70,0,0
113808,-81.9672131147541,4,1,0,70,0,0
113881,-83.3333333333333,4,1,0,70,0,0
113954,-84.7457627118644,4,1,0,70,0,0
114027,-86.2068965517241,4,1,0,70,0,0
114100,-87.719298245614,4,1,0,70,0,0
114174,-89.2857142857143,4,1,0,70,0,0
114247,-90.9090909090909,4,1,0,70,0,0
114320,-92.5925925925926,4,1,0,70,0,0
114393,-94.3396226415094,4,1,0,70,0,0
114539,-100,4,1,0,70,0,0
114832,-104.166666666667,4,1,0,70,0,0
115125,-108.695652173913,4,1,0,70,0,0
115418,-111.111111111111,4,1,0,70,0,0
115564,-113.636363636364,4,1,0,70,0,0
115710,-116.279069767442,4,1,0,70,0,0
116003,-121.951219512195,4,1,0,70,0,0
116296,-128.205128205128,4,1,0,70,0,0
116442,-131.578947368421,4,1,0,70,0,0
116588,-133.333333333333,4,1,0,70,0,0
132035,-129.87012987013,4,1,0,70,0,0
132327,-126.582278481013,4,1,0,70,0,0
132620,-123.456790123457,4,1,0,70,0,0
132978,-120.481927710843,4,1,0,70,0,0
133271,-117.647058823529,4,1,0,70,0,0
149661,-116.279069767442,4,1,0,70,0,0
149808,-114.942528735632,4,1,0,70,0,0
149954,-113.636363636364,4,1,0,70,0,0
150100,-112.359550561798,4,1,0,70,0,0
150247,-111.111111111111,4,1,0,70,0,0
150393,-109.89010989011,4,1,0,70,0,0
150539,-108.695652173913,4,1,0,70,0,0
150686,-107.52688172043,4,1,0,70,0,0
150832,-106.382978723404,4,1,0,70,0,0
150978,-105.263157894737,4,1,0,70,0,0
151125,-104.166666666667,4,1,0,70,0,0
151271,-103.092783505155,4,1,0,70,0,0
151418,-102.040816326531,4,1,0,70,0,0
151491,-101.010101010101,4,1,0,70,0,0
151564,-100,4,1,0,70,0,0
151637,-99.009900990099,4,1,0,70,0,0
151710,-98.0392156862745,4,1,0,70,0,0
151783,-97.0873786407767,4,1,0,70,0,0
151857,-96.1538461538461,4,1,0,70,0,0
151930,-95.2380952380952,4,1,0,70,0,0
152296,-96.1538461538461,4,1,0,70,0,0
152588,-97.0873786407767,4,1,0,70,0,0
152881,-98.0392156862745,4,1,0,70,0,0
153174,-99.009900990099,4,1,0,70,0,0
153466,-100,4,1,0,70,0,0
172491,-98.0392156862745,4,1,0,70,0,0
172564,-97.0873786407767,4,1,0,70,0,0
172637,-96.1538461538461,4,1,0,70,0,0
172710,-95.2380952380952,4,1,0,70,0,0
172783,-94.3396226415094,4,1,0,70,0,0
172930,-92.5925925925926,4,1,0,70,0,0
173076,-90.9090909090909,4,1,0,70,0,1
207905,-90.0900900900901,4,1,0,70,0,1
207978,-89.2857142857143,4,1,0,70,0,1
208052,-88.4955752212389,4,1,0,70,0,1
208125,-87.719298245614,4,1,0,70,0,1
208198,-86.9565217391304,4,1,0,70,0,1
224515,-86.2068965517241,4,1,0,70,0,1
224588,-85.4700854700855,4,1,0,70,0,1
224661,-84.7457627118644,4,1,0,70,0,1
224735,-84.0336134453781,4,1,0,70,0,1
224808,-83.3333333333333,4,1,0,70,0,1
224881,-82.6446280991736,4,1,0,70,0,1
224954,-81.9672131147541,4,1,0,70,0,1
225027,-81.3008130081301,4,1,0,70,0,1
225100,-80.6451612903226,4,1,0,70,0,1
225174,-80,4,1,0,70,0,1
225247,-79.3650793650794,4,1,0,70,0,1
225320,-78.7401574803149,4,1,0,70,0,1
225393,-78.125,4,1,0,70,0,1
225466,-77.5193798449612,4,1,0,70,0,1
225539,-76.9230769230769,4,1,0,70,0,1
225613,-76.3358778625954,4,1,0,70,0,1
225686,-75.7575757575758,4,1,0,70,0,1
225759,-75.187969924812,4,1,0,70,0,0
226491,-98.0392156862745,4,1,0,70,0,0
226637,-92.5925925925926,4,1,0,70,0,0
226710,-90.0900900900901,4,1,0,70,0,0
226783,-87.719298245614,4,1,0,70,0,0
226930,-83.3333333333333,4,1,0,70,0,1
245661,-83.3333333333333,4,1,0,70,0,0
248149,-83.3333333333333,4,1,0,68,0,0
248296,-83.3333333333333,4,1,0,66,0,0
248442,-83.3333333333333,4,1,0,64,0,0
248588,-83.3333333333333,4,1,0,62,0,0
248735,-83.3333333333333,4,1,0,60,0,0
248881,-83.3333333333333,4,1,0,58,0,0
249027,-83.3333333333333,4,1,0,56,0,0
249174,-95.2380952380952,4,1,0,54,0,0
249320,-83.3333333333333,4,1,0,52,0,0
249466,-83.3333333333333,4,1,0,50,0,0
249613,-83.3333333333333,4,1,0,48,0,0
249759,-83.3333333333333,4,1,0,46,0,0
249905,-83.3333333333333,4,1,0,44,0,0
250052,-83.3333333333333,4,1,0,42,0,0
250198,-83.3333333333333,4,1,0,40,0,0
250344,-111.111111111111,4,1,0,40,0,0
251515,-133.333333333333,4,1,0,40,0,0
252686,-200,4,1,0,70,0,0
257515,-200,4,1,0,30,0,0
266881,-200,4,1,0,30,0,0
271418,-142.857142857143,4,1,0,70,0,0
283094,-136.986301369863,4,1,0,70,0,0
283388,-131.578947368421,4,1,0,70,0,0
283682,-126.582278481013,4,1,0,70,0,0
283976,-121.951219512195,4,1,0,70,0,0
284296,-117.647058823529,4,1,0,70,0,0
284564,-113.636363636364,4,1,0,70,0,0
284735,-112.359550561798,4,1,0,70,0,0
284858,-109.89010989011,4,1,0,70,0,0
285153,-106.382978723404,4,1,0,70,0,0
285447,-103.092783505155,4,1,0,70,0,0
285741,-100,4,1,0,70,0,0

[HitObjects]
364,172,979,5,0,0:0:0:0:
260,112,2149,1,0,0:0:0:0:
340,144,3320,1,8,0:0:0:0:
176,160,4491,1,8,0:0:0:0:
324,152,5661,1,0,0:0:0:0:
152,168,6832,1,0,0:0:0:0:
296,120,8003,1,8,0:0:0:0:
272,132,9174,1,8,0:0:0:0:
312,156,10344,1,0,0:0:0:0:
384,212,11515,1,0,0:0:0:0:
288,136,12686,1,8,0:0:0:0:
232,140,13857,1,8,0:0:0:0:
128,152,15027,1,0,0:0:0:0:
232,128,16198,1,0,0:0:0:0:
296,168,17369,1,8,0:0:0:0:
220,88,18539,1,8,0:0:0:0:
360,160,19710,1,12,0:0:0:0:
240,100,20003,1,0,0:0:0:0:
152,164,20296,1,8,0:0:0:0:
284,120,20588,1,0,0:0:0:0:
216,168,20881,1,8,0:0:0:0:
284,120,21174,1,0,0:0:0:0:
216,168,21466,1,8,0:0:0:0:
284,120,21759,1,8,0:0:0:0:
216,168,22052,1,0,0:0:0:0:
284,120,22344,1,0,0:0:0:0:
216,168,22637,1,8,0:0:0:0:
284,120,22930,1,0,0:0:0:0:
216,168,23222,1,8,0:0:0:0:
284,120,23515,1,0,0:0:0:0:
216,168,23808,1,8,0:0:0:0:
348,172,24100,1,8,0:0:0:0:
272,128,24247,1,8,0:0:0:0:
216,168,24393,1,0,0:0:0:0:
240,144,24686,1,0,0:0:0:0:
232,160,24978,1,8,0:0:0:0:
168,140,25271,1,0,0:0:0:0:
216,168,25564,1,8,0:0:0:0:
312,96,25857,1,0,0:0:0:0:
260,136,26149,1,8,0:0:0:0:
280,108,26442,1,8,0:0:0:0:
184,136,26735,1,0,0:0:0:0:
264,120,27027,1,0,0:0:0:0:
260,136,27320,1,8,0:0:0:0:
360,208,27613,1,0,0:0:0:0:
260,136,27905,1,8,0:0:0:0:
192,144,28052,1,0,0:0:0:0:
228,144,28125,1,0,0:0:0:0:
340,168,28198,1,8,0:0:0:0:
136,152,28344,1,0,0:0:0:0:
260,136,28491,1,8,0:0:0:0:
292,104,28564,1,8,0:0:0:0:
292,104,28637,1,0,0:0:0:0:
228,160,28710,1,0,0:0:0:0:
292,104,28783,1,8,0:0:0:0:
292,104,28857,1,0,0:0:0:0:
292,104,28930,1,8,0:0:0:0:
260,136,29076,1,4,0:0:0:0:
256,164,29222,1,0,0:0:0:0:
256,164,29296,1,0,0:0:0:0:
256,164,29369,1,8,0:0:0:0:
304,132,29442,1,0,0:0:0:0:
256,164,29515,1,0,0:0:0:0:
256,164,29661,1,8,0:0:0:0:
220,160,29808,1,0,0:0:0:0:
256,164,29881,1,0,0:0:0:0:
256,164,29954,1,8,0:0:0:0:
256,164,30027,1,8,0:0:0:0:
240,148,30100,1,0,0:0:0:0:
288,152,30247,1,8,0:0:0:0:
288,152,30393,1,0,0:0:0:0:
288,152,30466,1,8,0:0:0:0:
176,104,30539,1,8,0:0:0:0:
288,152,30613,1,0,0:0:0:0:
288,152,30686,1,0,0:0:0:0:
288,152,30832,1,8,0:0:0:0:
280,128,30978,1,0,0:0:0:0:
172,120,31052,1,8,0:0:0:0:
176,120,31125,1,8,0:0:0:0:
176,120,31198,1,8,0:0:0:0:
176,120,31271,1,0,0:0:0:0:
316,176,31344,1,0,0:0:0:0:
176,120,31418,1,8,0:0:0:0:
180,128,31564,1,0,0:0:0:0:
188,128,31637,1,0,0:0:0:0:
224,144,31710,1,0,0:0:0:0:
188,128,31783,1,0,0:0:0:0:
224,144,31857,1,8,0:0:0:0:
224,144,32003,1,8,0:0:0:0:
224,144,32149,1,0,0:0:0:0:
224,144,32222,1,8,0:0:0:0:
224,144,32296,1,0,0:0:0:0:
172,156,32369,1,0,0:0:0:0:
224,144,32442,1,8,0:0:0:0:
224,144,32588,1,8,0:0:0:0:
192,148,32735,1,0,0:0:0:0:
196,148,32808,1,8,0:0:0:0:
196,148,32881,1,8,0:0:0:0:
168,128,32954,1,0,0:0:0:0:
196,148,33027,1,8,0:0:0:0:
196,148,33174,1,0,0:0:0:0:
116,172,33247,1,8,0:0:0:0:
164,176,33320,1,0,0:0:0:0:
212,128,33393,1,0,0:0:0:0:
164,176,33466,1,8,0:0:0:0:
164,176,33539,1,0,0:0:0:0:
164,176,33613,1,8,0:0:0:0:
348,144,33686,1,8,0:0:0:0:
348,144,33759,1,0,0:0:0:0:
304,160,33905,1,0,0:0:0:0:
256,152,33978,1,0,0:0:0:0:
168,168,34052,1,8,0:0:0:0:
268,152,34125,1,0,0:0:0:0:
276,184,34198,1,0,0:0:0:0:
276,184,34271,1,8,0:0:0:0:
276,184,34344,1,0,0:0:0:0:
276,184,34491,1,0,0:0:0:0:
392,224,34564,1,0,0:0:0:0:
116,116,34637,1,8,0:0:0:0:
392,224,34710,1,0,0:0:0:0:
220,120,34783,1,8,0:0:0:0:
220,120,34857,1,8,0:0:0:0:
220,120,34930,1,0,0:0:0:0:
220,120,35076,1,8,0:0:0:0:
220,120,35149,1,8,0:0:0:0:
304,148,35222,1,0,0:0:0:0:
336,148,35296,1,0,0:0:0:0:
220,120,35369,1,8,0:0:0:0:
296,148,35515,1,0,0:0:0:0:
220,120,35588,1,8,0:0:0:0:
220,120,35661,1,0,0:0:0:0:
296,148,35735,1,0,0:0:0:0:
220,120,35808,1,8,0:0:0:0:
296,148,35881,1,0,0:0:0:0:
296,148,35954,1,0,0:0:0:0:
296,148,36027,1,8,0:0:0:0:
296,148,36100,1,0,0:0:0:0:
244,152,37271,1,8,0:0:0:0:
336,160,37418,1,8,0:0:0:0:
336,160,37564,1,0,0:0:0:0:
336,160,37710,1,8,0:0:0:0:
336,160,37857,1,0,0:0:0:0:
336,160,38003,1,0,0:0:0:0:
336,160,38149,1,8,0:0:0:0:
336,160,38296,1,0,0:0:0:0:
336,160,38442,1,4,0:0:0:0:
364,144,38588,1,8,0:0:0:0:
364,144,38661,1,8,0:0:0:0:
364,144,38735,1,0,0:0:0:0:
364,144,38881,1,8,0:0:0:0:
364,144,39027,1,0,0:0:0:0:
168,136,39174,1,8,0:0:0:0:
192,136,39247,1,8,0:0:0:0:
192,136,39320,1,0,0:0:0:0:
216,152,39466,1,8,0:0:0:0:
240,152,39613,1,8,0:0:0:0:
240,152,39759,1,0,0:0:0:0:
240,152,39832,1,0,0:0:0:0:
240,152,39905,1,8,0:0:0:0:
272,128,40052,1,0,0:0:0:0:
272,128,40198,1,8,0:0:0:0:
272,128,40344,1,0,0:0:0:0:
272,128,40418,1,0,0:0:0:0:
272,128,40491,1,8,0:0:0:0:
228,148,40637,1,0,0:0:0:0:
228,148,40783,1,8,0:0:0:0:
204,160,40930,1,0,0:0:0:0:
212,160,41003,1,8,0:0:0:0:
212,160,41076,1,8,0:0:0:0:
212,160,41222,1,0,0:0:0:0:
212,160,41368,1,8,0:0:0:0:
276,184,41514,1,0,0:0:0:0:
276,184,41588,1,8,0:0:0:0:
276,184,41661,1,8,0:0:0:0:
276,184,41807,1,0,0:0:0:0:
276,184,41953,1,8,0:0:0:0:
248,172,42027,1,0,0:0:0:0:
288,180,42100,1,8,0:0:0:0:
356,180,42173,1,8,0:0:0:0:
180,164,42246,1,0,0:0:0:0:
356,180,42392,1,0,0:0:0:0:
356,180,42539,1,8,0:0:0:0:
304,172,42612,1,8,0:0:0:0:
356,180,42685,1,0,0:0:0:0:
356,180,42758,1,0,0:0:0:0:
356,180,42831,1,8,0:0:0:0:
212,168,42905,1,0,0:0:0:0:
204,172,42978,1,8,0:0:0:0:
244,120,43051,1,8,0:0:0:0:
280,172,43124,1,0,0:0:0:0:
256,196,43270,1,8,0:0:0:0:
264,196,43344,1,0,0:0:0:0:
264,196,43417,1,0,0:0:0:0:
264,196,43563,1,8,0:0:0:0:
264,196,43709,1,0,0:0:0:0:
240,140,43857,1,8,0:0:0:0:
248,176,43930,1,0,0:0:0:0:
240,140,44003,1,8,0:0:0:0:
220,200,44149,1,0,0:0:0:0:
220,200,44296,1,8,0:0:0:0:
356,208,44442,1,0,0:0:0:0:
356,208,44515,1,8,0:0:0:0:
356,208,44588,1,0,0:0:0:0:
356,208,44734,1,8,0:0:0:0:
256,184,44880,1,0,0:0:0:0:
280,160,45027,1,8,0:0:0:0:
280,160,45100,1,8,0:0:0:0:
272,160,45174,1,0,0:0:0:0:
280,160,45319,1,8,0:0:0:0:
280,160,45466,1,0,0:0:0:0:
256,140,45612,1,0,0:0:0:0:
232,172,45758,1,8,0:0:0:0:
288,128,46051,1,0,0:0:0:0:
288,128,46197,1,0,0:0:0:0:
288,128,46344,1,8,0:0:0:0:
360,108,46636,1,0,0:0:0:0:
280,136,46832,1,0,0:0:0:0:
360,108,46929,1,8,0:0:0:0:
264,120,47125,1,8,0:0:0:0:
264,120,47222,1,8,0:0:0:0:
264,164,47320,1,0,0:0:0:0:
264,120,47418,1,0,0:0:0:0:
264,120,47514,1,8,0:0:0:0:
264,120,47563,1,8,0:0:0:0:
264,120,47612,1,8,0:0:0:0:
216,160,47661,1,0,0:0:0:0:
264,120,47709,1,0,0:0:0:0:
264,152,47758,1,0,0:0:0:0:
264,120,47807,1,8,0:0:0:0:
208,176,47953,1,0,0:0:0:0:
272,176,48027,1,0,0:0:0:0:
272,176,48100,1,8,0:0:0:0:
272,176,48246,1,8,0:0:0:0:
272,176,48392,1,0,0:0:0:0:
260,168,48539,1,8,0:0:0:0:
272,172,48612,1,8,0:0:0:0:
272,172,48685,1,8,0:0:0:0:
268,148,48831,1,0,0:0:0:0:
268,148,48978,1,8,0:0:0:0:
216,148,49051,1,0,0:0:0:0:
188,144,49124,1,8,0:0:0:0:
216,148,49197,1,8,0:0:0:0:
216,148,49270,1,0,0:0:0:0:
376,184,49417,1,0,0:0:0:0:
216,148,49563,1,8,0:0:0:0:
160,152,49636,1,0,0:0:0:0:
224,132,49709,1,0,0:0:0:0:
224,132,49783,1,0,0:0:0:0:
224,132,49856,1,8,0:0:0:0:
284,128,49929,1,8,0:0:0:0:
284,128,50002,1,0,0:0:0:0:
192,156,50149,1,8,0:0:0:0:
252,112,50295,1,8,0:0:0:0:
212,108,50368,1,8,0:0:0:0:
212,108,50441,1,0,0:0:0:0:
212,108,50588,1,0,0:0:0:0:
212,108,50734,1,8,0:0:0:0:
288,56,50880,1,0,0:0:0:0:
212,152,50953,1,0,0:0:0:0:
284,44,51027,1,8,0:0:0:0:
180,152,51173,1,0,0:0:0:0:
212,152,51319,1,8,0:0:0:0:
212,152,51392,1,0,0:0:0:0:
388,148,51466,1,0,0:0:0:0:
388,148,51539,1,0,0:0:0:0:
388,148,51612,1,8,0:0:0:0:
388,148,51758,1,8,0:0:0:0:
388,148,51905,1,0,0:0:0:0:
340,200,51978,1,8,0:0:0:0:
168,140,52051,1,0,0:0:0:0:
340,200,52125,1,0,0:0:0:0:
436,104,52197,1,8,0:0:0:0:
152,176,52271,1,8,0:0:0:0:
436,104,52344,1,0,0:0:0:0:
168,136,52418,1,0,0:0:0:0:
436,104,52490,1,8,0:0:0:0:
236,184,52636,1,0,0:0:0:0:
448,120,52709,1,0,0:0:0:0:
448,120,52783,1,0,0:0:0:0:
304,72,52929,1,0,0:0:0:0:
276,188,53075,1,8,0:0:0:0:
276,188,53222,1,0,0:0:0:0:
296,192,53295,1,8,0:0:0:0:
296,192,53368,1,0,0:0:0:0:
296,192,53514,1,0,0:0:0:0:
296,192,53661,1,8,0:0:0:0:
200,156,53807,1,0,0:0:0:0:
200,156,53880,1,0,0:0:0:0:
200,156,53953,1,0,0:0:0:0:
200,156,54100,1,0,0:0:0:0:
200,156,54246,1,8,0:0:0:0:
312,160,54393,1,0,0:0:0:0:
312,160,54466,1,8,0:0:0:0:
312,160,54613,1,8,0:0:0:0:
312,160,54686,1,0,0:0:0:0:
312,160,54831,1,8,0:0:0:0:
296,176,54978,1,8,0:0:0:0:
268,160,55124,1,0,0:0:0:0:
268,160,55197,1,0,0:0:0:0:
268,160,55270,1,0,0:0:0:0:
224,128,55417,1,8,0:0:0:0:
224,128,55563,1,8,0:0:0:0:
268,160,55709,1,0,0:0:0:0:
268,160,55783,1,0,0:0:0:0:
268,160,55856,1,0,0:0:0:0:
376,192,56003,1,8,0:0:0:0:
376,192,56076,1,0,0:0:0:0:
376,192,56149,1,8,0:0:0:0:
376,192,56222,1,8,0:0:0:0:
376,192,56296,1,0,0:0:0:0:
376,192,56369,1,0,0:0:0:0:
376,192,56442,1,8,0:0:0:0:
376,192,56515,1,0,0:0:0:0:
376,192,56588,1,8,0:0:0:0:
376,192,56661,1,8,0:0:0:0:
376,192,56735,1,0,0:0:0:0:
376,192,56808,1,8,0:0:0:0:
376,192,56881,1,0,0:0:0:0:
376,192,56954,1,8,0:0:0:0:
376,192,57027,1,8,0:0:0:0:
376,192,57174,1,4,0:0:0:0:
304,164,57319,1,0,0:0:0:0:
316,168,57392,1,8,0:0:0:0:
316,168,57466,1,0,0:0:0:0:
316,168,57612,1,0,0:0:0:0:
316,168,57758,1,8,0:0:0:0:
316,168,57905,1,0,0:0:0:0:
316,168,57978,1,0,0:0:0:0:
316,168,58051,1,8,0:0:0:0:
316,168,58197,1,0,0:0:0:0:
316,168,58344,1,8,0:0:0:0:
264,116,58417,1,8,0:0:0:0:
264,116,58490,1,0,0:0:0:0:
220,172,58563,1,0,0:0:0:0:
264,116,58636,1,8,0:0:0:0:
188,164,58783,1,0,0:0:0:0:
280,172,58929,1,8,0:0:0:0:
280,172,59002,1,0,0:0:0:0:
280,172,59075,1,8,0:0:0:0:
280,172,59148,1,8,0:0:0:0:
280,172,59222,1,0,0:0:0:0:
184,156,59295,1,8,0:0:0:0:
280,172,59368,1,0,0:0:0:0:
224,156,59441,1,0,0:0:0:0:
236,188,59514,1,8,0:0:0:0:
300,180,59661,1,0,0:0:0:0:
308,180,59734,1,8,0:0:0:0:
308,180,59807,1,0,0:0:0:0:
308,180,59953,1,0,0:0:0:0:
308,180,60100,1,8,0:0:0:0:
212,176,60246,1,0,0:0:0:0:
256,180,60319,1,0,0:0:0:0:
256,180,60392,1,8,0:0:0:0:
256,180,60539,1,0,0:0:0:0:
256,180,60685,1,8,0:0:0:0:
272,160,60758,1,0,0:0:0:0:
280,160,60831,1,0,0:0:0:0:
280,160,60905,1,0,0:0:0:0:
280,160,60978,1,8,0:0:0:0:
252,92,61124,1,0,0:0:0:0:
300,168,61270,1,8,0:0:0:0:
300,168,61344,1,8,0:0:0:0:
300,168,61417,1,0,0:0:0:0:
156,188,61491,1,0,0:0:0:0:
300,168,61563,1,8,0:0:0:0:
192,172,61637,1,0,0:0:0:0:
208,176,61709,1,8,0:0:0:0:
208,176,61783,1,0,0:0:0:0:
208,176,61856,1,8,0:0:0:0:
220,168,62002,1,0,0:0:0:0:
356,120,62075,1,0,0:0:0:0:
356,120,62149,1,0,0:0:0:0:
356,120,62295,1,0,0:0:0:0:
356,120,62441,1,8,0:0:0:0:
352,112,62588,1,0,0:0:0:0:
352,112,62661,1,0,0:0:0:0:
352,112,62734,1,8,0:0:0:0:
352,112,62880,1,0,0:0:0:0:
352,112,63027,1,8,0:0:0:0:
192,152,63173,1,0,0:0:0:0:
192,152,63246,1,0,0:0:0:0:
192,152,63319,1,8,0:0:0:0:
260,168,63392,1,8,0:0:0:0:
192,152,63466,1,0,0:0:0:0:
192,152,63612,1,8,0:0:0:0:
208,112,63758,1,8,0:0:0:0:
208,168,63831,1,8,0:0:0:0:
228,168,63905,1,0,0:0:0:0:
228,168,64051,1,0,0:0:0:0:
228,168,64197,1,8,0:0:0:0:
177,97,64296,1,0,0:0:0:0:
184,97,64393,1,8,0:0:0:0:
184,97,64491,1,0,0:0:0:0:
184,97,64588,1,8,0:0:0:0:
184,97,64783,1,8,0:0:0:0:
184,97,64881,1,0,0:0:0:0:
184,97,64978,1,8,0:0:0:0:
184,97,65076,1,0,0:0:0:0:
184,97,65174,1,8,0:0:0:0:
296,184,65368,1,0,0:0:0:0:
224,148,65564,1,0,0:0:0:0:
224,148,65661,1,8,0:0:0:0:
224,148,65857,1,8,0:0:0:0:
224,148,65953,1,8,0:0:0:0:
216,184,66052,1,0,0:0:0:0:
260,184,66149,1,0,0:0:0:0:
252,124,66246,1,8,0:0:0:0:
252,124,66295,1,8,0:0:0:0:
252,124,66344,1,8,0:0:0:0:
252,124,66392,1,0,0:0:0:0:
252,124,66441,1,0,0:0:0:0:
252,124,66490,1,0,0:0:0:0:
252,124,66539,1,8,0:0:0:0:
264,136,66685,1,0,0:0:0:0:
264,136,66758,1,8,0:0:0:0:
264,136,66831,1,0,0:0:0:0:
264,136,66978,1,0,0:0:0:0:
264,136,67124,1,8,0:0:0:0:
344,120,67197,1,0,0:0:0:0:
220,160,67270,1,0,0:0:0:0:
236,160,67344,1,0,0:0:0:0:
236,160,67417,1,8,0:0:0:0:
240,160,67563,1,0,0:0:0:0:
240,160,67709,1,8,0:0:0:0:
320,208,67783,1,8,0:0:0:0:
356,132,67856,1,0,0:0:0:0:
356,132,67929,1,0,0:0:0:0:
356,132,68002,1,8,0:0:0:0:
356,132,68149,1,0,0:0:0:0:
268,152,68295,1,0,0:0:0:0:
284,152,68368,1,0,0:0:0:0:
284,152,68441,1,8,0:0:0:0:
284,152,68514,1,0,0:0:0:0:
284,152,68588,1,8,0:0:0:0:
284,152,68661,1,8,0:0:0:0:
284,152,68734,1,0,0:0:0:0:
284,152,68807,1,8,0:0:0:0:
284,152,68880,1,0,0:0:0:0:
304,120,69027,1,0,0:0:0:0:
304,120,69100,1,8,0:0:0:0:
304,120,69173,1,0,0:0:0:0:
304,120,69319,1,0,0:0:0:0:
304,120,69466,1,8,0:0:0:0:
252,168,69539,1,0,0:0:0:0:
236,160,69612,1,0,0:0:0:0:
236,160,69685,1,0,0:0:0:0:
236,160,69758,1,8,0:0:0:0:
236,160,69905,1,0,0:0:0:0:
236,160,70051,1,8,0:0:0:0:
232,176,70124,1,8,0:0:0:0:
288,176,70197,1,0,0:0:0:0:
224,140,70270,1,0,0:0:0:0:
288,176,70344,1,8,0:0:0:0:
288,176,70490,1,0,0:0:0:0:
288,176,70636,1,0,0:0:0:0:
248,148,70709,1,8,0:0:0:0:
248,148,70783,1,0,0:0:0:0:
248,148,70856,1,0,0:0:0:0:
248,148,70929,1,8,0:0:0:0:
424,80,71003,1,8,0:0:0:0:
424,80,71075,1,0,0:0:0:0:
424,80,71149,1,0,0:0:0:0:
424,80,71222,1,8,0:0:0:0:
232,176,71368,1,0,0:0:0:0:
444,112,71441,1,0,0:0:0:0:
444,112,71515,1,0,0:0:0:0:
300,64,71661,1,0,0:0:0:0:
272,180,71807,1,8,0:0:0:0:
272,180,71954,1,0,0:0:0:0:
292,184,72027,1,8,0:0:0:0:
292,184,72100,1,0,0:0:0:0:
292,184,72246,1,0,0:0:0:0:
292,184,72393,1,8,0:0:0:0:
196,148,72539,1,0,0:0:0:0:
196,148,72612,1,0,0:0:0:0:
196,148,72685,1,8,0:0:0:0:
300,136,72758,1,8,0:0:0:0:
196,148,72832,1,0,0:0:0:0:
196,148,72978,1,8,0:0:0:0:
308,152,73124,1,0,0:0:0:0:
308,152,73198,1,8,0:0:0:0:
308,152,73344,1,8,0:0:0:0:
308,152,73417,1,0,0:0:0:0:
308,152,73563,1,8,0:0:0:0:
292,168,73710,1,8,0:0:0:0:
264,152,73856,1,0,0:0:0:0:
264,152,73929,1,0,0:0:0:0:
264,152,74002,1,0,0:0:0:0:
220,120,74149,1,8,0:0:0:0:
220,120,74295,1,8,0:0:0:0:
264,152,74441,1,0,0:0:0:0:
264,152,74515,1,0,0:0:0:0:
264,152,74588,1,0,0:0:0:0:
372,184,74734,1,8,0:0:0:0:
372,184,74807,1,8,0:0:0:0:
372,184,74881,1,0,0:0:0:0:
372,184,74954,1,8,0:0:0:0:
372,184,75027,1,0,0:0:0:0:
372,184,75100,1,0,0:0:0:0:
372,184,75173,1,8,0:0:0:0:
372,184,75246,1,0,0:0:0:0:
372,184,75319,1,8,0:0:0:0:
372,184,75393,1,8,0:0:0:0:
372,184,75466,1,0,0:0:0:0:
372,184,75539,1,0,0:0:0:0:
372,184,75612,1,8,0:0:0:0:
372,184,75685,1,0,0:0:0:0:
372,184,75759,1,8,0:0:0:0:
272,200,75905,1,4,0:0:0:0:
320,188,76051,1,0,0:0:0:0:
320,188,76124,1,0,0:0:0:0:
320,188,76197,1,8,0:0:0:0:
320,188,76344,1,0,0:0:0:0:
320,188,76490,1,8,0:0:0:0:
248,140,76563,1,0,0:0:0:0:
248,140,76636,1,0,0:0:0:0:
340,148,76709,1,0,0:0:0:0:
248,140,76783,1,8,0:0:0:0:
248,140,76929,1,0,0:0:0:0:
260,180,77075,1,8,0:0:0:0:
260,180,77149,1,8,0:0:0:0:
260,180,77222,1,0,0:0:0:0:
272,152,77295,1,0,0:0:0:0:
260,180,77368,1,8,0:0:0:0:
288,144,77514,1,0,0:0:0:0:
288,144,77661,1,8,0:0:0:0:
304,148,77734,1,0,0:0:0:0:
352,148,77807,1,0,0:0:0:0:
352,148,77880,1,0,0:0:0:0:
352,148,77953,1,8,0:0:0:0:
312,152,78027,1,0,0:0:0:0:
352,148,78100,1,8,0:0:0:0:
312,152,78173,1,8,0:0:0:0:
240,176,78246,1,0,0:0:0:0:
320,188,78392,1,0,0:0:0:0:
320,188,78465,1,0,0:0:0:0:
320,188,78538,1,8,0:0:0:0:
320,188,78685,1,0,0:0:0:0:
320,188,78832,1,8,0:0:0:0:
248,140,78905,1,0,0:0:0:0:
248,140,78978,1,0,0:0:0:0:
272,156,79052,1,0,0:0:0:0:
248,140,79125,1,8,0:0:0:0:
248,140,79271,1,0,0:0:0:0:
260,180,79418,1,8,0:0:0:0:
260,180,79491,1,8,0:0:0:0:
260,180,79564,1,0,0:0:0:0:
288,144,79637,1,0,0:0:0:0:
260,180,79710,1,8,0:0:0:0:
288,144,79857,1,0,0:0:0:0:
288,144,80003,1,8,0:0:0:0:
296,144,80076,1,0,0:0:0:0:
352,148,80149,1,8,0:0:0:0:
352,148,80222,1,8,0:0:0:0:
352,148,80296,1,0,0:0:0:0:
352,148,80369,1,8,0:0:0:0:
300,144,80442,1,0,0:0:0:0:
280,140,80515,1,0,0:0:0:0:
216,188,80588,1,8,0:0:0:0:
320,188,80735,1,0,0:0:0:0:
320,188,80808,1,0,0:0:0:0:
320,188,80881,1,8,0:0:0:0:
320,188,81027,1,0,0:0:0:0:
320,188,81174,1,8,0:0:0:0:
248,140,81247,1,0,0:0:0:0:
248,140,81320,1,8,0:0:0:0:
397,216,81393,1,8,0:0:0:0:
248,140,81466,1,0,0:0:0:0:
248,140,81613,1,0,0:0:0:0:
260,180,81759,1,8,0:0:0:0:
260,180,81832,1,8,0:0:0:0:
260,180,81905,1,0,0:0:0:0:
288,144,81978,1,0,0:0:0:0:
260,180,82052,1,8,0:0:0:0:
288,144,82198,1,0,0:0:0:0:
288,144,82344,1,8,0:0:0:0:
188,160,82417,1,8,0:0:0:0:
352,148,82490,1,0,0:0:0:0:
352,148,82563,1,0,0:0:0:0:
352,148,82636,1,8,0:0:0:0:
284,168,82709,1,0,0:0:0:0:
352,148,82783,1,8,0:0:0:0:
276,172,82856,1,8,0:0:0:0:
240,176,82929,1,0,0:0:0:0:
320,188,83075,1,0,0:0:0:0:
320,188,83148,1,0,0:0:0:0:
320,188,83221,1,8,0:0:0:0:
320,188,83368,1,0,0:0:0:0:
320,188,83514,1,8,0:0:0:0:
248,140,83588,1,0,0:0:0:0:
248,140,83661,1,8,0:0:0:0:
248,140,83734,1,8,0:0:0:0:
301,115,83807,1,0,0:0:0:0:
248,140,83953,1,0,0:0:0:0:
260,180,84099,1,8,0:0:0:0:
260,180,84173,1,8,0:0:0:0:
260,180,84246,1,0,0:0:0:0:
300,160,84319,1,0,0:0:0:0:
260,180,84392,1,8,0:0:0:0:
288,144,84538,1,0,0:0:0:0:
288,144,84612,1,0,0:0:0:0:
288,144,84685,1,8,0:0:0:0:
352,148,84758,1,0,0:0:0:0:
332,176,84831,1,8,0:0:0:0:
352,148,84904,1,8,0:0:0:0:
352,148,84977,1,0,0:0:0:0:
408,148,85051,1,0,0:0:0:0:
352,148,85124,1,8,0:0:0:0:
316,168,85270,1,4,0:0:0:0:
320,188,85417,1,0,0:0:0:0:
320,188,85490,1,0,0:0:0:0:
320,188,85563,1,8,0:0:0:0:
320,188,85710,1,0,0:0:0:0:
320,188,85856,1,8,0:0:0:0:
248,140,85929,1,8,0:0:0:0:
248,140,86002,1,0,0:0:0:0:
360,160,86075,1,0,0:0:0:0:
248,140,86149,1,8,0:0:0:0:
248,140,86295,1,0,0:0:0:0:
176,172,86368,1,0,0:0:0:0:
260,180,86441,1,8,0:0:0:0:
260,180,86515,1,8,0:0:0:0:
260,180,86588,1,0,0:0:0:0:
288,144,86661,1,0,0:0:0:0:
260,180,86734,1,8,0:0:0:0:
288,144,86880,1,0,0:0:0:0:
288,144,87027,1,8,0:0:0:0:
352,148,87100,1,0,0:0:0:0:
392,120,87173,1,8,0:0:0:0:
352,148,87466,1,8,0:0:0:0:
148,128,87515,1,8,0:0:0:0:
180,136,87564,1,8,0:0:0:0:
180,136,87613,1,0,0:0:0:0:
320,188,87759,1,0,0:0:0:0:
320,188,87832,1,0,0:0:0:0:
320,188,87905,1,8,0:0:0:0:
320,188,88052,1,0,0:0:0:0:
320,188,88198,1,8,0:0:0:0:
248,140,88271,1,8,0:0:0:0:
248,140,88343,1,0,0:0:0:0:
276,160,88417,1,0,0:0:0:0:
248,140,88490,1,8,0:0:0:0:
248,140,88636,1,0,0:0:0:0:
356,168,88709,1,0,0:0:0:0:
260,180,88782,1,8,0:0:0:0:
288,144,89076,1,8,0:0:0:0:
288,144,89149,1,8,0:0:0:0:
168,60,89222,1,8,0:0:0:0:
136,128,89296,1,8,0:0:0:0:
288,144,89369,1,0,0:0:0:0:
240,160,89661,1,0,0:0:0:0:
216,188,89954,1,0,0:0:0:0:
320,188,90100,1,0,0:0:0:0:
320,188,90173,1,0,0:0:0:0:
320,188,90246,1,8,0:0:0:0:
320,188,90393,1,0,0:0:0:0:
320,188,90539,1,8,0:0:0:0:
248,140,90612,1,0,0:0:0:0:
248,140,90685,1,8,0:0:0:0:
420,232,90758,1,8,0:0:0:0:
248,140,90832,1,0,0:0:0:0:
248,140,90978,1,8,0:0:0:0:
320,176,91051,1,0,0:0:0:0:
260,180,91124,1,8,0:0:0:0:
260,180,91198,1,8,0:0:0:0:
260,180,91271,1,0,0:0:0:0:
248,140,91344,1,0,0:0:0:0:
260,180,91417,1,8,0:0:0:0:
288,144,91563,1,0,0:0:0:0:
288,144,91710,1,8,0:0:0:0:
352,148,91857,1,8,0:0:0:0:
352,148,92003,1,8,0:0:0:0:
352,148,92076,1,8,0:0:0:0:
352,148,92149,1,0,0:0:0:0:
264,176,92222,1,0,0:0:0:0:
240,176,92296,1,0,0:0:0:0:
320,188,92442,1,0,0:0:0:0:
320,188,92515,1,0,0:0:0:0:
320,188,92588,1,8,0:0:0:0:
320,188,92735,1,0,0:0:0:0:
364,172,92808,1,0,0:0:0:0:
320,188,92881,1,8,0:0:0:0:
248,140,92953,1,0,0:0:0:0:
248,140,93026,1,0,0:0:0:0:
344,144,93100,1,0,0:0:0:0:
248,140,93173,1,8,0:0:0:0:
248,140,93319,1,0,0:0:0:0:
260,180,93465,1,8,0:0:0:0:
260,180,93539,1,0,0:0:0:0:
260,180,93612,1,0,0:0:0:0:
260,180,93685,1,8,0:0:0:0:
248,172,93758,1,0,0:0:0:0:
288,144,93831,1,0,0:0:0:0:
288,144,93904,1,8,0:0:0:0:
288,144,93977,1,8,0:0:0:0:
288,144,94051,1,0,0:0:0:0:
332,176,94124,1,8,0:0:0:0:
352,148,94197,1,8,0:0:0:0:
352,148,94270,1,0,0:0:0:0:
352,148,94343,1,8,0:0:0:0:
408,148,94417,1,0,0:0:0:0:
352,148,94490,1,8,0:0:0:0:
316,168,94637,1,4,0:0:0:0:
320,188,94783,1,0,0:0:0:0:
320,188,94856,1,0,0:0:0:0:
320,188,94929,1,8,0:0:0:0:
320,188,95075,1,0,0:0:0:0:
164,192,95149,1,0,0:0:0:0:
320,188,95222,1,8,0:0:0:0:
248,140,95295,1,0,0:0:0:0:
248,140,95368,1,0,0:0:0:0:
248,140,95441,1,8,0:0:0:0:
344,176,95515,1,0,0:0:0:0:
248,140,95661,1,0,0:0:0:0:
260,180,95807,1,8,0:0:0:0:
260,180,95880,1,0,0:0:0:0:
260,180,95953,1,8,0:0:0:0:
288,144,96027,1,8,0:0:0:0:
260,180,96100,1,0,0:0:0:0:
288,144,96246,1,0,0:0:0:0:
288,144,96393,1,8,0:0:0:0:
212,148,96466,1,0,0:0:0:0:
352,148,96539,1,8,0:0:0:0:
240,120,96612,1,8,0:0:0:0:
352,148,96685,1,0,0:0:0:0:
272,144,96758,1,0,0:0:0:0:
352,148,96832,1,8,0:0:0:0:
240,176,96978,1,0,0:0:0:0:
320,188,97124,1,0,0:0:0:0:
320,188,97197,1,0,0:0:0:0:
320,188,97270,1,8,0:0:0:0:
320,188,97417,1,0,0:0:0:0:
368,200,97490,1,0,0:0:0:0:
320,188,97563,1,8,0:0:0:0:
248,140,97636,1,0,0:0:0:0:
248,140,97709,1,8,0:0:0:0:
248,140,97783,1,8,0:0:0:0:
296,144,97856,1,0,0:0:0:0:
248,140,98002,1,0,0:0:0:0:
260,180,98148,1,8,0:0:0:0:
376,152,98222,1,8,0:0:0:0:
260,180,98295,1,0,0:0:0:0:
260,180,98368,1,8,0:0:0:0:
260,180,98441,1,0,0:0:0:0:
288,144,98587,1,0,0:0:0:0:
288,144,98734,1,8,0:0:0:0:
296,144,98807,1,0,0:0:0:0:
352,148,98880,1,0,0:0:0:0:
296,148,98953,1,8,0:0:0:0:
352,148,99026,1,8,0:0:0:0:
192,152,99100,1,0,0:0:0:0:
352,148,99173,1,8,0:0:0:0:
216,188,99319,1,4,0:0:0:0:
320,188,99466,1,0,0:0:0:0:
320,188,99539,1,0,0:0:0:0:
320,188,99612,1,8,0:0:0:0:
320,188,99759,1,0,0:0:0:0:
308,152,99831,1,8,0:0:0:0:
320,188,99905,1,8,0:0:0:0:
248,140,99978,1,0,0:0:0:0:
248,140,100051,1,8,0:0:0:0:
248,140,100124,1,8,0:0:0:0:
344,176,100198,1,0,0:0:0:0:
308,152,100344,1,0,0:0:0:0:
260,180,100490,1,8,0:0:0:0:
268,152,100563,1,0,0:0:0:0:
260,180,100637,1,0,0:0:0:0:
260,180,100709,1,8,0:0:0:0:
260,180,100783,1,0,0:0:0:0:
288,144,100929,1,0,0:0:0:0:
288,144,101076,1,8,0:0:0:0:
356,120,101149,1,0,0:0:0:0:
352,148,101222,1,0,0:0:0:0:
352,148,101295,1,8,0:0:0:0:
356,120,101368,1,0,0:0:0:0:
316,100,101441,1,0,0:0:0:0:
352,148,101515,1,8,0:0:0:0:
240,176,101661,1,0,0:0:0:0:
320,188,101807,1,0,0:0:0:0:
320,188,101880,1,0,0:0:0:0:
320,188,101953,1,8,0:0:0:0:
320,188,102100,1,0,0:0:0:0:
320,188,102173,1,8,0:0:0:0:
336,140,102246,1,0,0:0:0:0:
248,140,102319,1,0,0:0:0:0:
248,140,102392,1,8,0:0:0:0:
248,140,102466,1,8,0:0:0:0:
304,116,102539,1,0,0:0:0:0:
248,140,102685,1,0,0:0:0:0:
260,180,102831,1,8,0:0:0:0:
376,180,102905,1,8,0:0:0:0:
260,180,102978,1,0,0:0:0:0:
240,104,103051,1,0,0:0:0:0:
260,180,103124,1,8,0:0:0:0:
431,267,103197,1,0,0:0:0:0:
352,148,103270,1,8,0:0:0:0:
431,267,103344,1,8,0:0:0:0:
224,144,103417,1,0,0:0:0:0:
288,144,103490,1,8,0:0:0:0:
352,148,103563,1,0,0:0:0:0:
352,148,103636,1,8,0:0:0:0:
332,176,103709,1,8,0:0:0:0:
408,148,103783,1,0,0:0:0:0:
352,148,103856,1,8,0:0:0:0:
316,168,104002,1,4,0:0:0:0:
320,188,104149,1,0,0:0:0:0:
320,188,104222,1,0,0:0:0:0:
320,188,104295,1,8,0:0:0:0:
320,188,104441,1,0,0:0:0:0:
292,100,104514,1,0,0:0:0:0:
320,188,104588,1,8,0:0:0:0:
248,140,104661,1,0,0:0:0:0:
248,140,104734,1,8,0:0:0:0:
248,140,104807,1,8,0:0:0:0:
344,176,104881,1,0,0:0:0:0:
320,116,105027,1,0,0:0:0:0:
260,180,105173,1,8,0:0:0:0:
260,180,105246,1,0,0:0:0:0:
260,180,105319,1,0,0:0:0:0:
156,144,105392,1,0,0:0:0:0:
260,180,105466,1,8,0:0:0:0:
288,144,105612,1,0,0:0:0:0:
288,144,105759,1,8,0:0:0:0:
372,80,105831,1,0,0:0:0:0:
352,148,105905,1,0,0:0:0:0:
372,80,105978,1,0,0:0:0:0:
352,148,106051,1,8,0:0:0:0:
272,144,106124,1,0,0:0:0:0:
352,148,106198,1,8,0:0:0:0:
256,132,106271,1,8,0:0:0:0:
240,176,106344,1,0,0:0:0:0:
320,188,106490,1,0,0:0:0:0:
320,188,106563,1,0,0:0:0:0:
320,188,106636,1,8,0:0:0:0:
320,188,106783,1,0,0:0:0:0:
384,132,106856,1,0,0:0:0:0:
320,188,106929,1,8,0:0:0:0:
248,140,107002,1,0,0:0:0:0:
248,140,107075,1,8,0:0:0:0:
248,140,107149,1,8,0:0:0:0:
296,144,107222,1,0,0:0:0:0:
248,140,107368,1,0,0:0:0:0:
260,180,107515,1,8,0:0:0:0:
260,180,107661,1,0,0:0:0:0:
260,180,107735,1,0,0:0:0:0:
260,180,107808,1,8,0:0:0:0:
288,144,107954,1,0,0:0:0:0:
231,187,108027,1,0,0:0:0:0:
288,144,108100,1,8,0:0:0:0:
352,148,108174,1,0,0:0:0:0:
308,148,108247,1,8,0:0:0:0:
352,148,108320,1,8,0:0:0:0:
192,152,108393,1,0,0:0:0:0:
264,80,108466,1,0,0:0:0:0:
352,148,108539,1,8,0:0:0:0:
352,148,108613,1,8,0:0:0:0:
216,188,108686,1,0,0:0:0:0:
240,160,108783,1,0,0:0:0:0:
320,188,108881,1,0,0:0:0:0:
320,188,108978,1,12,0:0:0:0:
320,188,109125,1,0,0:0:0:0:
268,136,109198,1,0,0:0:0:0:
320,188,109271,1,8,0:0:0:0:
248,140,109344,1,0,0:0:0:0:
248,140,109418,1,8,0:0:0:0:
248,140,109491,1,8,0:0:0:0:
344,176,109564,1,0,0:0:0:0:
248,140,109710,1,0,0:0:0:0:
260,180,109856,1,8,0:0:0:0:
328,164,109929,1,8,0:0:0:0:
260,180,110003,1,0,0:0:0:0:
260,180,110075,1,8,0:0:0:0:
260,180,110149,1,8,0:0:0:0:
288,144,110295,1,0,0:0:0:0:
288,144,110442,1,8,0:0:0:0:
408,204,110514,1,0,0:0:0:0:
352,148,110588,1,0,0:0:0:0:
352,148,110661,1,8,0:0:0:0:
160,152,110734,1,0,0:0:0:0:
352,148,110881,1,8,0:0:0:0:
240,176,111027,1,0,0:0:0:0:
320,188,111174,1,0,0:0:0:0:
320,188,111247,1,0,0:0:0:0:
320,188,111320,1,8,0:0:0:0:
188,136,111393,1,0,0:0:0:0:
320,188,111466,1,0,0:0:0:0:
320,188,111539,1,8,0:0:0:0:
248,92,111613,1,0,0:0:0:0:
248,140,111759,1,8,0:0:0:0:
248,140,111832,1,8,0:0:0:0:
232,104,111905,1,0,0:0:0:0:
288,72,111978,1,8,0:0:0:0:
260,180,112052,1,8,0:0:0:0:
276,112,112125,1,0,0:0:0:0:
248,140,112198,1,8,0:0:0:0:
260,180,112344,1,0,0:0:0:0:
260,180,112418,1,0,0:0:0:0:
260,180,112491,1,8,0:0:0:0:
288,144,112564,1,0,0:0:0:0:
288,144,112637,1,8,0:0:0:0:
288,144,112710,1,8,0:0:0:0:
288,144,112783,1,0,0:0:0:0:
352,148,112857,1,8,0:0:0:0:
332,176,112930,1,0,0:0:0:0:
352,148,113003,1,0,0:0:0:0:
352,148,113076,1,8,0:0:0:0:
352,148,113149,1,8,0:0:0:0:
408,148,113222,1,8,0:0:0:0:
152,164,113296,1,8,0:0:0:0:
316,168,113369,1,4,0:0:0:0:
320,128,113515,1,0,0:0:0:0:
220,115,113588,1,0,0:0:0:0:
332,152,113661,1,8,0:0:0:0:
332,152,113735,1,8,0:0:0:0:
320,128,113808,1,0,0:0:0:0:
320,128,113881,1,0,0:0:0:0:
332,152,113954,1,8,0:0:0:0:
320,128,114027,1,8,0:0:0:0:
320,128,114100,1,0,0:0:0:0:
320,128,114174,1,0,0:0:0:0:
320,128,114247,1,8,0:0:0:0:
332,152,114320,1,8,0:0:0:0:
320,128,114393,1,0,0:0:0:0:
232,40,114539,1,12,0:0:0:0:
308,184,114832,1,0,0:0:0:0:
308,184,115125,1,8,0:0:0:0:
416,124,115418,1,0,0:0:0:0:
416,124,115564,1,0,0:0:0:0:
416,124,115710,1,8,0:0:0:0:
244,156,116003,1,8,0:0:0:0:
272,160,116296,1,0,0:0:0:0:
300,160,116442,1,0,0:0:0:0:
320,164,116588,1,0,0:0:0:0:
320,164,116735,1,8,0:0:0:0:
320,164,116881,1,0,0:0:0:0:
320,140,117174,1,0,0:0:0:0:
228,144,117467,1,0,0:0:0:0:
236,144,117613,1,0,0:0:0:0:
236,144,117759,1,8,0:0:0:0:
240,140,117906,1,8,0:0:0:0:
236,136,118052,1,8,0:0:0:0:
260,128,118345,1,8,0:0:0:0:
260,128,118637,1,0,0:0:0:0:
260,128,118930,1,0,0:0:0:0:
264,128,119076,1,8,0:0:0:0:
88,148,119223,1,0,0:0:0:0:
160,172,120393,1,0,0:0:0:0:
360,176,121564,1,0,0:0:0:0:
368,176,122150,1,8,0:0:0:0:
368,176,122735,1,8,0:0:0:0:
292,132,123028,1,8,0:0:0:0:
292,132,123320,1,0,0:0:0:0:
292,132,123613,1,0,0:0:0:0:
292,132,123906,1,8,0:0:0:0:
308,184,124198,1,0,0:0:0:0:
308,184,124491,1,8,0:0:0:0:
416,124,124784,1,0,0:0:0:0:
416,124,124930,1,0,0:0:0:0:
416,124,125076,1,8,0:0:0:0:
244,156,125369,1,8,0:0:0:0:
272,160,125662,1,0,0:0:0:0:
300,160,125808,1,0,0:0:0:0:
320,164,125955,1,0,0:0:0:0:
320,164,126101,1,8,0:0:0:0:
320,164,126247,1,0,0:0:0:0:
320,140,126540,1,0,0:0:0:0:
228,144,126833,1,0,0:0:0:0:
236,144,126979,1,0,0:0:0:0:
236,144,127125,1,8,0:0:0:0:
240,140,127272,1,8,0:0:0:0:
236,136,127418,1,8,0:0:0:0:
260,128,127711,1,8,0:0:0:0:
260,128,128003,1,0,0:0:0:0:
260,128,128296,1,8,0:0:0:0:
216,176,128442,1,8,0:0:0:0:
88,148,128589,1,0,0:0:0:0:
160,172,129759,1,0,0:0:0:0:
360,176,130930,1,8,0:0:0:0:
368,176,132101,1,0,0:0:0:0:
292,132,132394,1,8,0:0:0:0:
292,132,132686,1,8,0:0:0:0:
292,132,132979,1,0,0:0:0:0:
292,132,133271,1,12,0:0:0:0:
320,168,133564,1,0,0:0:0:0:
320,168,133710,1,0,0:0:0:0:
320,168,133857,1,8,0:0:0:0:
320,168,134150,1,0,0:0:0:0:
320,168,134296,1,0,0:0:0:0:
320,168,134442,1,0,0:0:0:0:
320,168,134589,1,8,0:0:0:0:
320,168,134735,1,0,0:0:0:0:
432,184,135028,1,8,0:0:0:0:
224,176,135320,1,0,0:0:0:0:
268,184,135467,1,8,0:0:0:0:
268,184,135613,1,0,0:0:0:0:
268,184,135906,1,0,0:0:0:0:
300,172,136052,1,0,0:0:0:0:
268,184,136198,1,8,0:0:0:0:
344,104,136491,1,0,0:0:0:0:
416,240,136637,1,0,0:0:0:0:
344,104,136784,1,0,0:0:0:0:
344,104,136930,1,8,0:0:0:0:
344,104,137076,1,0,0:0:0:0:
344,104,137223,1,0,0:0:0:0:
344,104,137369,1,8,0:0:0:0:
244,176,137662,1,0,0:0:0:0:
308,184,137954,1,0,0:0:0:0:
320,168,138247,1,0,0:0:0:0:
320,168,138393,1,0,0:0:0:0:
320,168,138540,1,8,0:0:0:0:
320,168,138833,1,0,0:0:0:0:
320,168,138979,1,0,0:0:0:0:
320,168,139125,1,0,0:0:0:0:
320,168,139272,1,8,0:0:0:0:
320,168,139418,1,0,0:0:0:0:
432,184,139711,1,8,0:0:0:0:
224,176,140003,1,0,0:0:0:0:
268,184,140150,1,8,0:0:0:0:
268,184,140296,1,0,0:0:0:0:
268,184,140589,1,0,0:0:0:0:
300,172,140735,1,0,0:0:0:0:
268,184,140881,1,8,0:0:0:0:
344,104,141174,1,0,0:0:0:0:
296,192,141320,1,0,0:0:0:0:
344,104,141467,1,0,0:0:0:0:
344,104,141613,1,8,0:0:0:0:
344,104,141759,1,0,0:0:0:0:
392,240,141905,1,0,0:0:0:0:
344,104,142052,1,8,0:0:0:0:
308,184,142344,1,0,0:0:0:0:
260,144,142637,1,0,0:0:0:0:
320,168,142930,1,0,0:0:0:0:
320,168,143076,1,0,0:0:0:0:
320,168,143223,1,8,0:0:0:0:
320,168,143516,1,0,0:0:0:0:
320,168,143808,1,0,0:0:0:0:
320,168,143955,1,8,0:0:0:0:
320,168,144101,1,0,0:0:0:0:
232,136,144247,1,0,0:0:0:0:
432,184,144394,1,8,0:0:0:0:
224,176,144686,1,0,0:0:0:0:
268,184,144833,1,8,0:0:0:0:
268,184,144979,1,0,0:0:0:0:
268,184,145272,1,0,0:0:0:0:
300,172,145418,1,0,0:0:0:0:
268,184,145564,1,8,0:0:0:0:
344,104,145857,1,0,0:0:0:0:
296,192,146003,1,0,0:0:0:0:
344,104,146150,1,0,0:0:0:0:
344,104,146296,1,8,0:0:0:0:
344,104,146442,1,0,0:0:0:0:
344,104,146589,1,0,0:0:0:0:
344,104,146735,1,8,0:0:0:0:
216,168,146881,1,8,0:0:0:0:
308,184,147027,1,0,0:0:0:0:
260,144,147174,1,0,0:0:0:0:
260,144,147320,1,8,0:0:0:0:
256,160,147613,1,0,0:0:0:0:
284,160,147759,1,0,0:0:0:0:
284,160,147906,1,8,0:0:0:0:
284,160,148198,1,0,0:0:0:0:
284,160,148345,1,0,0:0:0:0:
284,160,148491,1,8,0:0:0:0:
284,160,148784,1,0,0:0:0:0:
284,160,148930,1,0,0:0:0:0:
284,160,149076,1,8,0:0:0:0:
284,160,149369,1,0,0:0:0:0:
284,160,149515,1,0,0:0:0:0:
284,160,149662,1,8,0:0:0:0:
140,144,149808,1,0,0:0:0:0:
248,136,149954,1,8,0:0:0:0:
272,164,150101,1,0,0:0:0:0:
264,136,150247,1,8,0:0:0:0:
272,164,150393,1,0,0:0:0:0:
264,136,150540,1,8,0:0:0:0:
272,164,150686,1,0,0:0:0:0:
356,112,150832,1,8,0:0:0:0:
356,112,150979,1,8,0:0:0:0:
356,112,151125,1,8,0:0:0:0:
356,112,151271,1,8,0:0:0:0:
356,112,151418,1,8,0:0:0:0:
204,144,151491,1,8,0:0:0:0:
208,144,151564,1,0,0:0:0:0:
208,144,151637,1,8,0:0:0:0:
208,144,151710,1,0,0:0:0:0:
248,128,151783,1,0,0:0:0:0:
208,144,151857,1,8,0:0:0:0:
284,152,151905,1,8,0:0:0:0:
230,123,151954,1,8,0:0:0:0:
140,148,152003,1,0,0:0:0:0:
364,184,152296,1,0,0:0:0:0:
272,128,152588,1,8,0:0:0:0:
248,168,152881,1,0,0:0:0:0:
284,148,153174,1,8,0:0:0:0:
268,96,153466,1,0,0:0:0:0:
380,152,153759,1,8,0:0:0:0:
268,96,154052,1,8,0:0:0:0:
284,148,154345,1,0,0:0:0:0:
144,164,154637,1,0,0:0:0:0:
380,152,154930,1,8,0:0:0:0:
256,76,155222,1,0,0:0:0:0:
380,152,155515,1,8,0:0:0:0:
268,80,155808,1,0,0:0:0:0:
380,152,156101,1,8,0:0:0:0:
304,156,156393,1,8,0:0:0:0:
344,164,156540,1,8,0:0:0:0:
144,152,156686,1,0,0:0:0:0:
200,144,156978,1,0,0:0:0:0:
272,128,157272,1,8,0:0:0:0:
240,88,157564,1,0,0:0:0:0:
284,148,157857,1,8,0:0:0:0:
240,88,158149,1,0,0:0:0:0:
380,152,158442,1,8,0:0:0:0:
240,88,158735,1,8,0:0:0:0:
284,148,159028,1,0,0:0:0:0:
240,88,159320,1,0,0:0:0:0:
380,152,159613,1,8,0:0:0:0:
260,132,159905,1,0,0:0:0:0:
380,152,160198,1,8,0:0:0:0:
200,136,160345,1,0,0:0:0:0:
252,164,160418,1,0,0:0:0:0:
360,188,160491,1,8,0:0:0:0:
288,148,160637,1,0,0:0:0:0:
380,152,160784,1,8,0:0:0:0:
224,180,160857,1,8,0:0:0:0:
368,204,160930,1,0,0:0:0:0:
368,204,161003,1,0,0:0:0:0:
304,156,161076,1,8,0:0:0:0:
368,204,161150,1,0,0:0:0:0:
368,204,161223,1,8,0:0:0:0:
344,140,161369,1,4,0:0:0:0:
411,139,161808,1,0,0:0:0:0:
411,139,162247,1,0,0:0:0:0:
224,168,162540,1,8,0:0:0:0:
287,150,162979,1,8,0:0:0:0:
240,168,163418,1,8,0:0:0:0:
295,183,163710,1,0,0:0:0:0:
248,177,164150,1,0,0:0:0:0:
248,177,164589,1,0,0:0:0:0:
252,168,164881,1,8,0:0:0:0:
278,171,165320,1,8,0:0:0:0:
278,171,165759,1,8,0:0:0:0:
304,152,166052,1,0,0:0:0:0:
304,152,166345,1,0,0:0:0:0:
304,152,166637,1,0,0:0:0:0:
304,152,166930,1,0,0:0:0:0:
304,152,167223,1,8,0:0:0:0:
384,140,167369,1,0,0:0:0:0:
304,152,167515,1,8,0:0:0:0:
384,140,167662,1,0,0:0:0:0:
304,152,167808,1,8,0:0:0:0:
384,140,167954,1,0,0:0:0:0:
304,152,168101,1,8,0:0:0:0:
296,148,168247,1,0,0:0:0:0:
396,104,168393,1,8,0:0:0:0:
396,104,168539,1,0,0:0:0:0:
396,104,168613,1,0,0:0:0:0:
396,104,168686,1,8,0:0:0:0:
396,104,168832,1,0,0:0:0:0:
396,104,168979,1,8,0:0:0:0:
396,104,169052,1,8,0:0:0:0:
396,104,169125,1,0,0:0:0:0:
396,104,169198,1,0,0:0:0:0:
396,104,169271,1,8,0:0:0:0:
396,104,169418,1,0,0:0:0:0:
392,176,169564,1,8,0:0:0:0:
392,176,169637,1,0,0:0:0:0:
392,176,169710,1,8,0:0:0:0:
392,176,169784,1,8,0:0:0:0:
392,176,169857,1,0,0:0:0:0:
392,176,169930,1,8,0:0:0:0:
392,176,170003,1,0,0:0:0:0:
392,176,170076,1,0,0:0:0:0:
392,176,170150,1,8,0:0:0:0:
392,176,170223,1,0,0:0:0:0:
392,176,170296,1,8,0:0:0:0:
392,176,170369,1,8,0:0:0:0:
392,176,170442,1,0,0:0:0:0:
204,156,170515,1,8,0:0:0:0:
392,176,170589,1,0,0:0:0:0:
280,152,170637,1,0,0:0:0:0:
300,152,170686,1,0,0:0:0:0:
300,152,170735,1,8,0:0:0:0:
296,128,171028,1,0,0:0:0:0:
304,128,171320,1,8,0:0:0:0:
324,160,171613,1,0,0:0:0:0:
324,160,171759,1,0,0:0:0:0:
324,160,171906,1,8,0:0:0:0:
280,144,172198,1,0,0:0:0:0:
320,144,172491,1,8,0:0:0:0:
320,144,172564,1,8,0:0:0:0:
320,144,172637,1,0,0:0:0:0:
320,144,172710,1,0,0:0:0:0:
320,144,172784,1,8,0:0:0:0:
256,96,172930,1,8,0:0:0:0:
208,176,173076,1,4,0:0:0:0:
212,128,173223,1,0,0:0:0:0:
244,128,173296,1,0,0:0:0:0:
244,128,173369,1,8,0:0:0:0:
232,136,173515,1,0,0:0:0:0:
196,144,173662,1,8,0:0:0:0:
216,144,173735,1,0,0:0:0:0:
216,144,173808,1,8,0:0:0:0:
216,144,173881,1,8,0:0:0:0:
216,144,173954,1,0,0:0:0:0:
216,144,174028,1,0,0:0:0:0:
216,144,174101,1,8,0:0:0:0:
216,144,174247,1,8,0:0:0:0:
296,172,174393,1,0,0:0:0:0:
328,176,174467,1,0,0:0:0:0:
328,176,174540,1,8,0:0:0:0:
328,176,174686,1,0,0:0:0:0:
328,176,174759,1,8,0:0:0:0:
328,176,174832,1,0,0:0:0:0:
332,176,174979,1,8,0:0:0:0:
332,176,175052,1,8,0:0:0:0:
332,176,175125,1,0,0:0:0:0:
332,176,175271,1,8,0:0:0:0:
232,144,175418,1,0,0:0:0:0:
268,148,175491,1,0,0:0:0:0:
268,148,175564,1,8,0:0:0:0:
268,148,175637,1,8,0:0:0:0:
268,148,175710,1,0,0:0:0:0:
268,148,175857,1,0,0:0:0:0:
268,148,176003,1,8,0:0:0:0:
268,148,176076,1,0,0:0:0:0:
268,148,176150,1,8,0:0:0:0:
268,148,176223,1,8,0:0:0:0:
268,148,176296,1,0,0:0:0:0:
432,80,176369,1,0,0:0:0:0:
268,148,176442,1,8,0:0:0:0:
232,148,176589,1,8,0:0:0:0:
228,148,176662,1,8,0:0:0:0:
236,148,176735,1,0,0:0:0:0:
236,148,176808,1,0,0:0:0:0:
236,148,176881,1,8,0:0:0:0:
236,148,177028,1,8,0:0:0:0:
236,148,177174,1,0,0:0:0:0:
236,148,177247,1,0,0:0:0:0:
236,148,177320,1,8,0:0:0:0:
236,148,177393,1,0,0:0:0:0:
236,148,177467,1,8,0:0:0:0:
236,148,177540,1,8,0:0:0:0:
136,168,177613,1,0,0:0:0:0:
240,140,177759,1,8,0:0:0:0:
200,172,177906,1,0,0:0:0:0:
232,176,177979,1,8,0:0:0:0:
320,176,178125,1,8,0:0:0:0:
232,176,178198,1,0,0:0:0:0:
368,148,178271,1,0,0:0:0:0:
232,176,178345,1,8,0:0:0:0:
232,176,178491,1,0,0:0:0:0:
232,176,178564,1,8,0:0:0:0:
468,384,178710,1,8,0:0:0:0:
464,384,178783,1,8,0:0:0:0:
240,164,178857,1,0,0:0:0:0:
352,188,178930,1,8,0:0:0:0:
320,168,179076,1,8,0:0:0:0:
460,384,179149,1,0,0:0:0:0:
328,168,179296,1,0,0:0:0:0:
468,384,179369,1,8,0:0:0:0:
108,144,179442,1,0,0:0:0:0:
316,100,179515,1,8,0:0:0:0:
316,100,179589,1,8,0:0:0:0:
316,100,179662,1,0,0:0:0:0:
320,96,179735,1,8,0:0:0:0:
316,100,179808,1,0,0:0:0:0:
320,96,179881,1,0,0:0:0:0:
320,96,179954,1,8,0:0:0:0:
320,96,180101,1,4,0:0:0:0:
212,128,180247,1,0,0:0:0:0:
244,128,180320,1,0,0:0:0:0:
244,128,180393,1,8,0:0:0:0:
216,144,180540,1,0,0:0:0:0:
196,144,180686,1,8,0:0:0:0:
216,144,180759,1,0,0:0:0:0:
216,144,180832,1,8,0:0:0:0:
216,144,180906,1,8,0:0:0:0:
216,144,180979,1,0,0:0:0:0:
216,144,181052,1,8,0:0:0:0:
304,152,181125,1,0,0:0:0:0:
216,144,181271,1,8,0:0:0:0:
296,172,181417,1,0,0:0:0:0:
328,176,181491,1,8,0:0:0:0:
328,176,181564,1,0,0:0:0:0:
328,176,181710,1,0,0:0:0:0:
328,176,181856,1,0,0:0:0:0:
404,156,181930,1,0,0:0:0:0:
332,176,182003,1,8,0:0:0:0:
332,176,182076,1,8,0:0:0:0:
332,176,182149,1,0,0:0:0:0:
332,176,182295,1,8,0:0:0:0:
288,130,182369,1,0,0:0:0:0:
268,148,182442,1,8,0:0:0:0:
228,144,182515,1,8,0:0:0:0:
268,148,182589,1,0,0:0:0:0:
268,148,182735,1,8,0:0:0:0:
250,136,182881,1,0,0:0:0:0:
232,39,183027,1,8,0:0:0:0:
268,96,183101,1,0,0:0:0:0:
268,148,183174,1,8,0:0:0:0:
268,148,183247,1,8,0:0:0:0:
268,148,183320,1,0,0:0:0:0:
328,120,183393,1,0,0:0:0:0:
268,148,183466,1,8,0:0:0:0:
228,148,183613,1,8,0:0:0:0:
232,148,183759,1,0,0:0:0:0:
236,148,183832,1,0,0:0:0:0:
248,132,183906,1,8,0:0:0:0:
180,144,184052,1,0,0:0:0:0:
236,148,184125,1,8,0:0:0:0:
236,148,184198,1,0,0:0:0:0:
236,148,184344,1,8,0:0:0:0:
236,148,184417,1,8,0:0:0:0:
236,148,184491,1,0,0:0:0:0:
236,148,184637,1,0,0:0:0:0:
240,140,184783,1,8,0:0:0:0:
358,180,184857,1,0,0:0:0:0:
200,172,184930,1,0,0:0:0:0:
232,176,185003,1,8,0:0:0:0:
232,176,185076,1,0,0:0:0:0:
232,176,185222,1,8,0:0:0:0:
284,139,185296,1,8,0:0:0:0:
232,176,185369,1,0,0:0:0:0:
144,128,185442,1,0,0:0:0:0:
232,176,185515,1,8,0:0:0:0:
232,176,185588,1,0,0:0:0:0:
232,176,185661,1,8,0:0:0:0:
232,176,185808,1,0,0:0:0:0:
178,152,185954,1,0,0:0:0:0:
328,168,186027,1,8,0:0:0:0:
220,157,186100,1,8,0:0:0:0:
320,168,186174,1,0,0:0:0:0:
271,147,186247,1,8,0:0:0:0:
316,100,186393,1,0,0:0:0:0:
271,147,186466,1,0,0:0:0:0:
316,100,186539,1,8,0:0:0:0:
271,147,186613,1,0,0:0:0:0:
316,100,186686,1,8,0:0:0:0:
320,96,186759,1,8,0:0:0:0:
316,100,186832,1,0,0:0:0:0:
320,96,186978,1,8,0:0:0:0:
320,96,187125,1,0,0:0:0:0:
205,164,187271,1,0,0:0:0:0:
245,168,187345,1,8,0:0:0:0:
245,168,187491,1,8,0:0:0:0:
245,168,187564,1,8,0:0:0:0:
235,100,187637,1,8,0:0:0:0:
245,168,187710,1,0,0:0:0:0:
125,163,187857,1,0,0:0:0:0:
251,172,187930,1,8,0:0:0:0:
251,172,188076,1,8,0:0:0:0:
251,172,188150,1,0,0:0:0:0:
251,172,188223,1,0,0:0:0:0:
251,172,188296,1,8,0:0:0:0:
231,187,188442,1,0,0:0:0:0:
245,189,188515,1,0,0:0:0:0:
245,189,188589,1,8,0:0:0:0:
245,189,188735,1,0,0:0:0:0:
245,189,188808,1,0,0:0:0:0:
245,189,188881,1,8,0:0:0:0:
245,189,189028,1,0,0:0:0:0:
245,189,189101,1,0,0:0:0:0:
245,189,189174,1,8,0:0:0:0:
311,145,189223,1,8,0:0:0:0:
245,189,189271,1,8,0:0:0:0:
182,180,189320,1,0,0:0:0:0:
245,189,189369,1,8,0:0:0:0:
245,189,189418,1,8,0:0:0:0:
214,181,189467,1,0,0:0:0:0:
212,128,189613,1,0,0:0:0:0:
244,128,189686,1,8,0:0:0:0:
244,128,189759,1,0,0:0:0:0:
232,136,189905,1,0,0:0:0:0:
253,173,189979,1,0,0:0:0:0:
196,144,190052,1,8,0:0:0:0:
216,144,190198,1,0,0:0:0:0:
216,144,190271,1,8,0:0:0:0:
216,144,190344,1,0,0:0:0:0:
296,148,190418,1,0,0:0:0:0:
216,144,190491,1,8,0:0:0:0:
216,144,190637,1,8,0:0:0:0:
296,172,190783,1,0,0:0:0:0:
328,176,190857,1,0,0:0:0:0:
328,176,190930,1,8,0:0:0:0:
328,176,191076,1,0,0:0:0:0:
328,176,191149,1,8,0:0:0:0:
328,176,191222,1,0,0:0:0:0:
331,187,191296,1,0,0:0:0:0:
332,176,191369,1,8,0:0:0:0:
332,176,191442,1,8,0:0:0:0:
332,176,191515,1,0,0:0:0:0:
332,176,191661,1,8,0:0:0:0:
343,189,191735,1,0,0:0:0:0:
268,148,191808,1,8,0:0:0:0:
268,148,191881,1,8,0:0:0:0:
232,144,191954,1,0,0:0:0:0:
268,148,192100,1,8,0:0:0:0:
268,148,192247,1,0,0:0:0:0:
268,148,192393,1,8,0:0:0:0:
178,172,192467,1,0,0:0:0:0:
268,148,192540,1,8,0:0:0:0:
268,148,192613,1,8,0:0:0:0:
331,152,192686,1,0,0:0:0:0:
228,148,192759,1,0,0:0:0:0:
268,148,192832,1,8,0:0:0:0:
232,148,192979,1,8,0:0:0:0:
236,148,193125,1,0,0:0:0:0:
128,128,193198,1,0,0:0:0:0:
236,148,193271,1,8,0:0:0:0:
236,148,193418,1,0,0:0:0:0:
229,79,193491,1,8,0:0:0:0:
236,148,193564,1,0,0:0:0:0:
236,148,193710,1,8,0:0:0:0:
236,148,193784,1,8,0:0:0:0:
200,148,193857,1,0,0:0:0:0:
236,148,194003,1,8,0:0:0:0:
339,138,194150,5,8,0:0:0:0:
319,171,194223,1,8,0:0:0:0:
200,172,194296,1,0,0:0:0:0:
232,176,194369,1,0,0:0:0:0:
232,176,194442,1,8,0:0:0:0:
232,176,194588,1,8,0:0:0:0:
424,256,194661,1,0,0:0:0:0:
232,176,194735,1,8,0:0:0:0:
232,176,194808,1,8,0:0:0:0:
232,176,194881,1,0,0:0:0:0:
344,160,194954,1,8,0:0:0:0:
232,176,195027,1,0,0:0:0:0:
232,176,195101,1,0,0:0:0:0:
232,148,195174,1,8,0:0:0:0:
258,109,195320,1,0,0:0:0:0:
320,168,195393,1,0,0:0:0:0:
328,168,195467,1,8,0:0:0:0:
232,176,195540,1,8,0:0:0:0:
328,168,195613,1,0,0:0:0:0:
180,151,195759,1,0,0:0:0:0:
388,240,195832,1,8,0:0:0:0:
316,100,195906,1,0,0:0:0:0:
316,100,195979,1,0,0:0:0:0:
316,100,196052,1,8,0:0:0:0:
320,96,196125,1,0,0:0:0:0:
320,96,196198,1,8,0:0:0:0:
308,108,196271,1,8,0:0:0:0:
308,108,196345,1,0,0:0:0:0:
320,96,196491,1,0,0:0:0:0:
256,112,196564,1,8,0:0:0:0:
212,128,196637,1,0,0:0:0:0:
244,128,196710,1,0,0:0:0:0:
244,128,196783,1,8,0:0:0:0:
272,127,196857,1,8,0:0:0:0:
232,136,196929,1,0,0:0:0:0:
196,144,197076,1,8,0:0:0:0:
216,144,197149,1,0,0:0:0:0:
216,144,197222,1,8,0:0:0:0:
216,144,197296,1,8,0:0:0:0:
216,144,197369,1,0,0:0:0:0:
252,105,197442,1,0,0:0:0:0:
216,144,197515,1,8,0:0:0:0:
328,176,197661,1,0,0:0:0:0:
216,144,197735,1,8,0:0:0:0:
231,177,197808,1,8,0:0:0:0:
296,172,197881,1,0,0:0:0:0:
328,176,197954,1,8,0:0:0:0:
328,176,198028,1,8,0:0:0:0:
339,148,198100,1,0,0:0:0:0:
328,176,198246,1,8,0:0:0:0:
404,156,198320,1,0,0:0:0:0:
332,176,198393,1,0,0:0:0:0:
332,176,198466,1,8,0:0:0:0:
332,176,198539,1,0,0:0:0:0:
196,153,198613,1,0,0:0:0:0:
332,176,198685,1,8,0:0:0:0:
212,128,198832,1,4,0:0:0:0:
274,168,198979,1,0,0:0:0:0:
244,128,199052,1,8,0:0:0:0:
232,136,199125,1,0,0:0:0:0:
196,144,199271,1,0,0:0:0:0:
216,144,199344,1,0,0:0:0:0:
216,144,199417,1,8,0:0:0:0:
216,144,199563,1,0,0:0:0:0:
216,144,199637,1,8,0:0:0:0:
296,148,199710,1,0,0:0:0:0:
343,136,199784,1,0,0:0:0:0:
216,144,199856,1,8,0:0:0:0:
296,172,200002,1,8,0:0:0:0:
328,176,200149,1,0,0:0:0:0:
206,163,200223,1,8,0:0:0:0:
328,176,200295,1,0,0:0:0:0:
328,176,200441,1,8,0:0:0:0:
332,176,200589,1,0,0:0:0:0:
332,176,200661,1,0,0:0:0:0:
332,176,200734,1,8,0:0:0:0:
332,176,200808,1,8,0:0:0:0:
218,172,200880,1,0,0:0:0:0:
268,148,201027,1,8,0:0:0:0:
216,120,201101,1,0,0:0:0:0:
404,128,201174,5,8,0:0:0:0:
171,139,201247,1,8,0:0:0:0:
239,154,201320,1,0,0:0:0:0:
144,168,201466,1,8,0:0:0:0:
144,168,201540,1,8,0:0:0:0:
268,148,201613,1,0,0:0:0:0:
268,148,201759,1,8,0:0:0:0:
333,162,201832,1,0,0:0:0:0:
268,148,201905,1,8,0:0:0:0:
268,148,201978,1,8,0:0:0:0:
287,172,202051,1,0,0:0:0:0:
144,132,202125,1,0,0:0:0:0:
232,148,202198,1,8,0:0:0:0:
236,148,202345,1,8,0:0:0:0:
236,148,202490,1,0,0:0:0:0:
248,99,202564,1,0,0:0:0:0:
236,148,202637,1,8,0:0:0:0:
236,136,202784,1,0,0:0:0:0:
236,148,202857,1,8,0:0:0:0:
236,148,202930,1,0,0:0:0:0:
236,148,203076,1,8,0:0:0:0:
255,157,203149,1,0,0:0:0:0:
236,148,203222,1,8,0:0:0:0:
224,112,203296,1,8,0:0:0:0:
296,158,203369,5,0,0:0:0:0:
200,172,203515,1,8,0:0:0:0:
232,176,203588,1,0,0:0:0:0:
232,176,203661,1,0,0:0:0:0:
347,115,203735,1,8,0:0:0:0:
288,134,203808,1,0,0:0:0:0:
240,144,203881,1,0,0:0:0:0:
232,176,203954,1,8,0:0:0:0:
232,176,204100,1,8,0:0:0:0:
187,162,204174,1,8,0:0:0:0:
232,176,204247,1,0,0:0:0:0:
320,168,204320,1,8,0:0:0:0:
232,176,204393,1,8,0:0:0:0:
232,176,204466,1,0,0:0:0:0:
232,176,204539,1,8,0:0:0:0:
232,176,204686,1,0,0:0:0:0:
328,168,204759,1,0,0:0:0:0:
328,168,204832,1,8,0:0:0:0:
316,100,204905,1,0,0:0:0:0:
216,112,204978,1,0,0:0:0:0:
262,138,205052,1,8,0:0:0:0:
316,100,205125,1,0,0:0:0:0:
316,100,205271,1,0,0:0:0:0:
320,96,205344,1,8,0:0:0:0:
316,100,205418,1,8,0:0:0:0:
202,143,205491,1,0,0:0:0:0:
320,96,205564,1,8,0:0:0:0:
320,96,205637,1,8,0:0:0:0:
320,96,205710,1,0,0:0:0:0:
288,176,205783,1,0,0:0:0:0:
212,128,205857,1,8,0:0:0:0:
60,168,205930,1,0,0:0:0:0:
221,165,206003,1,0,0:0:0:0:
221,165,206076,1,8,0:0:0:0:
280,212,206149,1,0,0:0:0:0:
221,165,206222,1,0,0:0:0:0:
196,144,206296,1,8,0:0:0:0:
168,72,206369,1,0,0:0:0:0:
216,144,206442,1,8,0:0:0:0:
221,165,206515,1,8,0:0:0:0:
221,165,206588,1,0,0:0:0:0:
216,144,206661,1,8,0:0:0:0:
280,212,206735,1,0,0:0:0:0:
216,144,206808,1,0,0:0:0:0:
216,144,206881,1,8,0:0:0:0:
136,148,206954,1,0,0:0:0:0:
231,177,207027,1,8,0:0:0:0:
344,188,207100,1,0,0:0:0:0:
280,212,207174,1,0,0:0:0:0:
280,212,207247,1,0,0:0:0:0:
328,176,207320,1,8,0:0:0:0:
344,188,207393,1,8,0:0:0:0:
328,176,207466,1,0,0:0:0:0:
60,148,207539,1,0,0:0:0:0:
332,176,207613,1,8,0:0:0:0:
200,104,207686,1,8,0:0:0:0:
332,176,207759,1,8,0:0:0:0:
144,152,207832,1,0,0:0:0:0:
332,176,207906,1,8,0:0:0:0:
209,143,207954,1,8,0:0:0:0:
220,142,208003,1,8,0:0:0:0:
220,142,208052,1,0,0:0:0:0:
220,142,208101,1,8,0:0:0:0:
220,142,208150,1,8,0:0:0:0:
261,88,208198,1,0,0:0:0:0:
330,164,208345,1,8,0:0:0:0:
330,164,208418,1,0,0:0:0:0:
330,164,208491,1,8,0:0:0:0:
330,164,208564,1,8,0:0:0:0:
330,164,208637,1,0,0:0:0:0:
331,162,208710,1,0,0:0:0:0:
330,162,208784,1,8,0:0:0:0:
245,142,208930,1,0,0:0:0:0:
245,142,209003,1,8,0:0:0:0:
245,142,209150,1,8,0:0:0:0:
224,115,209223,1,8,0:0:0:0:
191,157,209296,1,0,0:0:0:0:
243,163,209369,1,8,0:0:0:0:
307,142,209515,1,0,0:0:0:0:
307,142,209589,1,8,0:0:0:0:
307,142,209735,1,8,0:0:0:0:
307,142,209808,1,0,0:0:0:0:
307,142,209881,1,0,0:0:0:0:
307,142,209954,1,8,0:0:0:0:
376,200,210027,1,0,0:0:0:0:
147,148,210101,1,8,0:0:0:0:
181,152,210174,1,8,0:0:0:0:
181,152,210247,1,0,0:0:0:0:
264,137,210393,1,0,0:0:0:0:
181,152,210540,1,8,0:0:0:0:
345,170,210589,1,8,0:0:0:0:
345,170,210637,1,8,0:0:0:0:
192,148,210686,1,0,0:0:0:0:
345,170,210759,1,0,0:0:0:0:
345,170,210832,1,8,0:0:0:0:
345,170,210906,1,8,0:0:0:0:
345,170,210979,1,0,0:0:0:0:
345,170,211052,1,0,0:0:0:0:
345,170,211125,1,8,0:0:0:0:
365,143,211271,1,0,0:0:0:0:
365,143,211345,1,8,0:0:0:0:
365,143,211491,1,8,0:0:0:0:
365,143,211564,1,0,0:0:0:0:
365,143,211637,1,0,0:0:0:0:
365,143,211710,1,8,0:0:0:0:
273,164,211857,1,0,0:0:0:0:
273,164,211930,1,8,0:0:0:0:
273,164,212003,1,0,0:0:0:0:
273,164,212150,1,8,0:0:0:0:
273,164,212223,1,0,0:0:0:0:
273,164,212296,1,8,0:0:0:0:
238,158,212442,1,8,0:0:0:0:
257,159,212515,1,8,0:0:0:0:
257,159,212589,1,0,0:0:0:0:
257,159,212735,1,0,0:0:0:0:
257,159,212881,1,8,0:0:0:0:
160,136,212930,1,8,0:0:0:0:
256,144,212979,1,8,0:0:0:0:
256,144,213028,1,0,0:0:0:0:
256,144,213101,1,0,0:0:0:0:
256,144,213174,1,8,0:0:0:0:
256,144,213247,1,0,0:0:0:0:
256,144,213320,1,8,0:0:0:0:
256,144,213393,1,8,0:0:0:0:
256,144,213467,1,0,0:0:0:0:
256,144,213613,1,8,0:0:0:0:
256,144,213686,1,0,0:0:0:0:
256,144,213832,1,0,0:0:0:0:
256,144,213906,1,8,0:0:0:0:
256,144,213979,1,8,0:0:0:0:
256,144,214052,1,0,0:0:0:0:
303,114,214198,1,8,0:0:0:0:
303,114,214271,1,0,0:0:0:0:
303,114,214418,1,0,0:0:0:0:
303,114,214491,1,8,0:0:0:0:
303,114,214564,1,8,0:0:0:0:
303,114,214637,1,0,0:0:0:0:
306,147,214784,1,0,0:0:0:0:
306,147,214857,1,8,0:0:0:0:
301,127,215003,1,8,0:0:0:0:
301,127,215076,1,0,0:0:0:0:
301,127,215150,1,0,0:0:0:0:
301,127,215223,1,8,0:0:0:0:
281,165,215369,1,0,0:0:0:0:
298,170,215442,1,8,0:0:0:0:
298,170,215589,1,8,0:0:0:0:
298,170,215662,1,0,0:0:0:0:
298,170,215735,1,0,0:0:0:0:
298,170,215808,1,8,0:0:0:0:
298,170,215954,1,0,0:0:0:0:
298,170,216028,1,8,0:0:0:0:
298,170,216174,1,8,0:0:0:0:
298,170,216247,1,0,0:0:0:0:
289,147,216393,1,8,0:0:0:0:
207,177,216442,1,8,0:0:0:0:
251,179,216491,1,8,0:0:0:0:
251,179,216540,1,0,0:0:0:0:
275,163,216685,1,0,0:0:0:0:
275,163,216734,1,0,0:0:0:0:
189,180,216783,1,0,0:0:0:0:
275,163,216832,1,8,0:0:0:0:
64,128,216905,1,8,0:0:0:0:
96,128,216978,1,0,0:0:0:0:
275,163,217052,1,0,0:0:0:0:
275,163,217125,1,8,0:0:0:0:
275,163,217198,1,0,0:0:0:0:
253,131,217271,1,8,0:0:0:0:
241,144,217345,1,8,0:0:0:0:
253,131,217418,1,0,0:0:0:0:
169,145,217564,1,4,0:0:0:0:
258,140,217710,1,0,0:0:0:0:
258,140,217784,1,0,0:0:0:0:
258,140,217857,1,0,0:0:0:0:
258,140,218003,1,12,0:0:0:0:
258,140,218150,1,0,0:0:0:0:
258,140,218223,1,0,0:0:0:0:
258,140,218296,1,0,0:0:0:0:
258,140,218442,1,4,0:0:0:0:
205,167,218589,1,0,0:0:0:0:
216,168,218662,1,0,0:0:0:0:
216,168,218735,1,0,0:0:0:0:
216,168,218881,1,12,0:0:0:0:
216,168,219028,1,0,0:0:0:0:
216,168,219101,1,0,0:0:0:0:
216,168,219174,1,0,0:0:0:0:
216,168,219320,1,4,0:0:0:0:
304,148,219467,1,8,0:0:0:0:
304,148,219540,1,8,0:0:0:0:
304,148,219613,1,0,0:0:0:0:
304,148,219686,1,0,0:0:0:0:
304,148,219759,1,8,0:0:0:0:
314,133,219906,1,4,0:0:0:0:
258,140,220052,1,0,0:0:0:0:
258,140,220126,1,0,0:0:0:0:
258,140,220199,1,0,0:0:0:0:
258,140,220345,1,12,0:0:0:0:
258,140,220492,1,0,0:0:0:0:
258,140,220565,1,0,0:0:0:0:
258,140,220638,1,0,0:0:0:0:
258,140,220783,1,4,0:0:0:0:
205,167,220931,1,0,0:0:0:0:
216,168,221004,1,0,0:0:0:0:
216,168,221077,1,0,0:0:0:0:
216,168,221223,1,12,0:0:0:0:
216,168,221370,1,0,0:0:0:0:
216,168,221443,1,0,0:0:0:0:
216,168,221515,1,0,0:0:0:0:
216,168,221662,1,4,0:0:0:0:
304,148,221809,1,8,0:0:0:0:
304,148,221882,1,0,0:0:0:0:
304,148,221955,1,8,0:0:0:0:
304,148,222028,1,8,0:0:0:0:
304,148,222101,1,0,0:0:0:0:
179,158,222174,1,0,0:0:0:0:
314,133,222248,1,8,0:0:0:0:
197,160,222393,1,0,0:0:0:0:
197,160,222467,1,0,0:0:0:0:
197,160,222540,1,8,0:0:0:0:
197,160,222686,1,0,0:0:0:0:
197,160,222759,1,0,0:0:0:0:
197,160,222832,1,8,0:0:0:0:
197,160,222979,1,0,0:0:0:0:
197,160,223052,1,0,0:0:0:0:
197,160,223125,1,8,0:0:0:0:
197,160,223271,1,0,0:0:0:0:
197,160,223345,1,0,0:0:0:0:
197,160,223418,1,8,0:0:0:0:
197,160,223564,1,0,0:0:0:0:
197,160,223637,1,0,0:0:0:0:
197,160,223710,1,8,0:0:0:0:
197,160,223857,1,0,0:0:0:0:
197,160,223930,1,0,0:0:0:0:
197,160,224003,1,8,0:0:0:0:
197,160,224150,1,0,0:0:0:0:
207,162,224223,1,0,0:0:0:0:
207,162,224296,1,8,0:0:0:0:
220,110,224442,1,0,0:0:0:0:
220,110,224515,1,0,0:0:0:0:
411,136,224588,1,8,0:0:0:0:
411,136,224661,1,8,0:0:0:0:
411,136,224735,1,0,0:0:0:0:
411,136,224808,1,0,0:0:0:0:
411,136,224881,1,8,0:0:0:0:
411,136,224954,1,0,0:0:0:0:
411,136,225027,1,8,0:0:0:0:
411,136,225100,1,8,0:0:0:0:
411,136,225174,1,0,0:0:0:0:
411,136,225247,1,8,0:0:0:0:
185,169,225320,1,0,0:0:0:0:
219,172,225393,1,0,0:0:0:0:
189,161,225466,1,8,0:0:0:0:
231,158,225539,1,8,0:0:0:0:
231,158,225613,1,8,0:0:0:0:
231,158,225686,1,8,0:0:0:0:
229,149,225759,1,0,0:0:0:0:
296,157,226491,1,8,0:0:0:0:
296,157,226637,1,8,0:0:0:0:
296,157,226710,1,8,0:0:0:0:
296,157,226784,1,8,0:0:0:0:
316,90,226930,1,4,0:0:0:0:
258,140,227076,1,0,0:0:0:0:
258,140,227150,1,0,0:0:0:0:
258,140,227223,1,0,0:0:0:0:
258,140,227369,1,12,0:0:0:0:
258,140,227516,1,0,0:0:0:0:
258,140,227589,1,0,0:0:0:0:
258,140,227662,1,0,0:0:0:0:
258,140,227808,1,4,0:0:0:0:
205,167,227955,1,0,0:0:0:0:
160,136,228028,1,0,0:0:0:0:
216,168,228101,1,0,0:0:0:0:
216,168,228247,1,12,0:0:0:0:
216,168,228394,1,0,0:0:0:0:
216,168,228467,1,0,0:0:0:0:
216,168,228539,1,0,0:0:0:0:
216,168,228686,1,4,0:0:0:0:
304,148,228833,1,0,0:0:0:0:
304,148,228906,1,0,0:0:0:0:
304,148,228979,1,8,0:0:0:0:
304,148,229052,1,8,0:0:0:0:
304,148,229125,1,0,0:0:0:0:
132,152,229271,1,8,0:0:0:0:
136,152,229345,1,8,0:0:0:0:
258,140,229418,1,0,0:0:0:0:
258,140,229492,1,0,0:0:0:0:
258,140,229565,1,0,0:0:0:0:
258,140,229711,1,0,0:0:0:0:
252,132,229858,1,8,0:0:0:0:
200,152,229930,1,0,0:0:0:0:
252,132,230002,1,8,0:0:0:0:
258,140,230076,1,8,0:0:0:0:
258,140,230150,1,0,0:0:0:0:
157,181,230223,1,0,0:0:0:0:
252,172,230297,1,8,0:0:0:0:
216,168,230442,1,8,0:0:0:0:
216,168,230589,1,0,0:0:0:0:
216,168,230662,1,0,0:0:0:0:
216,168,230736,1,8,0:0:0:0:
216,168,230881,1,0,0:0:0:0:
216,168,230954,1,8,0:0:0:0:
304,148,231028,1,0,0:0:0:0:
216,112,231175,1,8,0:0:0:0:
216,168,231247,1,8,0:0:0:0:
304,148,231321,1,0,0:0:0:0:
304,148,231467,1,8,0:0:0:0:
314,133,231614,1,0,0:0:0:0:
137,162,231686,1,8,0:0:0:0:
197,160,231759,1,0,0:0:0:0:
197,160,231833,1,0,0:0:0:0:
197,160,231906,1,8,0:0:0:0:
197,160,232052,1,8,0:0:0:0:
197,160,232125,1,0,0:0:0:0:
414,193,232198,1,0,0:0:0:0:
197,160,232271,1,8,0:0:0:0:
197,160,232345,1,0,0:0:0:0:
197,160,232418,1,8,0:0:0:0:
414,193,232491,1,0,0:0:0:0:
414,193,232564,1,0,0:0:0:0:
197,160,232637,1,8,0:0:0:0:
197,160,232784,1,8,0:0:0:0:
197,160,232857,1,0,0:0:0:0:
270,173,232930,1,8,0:0:0:0:
197,160,233003,1,8,0:0:0:0:
197,160,233076,1,0,0:0:0:0:
234,126,233223,1,0,0:0:0:0:
167,145,233296,1,8,0:0:0:0:
295,110,233369,1,8,0:0:0:0:
237,149,233442,1,0,0:0:0:0:
234,126,233515,1,8,0:0:0:0:
234,126,233589,1,0,0:0:0:0:
234,126,233662,1,8,0:0:0:0:
295,110,233735,1,8,0:0:0:0:
234,126,233808,1,0,0:0:0:0:
234,126,233954,1,8,0:0:0:0:
234,126,234003,1,8,0:0:0:0:
164,152,234052,1,8,0:0:0:0:
200,148,234101,1,0,0:0:0:0:
284,164,234174,1,0,0:0:0:0:
292,164,234247,1,8,0:0:0:0:
292,164,234393,1,0,0:0:0:0:
216,136,234467,1,0,0:0:0:0:
148,132,234540,1,8,0:0:0:0:
234,126,234613,1,0,0:0:0:0:
292,164,234686,1,8,0:0:0:0:
208,180,234759,1,8,0:0:0:0:
232,176,234832,1,0,0:0:0:0:
234,126,234979,1,8,0:0:0:0:
232,176,235052,1,0,0:0:0:0:
220,116,235125,1,8,0:0:0:0:
236,143,235198,1,8,0:0:0:0:
232,176,235271,1,0,0:0:0:0:
220,116,235345,1,0,0:0:0:0:
220,116,235418,1,8,0:0:0:0:
304,156,235564,1,0,0:0:0:0:
192,152,235637,1,0,0:0:0:0:
268,100,235710,1,8,0:0:0:0:
220,116,235784,1,0,0:0:0:0:
220,116,235857,1,8,0:0:0:0:
220,116,235930,1,8,0:0:0:0:
304,88,236003,1,0,0:0:0:0:
344,108,236076,1,0,0:0:0:0:
220,116,236150,1,8,0:0:0:0:
228,168,236296,1,4,0:0:0:0:
292,136,236442,1,0,0:0:0:0:
292,136,236515,1,0,0:0:0:0:
292,136,236588,1,0,0:0:0:0:
292,136,236735,1,12,0:0:0:0:
292,136,236881,1,0,0:0:0:0:
292,136,236954,1,0,0:0:0:0:
292,136,237027,1,0,0:0:0:0:
292,136,237174,1,4,0:0:0:0:
292,136,237320,1,0,0:0:0:0:
292,136,237393,1,0,0:0:0:0:
292,136,237466,1,0,0:0:0:0:
292,136,237613,1,12,0:0:0:0:
352,164,237759,1,0,0:0:0:0:
352,164,237832,1,0,0:0:0:0:
352,164,237906,1,0,0:0:0:0:
352,164,238052,1,4,0:0:0:0:
352,164,238198,1,8,0:0:0:0:
352,164,238271,1,8,0:0:0:0:
352,164,238345,1,0,0:0:0:0:
352,164,238418,1,0,0:0:0:0:
352,164,238491,1,8,0:0:0:0:
256,184,238637,1,0,0:0:0:0:
256,184,238710,1,0,0:0:0:0:
160,180,238784,1,8,0:0:0:0:
208,172,238857,1,8,0:0:0:0:
256,184,238930,1,0,0:0:0:0:
220,148,239076,1,12,0:0:0:0:
292,136,239223,1,0,0:0:0:0:
292,136,239296,1,0,0:0:0:0:
292,136,239369,1,0,0:0:0:0:
292,136,239515,1,4,0:0:0:0:
292,136,239662,1,0,0:0:0:0:
292,136,239735,1,0,0:0:0:0:
292,136,239808,1,0,0:0:0:0:
292,136,239955,1,12,0:0:0:0:
292,136,240101,1,0,0:0:0:0:
292,136,240174,1,0,0:0:0:0:
292,136,240247,1,0,0:0:0:0:
328,116,240393,1,4,0:0:0:0:
160,156,240540,1,8,0:0:0:0:
352,164,240613,1,8,0:0:0:0:
352,164,240687,1,0,0:0:0:0:
352,164,240760,1,0,0:0:0:0:
352,164,240833,1,8,0:0:0:0:
352,164,240979,1,8,0:0:0:0:
352,164,241052,1,8,0:0:0:0:
352,164,241126,1,0,0:0:0:0:
352,164,241199,1,0,0:0:0:0:
352,164,241272,1,8,0:0:0:0:
352,164,241345,1,8,0:0:0:0:
352,164,241418,1,0,0:0:0:0:
256,184,241491,1,0,0:0:0:0:
240,184,241565,1,8,0:0:0:0:
256,184,241638,1,0,0:0:0:0:
256,184,241711,1,0,0:0:0:0:
220,148,241784,1,0,0:0:0:0:
220,148,241857,1,8,0:0:0:0:
300,168,241930,1,0,0:0:0:0:
300,168,242003,1,0,0:0:0:0:
300,168,242076,1,0,0:0:0:0:
300,168,242150,1,8,0:0:0:0:
300,168,242223,1,8,0:0:0:0:
300,168,242296,1,0,0:0:0:0:
300,168,242369,1,0,0:0:0:0:
300,168,242442,1,8,0:0:0:0:
300,168,242515,1,8,0:0:0:0:
300,168,242589,1,0,0:0:0:0:
300,168,242662,1,0,0:0:0:0:
300,168,242735,1,8,0:0:0:0:
300,168,242808,1,8,0:0:0:0:
300,168,242881,1,8,0:0:0:0:
300,168,242954,1,0,0:0:0:0:
300,168,243028,1,8,0:0:0:0:
300,168,243101,1,8,0:0:0:0:
300,168,243174,1,8,0:0:0:0:
300,168,243247,1,0,0:0:0:0:
300,168,243320,1,8,0:0:0:0:
300,168,243393,1,8,0:0:0:0:
300,168,243467,1,0,0:0:0:0:
300,168,243540,1,0,0:0:0:0:
300,168,243613,1,8,0:0:0:0:
300,168,243686,1,0,0:0:0:0:
300,168,243759,1,8,0:0:0:0:
300,168,243832,1,8,0:0:0:0:
300,168,243906,1,0,0:0:0:0:
300,168,243979,1,8,0:0:0:0:
300,168,244052,1,0,0:0:0:0:
300,168,244125,1,0,0:0:0:0:
300,168,244198,1,8,0:0:0:0:
300,168,244271,1,8,0:0:0:0:
300,168,244345,1,0,0:0:0:0:
300,168,244418,1,0,0:0:0:0:
300,168,244491,1,8,0:0:0:0:
300,168,244564,1,0,0:0:0:0:
300,168,244637,1,8,0:0:0:0:
300,168,244710,1,8,0:0:0:0:
300,168,244784,1,0,0:0:0:0:
300,168,244857,1,8,0:0:0:0:
300,168,244930,1,0,0:0:0:0:
300,168,245003,1,8,0:0:0:0:
300,168,245076,1,8,0:0:0:0:
300,168,245150,1,0,0:0:0:0:
300,168,245223,1,8,0:0:0:0:
300,168,245296,1,0,0:0:0:0:
300,168,245369,1,8,0:0:0:0:
300,168,245443,1,8,0:0:0:0:
300,168,245516,1,0,0:0:0:0:
300,168,245662,1,4,0:0:0:0:
248,176,246247,1,12,0:0:0:0:
248,176,246832,1,4,0:0:0:0:
248,176,247418,1,12,0:0:0:0:
148,172,248003,1,4,0:0:0:0:
256,192,248150,12,0,250345,0:0:0:0:
336,156,252686,5,0,0:0:0:0:
248,148,255027,1,8,0:0:0:0:
264,132,257369,1,8,0:0:0:0:
256,192,257515,12,0,260881,0:0:0:0:
228,176,262052,5,0,0:0:0:0:
264,132,264393,1,8,0:0:0:0:
336,172,266735,1,8,0:0:0:0:
256,192,266881,12,0,270247,0:0:0:0:
274,194,271418,5,0,0:0:0:0:
201,164,271710,1,0,0:0:0:0:
326,106,272003,1,8,0:0:0:0:
261,167,272296,1,8,0:0:0:0:
326,106,272588,1,0,0:0:0:0:
261,167,272881,1,0,0:0:0:0:
312,192,273027,1,0,0:0:0:0:
326,106,273174,1,8,0:0:0:0:
326,106,273466,1,8,0:0:0:0:
326,106,273759,1,0,0:0:0:0:
261,167,274052,1,0,0:0:0:0:
326,106,274344,1,8,0:0:0:0:
261,167,274637,1,8,0:0:0:0:
326,106,274930,1,0,0:0:0:0:
261,167,275222,1,0,0:0:0:0:
428,264,275369,1,0,0:0:0:0:
326,106,275515,1,8,0:0:0:0:
274,137,275661,1,0,0:0:0:0:
326,106,275808,1,8,0:0:0:0:
289,79,275954,1,8,0:0:0:0:
326,106,276100,1,0,0:0:0:0:
261,167,276393,1,0,0:0:0:0:
326,106,276686,1,8,0:0:0:0:
261,167,276978,1,8,0:0:0:0:
326,106,277271,1,0,0:0:0:0:
261,167,277564,1,0,0:0:0:0:
372,212,277710,1,0,0:0:0:0:
326,106,277857,1,8,0:0:0:0:
326,106,278149,1,8,0:0:0:0:
326,106,278442,1,0,0:0:0:0:
261,167,278735,1,0,0:0:0:0:
326,106,279027,1,8,0:0:0:0:
261,167,279320,1,8,0:0:0:0:
326,106,279613,1,0,0:0:0:0:
326,106,279905,1,0,0:0:0:0:
368,188,280052,1,0,0:0:0:0:
326,106,280198,1,8,0:0:0:0:
187,142,280344,1,8,0:0:0:0:
326,106,280491,1,0,0:0:0:0:
284,150,280637,1,0,0:0:0:0:
326,106,280783,1,0,0:0:0:0:
261,167,281076,1,0,0:0:0:0:
261,167,281369,1,8,0:0:0:0:
261,167,281661,1,8,0:0:0:0:
261,167,281954,1,0,0:0:0:0:
261,167,282247,1,0,0:0:0:0:
360,204,282393,1,0,0:0:0:0:
261,167,282539,1,8,0:0:0:0:
261,167,282832,1,8,0:0:0:0:
261,167,283125,1,0,0:0:0:0:
261,167,283418,1,0,0:0:0:0:
261,167,283710,1,8,0:0:0:0:
261,167,284003,1,8,0:0:0:0:
261,167,284296,1,0,0:0:0:0:
261,167,284587,1,8,0:0:0:0:
384,228,284735,1,0,0:0:0:0:
261,167,284880,1,8,0:0:0:0:
261,167,285027,1,8,0:0:0:0:
342,210,285174,1,0,0:0:0:0:
231,98,285320,1,0,0:0:0:0:
261,167,285466,1,8,0:0:0:0:
261,167,285759,1,0,0:0:0:0:
261,167,286052,1,8,0:0:0:0:
261,167,286344,1,8,0:0:0:0:
261,167,286637,1,0,0:0:0:0:
261,167,286930,1,8,0:0:0:0:
296,120,287076,1,0,0:0:0:0:
261,167,287222,1,8,0:0:0:0:
261,167,287515,1,8,0:0:0:0:
261,167,287808,1,0,0:0:0:0:
261,167,288100,1,0,0:0:0:0:
261,167,288393,1,8,0:0:0:0:
261,167,288686,1,8,0:0:0:0:
261,167,288978,1,0,0:0:0:0:
261,167,289271,1,8,0:0:0:0:
281,146,289418,1,0,0:0:0:0:
261,167,289564,1,8,0:0:0:0:
340,152,289710,1,8,0:0:0:0:
277,185,289857,1,0,0:0:0:0:
191,99,290003,1,8,0:0:0:0:
261,167,290149,1,4,0:0:0:0:
368,188,290442,1,0,0:0:0:0:
248,114,290735,1,8,0:0:0:0:
169,148,291027,1,8,0:0:0:0:
120,112,291320,1,0,0:0:0:0:
232,80,291613,1,0,0:0:0:0:
202,148,291905,1,8,0:0:0:0:
216,72,292198,1,8,0:0:0:0:
202,148,292491,1,0,0:0:0:0:
160,152,292783,1,0,0:0:0:0:
202,148,293076,1,8,0:0:0:0:
208,148,293369,1,8,0:0:0:0:
202,148,293661,1,0,0:0:0:0:
152,168,293954,1,0,0:0:0:0:
202,148,294247,1,8,0:0:0:0:
181,149,294539,1,8,0:0:0:0:
274,154,294686,1,8,0:0:0:0:
274,154,294832,1,4,0:0:0:0:
256,192,294978,12,0,301857,0:0:0:0:
