osu file format v14

[General]
AudioFilename: audio.mp3
AudioLeadIn: 0
PreviewTime: 263129
Countdown: 0
SampleSet: Soft
StackLeniency: 0.5
Mode: 0
LetterboxInBreaks: 0
WidescreenStoryboard: 1

[Editor]
Bookmarks: 27,106,185,264,343,422,501,580,659,738,817,896,975,1054,1133,1212,1291,11377,31606,51817,72027,92238,117679,130133,154854,179628,179725,179821,179918,180015,180112,180209,180305,180402,180499,180596,180692,180789,180886,180955,198409,215864,229500,229636,229773,229909,230045,230182,230318,230455,230591,230725,242725,253975,254068,254162,254256,254350,254443,254537,254631,254725,254818,254912,255006,255100,255190,264332,282618,304332,304404,304475,304547,304618,304690,304761,304832,304904,304975,305047,305118,305190,305261,305332,305404,305475,305547,305618,305659,323113,340568,358568
DistanceSpacing: 0.3
BeatDivisor: 8
GridSize: 32
TimelineZoom: 2.5

[Metadata]
Title:RPG
TitleUnicode:RPG
Artist:Yooh
ArtistUnicode:Yooh
Creator:Zelq
Version:Divinity
Source:osu!
Tags:toybot deviouspanda halgoh azer pono owc 2021gftb fa featured artist electronic instrumental ponoyoshi psytrance dubstep vikala world cup
BeatmapID:3333745
BeatmapSetID:1633250

[Difficulty]
HPDrainRate:5
CircleSize:4.2
OverallDifficulty:9
ApproachRate:9.8
SliderMultiplier:3
SliderTickRate:1

[Events]
//Background and Video events
0,0,"red.png",0,0
//Break Periods
2,255365,256971
//Storyboard Layer 0 (Background)
//Storyboard Layer 1 (Fail)
//Storyboard Layer 2 (Pass)
//Storyboard Layer 3 (Foreground)
//Storyboard Layer 4 (Overlay)
//Storyboard Sound Samples

[TimingPoints]
8,315.789473684211,4,2,1,75,1,0
1271,-142.857142857143,4,2,1,75,0,0
1901,-142.857142857143,4,2,1,45,0,0
2534,-142.857142857143,4,2,1,65,0,0
3165,-142.857142857143,4,2,1,45,0,0
3639,-142.857142857143,4,2,1,65,0,0
4033,-142.857142857143,4,2,1,15,0,0
4113,-142.857142857143,4,2,1,75,0,0
4744,-142.857142857143,4,2,1,35,0,0
5060,-142.857142857143,4,2,1,45,0,0
5218,-142.857142857143,4,2,1,65,0,0
6323,-100,4,2,1,75,0,0
7112,-100,4,2,1,45,0,0
7271,-142.857142857143,4,2,1,75,0,0
8217,-142.857142857143,4,2,1,45,0,0
8534,-142.857142857143,4,2,1,65,0,0
9638,-142.857142857143,4,2,1,45,0,0
10113,-142.857142857143,4,2,1,65,0,0
10429,-142.857142857143,4,2,1,75,0,0
10665,-142.857142857143,4,2,1,45,0,0
10744,-142.857142857143,4,2,1,55,0,0
11060,-142.857142857143,4,2,1,65,0,0
11376,-111.111111111111,4,2,1,55,0,0
18955,-83.3333333333333,4,2,1,65,0,0
20218,-83.3333333333333,4,2,1,75,0,0
20850,-83.3333333333333,4,2,1,55,0,0
21481,-76.9230769230769,4,2,1,65,0,0
21797,-100,4,2,1,65,0,0
24008,-83.3333333333333,4,2,1,65,0,0
24323,-100,4,2,1,65,0,0
29692,-83.3333333333333,4,2,1,75,0,0
29849,-83.3333333333333,4,2,1,35,0,0
29929,-111.111111111111,4,2,1,75,0,0
30086,-111.111111111111,4,2,1,35,0,0
30165,-166.666666666667,4,2,1,75,0,0
30322,-166.666666666667,4,2,1,35,0,0
30718,-111.111111111111,4,2,1,35,0,0
30955,-111.111111111111,4,2,1,55,0,0
31113,-66.6666666666667,4,2,1,55,0,0
31586,-111.111111111111,4,2,2,65,0,0
41692,-99.9999999999999,4,2,2,75,0,0
46744,-90.9090909090909,4,2,3,75,0,0
49271,-90.9090909090909,4,2,3,55,0,0
49586,-111.111111111111,4,2,3,55,0,0
51165,-111.111111111111,4,2,3,65,0,0
51481,-90.9090909090909,4,2,3,65,0,0
51797,-90.9090909090909,4,2,4,75,0,0
54008,-100,4,2,4,75,0,0
55271,-83.3333333333333,4,2,4,75,0,0
56692,-100,4,2,4,75,0,0
61271,-83.3333333333333,4,2,4,75,0,0
61902,-125,4,2,4,75,0,0
62217,-125,4,2,1,55,0,0
64429,-125,4,2,3,55,0,0
66323,-111.111111111111,4,2,3,75,0,0
66955,-100,4,2,1,75,0,0
67586,-90.9090909090909,4,2,1,75,0,0
68218,-83.3333333333333,4,2,1,75,0,0
68850,-76.9230769230769,4,2,1,75,0,0
70113,-83.3333333333333,4,2,1,75,0,0
70744,-83.3333333333333,4,2,3,55,0,0
71376,-200,4,2,1,75,0,0
72008,-200,4,2,10,75,0,0
72165,-100,4,2,10,75,0,0
72323,-66.6666666666667,4,2,11,75,0,0
72639,-66.6666666666667,4,2,10,75,0,0
72797,-100,4,2,10,75,0,0
72955,-66.6666666666667,4,2,11,75,0,0
73271,-66.6666666666667,4,2,12,75,0,0
73586,-66.6666666666667,4,2,11,75,0,0
73744,-66.6666666666667,4,2,14,75,0,0
74060,-66.6666666666667,4,2,15,75,0,0
74376,-100,4,2,15,75,0,0
74534,-100,4,2,10,75,0,0
74850,-66.6666666666667,4,2,11,75,0,0
75165,-66.6666666666667,4,2,10,75,0,0
75323,-100,4,2,10,75,0,0
75481,-66.6666666666667,4,2,11,75,0,0
75797,-66.6666666666667,4,2,12,75,0,0
76113,-66.6666666666667,4,2,11,75,0,0
76271,-66.6666666666667,4,2,16,75,0,0
76586,-100,4,2,15,75,0,0
76902,-400,4,2,15,75,0,0
77060,-400,4,2,10,75,0,0
77218,-100,4,2,10,75,0,0
77376,-66.6666666666667,4,2,11,75,0,0
77692,-66.6666666666667,4,2,10,75,0,0
77850,-100,4,2,10,75,0,0
78008,-66.6666666666667,4,2,11,75,0,0
78323,-66.6666666666667,4,2,12,75,0,0
78639,-66.6666666666667,4,2,11,75,0,0
78797,-66.6666666666667,4,2,14,75,0,0
79113,-66.6666666666667,4,2,15,75,0,0
79429,-100,4,2,15,75,0,0
79586,-100,4,2,13,75,0,0
79902,-66.6666666666667,4,2,11,75,0,0
80218,-66.6666666666667,4,2,13,75,0,0
80376,-100,4,2,13,75,0,0
80534,-66.6666666666667,4,2,11,75,0,0
80850,-57.1428571428571,4,2,12,75,0,0
81165,-57.1428571428571,4,2,11,75,0,0
81323,-66.6666666666667,4,2,17,75,0,0
81639,-66.6666666666667,4,2,12,75,0,0
81797,-100,4,2,12,75,0,0
82114,-66.6666666666667,4,2,10,75,0,0
82429,-66.6666666666667,4,2,11,75,0,0
82744,-66.6666666666667,4,2,10,75,0,0
83060,-66.6666666666667,4,2,11,75,0,0
83376,-66.6666666666667,4,2,12,75,0,0
83692,-66.6666666666667,4,2,11,75,0,0
83850,-66.6666666666667,4,2,14,75,0,0
84165,-100,4,2,15,75,0,0
84481,-200,4,2,15,75,0,0
84639,-66.6666666666667,4,2,10,75,0,0
84955,-66.6666666666667,4,2,11,75,0,0
85271,-66.6666666666667,4,2,10,75,0,0
85586,-66.6666666666667,4,2,11,75,0,0
85902,-66.6666666666667,4,2,12,75,0,0
86218,-66.6666666666667,4,2,11,75,0,0
86376,-200,4,2,16,75,0,0
86692,-100,4,2,12,75,0,0
87165,-66.6666666666667,4,2,10,75,0,0
87481,-66.6666666666667,4,2,11,75,0,0
87797,-66.6666666666667,4,2,10,75,0,0
88113,-66.6666666666667,4,2,11,75,0,0
88429,-66.6666666666667,4,2,12,75,0,0
88744,-66.6666666666667,4,2,11,75,0,0
88902,-66.6666666666667,4,2,14,75,0,0
89218,-100,4,2,15,75,0,0
89534,-200,4,2,15,75,0,0
89692,-66.6666666666667,4,2,13,75,0,0
90008,-66.6666666666667,4,2,11,75,0,0
90323,-66.6666666666667,4,2,13,75,0,0
90639,-66.6666666666667,4,2,11,75,0,0
90876,-66.6666666666667,4,2,11,45,0,0
90955,-66.6666666666667,4,2,17,75,0,0
91192,-66.6666666666667,4,2,19,75,0,0
92218,-66.6666666666667,4,2,10,75,0,0
92455,-66.6666666666667,4,2,11,75,0,0
92692,-66.6666666666667,4,2,10,75,0,0
92771,-133.333333333333,4,2,10,75,0,0
92929,-133.333333333333,4,2,11,75,0,0
93244,-133.333333333333,4,2,3,75,0,0
93481,-66.6666666666667,4,2,12,75,0,0
93718,-66.6666666666667,4,2,11,75,0,0
93955,-66.6666666666667,4,2,14,75,0,0
94192,-66.6666666666667,4,2,15,75,0,0
94744,-66.6666666666667,4,2,10,75,0,0
94981,-66.6666666666667,4,2,11,75,0,0
95218,-66.6666666666667,4,2,10,75,0,0
95297,-133.333333333333,4,2,10,75,0,0
95455,-133.333333333333,4,2,11,75,0,0
95771,-133.333333333333,4,2,3,75,0,0
96008,-66.6666666666667,4,2,12,75,0,0
96244,-66.6666666666667,4,2,11,75,0,0
96481,-66.6666666666667,4,2,16,75,0,0
96718,-66.6666666666667,4,2,15,75,0,0
97113,-100,4,2,15,75,0,0
97271,-66.6666666666667,4,2,10,75,0,0
97508,-66.6666666666667,4,2,11,75,0,0
97744,-66.6666666666667,4,2,10,75,0,0
97823,-133.333333333333,4,2,10,75,0,0
97981,-133.333333333333,4,2,11,75,0,0
98297,-133.333333333333,4,2,3,75,0,0
98534,-66.6666666666667,4,2,12,75,0,0
98771,-66.6666666666667,4,2,11,75,0,0
99008,-66.6666666666667,4,2,14,75,0,0
99244,-66.6666666666667,4,2,15,75,0,0
99797,-66.6666666666667,4,2,10,75,0,0
100034,-66.6666666666667,4,2,11,75,0,0
100271,-66.6666666666667,4,2,10,75,0,0
100350,-133.333333333333,4,2,10,75,0,0
100508,-133.333333333333,4,2,11,75,0,0
100823,-133.333333333333,4,2,3,75,0,0
101060,-66.6666666666667,4,2,12,75,0,0
101297,-66.6666666666667,4,2,11,75,0,0
101534,-66.6666666666667,4,2,17,75,0,0
101692,-66.6666666666667,4,2,1,75,0,0
102008,-66.6666666666667,4,2,18,75,0,0
102639,-66.6666666666667,4,2,5,75,0,0
103586,-66.6666666666667,4,2,12,75,0,0
103822,-66.6666666666667,4,2,11,75,0,0
104060,-66.6666666666667,4,2,14,75,0,0
104297,-66.6666666666667,4,2,15,75,0,0
105165,-66.6666666666667,4,2,5,75,0,0
106113,-66.6666666666667,4,2,12,75,0,0
106349,-66.6666666666667,4,2,11,75,0,0
106586,-66.6666666666667,4,2,16,75,0,0
106823,-66.6666666666667,4,2,15,75,0,0
107060,-133.333333333333,4,2,1,75,0,0
107850,-133.333333333333,4,2,3,75,0,0
109586,-100,4,2,3,75,0,0
110218,-133.333333333333,4,2,3,75,0,0
110692,-100,4,2,3,75,0,0
111165,-66.6666666666667,4,2,12,75,0,0
111402,-66.6666666666667,4,2,11,75,0,0
111639,-66.6666666666667,4,2,17,75,0,0
111876,-66.6666666666667,4,2,3,75,0,0
112429,-100,4,2,1,75,0,0
113376,-133.333333333333,4,2,1,75,0,0
113692,-111.111111111111,4,2,1,75,0,0
115586,-142.857142857143,4,2,1,75,0,0
116218,352.941176470588,4,2,1,75,1,0
116218,-66.6666666666667,4,2,1,75,0,0
116747,363.636363636364,4,2,1,75,1,0
116747,-80,4,2,1,75,0,0
117292,387.096774193548,4,2,1,75,1,0
117679,387.096774193548,4,2,6,65,1,0
120775,-66.6666666666667,4,2,6,65,0,0
121066,-83.3333333333333,4,2,6,65,0,0
122324,-66.6666666666667,4,2,6,65,0,0
122614,-83.3333333333333,4,2,6,65,0,0
123872,-41.6666666666667,4,2,6,65,0,0
124259,-83.3333333333333,4,2,6,65,0,0
124453,-500,4,2,6,65,0,0
124646,-50,4,2,6,65,0,0
125227,-250,4,2,6,65,0,0
125420,-44.4444444444445,4,2,6,65,0,0
126001,-166.666666666667,4,2,6,65,0,0
126195,-40,4,2,6,65,0,0
126775,-125,4,2,6,65,0,0
126969,-71.4285714285714,4,2,6,65,0,0
127162,-125,4,2,6,65,0,0
127356,-71.4285714285714,4,2,6,65,0,0
127549,-125,4,2,6,65,0,0
127743,-62.5,4,2,6,65,0,0
127791,-62.5,4,2,6,15,0,0
127840,-62.5,4,2,6,65,0,0
127888,-62.5,4,2,6,15,0,0
127937,-62.5,4,2,6,65,0,0
127985,-62.5,4,2,6,15,0,0
128033,-62.5,4,2,6,65,0,0
128081,-62.5,4,2,6,15,0,0
128130,-62.5,4,2,6,65,0,0
128178,-62.5,4,2,6,15,0,0
128227,-62.5,4,2,6,65,0,0
128275,-62.5,4,2,6,15,0,0
128324,-62.5,4,2,6,65,0,0
128372,-62.5,4,2,6,15,0,0
128420,-62.5,4,2,6,65,0,0
128468,-62.5,4,2,6,15,0,0
128517,-175.438596491228,4,2,1,75,0,0
129678,-50,4,2,1,75,0,0
129823,-50,4,2,1,15,0,0
129872,-80,4,2,1,75,0,0
130066,-40,4,2,1,75,0,0
130453,-66.6666666666667,4,2,1,65,0,0
130646,-200,4,2,7,65,0,0
130694,-200,4,2,7,15,0,0
130743,-100,4,2,7,65,0,0
130791,-100,4,2,7,15,0,0
130840,-45.4545454545455,4,2,7,75,0,0
130985,-45.4545454545455,4,2,7,15,0,0
131033,-55.5555555555556,4,2,7,55,0,0
131227,-60.6060606060606,4,2,7,75,0,0
131420,-60.6060606060606,4,2,7,15,0,0
131517,-60.6060606060606,4,2,7,75,0,0
131710,-60.6060606060606,4,2,7,15,0,0
131808,-60.6060606060606,4,2,7,75,0,0
132001,-60.6060606060606,4,2,7,15,0,0
132098,-60.6060606060606,4,2,7,75,0,0
132291,-60.6060606060606,4,2,7,15,0,0
132388,-45.4545454545455,4,2,7,75,0,0
132582,-55.5555555555556,4,2,7,55,0,0
132775,-45.4545454545455,4,2,7,55,0,0
132823,-45.4545454545455,4,2,7,15,0,0
132872,-38.4615384615385,4,2,7,55,0,0
132920,-38.4615384615385,4,2,7,15,0,0
132969,-57.1428571428571,4,2,7,65,0,0
133114,-57.1428571428571,4,2,7,15,0,0
133162,-50,4,2,7,65,0,0
133210,-50,4,2,7,15,0,0
133259,-50,4,2,7,65,0,0
133307,-50,4,2,7,15,0,0
133356,-50,4,2,7,65,0,0
133404,-50,4,2,7,15,0,0
133453,-50,4,2,7,65,0,0
133501,-50,4,2,7,15,0,0
133549,-41.6666666666667,4,2,7,65,0,0
133743,-55.5555555555556,4,2,7,65,0,0
133791,-55.5555555555556,4,2,7,15,0,0
133840,-55.5555555555556,4,2,7,65,0,0
133888,-55.5555555555556,4,2,7,15,0,0
133937,-38.4615384615385,4,2,7,65,0,0
134227,-76.9230769230769,4,2,7,65,0,0
134275,-76.9230769230769,4,2,7,15,0,0
134324,-52.6315789473684,4,2,7,75,0,0
134517,-52.6315789473684,4,2,7,15,0,0
134614,-52.6315789473684,4,2,7,75,0,0
134807,-52.6315789473684,4,2,7,15,0,0
134904,-52.6315789473684,4,2,7,75,0,0
135097,-52.6315789473684,4,2,7,15,0,0
135195,-51.8134715025907,4,2,7,75,0,0
135388,-51.8134715025907,4,2,7,15,0,0
135485,-50,4,2,7,75,0,0
135775,-50,4,2,7,15,0,0
135872,-38.4615384615385,4,2,7,65,0,0
136162,-38.4615384615385,4,2,7,15,0,0
136259,-86.9565217391304,4,2,7,65,0,0
136646,-76.9230769230769,4,2,7,65,0,0
137614,-62.5,4,2,7,65,0,0
137808,-125,4,2,7,65,0,0
137856,-125,4,2,7,15,0,0
137904,-125,4,2,7,65,0,0
137952,-125,4,2,7,15,0,0
138001,-250,4,2,7,65,0,0
138195,-76.9230769230769,4,2,7,65,0,0
138388,-52.6315789473684,4,2,7,65,0,0
138533,-52.6315789473684,4,2,7,15,0,0
138582,-50,4,2,7,65,0,0
138969,-51.2820512820513,4,2,7,65,0,0
139356,-125,4,2,7,65,0,0
139404,-125,4,2,7,15,0,0
139453,-125,4,2,7,65,0,0
139501,-125,4,2,7,15,0,0
139549,-250,4,2,7,65,0,0
139743,-76.9230769230769,4,2,7,65,0,0
139937,-41.6666666666667,4,2,7,65,0,0
140130,-76.9230769230769,4,2,7,65,0,0
140711,-62.5,4,2,7,65,0,0
140904,-500,4,2,7,65,0,0
141195,-500,4,2,6,65,0,0
141291,-50,4,2,6,65,0,0
141485,-100,4,2,6,65,0,0
141920,-100,4,2,6,15,0,0
141969,-200,4,2,6,65,0,0
142453,-40,4,2,6,65,0,0
142840,-50,4,2,6,65,0,0
143033,-200,4,2,7,65,0,0
143081,-200,4,2,7,15,0,0
143130,-133.333333333333,4,2,7,65,0,0
143178,-133.333333333333,4,2,7,15,0,0
143227,-43.4782608695652,4,2,7,65,0,0
143372,-43.4782608695652,4,2,7,15,0,0
143420,-55.5555555555556,4,2,7,65,0,0
143614,-50,4,2,7,75,0,0
143807,-50,4,2,7,15,0,0
143904,-50,4,2,7,75,0,0
144097,-50,4,2,7,15,0,0
144195,-50,4,2,7,75,0,0
144388,-50,4,2,7,15,0,0
144485,-50,4,2,7,75,0,0
144678,-50,4,2,7,15,0,0
144775,-71.4285714285714,4,2,7,65,0,0
144824,-71.4285714285714,4,2,7,5,0,0
145549,-62.5,4,2,7,65,0,0
145597,-62.5,4,2,7,15,0,0
145646,-62.5,4,2,7,65,0,0
145694,-62.5,4,2,7,15,0,0
145743,-62.5,4,2,7,65,0,0
145791,-62.5,4,2,7,15,0,0
145840,-125,4,2,7,65,0,0
146033,-62.5,4,2,7,65,0,0
146081,-62.5,4,2,7,15,0,0
146130,-62.5,4,2,7,65,0,0
146178,-62.5,4,2,7,15,0,0
146227,-62.5,4,2,7,65,0,0
146275,-62.5,4,2,7,15,0,0
146324,-33.3333333333333,4,2,7,65,0,0
146469,-33.3333333333333,4,2,7,15,0,0
146517,-66.6666666666667,4,2,7,65,0,0
146711,-50,4,2,7,75,0,0
146904,-50,4,2,7,15,0,0
147001,-50,4,2,7,75,0,0
147194,-50,4,2,7,15,0,0
147291,-50,4,2,7,75,0,0
147484,-50,4,2,7,15,0,0
147582,-50,4,2,7,75,0,0
147775,-50,4,2,7,15,0,0
147872,-50,4,2,7,65,0,0
148259,-40,4,2,7,65,0,0
148453,-399.999999999997,4,2,7,65,0,0
149033,-76.9230769230769,4,2,7,65,0,0
150001,-62.5,4,2,7,65,0,0
150195,-125,4,2,7,65,0,0
150243,-125,4,2,7,15,0,0
150291,-125,4,2,7,65,0,0
150339,-125,4,2,7,15,0,0
150388,-250,4,2,7,65,0,0
150582,-62.5,4,2,7,65,0,0
150969,-50,4,2,7,65,0,0
151356,-48.780487804878,4,2,7,65,0,0
152130,-76.9230769230769,4,2,7,65,0,0
152904,-76.9230769230769,4,2,6,65,0,0
154646,-153.846153846153,4,2,6,65,0,0
154840,-50,4,2,6,75,0,0
154854,-50,4,2,7,75,0,0
155678,-100,4,2,7,75,0,0
156388,-50,4,2,7,75,0,0
157227,-100,4,2,7,75,0,0
157937,-62.5,4,2,7,65,0,0
158324,-100,4,2,7,65,0,0
158759,-100,4,2,7,15,0,0
158808,-100,4,2,7,65,0,0
158856,-100,4,2,7,15,0,0
158904,-100,4,2,7,65,0,0
159098,-71.4285714285714,4,2,7,65,0,0
159243,-71.4285714285714,4,2,7,15,0,0
159291,-71.4285714285714,4,2,7,65,0,0
159339,-71.4285714285714,4,2,7,15,0,0
159388,-71.4285714285714,4,2,7,65,0,0
159436,-71.4285714285714,4,2,7,15,0,0
159485,-62.5,4,2,7,65,0,0
160066,-100,4,2,7,65,0,0
160114,-100,4,2,7,15,0,0
160162,-100,4,2,7,65,0,0
160210,-100,4,2,7,15,0,0
160259,-100,4,2,7,65,0,0
160307,-100,4,2,7,15,0,0
160356,-100,4,2,7,65,0,0
160404,-100,4,2,7,15,0,0
160453,-100,4,2,7,65,0,0
160646,-55.5555555555556,4,2,7,65,0,0
161033,-55.5555555555556,4,2,7,75,0,0
161872,-100,4,2,7,75,0,0
162582,-55.5555555555556,4,2,7,75,0,0
163743,-100,4,2,7,75,0,0
164130,-55.5555555555556,4,2,7,65,0,0
164711,-100,4,2,7,65,0,0
164952,-100,4,2,7,15,0,0
165001,-100,4,2,7,65,0,0
165049,-100,4,2,7,15,0,0
165098,-100,4,2,7,65,0,0
165291,-71.4285714285714,4,2,7,65,0,0
165436,-71.4285714285714,4,2,7,15,0,0
165485,-71.4285714285714,4,2,7,65,0,0
165533,-71.4285714285714,4,2,7,15,0,0
165582,-71.4285714285714,4,2,7,65,0,0
165630,-71.4285714285714,4,2,7,15,0,0
165678,-62.5,4,2,7,65,0,0
166259,-71.4285714285714,4,2,7,65,0,0
166840,-71.4285714285714,4,2,6,65,0,0
167227,-71.4285714285714,4,2,6,75,0,0
167614,-71.4285714285714,4,2,7,75,0,0
168066,-100,4,2,7,75,0,0
168775,-71.4285714285714,4,2,7,75,0,0
169162,-100,4,2,7,75,0,0
170324,-71.4285714285714,4,2,7,65,0,0
171098,-100,4,2,7,65,0,0
171146,-100,4,2,7,15,0,0
171195,-100,4,2,7,65,0,0
171243,-100,4,2,7,15,0,0
171291,-100,4,2,7,65,0,0
171485,-71.4285714285714,4,2,7,65,0,0
171630,-71.4285714285714,4,2,7,15,0,0
171678,-71.4285714285714,4,2,7,65,0,0
171726,-71.4285714285714,4,2,7,15,0,0
171775,-71.4285714285714,4,2,7,65,0,0
171823,-71.4285714285714,4,2,7,15,0,0
171872,-71.4285714285714,4,2,7,65,0,0
173227,-100,4,2,7,65,0,0
173275,-100,4,2,7,15,0,0
173324,-100,4,2,7,65,0,0
173372,-100,4,2,7,15,0,0
173420,-100,4,2,7,75,0,0
174195,400,4,2,7,75,1,0
174995,428.571428571429,4,2,7,75,1,0
175852,461.538461538462,4,2,6,75,1,0
176775,500,4,2,6,75,1,0
177337,-100,4,2,6,5,0,0
177400,-100,4,2,6,75,0,0
177462,-100,4,2,6,5,0,0
177525,-100,4,2,6,75,0,0
177587,-100,4,2,6,5,0,0
177650,-100,4,2,6,75,0,0
177712,-100,4,2,6,5,0,0
177775,-41.6666666666667,4,2,6,65,0,0
178150,-38.4615384615385,4,2,6,55,0,0
178775,545.454545454546,4,2,6,55,1,0
179320,-50,4,2,6,75,0,0
180547,-62.5,4,2,6,75,0,0
180684,-83.3333333333333,4,2,6,75,0,0
180820,-125,4,2,6,75,0,0
180956,-125,4,2,8,75,0,0
181093,-31.25,4,2,8,65,0,0
181502,-83.3333333333333,4,2,8,65,0,0
181775,-71.4285714285714,4,2,8,65,0,0
182184,-142.857142857143,4,2,8,65,0,0
182456,-71.4285714285714,4,2,8,65,0,0
182593,-47.6190476190476,4,2,8,65,0,0
183138,-100,4,2,8,65,0,0
183411,-399.999999999997,4,2,8,65,0,0
183956,-44.4444444444445,4,2,8,65,0,0
184229,-100,4,2,8,65,0,0
184502,-399.999999999997,4,2,8,65,0,0
184911,-44.4444444444445,4,2,8,65,0,0
185456,-36.3636363636364,4,2,8,65,0,0
185729,-83.3333333333333,4,2,8,65,0,0
186002,-62.5,4,2,8,65,0,0
186138,-83.3333333333333,4,2,8,65,0,0
186275,-62.5,4,2,8,65,0,0
186547,-142.857142857143,4,2,8,65,0,0
186820,-55.5555555555556,4,2,8,65,0,0
187502,-100,4,2,8,65,0,0
187775,-399.999999999997,4,2,8,65,0,0
188047,-50,4,2,8,65,0,0
188320,-25,4,2,8,65,0,0
188456,-100,4,2,8,65,0,0
188593,-33.3333333333333,4,2,8,65,0,0
189002,-50,4,2,8,65,0,0
189411,-40,4,2,8,65,0,0
189820,-31.25,4,2,8,65,0,0
190229,-55.5555555555556,4,2,8,65,0,0
190365,-50,4,2,8,65,0,0
190502,-41.6666666666667,4,2,8,65,0,0
190911,-142.857142857143,4,2,8,65,0,0
191184,-71.4285714285714,4,2,8,65,0,0
191865,-100,4,2,8,65,0,0
192138,-399.999999999997,4,2,8,65,0,0
192684,-44.4444444444445,4,2,8,65,0,0
192956,-100,4,2,8,65,0,0
193229,-399.999999999997,4,2,8,65,0,0
193638,-44.4444444444445,4,2,8,65,0,0
194184,-36.3636363636364,4,2,6,65,0,0
194456,-83.3333333333333,4,2,6,65,0,0
194593,-41.6666666666667,4,2,6,65,0,0
194865,-55.5555555555556,4,2,6,65,0,0
195002,-37.037037037037,4,2,6,65,0,0
195138,-33.3333333333333,4,2,6,65,0,0
195411,-66.6666666666667,4,2,6,65,0,0
196229,-33.3333333333333,4,2,6,65,0,0
196502,-50,4,2,6,55,0,0
197729,-200,4,2,1,45,0,0
198138,-50,4,2,1,25,0,0
198411,-80,4,2,1,55,0,0
199502,-80,4,2,7,55,0,0
210956,-66.6666666666667,4,2,7,55,0,0
211138,-50,4,2,7,55,0,0
211320,-40,4,2,7,55,0,0
211911,-50,4,2,7,55,0,0
212729,-26.6666666666667,4,2,7,55,0,0
213411,-270.27027027027,4,2,7,55,0,0
213684,-66.6666666666667,4,2,7,55,0,0
215320,-50,4,2,3,65,0,0
215729,-44.4444444444445,4,2,3,65,0,0
218047,521.739130434783,4,2,3,65,1,0
220133,500,4,2,3,65,1,0
222133,480,4,2,3,65,1,0
223573,-133.333333333333,4,2,3,65,0,0
224053,461.538461538462,4,2,3,65,1,0
225899,428.571428571429,4,2,3,65,1,0
227613,400,4,2,3,65,1,0
229213,375,4,2,6,55,1,0
229213,-222.222222222221,4,2,6,55,0,0
230338,-50,4,2,6,65,0,0
231088,-40,4,2,6,65,0,0
232213,-133.333333333333,4,2,6,65,0,0
232400,-66.6666666666667,4,2,6,65,0,0
232588,-40,4,2,6,65,0,0
234275,-100,4,2,6,65,0,0
237088,-50,4,2,6,65,0,0
238400,-100,4,2,6,65,0,0
238588,-50,4,2,6,65,0,0
240463,-100,4,2,6,65,0,0
242338,-133.333333333333,4,2,6,65,0,0
242713,-66.6666666666667,4,2,6,65,0,0
242963,-100,4,2,6,65,0,0
243088,-52.6315789473684,4,2,6,65,0,0
243463,-133.333333333333,4,2,6,65,0,0
244213,-66.6666666666667,4,2,6,65,0,0
244463,-100,4,2,6,65,0,0
244588,-52.6315789473684,4,2,6,65,0,0
244963,-133.333333333333,4,2,6,65,0,0
246213,-60.6060606060606,4,2,6,65,0,0
246838,-74.0740740740741,4,2,6,65,0,0
248056,-100,4,2,6,65,0,0
249088,-50,4,2,6,65,0,0
250400,-100,4,2,6,65,0,0
250588,-50,4,2,6,65,0,0
251713,-100,4,2,6,65,0,0
252463,400,4,2,6,65,1,0
253263,428.571428571429,4,2,3,45,1,0
253263,-133.333333333333,4,2,3,45,0,0
254120,500,4,2,1,55,1,0
254620,545.454545454546,4,2,1,55,1,0
255165,285.714285714286,4,2,1,55,1,0
257450,-333.333333333333,4,2,3,25,0,0
258022,-200,4,2,3,35,0,0
258593,-142.857142857143,4,2,3,45,0,0
259165,-111.111111111111,4,2,3,55,0,0
260879,-111.111111111111,4,2,3,65,0,0
263165,-200,4,2,6,35,0,0
263736,-100,4,2,6,35,0,0
264022,-66.6666666666667,4,2,1,75,0,0
264307,-80,4,2,1,75,0,0
266307,-71.4285714285714,4,2,1,75,0,0
266593,-80,4,2,1,75,0,0
268879,-100,4,2,1,75,0,0
273093,-80,4,2,1,75,0,0
275450,-71.4285714285714,4,2,1,75,0,0
275736,-80,4,2,1,75,0,0
278022,-100,4,2,1,75,0,0
279165,-80,4,2,1,75,0,0
279593,-100,4,2,1,75,0,0
281450,-133.333333333333,4,2,1,75,0,0
281879,-133.333333333333,4,2,3,75,0,0
282022,-80,4,2,3,75,0,0
282165,-100,4,2,3,65,0,0
282307,-133.333333333333,4,2,3,55,0,0
282450,-200,4,2,3,45,0,0
282593,-200,4,2,49,65,0,0
282878,-200,4,2,47,65,0,0
283022,-90.9090909090909,4,2,49,65,0,0
283307,-90.9090909090909,4,2,50,65,0,0
283593,-90.9090909090909,4,2,51,65,0,0
283879,-90.9090909090909,4,2,52,65,0,0
284307,-90.9090909090909,4,2,53,65,0,0
284593,-90.9090909090909,4,2,52,65,0,0
284736,-90.9090909090909,4,2,51,65,0,0
284879,-90.9090909090909,4,2,50,65,0,0
285165,-90.9090909090909,4,2,45,65,0,0
285736,-133.333333333333,4,2,46,65,0,0
286165,-133.333333333333,4,2,47,65,0,0
286449,-133.333333333333,4,2,35,65,0,0
286521,-133.333333333333,4,2,36,65,0,0
286593,-100,4,2,49,65,0,0
286736,-100,4,2,47,65,0,0
286879,-100,4,2,46,65,0,0
287022,-100,4,2,47,65,0,0
287165,-100,4,2,49,65,0,0
287450,-100,4,2,47,65,0,0
287593,-90.9090909090909,4,2,49,65,0,0
287879,-90.9090909090909,4,2,50,65,0,0
288165,-90.9090909090909,4,2,51,65,0,0
288450,-90.9090909090909,4,2,52,65,0,0
288593,-90.9090909090909,4,2,54,65,0,0
288735,-90.9090909090909,4,2,53,65,0,0
288879,-90.9090909090909,4,2,52,65,0,0
289022,-90.9090909090909,4,2,51,65,0,0
289165,-90.9090909090909,4,2,50,65,0,0
289307,-90.9090909090909,4,2,51,65,0,0
289450,-90.9090909090909,4,2,50,65,0,0
289593,-90.9090909090909,4,2,32,65,0,0
289664,-90.9090909090909,4,2,33,65,0,0
289735,-90.9090909090909,4,2,34,65,0,0
289807,-90.9090909090909,4,2,35,65,0,0
289878,-90.9090909090909,4,2,47,65,0,0
290022,-90.9090909090909,4,2,50,65,0,0
290165,-90.9090909090909,4,2,51,65,0,0
290450,-90.9090909090909,4,2,52,65,0,0
290736,-90.9090909090909,4,2,51,65,0,0
291022,-100,4,2,50,65,0,0
291307,-100,4,2,36,75,0,0
291379,-100,4,2,61,75,0,0
291450,-100,4,2,37,75,0,0
291521,-100,4,2,39,75,0,0
291592,-100,4,2,41,75,0,0
291664,-100,4,2,42,75,0,0
291736,-100,4,2,43,75,0,0
291807,-100,4,2,42,75,0,0
291879,-100,4,2,41,75,0,0
291950,-100,4,2,39,75,0,0
292022,-100,4,2,37,75,0,0
292165,-100,4,2,43,75,0,0
292236,-100,4,2,42,75,0,0
292308,-100,4,2,41,75,0,0
292379,-100,4,2,39,75,0,0
292451,-100,4,2,37,75,0,0
292593,-100,4,2,43,75,0,0
292664,-100,4,2,42,75,0,0
292736,-100,4,2,41,75,0,0
292807,-100,4,2,39,75,0,0
292879,-100,4,2,42,75,0,0
293022,-90.9090909090909,4,2,49,75,0,0
293593,-90.9090909090909,4,2,33,75,0,0
293664,-90.9090909090909,4,2,35,75,0,0
293736,-90.9090909090909,4,2,61,75,0,0
293807,-90.9090909090909,4,2,39,75,0,0
293878,-90.9090909090909,4,2,41,75,0,0
293950,-90.9090909090909,4,2,43,75,0,0
294022,-90.9090909090909,4,2,42,75,0,0
294093,-90.9090909090909,4,2,41,75,0,0
294165,-90.9090909090909,4,2,40,75,0,0
294236,-90.9090909090909,4,2,37,75,0,0
294307,-90.9090909090909,4,2,35,75,0,0
294450,-90.9090909090909,4,2,42,75,0,0
294521,-90.9090909090909,4,2,41,75,0,0
294593,-90.9090909090909,4,2,40,75,0,0
294664,-90.9090909090909,4,2,37,75,0,0
294735,-90.9090909090909,4,2,35,75,0,0
294879,-90.9090909090909,4,2,37,75,0,0
294950,-90.9090909090909,4,2,40,75,0,0
295022,-90.9090909090909,4,2,41,75,0,0
295093,-90.9090909090909,4,2,42,75,0,0
295165,-80,4,2,55,85,0,0
295355,-80,4,2,56,85,0,0
295545,-80,4,2,57,85,0,0
295736,-133.333333333333,4,2,58,85,0,0
295926,-133.333333333333,4,2,59,85,0,0
296117,-133.333333333333,4,2,60,85,0,0
296307,-100,4,2,49,75,0,0
296593,-100,4,2,47,75,0,0
296736,-100,4,2,49,75,0,0
297022,-100,4,2,50,75,0,0
297165,-100,4,2,61,75,0,0
297236,-100,4,2,37,75,0,0
297307,-100,4,2,38,75,0,0
297379,-100,4,2,39,75,0,0
297450,-100,4,2,54,75,0,0
297665,-100,4,2,51,75,0,0
298307,-100,4,2,54,75,0,0
298593,-100,4,2,37,75,0,0
298664,-100,4,2,61,75,0,0
298735,-100,4,2,48,75,0,0
298879,-100,4,2,37,75,0,0
298950,-100,4,2,61,75,0,0
299022,-100,4,2,48,75,0,0
299165,-100,4,2,37,75,0,0
299236,-100,4,2,61,75,0,0
299307,-100,4,2,48,75,0,0
299450,-100,4,2,37,75,0,0
299521,-100,4,2,61,75,0,0
299592,-100,4,2,48,75,0,0
299735,-100,4,2,37,65,0,0
299736,300,4,2,37,65,1,0
299811,-100,4,2,61,65,0,0
299886,-100,4,2,48,65,0,0
300036,-100,4,2,37,65,0,0
300111,-100,4,2,61,65,0,0
300186,-100,4,2,48,65,0,0
300336,315.789473684211,4,2,37,55,1,0
300414,-100,4,2,61,55,0,0
300493,-100,4,2,48,55,0,0
300651,-100,4,2,37,55,0,0
300730,-100,4,2,61,55,0,0
300809,-100,4,2,48,55,0,0
300967,315.789473684211,4,2,1,45,1,0
302230,300,4,2,1,55,1,0
303430,285.714285714286,4,2,1,65,1,0
304001,-100,4,2,1,55,0,0
304572,272.727272727273,4,2,1,45,1,0
304640,-100,4,2,3,45,0,0
304844,-100,4,2,3,55,0,0
305117,-100,4,2,3,65,0,0
305390,-100,4,2,3,35,0,0
305662,-90.9090909090909,4,2,28,75,0,0
306072,-90.9090909090909,4,2,24,75,0,0
306617,-90.9090909090909,4,2,21,75,0,0
306685,-90.9090909090909,4,2,22,75,0,0
306753,-90.9090909090909,4,2,26,75,0,0
307026,-90.9090909090909,4,2,25,75,0,0
307299,-90.9090909090909,4,2,24,75,0,0
307572,-90.9090909090909,4,2,23,75,0,0
307844,-90.9090909090909,4,2,24,75,0,0
308662,-90.9090909090909,4,2,1,75,0,0
309072,-133.333333333333,4,2,1,75,0,0
310026,-90.9090909090909,4,2,28,75,0,0
310435,-90.9090909090909,4,2,24,75,0,0
310981,-90.9090909090909,4,2,21,75,0,0
311050,-90.9090909090909,4,2,22,75,0,0
311118,-90.9090909090909,4,2,26,75,0,0
311390,-90.9090909090909,4,2,25,75,0,0
311662,-90.9090909090909,4,2,26,75,0,0
311935,-90.9090909090909,4,2,27,75,0,0
312208,-90.9090909090909,4,2,24,75,0,0
313026,-90.9090909090909,4,2,1,75,0,0
314390,-90.9090909090909,4,2,26,75,0,0
314799,-90.9090909090909,4,2,25,75,0,0
315208,-90.9090909090909,4,2,24,75,0,0
315481,-90.9090909090909,4,2,26,75,0,0
315890,-90.9090909090909,4,2,25,75,0,0
316299,-90.9090909090909,4,2,24,75,0,0
316572,-90.9090909090909,4,2,26,75,0,0
316981,-90.9090909090909,4,2,25,75,0,0
317390,-90.9090909090909,4,2,26,75,0,0
317662,-90.9090909090909,4,2,27,75,0,0
317935,-90.9090909090909,4,2,26,75,0,0
318208,-90.9090909090909,4,2,25,75,0,0
318481,-90.9090909090909,4,2,26,75,0,0
319162,-90.9090909090909,4,2,25,75,0,0
319572,-90.9090909090909,4,2,24,75,0,0
319844,-90.9090909090909,4,2,28,75,0,0
320253,-90.9090909090909,4,2,25,75,0,0
320662,-90.9090909090909,4,2,24,75,0,0
320935,-90.9090909090909,4,2,26,75,0,0
321344,-90.9090909090909,4,2,25,75,0,0
321753,-90.9090909090909,4,2,26,75,0,0
322026,-133.333333333333,4,2,27,75,0,0
322435,-200,4,2,27,75,0,0
322572,-200,4,2,30,65,0,0
322708,-200,4,2,27,65,0,0
322844,-200,4,2,25,55,0,0
322980,-200,4,2,23,55,0,0
323117,-83.3333333333333,4,2,28,75,0,0
323390,-100,4,2,28,75,0,0
323526,-76.9230769230769,4,2,24,75,0,0
323799,-111.111111111111,4,2,24,75,0,0
324072,-111.111111111111,4,2,21,75,0,0
324140,-111.111111111111,4,2,22,75,0,0
324208,-83.3333333333333,4,2,26,75,0,0
324481,-90.9090909090909,4,2,25,75,0,0
324753,-100,4,2,24,75,0,0
325026,-100,4,2,23,75,0,0
325299,-100,4,2,24,75,0,0
325572,-83.3333333333334,4,2,24,75,0,0
326253,-66.6666666666667,4,2,24,75,0,0
326390,-83.3333333333333,4,2,1,75,0,0
327481,-83.3333333333333,4,2,28,75,0,0
327890,-76.9230769230769,4,2,24,75,0,0
328435,-76.9230769230769,4,2,21,75,0,0
328503,-76.9230769230769,4,2,22,75,0,0
328572,-83.3333333333333,4,2,26,75,0,0
328844,-90.9090909090909,4,2,27,75,0,0
328981,-76.9230769230769,4,2,27,75,0,0
329117,-100,4,2,28,75,0,0
329390,-100,4,2,30,75,0,0
329662,-100,4,2,31,75,0,0
329935,-166.666666666667,4,2,28,75,0,0
330072,-66.6666666666667,4,2,31,75,0,0
330753,-111.111111111111,4,2,31,75,0,0
331026,-76.9230769230769,4,2,1,75,0,0
331844,-90.9090909090909,4,2,28,75,0,0
332253,-90.9090909090909,4,2,24,75,0,0
332390,-76.9230769230769,4,2,24,75,0,0
332799,-76.9230769230769,4,2,21,75,0,0
332867,-76.9230769230769,4,2,22,75,0,0
332935,-76.9230769230769,4,2,26,75,0,0
333208,-83.3333333333333,4,2,27,75,0,0
333480,-83.3333333333333,4,2,26,75,0,0
333753,-83.3333333333333,4,2,25,75,0,0
334026,-76.9230769230769,4,2,28,75,0,0
334299,-90.9090909090909,4,2,28,75,0,0
334435,-90.9090909090909,4,2,24,75,0,0
334572,-76.9230769230769,4,2,24,75,0,0
334981,-76.9230769230769,4,2,21,75,0,0
335049,-76.9230769230769,4,2,22,75,0,0
335117,-76.9230769230769,4,2,26,75,0,0
335390,-83.3333333333333,4,2,27,75,0,0
335663,-83.3333333333333,4,2,28,75,0,0
335935,-83.3333333333333,4,2,30,75,0,0
336208,-83.3333333333333,4,2,31,75,0,0
336617,-76.9230769230769,4,2,30,75,0,0
337026,-76.9230769230769,4,2,29,75,0,0
337299,-76.9230769230769,4,2,28,75,0,0
337572,-76.9230769230769,4,2,27,75,0,0
337844,-76.9230769230769,4,2,26,75,0,0
338116,-76.9230769230769,4,2,25,75,0,0
338390,-76.9230769230769,4,2,24,75,0,0
338799,-76.9230769230769,4,2,25,75,0,0
339208,-76.9230769230769,4,2,26,75,0,0
339481,-76.9230769230769,4,2,1,75,0,0
339617,-76.9230769230769,4,2,27,75,0,0
339890,-76.9230769230769,4,2,1,75,0,0
340026,-76.9230769230769,4,2,28,75,0,0
340299,-90.9090909090909,4,2,30,75,0,0
340572,-125,4,2,31,75,0,0
340844,-125,4,2,3,55,0,0
349299,-250,4,2,1,75,0,0
351208,-250,4,2,1,35,0,0
351481,-250,4,2,1,55,0,0
352844,-250,4,2,1,5,0,0
353117,-250,4,2,1,55,0,0
353799,-250,4,2,62,75,0,0
353935,-250,4,2,63,75,0,0
354072,-250,4,2,64,75,0,0
354208,-250,4,2,65,75,0,0
354344,-250,4,2,66,75,0,0
354617,-250,4,2,62,75,0,0
354753,285.714285714286,4,2,63,75,1,0
354895,-100,4,2,64,75,0,0
355038,-100,4,2,65,75,0,0
355181,-100,4,2,66,75,0,0
355467,-100,4,2,62,75,0,0
355610,-100,4,2,63,75,0,0
355753,-100,4,2,64,75,0,0
355895,300,4,2,65,75,1,0
356045,-100,4,2,66,75,0,0
356345,-100,4,2,62,75,0,0
356495,-100,4,2,63,75,0,0
356645,-100,4,2,64,75,0,0
356795,-100,4,2,65,75,0,0
356945,-100,4,2,66,75,0,0
357095,333.333333333333,4,2,66,75,1,0
357261,-100,4,2,62,75,0,0
357428,-100,4,2,63,75,0,0
357595,-100,4,2,64,75,0,0
357761,400,4,2,67,75,1,0
357961,-100,4,2,66,75,0,0
358161,-100,4,2,67,75,0,0
358361,-100,4,2,68,75,0,0
358561,-100,4,2,1,30,0,0

[Colours]
Combo1 : 255,216,157
Combo2 : 255,151,196
Combo3 : 255,136,136
Combo4 : 157,255,255
Combo5 : 176,186,255
Combo6 : 210,255,166
Combo7 : 138,255,180
Combo8 : 253,255,164

[HitObjects]
512,41,1271,6,0,P|460:30|410:13,1,104.999996795654,4|0,2:3|2:3,2:3:0:0:
274,79,1586,2,0,P|363:126|374:226,1,209.999993591309,10|0,2:3|2:3,2:3:0:0:
303,292,2060,1,2,2:3:0:0:
423,318,2218,1,0,2:3:0:0:
423,318,2376,1,0,3:0:0:0:
204,370,2534,6,0,P|197:317|181:268,1,104.999996795654,0|0,3:0|2:3,2:3:0:0:
52,143,2850,2,0,P|44:249|7:346,1,209.999993591309,2|0,3:0|2:3,2:3:0:0:
189,263,3323,1,0,2:3:0:0:
42,137,3481,101,0,3:0:0:0:
28,100,3560,1,0,3:0:0:0:
36,62,3639,1,8,3:0:0:0:
62,33,3718,1,8,3:0:0:0:
100,23,3797,2,0,B|186:49|154:66|251:95,1,157.499995193482,0|0,3:0|2:3,2:3:0:0:
356,32,4113,2,0,B|332:7|332:7|289:16|289:16|355:62|311:164,1,209.999993591309,2|0,3:0|3:0,2:3:0:0:
477,326,4744,6,0,B|487:301|487:301|485:275,1,52.4999983978272,0|0,2:3|2:3,2:3:0:0:
295,247,4902,2,0,B|285:272|285:272|287:298,1,52.4999983978272,0|0,2:3|2:3,2:3:0:0:
367,384,5060,101,0,3:0:0:0:
367,384,5139,1,0,2:3:0:0:
367,384,5218,2,0,L|374:332,1,52.4999983978272,8|0,2:3|2:3,2:3:0:0:
405,137,5376,2,0,L|389:240,1,104.999996795654,2|0,3:0|2:3,2:3:0:0:
166,331,5692,5,0,3:0:0:0:
130,325,5771,1,0,3:0:0:0:
96,319,5850,1,0,3:0:0:0:
60,313,5929,1,0,2:3:0:0:
28,306,6008,101,8,3:0:0:0:
75,277,6086,1,0,3:0:0:0:
90,224,6165,1,0,3:0:0:0:
69,172,6244,1,0,3:0:0:0:
16,153,6323,6,0,B|12:131|-3:117|-3:117|38:15|38:15|65:26|41:89,1,225,4|0,3:0|2:3,2:3:0:0:
13,231,6639,2,0,B|302:154|302:154|323:149|313:105|292:110|292:110|136:151,1,450,2|8,3:0|2:3,2:3:0:0:
158,22,7271,102,0,P|122:58|127:109,1,104.999996795654,2|0,2:3|3:0,2:3:0:0:
319,269,7586,2,0,P|304:220|258:198,1,104.999996795654,0|0,3:0|2:3,2:3:0:0:
46,311,7902,2,0,B|144:329|144:329|156:334|156:334|266:355,1,209.999993591309,10|0,3:0|2:3,2:3:0:0:
251,352,8376,1,0,2:3:0:0:
511,298,8534,5,10,2:3:0:0:
475,306,8613,1,8,2:3:0:0:
439,314,8692,1,0,3:0:0:0:
402,321,8771,1,0,3:0:0:0:
463,384,8850,102,0,L|479:227,1,157.499995193482,0|0,3:0|2:3,2:3:0:0:
492,81,9165,6,0,P|474:128|425:143,1,104.999996795654,2|0,3:0|2:3,2:3:0:0:
319,269,9481,2,0,P|268:277|231:242,1,104.999996795654,0|0,3:0|2:3,2:3:0:0:
85,176,9797,2,0,P|52:136|64:87,1,104.999996795654,2|0,2:3|2:3,2:3:0:0:
400,59,10113,101,0,3:0:0:0:
400,59,10192,1,0,3:0:0:0:
400,59,10271,1,8,3:0:0:0:
215,0,10429,2,0,L|196:159,1,157.499995193482,2|8,3:0|2:3,2:3:0:0:
231,242,10744,5,0,3:0:0:0:
224,259,10823,1,8,2:3:0:0:
202,270,10902,1,0,3:0:0:0:
182,269,10981,1,0,2:3:0:0:
107,289,11060,101,2,3:0:0:0:
106,332,11139,1,0,3:0:0:0:
132,367,11218,1,8,3:0:0:0:
176,377,11297,1,8,3:0:0:0:
249,340,11376,6,0,L|382:357,1,134.999995880127,4|0,1:2|2:0,2:0:0:0:
446,318,11613,1,0,2:0:0:0:
446,318,11692,1,8,2:0:0:0:
196,156,11850,102,0,L|351:132,1,134.999995880127,2|0,2:0|2:0,2:0:0:0:
394,190,12086,1,0,2:0:0:0:
394,190,12165,2,0,L|371:256,1,67.4999979400635,0|0,2:0|2:0,2:0:0:0:
448,27,12323,1,10,2:0:0:0:
431,30,12402,1,0,2:0:0:0:
414,33,12481,1,0,2:0:0:0:
398,36,12560,1,0,2:0:0:0:
381,39,12639,6,0,B|299:21|348:13|254:-6,1,134.999995880127,2|0,3:2|2:0,2:0:0:0:
197,42,12876,1,0,2:0:0:0:
197,42,12955,1,8,2:0:0:0:
188,207,13113,102,0,L|55:171,1,134.999995880127,2|0,2:0|2:0,2:0:0:0:
8,108,13350,1,0,2:0:0:0:
17,69,13429,1,0,2:0:0:0:
54,49,13508,1,0,2:0:0:0:
87,49,13586,2,0,B|109:81|109:81|101:123,1,67.4999979400635,10|0,2:0|2:0,2:0:0:0:
188,207,13744,2,0,B|171:242|171:242|130:256,1,67.4999979400635,0|0,3:0|3:0,3:0:0:0:
45,358,13902,6,0,B|3:300|3:300|34:219,1,134.999995880127,2|0,3:2|2:0,2:0:0:0:
57,171,14139,1,0,2:0:0:0:
57,171,14218,1,8,2:0:0:0:
310,368,14376,102,0,L|329:214,1,134.999995880127,2|0,2:0|2:0,2:0:0:0:
340,146,14613,1,0,2:0:0:0:
340,146,14692,2,0,L|262:173,1,67.4999979400635,0|0,2:0|2:0,2:0:0:0:
178,338,14850,2,0,P|247:349|309:368,1,134.999995880127,10|0,2:0|3:0,2:0:0:0:
396,384,15086,5,0,3:0:0:0:
396,384,15165,2,0,B|424:330|424:330|404:253,1,134.999995880127,2|0,3:2|2:0,2:0:0:0:
471,214,15402,1,0,2:0:0:0:
471,214,15481,1,8,2:0:0:0:
203,188,15639,102,0,L|183:53,1,134.999995880127,2|0,2:0|2:0,2:0:0:0:
246,14,15876,1,0,2:0:0:0:
292,21,15955,1,0,2:0:0:0:
327,52,16034,1,0,2:0:0:0:
331,99,16113,5,10,2:0:0:0:
387,154,16192,1,0,2:0:0:0:
463,131,16271,2,0,L|479:33,1,67.4999979400635,0|0,2:0|2:0,2:0:0:0:
117,135,16429,101,10,3:2:0:0:
117,135,16744,1,8,2:0:0:0:
477,37,17060,5,8,2:0:0:0:
477,37,17376,1,8,2:0:0:0:
63,0,17692,101,8,2:0:0:0:
63,0,18008,1,8,2:0:0:0:
257,384,18323,5,8,2:0:0:0:
257,384,18639,1,8,2:0:0:0:
343,254,18797,101,0,3:0:0:0:
343,254,18876,1,0,3:0:0:0:
343,254,18955,2,0,P|335:299|331:344,1,89.9999972534181,10|0,3:2|2:0,2:0:0:0:
181,344,19113,2,0,P|176:297|165:239,1,89.9999972534181,8|0,2:0|2:0,2:0:0:0:
421,260,19271,6,0,P|413:304|408:349,1,89.9999972534181,8|0,2:0|2:0,2:0:0:0:
103,349,19429,2,0,P|98:304|91:260,1,89.9999972534181,10|0,2:0|2:0,2:0:0:0:
385,157,19586,102,0,P|429:164|474:168,1,89.9999972534181,8|0,2:0|2:0,2:0:0:0:
127,157,19744,2,0,P|82:164|37:168,1,89.9999972534181,8|0,2:0|2:0,2:0:0:0:
422,67,19902,6,0,P|466:74|511:78,1,89.9999972534181,10|0,2:0|2:0,2:0:0:0:
90,67,20060,2,0,P|45:74|0:78,1,89.9999972534181,8|0,2:0|2:0,2:0:0:0:
305,195,20218,101,10,2:0:0:0:
349,251,20297,1,8,2:0:0:0:
344,323,20376,1,8,2:0:0:0:
292,371,20455,1,8,2:0:0:0:
219,371,20534,1,8,2:0:0:0:
168,324,20613,1,8,2:0:0:0:
161,252,20692,1,10,2:0:0:0:
205,195,20771,1,8,2:0:0:0:
256,136,20850,5,8,2:3:0:0:
256,129,20929,1,8,2:3:0:0:
256,121,21008,1,8,2:3:0:0:
256,112,21086,1,8,2:3:0:0:
256,103,21165,101,2,2:3:0:0:
190,73,21244,1,8,2:3:0:0:
67,375,21402,5,8,2:0:0:0:
0,345,21481,2,0,B|76:332|76:332|93:336|93:336|217:311,1,194.999991073609,4|0,1:0|2:0,2:0:0:0:
422,324,21718,101,10,2:0:0:0:
371,384,21797,2,0,B|339:341|339:341|357:246,1,150,0|8,1:0|2:0,2:0:0:0:
382,139,22034,1,2,2:0:0:0:
397,63,22113,1,8,1:2:0:0:
407,62,22192,1,10,2:0:0:0:
416,60,22271,1,0,2:0:0:0:
425,59,22350,1,8,2:0:0:0:
433,59,22429,2,0,P|458:84|456:121,1,75,0|0,1:0|2:0,2:0:0:0:
512,199,22586,2,0,P|486:224|449:222,1,75,10|0,2:0|2:0,2:0:0:0:
309,96,22744,6,0,B|246:84|246:84|235:78|235:78|162:64,1,150,8|0,1:2|2:0,2:0:0:0:
21,325,22981,101,10,2:0:0:0:
81,379,23060,2,0,B|111:335|111:335|79:229,1,150,0|8,1:0|2:0,2:0:0:0:
163,175,23297,1,2,2:0:0:0:
216,231,23376,1,8,1:2:0:0:
213,242,23455,1,10,2:0:0:0:
211,254,23534,1,0,2:0:0:0:
208,266,23613,1,8,2:0:0:0:
205,276,23692,2,0,L|132:295,1,75,0|0,1:0|2:0,2:0:0:0:
12,133,23850,2,0,L|85:114,1,75,10|8,2:0|2:0,2:0:0:0:
310,208,24008,6,0,L|271:383,1,179.999994506836,4|0,1:0|2:0,2:0:0:0:
260,40,24244,101,10,2:0:0:0:
308,95,24323,2,0,P|379:101|408:37,1,150,0|8,1:0|2:0,2:0:0:0:
497,162,24560,1,2,2:0:0:0:
449,222,24639,1,8,1:2:0:0:
439,223,24718,1,10,2:0:0:0:
429,225,24797,1,0,2:0:0:0:
419,226,24876,1,8,2:0:0:0:
411,227,24955,2,0,P|437:263|421:319,1,75,0|0,1:0|2:0,2:0:0:0:
280,354,25113,2,0,P|310:333|323:299,1,75,10|0,2:0|2:0,2:0:0:0:
241,144,25271,6,0,L|79:111,1,150,8|0,1:2|2:0,2:0:0:0:
25,168,25508,1,10,2:0:0:0:
86,235,25586,1,0,1:0:0:0:
97,237,25665,2,0,L|203:258,1,75,0|10,2:0|2:0,2:0:0:0:
56,21,25823,101,0,2:0:0:0:
47,19,25902,2,0,P|17:41|11:77,1,75,10|0,1:2|2:0,2:0:0:0:
32,314,26060,2,0,P|4:290|0:253,1,75,10|0,2:0|2:0,2:0:0:0:
241,144,26218,5,8,1:2:0:0:
299,191,26297,1,8,2:0:0:0:
315,264,26376,1,10,1:2:0:0:
280,330,26455,1,8,2:0:0:0:
213,359,26534,1,4,1:0:0:0:
213,359,26692,1,8,2:0:0:0:
388,4,26850,101,8,2:0:0:0:
342,65,26929,2,8,L|367:137,1,75,10|8,2:0|2:0,2:0:0:0:
441,156,27086,1,10,2:0:0:0:
491,100,27165,1,4,1:0:0:0:
491,100,27323,1,8,2:0:0:0:
388,4,27481,5,8,2:0:0:0:
342,65,27560,2,8,L|367:137,1,75,10|8,2:0|2:0,2:0:0:0:
441,156,27718,1,8,2:0:0:0:
491,100,27797,1,4,1:0:0:0:
491,100,27955,1,8,2:0:0:0:
388,4,28113,101,8,2:0:0:0:
342,65,28192,2,8,L|367:137,1,75,10|8,2:0|2:0,2:0:0:0:
441,156,28350,1,10,2:0:0:0:
491,100,28429,1,4,1:0:0:0:
491,100,28586,1,8,2:0:0:0:
388,4,28744,5,8,2:0:0:0:
342,65,28823,2,8,L|367:137,1,75,10|8,2:0|2:0,2:0:0:0:
314,191,28981,1,10,2:0:0:0:
237,185,29060,2,0,P|220:152|227:116,1,75,4|8,1:0|2:0,2:0:0:0:
168,65,29218,2,0,P|188:34|223:22,1,75,8|8,1:2|2:0,2:0:0:0:
441,156,29376,101,0,1:0:0:0:
490,212,29455,1,0,1:0:0:0:
480,289,29534,1,0,1:0:0:0:
409,325,29613,1,0,1:0:0:0:
337,363,29692,6,0,P|319:311|407:318,1,179.999994506836,4|0,1:2|2:0,2:0:0:0:
136,313,29929,102,0,P|184:278|207:332,1,134.999995880127,4|0,1:2|2:0,2:0:0:0:
32,211,30165,6,0,P|70:209|60:246,2,89.9999972534181,4|0|0,1:2|2:0|2:0,2:0:0:0:
0,384,30639,101,0,2:0:0:0:
0,384,30718,2,0,P|60:367|157:341,1,134.999995880127,0|0,2:0|2:0,2:0:0:0:
361,251,30955,5,0,3:0:0:0:
361,251,31034,1,0,2:0:0:0:
361,250,31113,2,0,P|366:196|381:140,1,112.500004291535,2|0,2:3|2:0,2:0:0:0:
152,253,31271,2,0,P|197:284|237:325,1,112.500004291535,8|0,3:0|2:0,2:0:0:0:
254,71,31429,2,0,P|203:94|148:108,1,112.500004291535,2|0,2:3|2:0,2:0:0:0:
296,380,31586,102,0,P|329:381|356:362,1,67.4999979400635,2|0,1:2|2:0,2:0:0:0:
486,359,31744,2,0,P|502:330|499:297,1,67.4999979400635,0|0,1:2|2:0,2:0:0:0:
413,185,31902,2,0,P|396:156|366:142,2,67.4999979400635,0|0|0,1:2|2:0|2:0,2:0:0:0:
512,24,32139,6,0,L|495:157,1,134.999995880127,0|0,1:2|2:0,2:0:0:0:
352,135,32376,101,0,1:2:0:0:
352,135,32455,1,0,2:0:0:0:
398,72,32534,2,0,L|364:271,1,202.499993820191,0|0,1:2|2:0,2:0:0:0:
190,374,32850,6,0,P|215:352|218:319,1,67.4999979400635,0|0,1:2|2:0,2:0:0:0:
51,270,33008,1,2,1:2:0:0:
44,274,33086,2,0,P|49:306|76:325,1,67.4999979400635,2|0,2:0|1:2,2:0:0:0:
211,191,33244,2,0,P|179:179|150:193,1,67.4999979400635,2|0,2:0|2:0,2:0:0:0:
5,45,33402,102,0,P|39:104|63:167,1,134.999995880127,2|0,1:2|2:0,2:0:0:0:
202,29,33639,5,2,1:2:0:0:
202,29,33718,1,0,2:0:0:0:
252,86,33797,2,0,P|189:59|125:38,1,134.999995880127,0|2,1:2|2:0,2:0:0:0:
114,35,34113,102,0,P|146:41|165:68,1,67.4999979400635,0|0,1:2|2:0,2:0:0:0:
294,99,34271,2,0,P|303:130|290:160,1,67.4999979400635,0|0,1:2|2:0,2:0:0:0:
361,272,34429,2,0,P|338:296|305:299,2,67.4999979400635,0|0|0,1:2|2:0|2:0,2:0:0:0:
174,373,34665,6,0,P|120:332|55:315,1,134.999995880127,2|0,1:2|2:0,2:0:0:0:
61,166,34902,101,2,1:2:0:0:
61,166,34981,1,0,2:0:0:0:
7,226,35060,2,0,P|70:203|136:188,1,134.999995880127,0|0,1:2|2:0,2:0:0:0:
143,192,35376,6,0,P|142:225|161:252,1,67.4999979400635,0|2,1:2|2:0,2:0:0:0:
267,344,35534,2,0,P|296:328|310:298,1,67.4999979400635,0|0,1:2|2:0,2:0:0:0:
488,296,35692,2,0,P|449:348|384:353,1,134.999995880127,2|0,1:2|2:0,2:0:0:0:
305,216,35929,101,2,1:2:0:0:
299,207,36008,2,0,P|337:154|402:149,1,134.999995880127,0|2,1:2|2:0,2:0:0:0:
466,63,36244,1,2,2:0:0:0:
411,10,36323,2,0,B|340:28|362:41|286:61,1,134.999995880127,0|2,1:2|2:0,2:0:0:0:
190,40,36560,5,0,2:0:0:0:
198,43,36639,2,0,L|211:123,1,67.4999979400635,0|0,1:2|2:0,2:0:0:0:
37,10,36797,2,0,L|103:0,1,67.4999979400635,2|0,1:2|2:0,2:0:0:0:
12,168,36955,2,0,L|-1:88,1,67.4999979400635,0|0,1:2|2:0,2:0:0:0:
168,188,37113,101,2,2:0:0:0:
160,189,37192,1,2,1:2:0:0:
152,190,37271,2,0,P|125:210|116:242,1,67.4999979400635,0|0,2:0|2:0,2:0:0:0:
61,328,37429,2,0,P|65:360|88:384,1,67.4999979400635,2|0,1:2|2:0,2:0:0:0:
329,311,37586,2,0,B|301:302|275:280|275:280|141:320,1,202.499993820191,2|0,1:2|2:0,2:0:0:0:
199,384,37902,6,0,P|222:359|224:326,1,67.4999979400635,0|0,1:2|2:0,2:0:0:0:
354,235,38060,2,0,P|385:245|403:272,1,67.4999979400635,0|0,1:2|2:0,2:0:0:0:
512,357,38218,2,0,B|455:368|455:368|446:373|446:373|380:384,1,134.999995880127,0|0,1:2|2:0,2:0:0:0:
262,202,38455,101,2,1:2:0:0:
263,193,38534,1,0,2:0:0:0:
264,184,38613,1,0,2:0:0:0:
266,174,38692,2,0,L|273:243,1,67.4999979400635,2|0,1:2|2:0,2:0:0:0:
483,276,38850,6,0,P|507:215|473:160,1,134.999995880127,0|2,1:2|2:0,2:0:0:0:
466,148,39165,102,0,P|441:169|407:169,1,67.4999979400635,0|0,1:2|2:0,2:0:0:0:
426,27,39323,2,0,P|430:59|413:88,1,67.4999979400635,0|0,1:2|2:0,2:0:0:0:
296,0,39481,2,0,P|326:12|343:41,1,67.4999979400635,0|0,1:2|2:0,2:0:0:0:
267,166,39639,5,0,2:0:0:0:
265,174,39718,2,0,L|198:161,1,67.4999979400635,2|0,1:2|2:0,2:0:0:0:
50,17,39876,101,0,2:0:0:0:
58,14,39955,2,0,L|80:77,1,67.4999979400635,2|0,1:2|2:0,2:0:0:0:
61,282,40113,5,0,1:2:0:0:
60,275,40192,1,0,2:0:0:0:
59,268,40271,1,2,2:0:0:0:
58,262,40350,1,0,2:0:0:0:
13,354,40429,102,0,L|79:366,1,67.4999979400635,0|0,1:2|2:0,2:0:0:0:
219,246,40586,2,0,L|285:258,1,67.4999979400635,2|0,1:2|2:0,2:0:0:0:
13,177,40744,5,0,1:2:0:0:
89,170,40823,1,0,2:0:0:0:
160,142,40902,1,2,2:0:0:0:
220,93,40981,1,0,1:2:0:0:
256,24,41060,101,4,1:2:0:0:
256,24,41376,1,4,1:2:0:0:
256,24,41692,6,0,B|328:37|328:37|334:40|334:40|403:53,1,150,4|0,1:2|1:2,2:0:0:0:
472,94,41929,2,0,B|497:65|497:65|480:32,1,75,0|8,2:0|1:2,2:0:0:0:
224,355,42165,101,2,2:0:0:0:
224,355,42244,2,0,P|251:315|250:269,1,75,0|0,1:2|2:0,2:0:0:0:
496,384,42402,1,0,2:0:0:0:
496,384,42481,1,0,1:2:0:0:
496,384,42560,1,0,2:0:0:0:
496,384,42639,2,0,L|306:344,1,150,10|0,1:2|2:0,2:0:0:0:
262,186,42876,5,0,2:0:0:0:
262,186,42955,2,0,P|337:192|373:295,1,150,2|0,1:2|1:2,2:0:0:0:
481,286,43192,2,0,P|507:257|497:217,1,75,0|8,2:0|1:2,2:0:0:0:
512,112,43350,2,0,P|476:103|447:124,1,75,0|2,2:0|2:0,2:0:0:0:
258,53,43508,102,0,P|206:107|138:140,1,150,0|0,1:2|2:0,2:0:0:0:
0,57,43744,1,0,1:2:0:0:
0,57,43823,1,0,2:0:0:0:
53,0,43902,2,0,L|30:148,1,150,10|0,1:2|2:0,2:0:0:0:
179,227,44139,5,0,2:0:0:0:
179,227,44218,2,0,L|9:264,1,150,2|0,1:2|1:2,2:0:0:0:
0,346,44455,1,0,2:0:0:0:
0,346,44534,1,8,1:2:0:0:
258,53,44692,101,2,2:0:0:0:
257,53,44771,2,0,P|294:43|329:29,1,75,0|0,1:2|2:0,2:0:0:0:
444,90,44929,1,0,2:0:0:0:
444,90,45008,2,0,P|478:103|512:119,1,75,0|0,1:2|2:0,2:0:0:0:
313,270,45165,2,0,P|330:192|352:117,1,150,10|0,1:2|2:0,2:0:0:0:
493,211,45402,5,0,2:0:0:0:
493,211,45481,2,0,P|459:195|424:181,1,75,2|0,1:2|2:0,2:0:0:0:
252,314,45639,2,0,P|282:292|312:269,1,75,0|0,1:2|2:0,2:0:0:0:
131,22,45797,2,0,P|171:84|174:158,1,150,8|2,1:2|2:0,2:0:0:0:
32,258,46034,101,0,1:2:0:0:
32,258,46113,2,0,P|66:235|99:196,1,75,0|0,1:2|2:0,2:0:0:0:
173,366,46271,2,0,P|170:328|160:292,1,75,0|0,2:0|2:0,2:0:0:0:
41,90,46429,2,0,B|119:119|102:133|180:160,1,150,10|0,1:2|2:0,2:0:0:0:
281,144,46665,5,0,1:2:0:0:
249,214,46744,2,0,P|282:289|296:371,1,165.000005035401,12|8,1:2|2:0,2:0:0:0:
372,47,47060,1,8,1:2:0:0:
249,214,47218,1,8,2:0:0:0:
372,47,47376,102,0,P|414:41|460:21,1,82.5000025177003,8|0,1:2|2:0,2:0:0:0:
309,133,47534,2,0,P|346:148|387:154,1,82.5000025177003,8|0,2:0|2:0,2:0:0:0:
494,229,47692,2,0,P|461:299|443:395,1,165.000005035401,8|8,1:2|2:0,2:0:0:0:
77,348,48008,6,0,P|158:329|236:303,1,165.000005035401,12|8,1:2|2:0,2:0:0:0:
0,169,48323,1,8,1:2:0:0:
236,303,48481,102,0,P|200:282|178:248,1,82.5000025177003,8|0,2:0|2:0,2:0:0:0:
85,261,48639,2,0,P|85:183|118:100,1,165.000005035401,8|8,1:2|2:0,2:0:0:0:
229,16,48876,1,0,2:0:0:0:
229,16,48955,1,8,1:2:0:0:
374,240,49113,1,8,2:0:0:0:
512,120,49271,5,12,2:0:0:0:
495,117,49350,1,8,2:0:0:0:
478,114,49429,1,10,2:0:0:0:
462,112,49508,1,8,2:0:0:0:
407,49,49586,102,8,P|439:40|470:27,1,67.4999979400635,8|8,2:0|2:0,2:0:0:0:
382,327,49744,2,8,P|350:314|318:305,1,67.4999979400635,10|8,2:0|2:0,2:0:0:0:
310,29,49902,5,12,2:0:0:0:
313,51,49981,1,8,2:0:0:0:
316,73,50060,1,10,2:0:0:0:
319,95,50139,1,8,2:0:0:0:
284,166,50218,102,8,P|250:161|231:127,1,67.4999979400635,8|8,2:0|2:0,2:0:0:0:
458,220,50376,2,8,P|470:251|450:285,1,67.4999979400635,10|8,2:0|2:0,2:0:0:0:
173,384,50534,5,12,2:0:0:0:
156,381,50613,1,8,2:0:0:0:
139,378,50692,1,10,2:0:0:0:
123,375,50771,1,8,2:0:0:0:
106,372,50850,1,8,2:0:0:0:
89,370,50929,1,8,2:0:0:0:
73,367,51008,1,10,2:0:0:0:
56,364,51086,1,8,2:0:0:0:
40,361,51165,101,8,3:2:0:0:
100,317,51244,1,8,3:2:0:0:
128,248,51323,1,10,3:2:0:0:
86,186,51402,1,8,3:2:0:0:
12,173,51481,6,8,L|0:254,1,82.5000025177003,12|8,2:0|2:0,2:0:0:0:
256,144,51639,2,8,L|243:225,1,82.5000025177003,8|8,2:0|2:0,2:0:0:0:
35,53,51797,101,4,1:0:0:0:
92,11,51876,1,0,2:0:0:0:
163,1,51955,1,2,2:0:0:0:
227,36,52034,1,0,2:0:0:0:
259,90,52113,1,12,1:2:0:0:
256,144,52192,1,0,2:0:0:0:
218,176,52271,1,2,2:0:0:0:
176,173,52350,1,0,2:0:0:0:
160,146,52429,5,4,1:2:0:0:
231,130,52508,1,0,2:0:0:0:
299,160,52586,1,2,2:0:0:0:
340,219,52665,1,0,2:0:0:0:
364,281,52744,1,12,1:2:0:0:
399,324,52823,1,0,2:0:0:0:
446,336,52902,1,2,2:0:0:0:
481,313,52981,1,0,2:0:0:0:
487,289,53060,101,4,1:2:0:0:
469,245,53139,1,0,2:0:0:0:
414,226,53218,1,2,2:0:0:0:
352,266,53297,1,0,2:0:0:0:
313,331,53376,5,12,1:2:0:0:
244,376,53455,1,0,2:0:0:0:
163,384,53534,1,2,2:0:0:0:
86,354,53613,1,0,2:0:0:0:
38,292,53692,101,4,1:2:0:0:
40,269,53771,1,0,2:0:0:0:
42,247,53850,1,2,2:0:0:0:
45,224,53929,1,0,2:0:0:0:
47,199,54008,2,0,P|84:221|130:232,1,75,12|0,1:2|2:0,2:0:0:0:
193,279,54165,2,0,P|225:260|252:234,1,75,2|0,2:0|2:0,2:0:0:0:
323,41,54323,5,4,1:2:0:0:
384,3,54402,1,0,2:0:0:0:
456,13,54481,1,2,2:0:0:0:
501,69,54560,1,0,2:0:0:0:
500,121,54639,1,12,1:2:0:0:
469,152,54718,1,0,2:0:0:0:
432,159,54797,1,2,2:0:0:0:
403,148,54876,1,0,2:0:0:0:
394,131,54955,101,4,1:2:0:0:
444,186,55034,1,0,2:0:0:0:
463,256,55113,1,2,2:0:0:0:
438,321,55192,1,0,2:0:0:0:
401,361,55271,2,0,P|358:346|315:333,1,89.9999972534181,12|0,1:2|2:0,2:0:0:0:
48,363,55429,2,0,P|81:333|114:302,1,89.9999972534181,2|0,2:0|2:0,2:0:0:0:
184,67,55586,5,4,1:2:0:0:
200,39,55665,1,0,2:0:0:0:
233,13,55744,1,2,2:0:0:0:
279,5,55823,1,0,2:0:0:0:
333,18,55902,101,12,1:2:0:0:
372,91,55981,1,0,2:0:0:0:
337,168,56060,1,2,2:0:0:0:
261,201,56139,1,0,2:0:0:0:
184,178,56218,5,4,1:2:0:0:
125,137,56297,1,0,2:0:0:0:
59,139,56376,1,2,2:0:0:0:
20,179,56455,1,0,2:0:0:0:
16,224,56534,1,12,1:2:0:0:
36,260,56613,1,0,2:0:0:0:
68,272,56692,2,0,P|98:249|90:195,1,75,2|0,2:0|2:0,2:0:0:0:
268,143,56850,101,4,1:2:0:0:
337,168,56929,1,0,2:0:0:0:
367,230,57008,1,2,2:0:0:0:
361,286,57086,1,0,2:0:0:0:
334,328,57165,1,12,1:2:0:0:
289,345,57244,1,0,2:0:0:0:
253,343,57323,1,2,2:0:0:0:
222,326,57402,1,0,2:0:0:0:
206,303,57481,5,4,1:2:0:0:
246,243,57560,1,0,2:0:0:0:
312,221,57639,1,2,2:0:0:0:
367,230,57718,1,0,2:0:0:0:
402,259,57797,1,12,1:2:0:0:
436,271,57876,1,0,2:0:0:0:
470,268,57955,1,2,2:0:0:0:
491,256,58034,1,0,2:0:0:0:
500,240,58113,101,4,1:2:0:0:
512,195,58192,1,0,2:0:0:0:
493,137,58271,1,2,2:0:0:0:
427,102,58350,1,0,2:0:0:0:
357,130,58429,5,12,1:2:0:0:
299,188,58508,1,0,2:0:0:0:
218,205,58586,1,2,2:0:0:0:
143,173,58665,1,0,2:0:0:0:
113,105,58744,101,4,1:2:0:0:
138,38,58823,1,0,2:0:0:0:
192,17,58902,1,2,2:0:0:0:
233,32,58981,1,0,2:0:0:0:
263,61,59060,2,0,P|253:97|248:134,1,75,12|0,1:2|2:0,2:0:0:0:
349,255,59218,2,0,P|341:291|334:328,1,75,2|0,2:0|2:0,2:0:0:0:
116,378,59376,5,4,1:2:0:0:
48,357,59455,1,0,2:0:0:0:
7,301,59534,1,2,2:0:0:0:
11,232,59613,1,0,2:0:0:0:
48,191,59692,1,12,1:2:0:0:
98,177,59771,1,0,2:0:0:0:
138,199,59850,1,2,2:0:0:0:
153,237,59929,1,0,2:0:0:0:
137,271,60008,101,4,1:2:0:0:
116,205,60086,1,0,2:0:0:0:
137,138,60165,1,2,2:0:0:0:
196,103,60244,1,0,2:0:0:0:
255,108,60323,1,12,1:2:0:0:
292,142,60402,1,0,2:0:0:0:
294,185,60481,1,2,2:0:0:0:
268,219,60560,1,0,2:0:0:0:
231,220,60639,5,4,1:2:0:0:
265,199,60718,1,0,2:0:0:0:
322,206,60797,1,2,2:0:0:0:
356,254,60876,1,0,2:0:0:0:
345,326,60955,1,12,1:2:0:0:
397,380,61034,1,0,2:0:0:0:
471,370,61113,1,2,2:0:0:0:
510,301,61192,1,0,2:0:0:0:
469,229,61271,102,0,P|441:271|419:306,1,89.9999972534181,4|0,1:2|2:0,2:0:0:0:
168,346,61429,2,0,P|145:300|124:264,1,89.9999972534181,0|0,1:2|2:0,2:0:0:0:
244,36,61586,2,0,P|294:39|336:39,1,89.9999972534181,12|0,1:2|2:0,2:0:0:0:
297,191,61744,5,0,1:2:0:0:
297,191,61823,1,0,2:0:0:0:
297,191,61902,2,0,P|177:165|76:108,1,240,4|2,1:0|2:0,2:0:0:0:
75,107,62534,2,0,P|112:223|113:339,1,240,0|2,2:0|2:0,2:0:0:0:
113,340,63165,2,0,P|156:298|206:264,1,120,0|0,2:0|2:0,2:0:0:0:
405,277,63481,101,2,2:0:0:0:
368,314,63560,1,0,2:0:0:0:
378,363,63639,1,0,2:0:0:0:
427,384,63718,1,0,2:0:0:0:
476,356,63797,1,0,2:0:0:0:
478,341,63876,1,0,2:0:0:0:
480,326,63955,1,0,2:0:0:0:
482,311,64034,1,0,2:0:0:0:
484,296,64113,1,2,2:0:0:0:
487,281,64192,1,0,2:0:0:0:
489,266,64271,1,0,2:0:0:0:
491,252,64350,1,0,2:0:0:0:
490,236,64429,6,0,P|449:142|423:5,1,240,4|2,1:0|2:0,2:0:0:0:
251,188,65060,2,0,P|354:199|485:245,1,240,0|2,2:0|2:0,2:0:0:0:
412,5,65692,2,0,P|371:67|337:104,1,120,0|0,2:0|2:0,2:0:0:0:
251,188,66008,1,2,2:0:0:0:
7,112,66165,101,8,2:0:0:0:
5,101,66244,1,8,2:0:0:0:
2,91,66323,2,0,L|78:104,1,67.4999979400635,0|0,2:0|2:0,2:0:0:0:
252,106,66481,5,8,2:0:0:0:
293,40,66560,1,8,2:0:0:0:
227,0,66639,2,0,L|151:13,1,67.4999979400635,2|0,2:0|2:0,2:0:0:0:
16,194,66797,2,0,L|92:207,1,67.4999979400635,2|0,2:0|2:0,2:0:0:0:
258,377,66955,102,0,P|196:339|189:267,1,150,4|0,1:0|2:0,2:0:0:0:
401,214,67192,2,0,P|399:286|340:328,1,150,2|0,1:2|2:0,2:0:0:0:
166,154,67429,5,0,1:0:0:0:
166,154,67508,1,0,2:0:0:0:
166,154,67586,2,0,P|233:199|325:173,1,165.000005035401,4|0,1:0|2:0,2:0:0:0:
431,309,67823,2,0,P|491:255|490:160,1,165.000005035401,2|0,1:2|2:0,2:0:0:0:
334,16,68060,101,0,1:0:0:0:
334,16,68139,1,0,2:0:0:0:
333,16,68218,2,0,P|413:49|425:135,1,179.999994506836,4|0,1:0|2:0,2:0:0:0:
221,231,68455,2,0,P|210:145|278:92,1,179.999994506836,2|0,1:2|2:0,2:0:0:0:
512,274,68692,5,0,1:0:0:0:
512,274,68771,1,0,2:0:0:0:
511,274,68850,2,0,P|445:341|350:336,1,194.999991073609,4|0,1:0|2:0,2:0:0:0:
134,384,69086,2,0,P|66:317|71:222,1,194.999991073609,2|0,1:2|2:0,1:0:0:0:
207,11,69323,101,0,1:0:0:0:
207,11,69402,1,0,2:0:0:0:
207,11,69481,1,4,1:0:0:0:
278,92,69639,1,0,1:0:0:0:
71,222,69797,5,8,1:3:0:0:
89,183,69876,1,8,1:3:0:0:
59,147,69955,1,8,1:3:0:0:
29,117,70034,1,8,1:3:0:0:
47,73,70113,2,0,P|134:77|190:144,1,179.999994506836,4|0,1:2|2:0,2:0:0:0:
256,384,70350,2,0,P|215:306|245:224,1,179.999994506836,4|0,1:2|2:0,2:0:0:0:
475,122,70586,1,4,1:2:0:0:
359,39,70744,101,8,3:0:0:0:
335,198,70902,1,0,3:0:0:0:
335,198,70981,1,2,3:0:0:0:
312,325,71139,1,2,3:0:0:0:
312,325,71218,1,8,3:0:0:0:
368,378,71376,6,0,P|426:365|499:357,1,112.5,4|0,2:3|2:0,2:0:0:0:
479,359,71692,101,4,2:3:0:0:
505,304,71771,1,8,2:3:0:0:
487,233,71850,1,8,2:3:0:0:
419,189,71929,1,8,2:3:0:0:
335,198,72008,21,6,1:2:0:0:
149,130,72165,2,0,P|145:97|138:55,1,75,0|0,2:0|2:0,2:0:0:0:
215,23,72323,2,0,P|220:78|229:134,1,112.500004291535,14|0,1:2|2:0,2:0:0:0:
115,260,72481,1,0,2:0:0:0:
85,284,72560,1,0,2:0:0:0:
13,266,72639,5,6,1:2:0:0:
273,248,72797,2,0,P|267:285|263:322,1,75,0|0,2:0|2:0,2:0:0:0:
185,326,72955,2,0,P|194:273|199:214,1,112.500004291535,14|0,1:2|2:0,2:0:0:0:
300,81,73113,1,0,2:0:0:0:
340,59,73192,1,0,2:0:0:0:
411,77,73271,102,0,B|448:138|400:195|382:171|330:230|386:307,1,225.000008583069,6|0,1:2|2:0,2:0:0:0:
417,341,73508,1,0,2:0:0:0:
495,315,73586,2,0,P|520:296|489:312,1,112.500004291535,14|0,1:2|2:0,2:0:0:0:
499,127,73744,6,0,B|493:147|493:147|397:139|312:184|312:184|274:158,1,225.000008583069,4|0,2:0|1:2,2:0:0:0:
68,44,74060,2,0,P|123:97|74:184,1,112.500004291535,4|0,2:0|2:0,2:0:0:0:
46,287,74218,101,8,1:2:0:0:
202,124,74376,2,0,P|199:161|175:189,1,75,4|0,2:0|2:0,2:0:0:0:
46,287,74534,5,6,1:2:0:0:
288,247,74692,2,0,P|244:254|166:254,1,75,0|0,2:0|2:0,2:0:0:0:
204,337,74850,2,0,P|259:327|315:323,1,112.500004291535,14|0,1:2|2:0,2:0:0:0:
481,281,75008,1,0,2:0:0:0:
508,241,75086,1,0,2:0:0:0:
475,174,75165,101,6,1:2:0:0:
277,163,75323,2,0,P|321:167|396:187,1,75,0|0,2:0|2:0,2:0:0:0:
381,97,75481,2,0,P|325:91|269:80,1,112.500004291535,14|0,1:2|2:0,2:0:0:0:
121,135,75639,1,0,2:0:0:0:
90,97,75718,1,0,2:0:0:0:
120,32,75797,6,0,B|175:-27|287:3|275:102|199:96|202:49,1,225.000008583069,6|0,1:2|2:0,2:0:0:0:
121,218,76034,1,0,2:0:0:0:
46,187,76113,2,0,B|18:191|1:213|1:213|-3:185|37:173,1,112.500004291535,14|0,1:2|2:0,2:0:0:0:
204,357,76271,102,0,P|164:259|58:264,1,225.000008583069,4|0,2:0|1:2,2:0:0:0:
58,263,76586,2,0,P|44:313|125:348,1,150,4|8,2:0|1:2,1:2:0:0:
118,350,76902,2,0,L|115:332,1,18.75,4|0,1:2|2:0,2:0:0:0:
10,87,77060,5,6,1:2:0:0:
229,8,77218,2,0,P|269:47|244:99,1,75,0|0,2:0|2:0,2:0:0:0:
185,121,77376,2,0,P|146:83|154:29,1,112.500004291535,14|0,1:2|2:0,2:0:0:0:
350,23,77534,1,0,2:0:0:0:
360,64,77613,1,0,2:0:0:0:
322,127,77692,101,6,1:2:0:0:
207,346,77850,2,0,P|197:310|211:276,1,75,0|0,2:0|2:0,2:0:0:0:
316,281,78008,2,0,P|319:335|280:373,1,112.500004291535,14|0,1:2|2:0,2:0:0:0:
133,242,78165,1,0,2:0:0:0:
157,205,78244,1,0,2:0:0:0:
230,201,78323,6,0,B|312:233|374:164|374:164|315:152|304:69,1,225.000008583069,6|0,1:2|2:0,2:0:0:0:
389,88,78560,1,0,2:0:0:0:
324,43,78639,2,0,P|290:24|318:50,1,112.500004291535,12|0,1:2|2:0,2:0:0:0:
498,299,78797,102,0,P|404:307|441:221,1,225.000008583069,4|0,2:0|1:2,2:0:0:0:
434,21,79113,2,0,P|465:61|456:130,1,112.500004291535,4|0,2:0|2:0,2:0:0:0:
207,119,79271,5,8,1:2:0:0:
389,88,79429,2,0,P|382:124|354:148,1,75,4|0,2:0|2:0,2:0:0:0:
207,119,79586,101,6,1:2:0:0:
163,290,79744,2,0,P|188:268|235:274,1,75,0|0,2:0|2:0,2:0:0:0:
312,355,79902,2,0,P|260:373|213:346,1,112.500004291535,14|0,1:2|2:0,2:0:0:0:
104,222,80060,1,0,2:0:0:0:
71,194,80139,1,0,2:0:0:0:
0,205,80218,5,6,1:2:0:0:
257,62,80376,2,0,P|232:40|185:46,1,75,0|0,2:0|2:0,2:0:0:0:
108,127,80534,2,0,P|159:145|206:118,1,112.500004291535,14|0,1:2|2:0,2:0:0:0:
352,10,80692,1,0,2:0:0:0:
352,10,80771,1,0,2:0:0:0:
406,66,80850,102,0,B|418:79|442:90|442:90|419:165|406:240|406:240|365:181|311:122|311:122|327:102|331:79,1,393.750003755093,6|0,1:2|2:0,2:0:0:0:
352,10,81165,1,14,1:2:0:0:
240,303,81323,2,0,B|254:252|254:252|252:248|252:248|267:193,1,112.500004291535,4|0,2:0|2:0,2:0:0:0:
434,280,81481,5,0,1:2:0:0:
84,192,81639,1,4,1:2:0:0:
423,271,81797,102,0,P|368:282|350:321,1,75,8|0,1:2|2:0,2:0:0:0:
95,184,81955,2,0,P|127:200|139:235,1,75,4|0,1:2|2:0,2:0:0:0:
413,352,82114,6,0,P|413:239|449:134,1,225.000008583069,6|0,1:2|2:0,2:0:0:0:
368,95,82350,1,0,2:0:0:0:
368,95,82429,2,0,B|417:66|423:3|423:3|456:60|513:69,1,225.000008583069,14|0,1:2|2:0,2:0:0:0:
507,252,82665,101,0,2:0:0:0:
507,252,82744,2,0,B|448:271|399:219|427:198|365:143|294:185,1,225.000008583069,6|0,1:2|2:0,2:0:0:0:
188,283,82981,1,0,2:0:0:0:
188,283,83060,2,0,B|178:329|178:329|250:380|250:380|269:266,1,225.000008583069,14|0,1:2|2:0,2:0:0:0:
264,291,83297,1,0,2:0:0:0:
264,291,83376,6,0,B|249:216|249:216|240:213|240:213|240:180|240:180|221:75,1,225.000008583069,6|0,1:2|2:0,2:0:0:0:
300,21,83613,1,0,2:0:0:0:
293,55,83692,1,14,1:2:0:0:
73,239,83850,2,0,P|108:197|163:190,1,112.500004291535,4|0,2:0|2:0,2:0:0:0:
354,359,84008,101,0,1:2:0:0:
238,156,84165,2,0,P|283:178|298:241,1,75,4|0,2:0|2:0,2:0:0:0:
354,359,84323,5,8,1:2:0:0:
368,239,84481,2,0,P|370:257|365:275,1,37.5,4|0,2:0|2:0,2:0:0:0:
354,359,84639,102,0,P|245:323|134:316,1,225.000008583069,6|0,1:2|2:0,2:0:0:0:
81,257,84876,1,0,2:0:0:0:
81,257,84955,2,0,B|53:252|30:235|30:235|103:292|103:409,1,225.000008583069,14|0,1:2|2:0,2:0:0:0:
195,103,85192,5,0,2:0:0:0:
195,103,85271,2,0,B|207:152|255:161|255:161|165:196|140:98,1,225.000008583069,6|0,1:2|2:0,2:0:0:0:
92,184,85508,1,0,2:0:0:0:
92,184,85586,2,0,B|151:204|204:140|165:130|207:74|277:92,1,225.000008583069,14|0,1:2|2:0,2:0:0:0:
275,92,85823,1,0,2:0:0:0:
275,92,85902,102,0,P|298:62|271:88,1,112.500004291535,6|0,1:2|2:0,2:0:0:0:
337,155,86060,1,0,2:0:0:0:
378,95,86139,1,0,2:0:0:0:
365,24,86218,1,14,1:2:0:0:
292,233,86376,6,0,L|299:269,1,37.5,4|0,2:0|2:0,2:0:0:0:
318,357,86534,1,0,1:2:0:0:
431,164,86692,102,0,P|421:200|418:237,1,75,4|0,2:0|2:0,2:0:0:0:
318,357,86850,1,8,1:2:0:0:
133,223,87008,2,0,P|156:252|173:285,1,75,4|0,1:2|2:0,2:0:0:0:
317,357,87165,6,0,P|208:326|96:319,1,225.000008583069,6|0,1:2|2:0,2:0:0:0:
0,256,87402,1,0,2:0:0:0:
0,256,87481,2,0,P|53:294|50:187,1,225.000008583069,14|0,1:2|2:0,2:0:0:0:
199,88,87718,101,0,2:0:0:0:
199,88,87797,2,0,B|185:80|185:80|176:67|176:67|61:41|61:41|103:65|102:100,1,225.000008583069,6|0,1:2|2:0,2:0:0:0:
30,113,88034,1,0,2:0:0:0:
30,113,88113,2,0,B|2:168|2:168|131:124|272:114,1,337.500012874604,14|0,1:2|2:0,2:0:0:0:
491,187,88429,6,0,B|426:157|371:211|401:225|347:271|275:233,1,225.000008583069,6|0,1:2|2:0,2:0:0:0:
214,224,88665,1,0,2:0:0:0:
223,197,88744,1,14,1:2:0:0:
438,357,88902,2,0,P|468:310|440:238,1,112.500004291535,4|0,2:0|2:0,2:0:0:0:
306,46,89060,101,0,1:2:0:0:
491,187,89218,2,0,P|479:151|449:129,1,75,4|0,2:0|2:0,2:0:0:0:
306,46,89376,5,8,1:2:0:0:
417,61,89534,2,0,P|398:59|380:64,1,37.5,4|0,2:0|2:0,2:0:0:0:
306,46,89692,102,0,B|256:98|308:200|407:133|378:53,1,225.000008583069,6|0,1:2|2:0,2:0:0:0:
154,196,89929,1,0,2:0:0:0:
154,196,90008,2,0,B|197:99|339:130|288:220,1,225.000008583069,14|0,1:2|2:0,2:0:0:0:
137,308,90244,5,0,2:0:0:0:
137,308,90323,2,0,P|127:188|61:65,1,225.000008583069,6|0,1:2|2:0,2:0:0:0:
360,259,90560,1,0,2:0:0:0:
360,259,90639,2,0,P|314:156|306:45,1,225.000008583069,14|0,1:2|1:2,2:0:0:0:
305,45,90876,2,8,B|315:37|313:20|313:20|302:29|303:46,1,56.2500021457673,8|8,2:0|2:0,2:0:0:0:
375,76,90955,101,14,1:2:0:0:
137,308,91192,1,14,1:2:0:0:
482,171,91429,5,14,1:2:0:0:
30,213,91665,1,14,1:2:0:0:
450,305,91902,102,8,P|421:264|329:264,1,112.500004291535,10|8,1:2|2:0,2:0:0:0:
62,79,92060,2,8,P|91:120|183:120,1,112.500004291535,8|8,1:2|2:0,2:0:0:0:
348,103,92218,6,0,B|433:49|433:49|439:24|439:24|355:76,1,225.000008583069,6|0,1:2|2:0,2:0:0:0:
337,181,92455,1,4,2:0:0:0:
337,181,92534,2,0,B|293:168|293:168|279:145|279:145|237:132,1,112.500004291535,10|0,1:2|2:0,2:0:0:0:
234,268,92692,101,4,2:0:0:0:
234,268,92771,2,0,L|225:190,1,56.2500021457673,0|2,2:0|1:2,2:0:0:0:
205,6,92929,1,4,2:0:0:0:
205,6,93008,2,0,L|214:84,1,56.2500021457673,0|0,2:0|2:0,2:0:0:0:
303,325,93165,5,10,1:2:0:0:
341,349,93244,1,2,2:3:0:0:
388,344,93323,1,4,2:3:0:0:
426,306,93402,1,4,2:3:0:0:
412,238,93481,102,0,B|378:110|492:70|523:175|436:173,1,225.000008583069,6|0,1:2|2:0,2:0:0:0:
512,229,93718,2,0,P|402:201|293:175,1,225.000008583069,6|0,2:0|2:0,2:0:0:0:
32,89,93955,5,6,2:0:0:0:
32,89,94034,2,0,B|67:104|67:104|85:176,1,112.500004291535,0|2,2:0|1:2,2:0:0:0:
165,56,94192,1,4,2:0:0:0:
165,56,94271,2,0,B|140:84|140:84|157:156,1,112.500004291535,0|0,2:0|2:0,2:0:0:0:
201,359,94429,101,10,1:2:0:0:
210,285,94508,1,0,2:0:0:0:
218,212,94586,1,4,2:0:0:0:
79,328,94744,6,0,P|185:313|302:301,1,225.000008583069,6|0,1:2|2:0,2:0:0:0:
362,358,94981,1,4,2:0:0:0:
362,358,95060,2,0,B|390:311|390:311|368:248,1,112.500004291535,10|0,1:2|2:0,2:0:0:0:
228,102,95218,101,4,2:0:0:0:
228,102,95297,2,0,L|327:117,1,56.2500021457673,0|2,2:0|1:2,2:0:0:0:
489,142,95455,1,4,2:0:0:0:
489,142,95534,2,0,L|390:127,1,56.2500021457673,0|0,2:0|2:0,2:0:0:0:
323,32,95692,5,10,1:2:0:0:
367,63,95771,1,2,2:3:0:0:
359,119,95850,1,4,2:3:0:0:
349,175,95929,1,4,2:3:0:0:
292,218,96008,102,0,B|305:239|331:246|331:246|280:275|238:237|256:232|213:193|156:217,1,225.000008583069,6|0,1:2|2:0,2:0:0:0:
64,265,96244,2,0,B|42:295|-1:253|33:216|94:223|138:266|102:279|145:314|217:287,1,225.000008583069,6|0,2:0|2:0,2:0:0:0:
197,293,96481,6,0,P|187:184|177:68,1,225.000008583069,6|2,2:0|1:2,2:0:0:0:
176,67,96718,2,0,P|124:81|103:131,1,112.500004291535,4|0,2:0|2:0,2:0:0:0:
225,369,96876,1,0,2:0:0:0:
286,324,96955,102,0,P|306:273|274:230,1,112.500004291535,10|0,1:2|2:0,2:0:0:0:
111,312,97113,2,0,P|120:347|151:367,1,75,4|0,1:2|2:0,2:0:0:0:
375,169,97271,6,0,B|371:125|412:92|409:126|461:94|456:9|346:11|359:90,1,225.000008583069,6|0,1:2|2:0,2:0:0:0:
448,176,97508,2,0,B|462:184|463:207|463:207|378:129|258:157,1,225.000008583069,6|0,2:0|2:0,2:0:0:0:
46,241,97744,101,6,2:0:0:0:
46,241,97823,2,0,P|81:238|111:201,1,56.2500021457673,0|2,2:0|1:2,2:0:0:0:
233,82,97981,1,4,2:0:0:0:
233,82,98060,2,0,P|211:66|184:63,1,56.2500021457673,0|0,2:0|2:0,2:0:0:0:
46,156,98218,5,10,1:2:0:0:
104,144,98297,1,2,2:3:0:0:
160,173,98376,1,4,2:3:0:0:
176,244,98455,1,4,2:3:0:0:
138,306,98534,102,0,B|113:333|113:333|345:283,1,225.000008583069,6|0,1:2|2:0,2:0:0:0:
490,256,98771,1,4,2:0:0:0:
490,256,98850,2,0,B|521:262|543:243|543:243|515:235|490:255,1,112.500004291535,10|0,1:2|2:0,2:0:0:0:
396,375,99008,5,4,2:0:0:0:
396,375,99086,2,0,B|414:341|414:341|378:238,1,112.500004291535,0|2,2:0|1:2,2:0:0:0:
383,167,99244,1,4,2:0:0:0:
383,167,99323,2,0,B|365:201|365:201|401:304,1,112.500004291535,0|0,2:0|2:0,2:0:0:0:
396,375,99481,101,10,1:2:0:0:
322,362,99560,1,0,2:0:0:0:
250,350,99639,1,4,2:0:0:0:
45,45,99797,6,0,B|41:29|24:18|24:18|70:20|84:69|84:69|28:108|42:165,1,225.000008583069,6|0,1:2|2:0,2:0:0:0:
242,165,100034,2,0,B|252:181|277:194|277:194|228:207|191:168|207:168|168:122|104:147,1,225.000008583069,6|0,2:0|2:0,2:0:0:0:
96,249,100271,101,6,2:0:0:0:
96,249,100350,2,0,P|121:238|139:217,1,56.2500021457673,0|2,2:0|1:2,2:0:0:0:
310,122,100508,1,4,2:0:0:0:
310,122,100586,2,0,P|305:94|289:71,1,56.2500021457673,0|0,2:0|2:0,2:0:0:0:
199,19,100744,5,10,1:2:0:0:
202,32,100823,1,2,2:3:0:0:
201,44,100902,1,4,2:3:0:0:
206,55,100981,1,4,2:3:0:0:
142,104,101060,102,0,B|117:132|117:132|210:110|210:110|228:88|228:88|294:71,1,225.000008583069,6|0,1:2|2:0,2:0:0:0:
346,20,101297,2,0,P|399:15|432:58,1,112.500004291535,4|10,2:0|1:2,2:0:0:0:
403,367,101534,2,0,P|356:336|347:280,1,112.500004291535,4|0,2:0|2:0,2:0:0:0:
393,130,101692,5,4,1:2:0:0:
420,294,101850,1,0,1:2:0:0:
503,191,102008,101,14,1:2:0:0:
175,282,102165,1,8,2:0:0:0:
171,253,102244,1,8,2:0:0:0:
103,204,102323,6,0,B|138:164|138:164|255:199|255:199|257:248,1,225.000008583069,4|0,1:0|2:0,2:0:0:0:
0,354,102639,2,0,P|8:254|7:129,1,225.000008583069,14|0,1:2|2:0,2:0:0:0:
244,23,102955,1,10,1:2:0:0:
175,46,103034,2,0,B|185:78|214:90|214:90|175:91|164:48,1,112.500004291535,0|0,2:0|2:0,2:0:0:0:
457,338,103271,1,14,1:2:0:0:
484,290,103350,1,0,2:0:0:0:
468,227,103429,1,0,2:0:0:0:
406,202,103508,1,0,2:0:0:0:
338,228,103586,102,0,B|280:356|113:323|130:184|253:184|260:261,1,337.500012874604,14|4,1:2|2:0,2:0:0:0:
403,280,103902,2,0,P|452:293|453:362,1,112.500004291535,10|0,1:2|2:0,2:0:0:0:
385,357,104060,2,0,P|379:249|359:133,1,225.000008583069,4|10,2:0|1:2,2:0:0:0:
303,16,104297,2,0,P|304:102|409:56,1,225.000008583069,4|0,2:0|2:0,2:0:0:0:
407,73,104534,5,10,1:2:0:0:
105,41,104692,1,12,2:0:0:0:
103,74,104771,1,8,2:0:0:0:
166,134,104850,102,0,B|166:118|176:99|176:99|129:54|15:107|67:213,1,225.000008583069,4|0,1:0|2:0,2:0:0:0:
249,299,105165,2,0,B|211:321|211:321|241:142,1,225.000008583069,14|0,1:2|2:0,2:0:0:0:
49,354,105481,1,10,1:2:0:0:
41,282,105560,2,0,B|10:283|-10:311|-10:311|-8:281|31:277,1,112.500004291535,0|0,2:0|2:0,2:0:0:0:
339,357,105797,1,14,1:2:0:0:
396,348,105876,1,0,2:0:0:0:
434,301,105955,1,0,2:0:0:0:
423,233,106034,1,0,2:0:0:0:
363,191,106113,6,0,B|356:131|334:79|334:79|401:-7|401:-7|367:80|364:120,1,337.500012874604,14|6,1:2|2:0,2:0:0:0:
355,277,106429,2,0,B|314:267|314:267|297:246|297:246|242:233,1,112.500004291535,10|0,1:2|2:0,2:0:0:0:
60,181,106586,2,0,B|39:211|39:211|184:178|184:178|210:140,1,225.000008583069,4|10,2:0|1:2,2:0:0:0:
216,32,106823,2,0,P|232:144|243:256,1,225.000008583069,4|0,2:0|2:0,2:0:0:0:
208,321,107060,102,0,P|235:330|263:328,3,56.2500021457673,10|0|0|0,1:2|2:0|1:0|2:0,2:0:0:0:
458,245,107376,5,4,1:2:0:0:
487,180,107455,1,0,1:2:0:0:
454,117,107534,1,0,1:2:0:0:
384,105,107613,1,0,1:2:0:0:
332,154,107692,1,2,1:2:0:0:
327,167,107850,102,0,L|339:234,1,56.2500021457673,0|0,3:2|3:2,3:2:0:0:
131,362,108008,5,4,1:2:0:0:
61,348,108086,1,0,1:2:0:0:
18,293,108165,1,0,1:2:0:0:
19,223,108244,1,0,1:2:0:0:
67,171,108323,1,2,1:2:0:0:
79,178,108481,102,0,L|155:170,1,56.2500021457673,0|0,3:2|3:2,3:2:0:0:
449,257,108639,5,4,1:2:0:0:
396,311,108718,1,0,1:2:0:0:
343,363,108797,1,0,1:2:0:0:
274,333,108876,1,0,1:2:0:0:
205,303,108955,1,2,1:2:0:0:
200,291,109113,102,0,L|208:235,1,56.2500021457673,0|0,3:2|3:2,3:2:0:0:
302,44,109271,5,4,1:2:0:0:
373,27,109350,1,0,1:2:0:0:
444,10,109429,1,0,1:2:0:0:
400,68,109508,1,0,1:2:0:0:
356,126,109586,102,0,B|321:158|339:201|339:201|380:208|394:246,1,150,2|0,1:2|3:2,2:0:0:0:
392,245,109823,1,0,3:2:0:0:
389,251,109902,6,8,P|364:277|328:277,1,75,12|8,1:2|2:0,2:0:0:0:
176,122,110060,2,8,P|172:89|165:47,1,75,8|8,1:2|2:0,2:0:0:0:
3,221,110218,102,8,P|29:233|56:230,1,56.2500021457673,10|8,1:2|2:0,2:0:0:0:
186,109,110376,2,8,P|181:81|178:53,1,56.2500021457673,8|8,2:0|2:0,2:0:0:0:
44,28,110534,6,8,P|65:45|76:71,1,56.2500021457673,10|8,1:2|2:0,2:0:0:0:
287,152,110692,2,8,P|263:181|266:223,1,75,8|8,1:2|2:0,2:0:0:0:
90,361,110850,101,8,1:2:0:0:
73,357,110929,1,8,3:2:0:0:
67,346,111008,1,8,3:2:0:0:
71,332,111086,1,8,3:2:0:0:
144,305,111165,6,0,B|215:323|215:323|214:319|214:319|238:328|238:328|373:360,1,225.000008583069,6|0,1:2|2:0,2:0:0:0:
470,180,111402,2,0,B|439:165|402:189|402:189|451:190|505:234|486:310,1,225.000008583069,14|0,1:2|2:0,2:0:0:0:
356,356,111639,2,0,P|403:324|397:249,1,112.500004291535,14|0,1:2|2:0,2:0:0:0:
392,63,111797,101,0,1:2:0:0:
328,21,111876,1,2,2:3:0:0:
259,36,111955,1,2,2:3:0:0:
228,85,112034,1,2,2:3:0:0:
229,130,112113,1,4,2:3:0:0:
212,163,112192,1,4,2:3:0:0:
186,173,112271,1,8,2:3:0:0:
164,168,112350,1,8,2:3:0:0:
95,135,112429,6,0,P|207:149|316:175,1,225,4|0,1:0|2:0,2:0:0:0:
409,272,112744,2,0,P|359:323|288:308,1,150,10|0,1:2|2:0,2:0:0:0:
233,255,112981,1,0,2:0:0:0:
236,236,113060,1,0,1:0:0:0:
377,93,113218,1,0,2:0:0:0:
381,72,113297,1,0,2:0:0:0:
336,14,113376,2,0,B|313:44|313:44|461:18,1,168.750006437302,10|0,1:2|2:0,2:0:0:0:
441,21,113692,102,0,B|478:159|478:159|460:222,1,202.499993820191,4|0,1:0|2:0,2:0:0:0:
408,272,114008,2,0,P|343:270|306:217,1,134.999995880127,10|0,1:2|2:0,2:0:0:0:
374,172,114244,1,0,2:0:0:0:
396,166,114323,1,0,1:0:0:0:
158,64,114481,1,0,2:0:0:0:
180,70,114560,1,0,2:0:0:0:
123,128,114639,2,0,B|114:163|136:191|136:191|126:113|180:69,1,202.499993820191,10|0,1:2|2:0,2:0:0:0:
223,8,114955,6,0,P|248:29|257:61,1,67.4999979400635,4|0,1:0|2:0,2:0:0:0:
306,217,115113,2,0,P|299:249|276:273,1,67.4999979400635,0|0,1:0|2:0,2:0:0:0:
82,256,115271,102,0,P|33:248|-12:246,1,67.4999979400635,2|0,1:2|2:0,2:0:0:0:
21,209,115429,2,0,P|55:216|88:219,1,67.4999979400635,0|0,1:0|2:0,2:0:0:0:
228,338,115586,6,0,P|250:351|276:354,1,52.4999983978272,4|0,1:0|2:0,2:0:0:0:
374,172,115744,2,0,P|372:146|358:123,1,52.4999983978272,0|0,1:0|2:0,2:0:0:0:
215,163,115902,101,2,1:2:0:0:
218,182,115981,1,0,1:0:0:0:
237,179,116060,1,0,1:0:0:0:
234,160,116139,1,0,1:0:0:0:
306,217,116218,6,0,B|252:181|183:196|162:261|167:266|171:271|160:337|80:361|27:314,1,337.500012874604,4|4,1:2|1:2,2:0:0:0:
218,182,116747,102,0,B|248:157|319:165|337:216|322:216|344:271|407:292|458:259,1,281.25,4|4,1:2|1:2,2:0:0:0:
155,31,117292,6,0,P|163:67|164:104,1,75,12|8,1:2|2:0,2:0:0:0:
360,86,117485,2,0,P|351:49|350:12,1,75,4|8,1:2|2:0,2:0:0:0:
255,55,117679,5,0,3:0:0:0:
255,329,117969,5,8,2:3:0:0:
255,329,118259,101,2,2:0:0:0:
312,156,118453,1,0,3:0:0:0:
181,194,118646,1,8,2:3:0:0:
341,227,118840,1,0,2:0:0:0:
183,354,119033,1,0,3:0:0:0:
255,55,119227,5,0,3:0:0:0:
255,329,119517,101,0,2:0:0:0:
388,167,119808,1,0,2:0:0:0:
309,384,120001,5,0,3:0:0:0:
183,354,120195,1,0,2:0:0:0:
255,55,120388,101,0,3:0:0:0:
255,55,120775,6,0,B|347:50|398:122|398:122|388:153|404:178,1,225.000008583069,0|0,3:0|2:0,2:0:0:0:
330,199,121066,2,0,P|318:151|330:95,1,89.9999972534181,8|0,2:3|2:0,2:0:0:0:
255,329,121356,101,8,2:3:0:0:
323,111,121549,1,0,3:0:0:0:
222,125,121743,1,0,2:0:0:0:
412,254,121937,5,8,2:3:0:0:
330,199,122130,1,0,3:0:0:0:
482,0,122324,102,0,B|390:-12|333:54|333:54|340:86|322:110,1,225.000008583069,0|0,3:0|2:0,2:0:0:0:
222,125,122614,2,0,P|185:95|177:50,1,89.9999972534181,8|0,2:3|2:0,2:0:0:0:
176,55,122904,5,8,2:3:0:0:
0,352,123098,101,10,2:0:0:0:
17,332,123195,1,8,2:0:0:0:
46,345,123291,5,8,2:0:0:0:
89,316,123388,1,10,2:0:0:0:
119,337,123485,101,8,2:0:0:0:
161,300,123582,1,8,2:0:0:0:
231,322,123679,5,10,2:0:0:0:
281,264,123775,1,8,2:0:0:0:
337,361,123872,102,0,B|387:354|403:271|366:211|280:231|280:231|341:235|367:269|349:294|390:301,1,359.999989013672,4|0,1:0|2:0,2:0:0:0:
389,301,124162,5,8,2:3:0:0:
451,355,124259,2,0,P|468:303|449:250,1,89.9999972534181,2|0,1:2|2:0,1:0:0:0:
466,118,124453,102,0,L|440:124,1,15,8|0,2:3|2:0,2:0:0:0:
252,126,124646,2,0,B|245:86|280:80|274:44|262:-22|262:-22|274:44|280:80|315:74|322:113,1,300,4|0,1:2|2:0,2:0:0:0:
302,180,124937,5,8,2:3:0:0:
304,189,125033,1,2,1:2:0:0:
451,121,125227,102,0,L|420:112,1,30,8|0,2:3|2:0,2:0:0:0:
187,158,125420,2,0,B|180:143|180:143|203:70|183:27|153:1|153:1|154:40|174:84|245:113|245:113|252:127,1,337.500012874604,4|0,1:2|2:0,2:0:0:0:
276,254,125711,5,8,2:3:0:0:
281,264,125808,1,2,1:2:0:0:
423,114,126001,102,0,L|379:125,1,44.999998626709,0|0,2:0|2:0,2:0:0:0:
133,205,126195,2,0,B|122:192|122:192|154:93|104:114|55:56|55:56|104:114|71:162|177:146|177:146|188:158,1,375,4|0,1:2|2:0,2:0:0:0:
250,328,126485,5,8,2:3:0:0:
257,336,126582,1,2,1:2:0:0:
380,126,126775,102,0,L|317:109,1,60,0|0,2:0|2:0,2:0:0:0:
55,56,126969,6,0,B|29:67|23:98|23:98|38:74|61:66,1,104.999996795654,4|0,1:2|2:0,2:0:0:0:
314,36,127162,2,0,L|376:19,1,60,0|0,1:0|2:0,2:0:0:0:
121,202,127356,102,0,B|110:228|128:253|128:253|122:227|132:204,1,104.999996795654,4|0,1:2|2:0,2:0:0:0:
371,20,127549,2,0,L|433:3,1,60,0|0,1:0|2:0,2:0:0:0:
276,254,127743,6,0,B|282:269|301:272|301:272|287:264|282:250,1,60,4|0,1:2|2:0,2:0:0:0:
308,186,127840,102,0,B|323:192|339:181|339:181|323:185|309:179,1,60,0|0,1:0|2:0,2:0:0:0:
282,115,127937,6,0,B|297:108|300:89|300:89|292:103|278:108,1,60,0|0,1:0|2:0,2:0:0:0:
214,83,128033,102,0,B|220:67|209:51|209:51|213:67|207:81,1,60,0|0,1:0|2:0,2:0:0:0:
143,109,128130,6,0,B|136:93|117:90|117:90|131:98|136:112,1,60,4|0,1:2|2:0,2:0:0:0:
111,177,128227,102,0,B|95:170|79:181|79:181|95:177|109:183,1,60,0|0,1:0|2:0,2:0:0:0:
137,248,128324,6,0,B|121:254|118:273|118:273|126:259|140:254,1,60,0|0,1:0|2:0,2:0:0:0:
205,279,128420,102,0,B|198:294|209:310|209:310|205:294|211:280,1,60,0|0,1:0|2:0,2:0:0:0:
282,251,128517,6,2,B|336:256|352:208|360:184|324:196|400:116|500:96|544:196|520:312|464:292|488:184|432:164|352:216|328:388|424:372|468:364|456:304|427:309,1,470.249994259644,2|0,1:2|2:0,2:0:0:0:
429,308,129678,102,2,P|339:280|205:264,1,225,8|0,2:0|2:0,2:0:0:0:
136,277,129872,6,0,B|121:281|105:277|105:277|103:295|120:303|120:303|124:287|136:277,1,93.75,0|0,1:0|2:0,2:0:0:0:
390,36,130066,102,0,B|324:-5|209:20|178:130|253:161|253:161|253:158|253:158|257:165|257:165|257:161|257:161|328:193|328:295|245:295|245:295|280:280|281:249,1,562.5,4|0,1:0|2:0,2:0:0:0:
222,33,130453,6,0,P|277:35|317:74,1,112.500004291535,2|0,2:0|2:0,2:0:0:0:
379,175,130646,102,0,L|384:148,1,18.75,2|0,2:3|2:0,2:0:0:0:
413,185,130743,6,0,L|419:149,1,37.5,2|0,2:3|2:0,2:0:0:0:
487,206,130840,102,0,B|471:221|491:255|552:226|529:158|464:169|436:137|450:83|450:83|464:105|491:110,1,247.500007553101,8|0,2:0|2:0,2:0:0:0:
486,109,131033,2,0,B|450:100|421:129|433:146|413:175|377:176,1,134.999995880127,0|0,2:0|2:0,2:0:0:0:
281,250,131227,6,2,B|255:244|255:244|275:152|275:152|279:153|279:153|271:151|271:151|275:152|275:152|293:68|293:68|318:74,1,247.500007553101,4|0,1:2|2:1,1:0:0:0:
493,110,131517,2,2,B|518:115|518:115|498:207|498:207|494:206|494:206|502:208|502:208|498:207|498:207|480:291|480:291|455:285,1,247.500007553101,4|0,1:2|2:1,1:0:0:0:
280,250,131808,102,2,B|268:206|268:206|254:202|254:202|240:150|240:150|243:145|243:145|235:147|235:147|238:142|238:142|226:95|226:95|234:80|234:80|222:33,1,247.500002360344,4|0,1:2|2:1,1:0:0:0:
3,86,132098,2,2,B|14:129|14:129|28:134|28:134|42:185|42:185|39:190|39:190|47:188|47:188|44:193|44:193|57:240|57:240|48:255|48:255|61:303,1,247.500002360344,4|0,1:2|2:1,1:0:0:0:
140,310,132388,6,0,B|261:288|261:288|262:292|262:292|296:282|296:282|379:267,1,247.500007553101,10|0,2:0|2:0,2:0:0:0:
379,266,132582,2,0,B|385:291|385:291|360:344|360:344|320:312,1,134.999995880127,0|0,2:0|2:0,2:0:0:0:
222,33,132775,102,0,B|211:38|201:21|191:3|201:-2|211:-8|221:9|232:27|222:33,1,82.5000025177003,2|0,2:3|2:0,2:0:0:0:
242,25,132872,2,0,B|224:20|240:-41|276:-31|259:29|242:25,1,97.4999955368044,2|0,2:3|2:0,2:0:0:0:
321,48,132969,6,0,B|304:73|304:73|211:74|164:147,1,196.875001877546,0|0,2:0|2:0,2:0:0:0:
100,107,133162,102,0,B|112:87|112:87|101:35,1,75,0|0,1:0|2:0,2:0:0:0:
84,23,133259,2,0,B|64:10|64:10|12:21,1,75,8|0,2:3|2:0,2:0:0:0:
2,39,133356,2,0,B|-10:58|-10:58|0:110,1,75,8|0,2:3|2:0,2:0:0:0:
17,121,133453,2,0,B|36:133|36:133|88:122,1,75,2|0,2:3|2:0,2:0:0:0:
101,36,133549,6,0,B|50:2|50:2|99:217,1,269.999991760254,2|0,2:3|2:0,2:0:0:0:
99,211,133743,102,0,B|108:244|108:244|141:235,1,67.4999979400635,2|0,2:0|2:0,2:0:0:0:
210,253,133840,2,0,B|201:220|201:220|168:229,1,67.4999979400635,2|0,2:0|2:0,2:0:0:0:
96,349,133937,6,0,B|129:335|129:295|129:295|195:275|195:275|196:279|196:279|195:275|195:275|229:264|229:264|230:268|230:268|229:264|229:264|339:233|382:325|382:325|354:278|297:281|297:281|292:266,1,487.499977684022,10|0,2:0|2:0,2:0:0:0:
357,142,134227,101,0,3:0:0:0:
357,142,134324,2,2,B|318:151|318:151|317:147|317:147|318:151|318:151|125:204|125:204|126:208|126:208|125:204|125:204|98:211,1,284.999992389679,4|0,1:2|2:0,1:0:0:0:
222,33,134614,2,2,B|265:42|265:42|264:46|264:46|265:42|265:42|429:77|429:77|430:74|430:74|429:77|429:77|484:89,1,284.999992389679,4|0,1:2|2:0,1:0:0:0:
357,142,134904,2,2,B|291:158|291:158|292:162|292:162|291:158|291:158|155:194|155:194|154:190|154:190|155:194|155:194|98:211,1,284.999992389679,4|0,1:2|2:1,1:1:0:0:
222,33,135195,2,2,B|301:49|301:49|302:45|302:45|301:49|301:49|416:73|416:73|415:78|415:78|416:73|416:73|487:89,1,289.499993042565,4|0,1:2|2:1,1:1:0:0:
97,210,135485,6,0,B|117:125|117:125|-8:237|-8:237|-12:239|-12:239|-8:237|-8:237|10:290|10:290|7:292|7:292|10:290|10:290|31:351|31:351|27:352|27:352|31:351|31:351|40:302,1,450,10|0,2:0|2:0,2:0:0:0:
243,313,135872,102,0,B|302:311|306:366|276:447|445:453|482:330|448:178|201:176|195:248|239:292|192:332|133:311|133:311|171:298|180:266,1,584.999973220826,2|0,2:3|2:0,2:0:0:0:
98,209,136259,6,0,L|76:109,1,86.2500016450882,4|0,1:0|2:0,2:0:0:0:
181,269,136453,2,0,L|203:169,1,86.2500016450882,0|0,2:0|2:0,2:0:0:0:
469,187,136646,102,0,B|466:209|466:209|395:232,1,97.4999955368044,2|0,2:1|2:0,2:0:0:0:
279,138,136840,2,0,B|270:158|270:158|319:214,1,97.4999955368044,0|0,2:0|2:0,2:0:0:0:
388,95,137033,6,0,L|407:0,1,97.4999955368044,8|0,2:0|2:0,2:0:0:0:
259,42,137227,2,0,L|279:138,1,97.4999955368044,0|0,2:0|2:0,2:0:0:0:
263,291,137420,102,0,B|260:269|260:269|189:246,1,97.4999955368044,2|0,2:1|2:0,2:0:0:0:
93,266,137614,2,0,B|60:272|43:299|43:299|73:298|97:278,1,120,2|0,2:0|2:0,2:0:0:0:
193,81,137808,6,0,L|186:110,1,30,0|0,1:0|2:0,2:0:0:0:
123,61,137904,2,0,L|116:90,1,30,0|0,2:0|2:0,2:0:0:0:
53,41,138001,2,0,L|46:70,1,30,2|0,2:0|2:0,2:0:0:0:
94,162,138195,102,0,B|91:184|91:184|19:205,1,97.4999955368044,2|0,2:1|2:0,2:0:0:0:
116,90,138388,2,0,B|135:150|135:150|142:157|142:157|164:225|164:225|162:234|162:234|181:291,1,213.749994292259,0|0,2:0|2:0,2:0:0:0:
263,291,138582,6,0,B|292:269|292:269|303:189|303:189|283:162,2,150,8|0|0,2:0|2:0|2:0,2:0:0:0:
69,365,138969,102,0,B|149:341|149:341|147:346|147:346|158:343|158:343|153:340|153:340|192:329|192:329|187:326|187:326|198:323|198:323|195:328|195:328|234:317|234:317|231:322|231:322|243:319|243:319|238:316|238:316|272:306|272:306|357:282|359:331|396:346|431:336,1,438.750001673698,10|0,2:1|2:0,2:0:0:0:
452,265,139356,6,0,L|423:258,1,30,2|0,1:2|2:0,2:0:0:0:
472,195,139453,2,0,L|443:188,1,30,0|0,2:0|2:0,2:0:0:0:
492,125,139549,2,0,L|463:118,1,30,0|0,2:0|2:0,2:0:0:0:
375,77,139743,102,0,B|357:90|357:90|373:163,1,97.4999955368044,2|0,2:1|2:0,2:0:0:0:
270,216,139937,2,0,B|394:195|394:195|393:191|393:191|420:190|420:190|442:187,1,179.999994506836,0|0,2:0|2:0,2:0:0:0:
431,335,140130,6,0,L|320:303,1,97.4999955368044,8|0,2:0|2:0,2:0:0:0:
286,359,140324,2,0,B|261:352|261:352|247:315|247:315|266:290,1,97.4999955368044,0|0,2:0|2:0,2:0:0:0:
256,29,140517,102,0,B|273:42|273:42|259:117,1,97.4999955368044,2|0,2:1|2:0,2:0:0:0:
179,175,140711,2,0,B|154:155|119:161|119:161|150:148|160:117,1,120,2|0,2:0|2:0,2:0:0:0:
482,47,140904,6,0,L|513:40,1,30,0|0,1:0|2:0,2:0:0:0:
511,40,141195,101,10,2:0:0:0:
462,117,141291,2,0,P|434:70|336:37,1,150,2|0,2:3|2:0,2:0:0:0:
349,36,141485,2,0,L|367:112,1,75,0|0,1:0|2:0,2:0:0:0:
266,289,141678,5,10,2:0:0:0:
213,296,141775,1,8,2:0:0:0:
171,300,141872,102,0,L|179:263,1,37.5,0|0,2:0|2:0,2:0:0:0:
100,280,141969,2,0,L|108:243,1,37.5,0|0,3:0|3:0,2:0:0:0:
127,132,142259,5,8,2:0:0:0:
124,122,142356,1,8,2:0:0:0:
32,316,142453,102,0,B|56:316|75:333|75:333|112:273|62:225|62:225|116:210|116:210|117:214|117:214|119:205|119:205|120:209|120:209|170:196|170:196|169:192|169:192|174:195|174:195|217:183|217:183|219:178|219:178|220:182|220:182|290:164|290:164|312:232|312:232|287:211|252:216,1,562.5,4|0,1:0|2:0,2:0:0:0:
127,132,142840,2,0,B|168:97|223:119|223:119|201:135|198:160,1,150,2|0,2:0|2:0,2:0:0:0:
251,324,143033,6,0,L|246:302,1,18.75,2|0,2:3|2:0,2:0:0:0:
271,316,143130,2,0,L|264:282,1,28.1250010728836,2|0,2:3|2:0,2:0:0:0:
342,297,143227,102,0,B|402:276|390:204|370:211|385:151|432:141|432:141|405:168|412:202,1,258.750004935265,8|0,2:0|2:0,2:0:0:0:
467,265,143420,2,0,B|434:254|400:273|406:292|376:308|343:298,1,134.999995880127,0|0,2:0|2:0,2:0:0:0:
99,305,143614,6,2,B|103:245|71:200|71:200|74:199|74:199|70:196|70:196|49:165|52:131|52:131|56:130|56:130|51:127|51:127|60:83|29:29,1,300,4|0,1:2|2:0,2:1:0:0:
127,0,143904,2,2,B|122:59|154:104|154:104|151:105|151:105|155:108|155:108|176:139|173:173|173:173|169:174|169:174|174:177|174:177|165:221|196:275,1,300,4|0,1:2|2:0,2:1:0:0:
301,213,144195,102,2,B|347:214|372:161|372:161|368:164|368:164|376:166|376:166|372:161|372:161|387:137|382:106|382:106|379:101|379:101|387:103|387:103|382:106|382:106|396:27|360:5,1,300,4|0,1:2|2:0,2:1:0:0:
360,6,144485,2,2,B|314:5|289:58|289:58|293:55|293:55|285:53|285:53|289:58|289:58|274:82|279:113|279:113|282:118|282:118|274:116|274:116|279:113|279:113|265:192|302:215,1,300,4|0,1:2|2:0,2:1:0:0:
313,288,144775,6,0,B|364:285|413:244|351:167|381:121|461:149|527:259|479:239|473:284|511:338|511:338|529:363|508:397|446:400|365:321|386:228|431:244|425:164|347:147|306:181|300:219,1,734.999977569581,10|0,2:0|2:0,2:0:0:0:
144,335,145549,102,0,P|117:329|98:303,1,60,2|0,1:2|2:0,2:0:0:0:
70,297,145646,2,0,P|55:273|60:241,1,60,8|0,2:3|2:0,2:0:0:0:
44,217,145743,2,0,P|49:190|76:171,1,60,8|0,2:3|2:0,2:0:0:0:
82,142,145840,2,0,P|105:127|137:132,1,60,2|0,2:3|2:0,2:0:0:0:
199,55,146033,6,0,P|214:80|209:109,1,60,2|0,2:3|2:0,2:0:0:0:
225,135,146130,2,0,P|217:163|194:180,1,60,0|0,2:0|2:0,2:0:0:0:
186,210,146227,2,0,P|160:225|131:220,1,60,2|0,2:3|2:0,2:0:0:0:
132,227,146324,102,0,L|512:282,1,337.500012874604,10|0,2:0|2:0,2:0:0:0:
467,270,146517,6,0,B|471:242|471:242|457:256|457:256|455:267,2,56.2500021457673,2|0|0,2:3|2:0|2:0,2:0:0:0:
341,344,146711,102,2,B|289:312|296:234|296:234|300:235|300:235|296:234|296:234|305:179|305:179|302:174|302:174|309:127|309:127|314:124|314:124|322:72,1,300,4|0,1:2|2:0,2:1:0:0:
233,351,147001,2,2,B|249:304|301:260|365:272|365:272|379:189|379:189|385:184|385:184|393:137,1,300,4|0,1:2|2:0,2:1:0:0:
144,335,147291,6,2,B|143:298|114:283|108:294|79:277|68:239|68:239|71:234|71:234|46:141|46:141|41:138|41:138|24:73,1,300,4|0,1:2|2:0,2:1:0:0:
67,352,147582,2,2,B|55:296|87:264|139:268|147:212|123:123|123:123|126:117|126:117|115:77,1,300,4|0,1:2|2:0,2:1:0:0:
177,35,147872,102,0,L|368:84,1,150,10|0,2:0|2:0,2:0:0:0:
470,113,148066,5,2,2:0:0:0:
470,113,148162,1,0,2:0:0:0:
500,43,148259,102,0,B|492:11|492:11|461:-3|461:-3|404:17|404:17|391:47|391:47|405:76,1,187.5,2|0,2:0|2:0,2:0:0:0:
244,133,148453,6,0,L|225:135,1,18.75,2|0,2:0|2:0,2:0:0:0:
24,76,148646,101,4,1:0:0:0:
50,6,148743,1,0,2:0:0:0:
35,80,148840,1,0,2:0:0:0:
314,176,149033,6,0,B|311:198|311:198|240:221,1,97.4999955368044,2|0,2:1|2:0,2:0:0:0:
154,279,149227,2,0,B|163:227|163:227|159:223|159:223|167:179,1,97.4999955368044,0|0,2:0|2:0,2:0:0:0:
114,76,149420,102,0,B|81:97|81:97|99:155,1,97.4999955368044,8|0,2:0|2:0,2:0:0:0:
255,317,149614,2,0,L|238:219,1,97.4999955368044,0|0,2:0|2:0,2:0:0:0:
12,265,149808,6,0,B|15:287|15:287|86:310,1,97.4999955368044,2|0,2:1|2:0,2:0:0:0:
225,134,150001,102,0,B|255:115|253:84|253:84|226:99|225:134,1,120,2|0,2:0|2:0,2:0:0:0:
325,337,150195,6,0,L|332:308,1,30,4|0,1:0|2:0,2:0:0:0:
395,357,150291,2,0,L|402:328,1,30,0|0,2:0|2:0,2:0:0:0:
465,377,150388,2,0,L|472:348,1,30,2|0,2:0|2:0,2:0:0:0:
501,226,150582,102,0,B|501:251|501:251|413:286|413:286|358:210|358:210|373:189,1,240,2|0,2:1|2:0,2:0:0:0:
144,232,150969,6,0,B|206:246|220:307|220:307|255:317,2,150,8|0|0,2:0|2:0|2:0,2:0:0:0:
328,96,151356,102,0,B|352:161|393:124|437:173|411:222|411:222|357:208|317:244|317:244|313:243|313:243|314:247|314:247|278:288|289:355|289:355|302:316|331:307,1,461.250007038117,10|0,1:0|2:0,2:0:0:0:
499,146,151743,5,4,1:0:0:0:
473,76,151840,1,0,2:0:0:0:
488,150,151937,1,2,2:0:0:0:
469,311,152130,102,0,B|466:333|466:333|395:356,1,97.4999955368044,2|0,2:1|2:0,2:0:0:0:
331,307,152324,2,0,B|340:255|340:255|344:252|344:252|342:240|342:240|348:208,1,97.4999955368044,2|0,2:0|2:0,2:0:0:0:
252,163,152517,2,0,L|479:235,1,194.999991073609,8|0,2:0|2:0,2:0:0:0:
256,329,152904,5,8,2:0:0:0:
183,347,153001,1,8,2:0:0:0:
188,271,153098,1,8,2:0:0:0:
216,264,153195,1,8,2:0:0:0:
182,195,153291,101,0,3:0:0:0:
182,195,153582,1,2,2:0:0:0:
37,314,153872,1,2,2:0:0:0:
75,88,154066,5,0,3:0:0:0:
145,119,154259,101,2,2:0:0:0:
162,123,154356,1,8,2:0:0:0:
173,110,154453,1,8,2:0:0:0:
230,20,154646,6,0,L|242:78,1,48.7499977684022,0|0,3:0|2:0,2:0:0:0:
166,343,154840,6,0,B|212:340|252:298|246:286|241:271|262:209|327:204,1,225,4|0,1:0|2:0,2:0:0:0:
332,209,155033,1,2,2:0:0:0:
380,266,155130,1,0,2:0:0:0:
450,266,155227,1,2,2:1:0:0:
487,224,155324,1,0,2:0:0:0:
483,182,155420,1,2,2:0:0:0:
462,160,155517,1,0,2:0:0:0:
421,84,155614,5,8,2:0:0:0:
427,77,155678,2,0,P|472:68|491:63,1,50,0|0,2:3|2:0,2:0:0:0:
305,116,155808,101,2,2:0:0:0:
311,124,155872,2,0,P|356:133|375:138,1,50,0|0,2:0|2:0,2:0:0:0:
334,42,156001,5,2,2:1:0:0:
340,36,156066,1,0,2:0:0:0:
338,27,156130,1,0,2:0:0:0:
330,22,156195,1,2,2:0:0:0:
322,22,156259,1,0,2:0:0:0:
318,29,156324,1,0,2:0:0:0:
323,39,156388,102,0,B|382:61|382:61|407:170|407:170|468:195,1,225,0|0,1:0|2:0,2:0:0:0:
459,186,156582,1,2,2:0:0:0:
492,211,156678,1,0,2:0:0:0:
499,263,156775,1,2,2:1:0:0:
466,309,156872,1,0,2:0:0:0:
401,315,156969,1,2,2:0:0:0:
355,260,157066,1,0,2:0:0:0:
268,231,157162,5,8,2:0:0:0:
260,236,157227,2,0,P|252:272|253:308,1,50,0|0,2:0|2:0,2:0:0:0:
179,384,157356,101,2,2:0:0:0:
171,379,157421,2,0,P|163:343|164:307,1,50,0|0,2:0|2:0,2:0:0:0:
150,163,157549,5,2,2:1:0:0:
147,149,157614,1,0,2:0:0:0:
133,133,157678,1,0,2:0:0:0:
113,123,157743,1,2,2:0:0:0:
81,121,157808,1,0,2:0:0:0:
48,136,157872,1,0,2:0:0:0:
36,179,157937,102,0,P|91:198|262:299,1,240,0|2,1:0|2:0,2:0:0:0:
237,158,158227,5,2,3:0:0:0:
228,83,158324,2,0,B|213:49|213:49|217:99,1,75,0|0,2:0|2:0,2:0:0:0:
331,268,158517,102,0,P|364:229|313:182,1,75,2|0,2:0|2:0,2:0:0:0:
171,253,158711,6,0,L|196:208,1,37.5,8|0,2:0|3:0,2:0:0:0:
177,258,158808,2,0,L|212:221,1,37.5,0|0,3:0|3:0,3:0:0:0:
253,294,158904,102,0,P|228:354|224:387,1,75,2|0,2:0|2:0,2:0:0:0:
181,12,159098,6,0,P|222:92|238:177,1,157.499995193482,0|0,1:0|2:0,2:0:0:0:
243,161,159291,2,0,L|303:130,1,52.4999983978272,2|0,3:2|3:0,3:0:0:0:
246,167,159388,2,0,L|311:152,1,52.4999983978272,0|0,3:0|3:0,3:0:0:0:
378,133,159485,102,0,P|415:41|317:55,1,240,0|2,1:0|2:0,2:0:0:0:
223,366,159775,2,0,B|157:361|129:314|145:294|112:225|43:230,1,240,2|0,2:3|2:0,2:0:0:0:
264,297,160066,6,0,L|278:253,1,37.5,2|0,3:2|3:0,3:0:0:0:
258,296,160162,2,0,L|260:249,1,37.5,0|0,3:0|3:0,3:0:0:0:
327,347,160259,102,0,L|322:384,1,37.5,8|0,2:0|3:0,2:0:0:0:
333,346,160356,2,0,L|338:383,1,37.5,0|0,3:0|3:0,3:0:0:0:
383,288,160453,6,0,P|436:266|481:265,1,75,2|0,2:0|2:0,2:0:0:0:
179,272,160646,2,0,P|302:301|458:372,1,269.999991760254,2|2,2:3|2:0,2:0:0:0:
433,357,160937,1,0,2:0:0:0:
512,317,161033,102,0,B|520:267|487:225|469:232|452:232|413:199|421:146,1,202.499993820191,4|0,1:2|2:0,2:0:0:0:
427,149,161227,1,2,2:0:0:0:
478,96,161324,1,0,2:0:0:0:
466,27,161420,1,2,2:1:0:0:
413,7,161517,1,0,2:0:0:0:
367,22,161614,1,2,2:0:0:0:
354,58,161711,1,0,2:0:0:0:
280,83,161808,5,8,2:0:0:0:
276,75,161872,2,0,P|240:62|199:55,1,50,0|0,2:0|2:0,2:0:0:0:
289,206,162001,101,2,2:0:0:0:
293,194,162065,2,0,P|329:181|370:174,1,50,0|0,2:0|2:0,2:0:0:0:
179,225,162195,5,2,2:1:0:0:
176,216,162259,1,0,2:0:0:0:
169,207,162324,1,0,2:0:0:0:
157,195,162388,1,2,2:0:0:0:
139,186,162453,1,0,2:0:0:0:
114,181,162517,1,0,2:0:0:0:
80,186,162582,102,0,P|112:283|128:382,1,202.499993820191,0|0,1:0|2:0,2:0:0:0:
127,381,162775,1,2,2:0:0:0:
171,383,162872,1,0,2:0:0:0:
198,353,162969,1,2,2:1:0:0:
210,301,163066,1,0,2:0:0:0:
236,248,163162,1,2,2:0:0:0:
298,214,163259,1,0,2:0:0:0:
371,212,163356,5,8,2:0:0:0:
399,225,163420,1,0,2:0:0:0:
418,243,163485,1,0,2:0:0:0:
430,264,163549,1,2,2:0:0:0:
438,283,163614,1,0,2:0:0:0:
442,299,163678,1,0,2:0:0:0:
443,312,163743,102,0,P|404:323|366:295,1,50,0|0,2:3|3:0,2:0:0:0:
317,328,163872,2,0,P|287:299|293:252,1,50,0|0,2:3|3:0,2:0:0:0:
249,278,164001,2,0,P|258:238|302:219,1,50,0|0,2:3|3:0,2:0:0:0:
316,119,164130,6,0,P|345:246|365:384,1,269.999991760254,0|2,1:0|2:0,2:0:0:0:
492,46,164420,2,0,P|462:172|442:310,1,269.999991760254,2|0,2:3|2:0,2:0:0:0:
256,384,164711,102,0,P|214:367|208:320,1,75,2|0,2:0|2:0,2:0:0:0:
354,56,164904,6,0,L|394:9,1,37.5,8|0,2:0|3:0,2:0:0:0:
362,62,165001,2,0,L|402:33,1,37.5,0|0,3:0|3:0,3:0:0:0:
316,119,165098,102,0,P|279:107|244:88,1,75,2|0,2:0|2:0,2:0:0:0:
507,181,165291,6,0,P|415:198|320:236,1,157.499995193482,0|0,1:0|2:0,2:0:0:0:
355,227,165485,2,0,L|344:304,1,52.4999983978272,2|0,3:2|3:0,3:0:0:0:
349,225,165582,2,0,L|318:295,1,52.4999983978272,0|0,3:0|3:0,3:0:0:0:
256,336,165678,102,0,P|162:325|194:200,1,240,0|2,1:0|2:0,2:0:0:0:
422,317,165969,2,0,P|516:306|484:181,1,240,2|0,2:3|2:0,2:0:0:0:
337,384,166259,2,0,P|344:302|359:259,1,104.999996795654,2|0,2:0|2:0,2:0:0:0:
423,69,166453,5,8,2:0:0:0:
372,20,166549,1,2,2:0:0:0:
301,24,166646,1,2,2:0:0:0:
262,84,166743,1,0,2:0:0:0:
281,152,166840,101,8,2:0:0:0:
219,190,166937,1,8,2:0:0:0:
248,260,167033,1,2,3:2:0:0:
184,308,167130,1,0,2:0:0:0:
244,371,167227,6,0,P|282:347|354:334,1,104.999996795654,4|0,1:0|2:0,2:0:0:0:
32,172,167420,2,0,P|70:196|142:209,1,104.999996795654,2|0,2:0|2:0,2:0:0:0:
411,300,167614,101,2,2:1:0:0:
430,241,167711,1,0,2:0:0:0:
413,192,167808,1,2,2:0:0:0:
370,179,167904,1,0,2:0:0:0:
312,124,168001,5,8,2:0:0:0:
309,117,168066,2,0,P|325:68|349:47,1,50,0|0,2:0|2:0,2:0:0:0:
244,228,168195,101,2,2:0:0:0:
247,221,168260,2,0,P|231:172|207:151,1,50,0|0,2:0|2:0,2:0:0:0:
338,249,168388,5,2,2:1:0:0:
344,255,168453,1,0,2:0:0:0:
342,264,168517,1,0,2:0:0:0:
334,269,168582,1,2,2:0:0:0:
326,269,168646,1,0,2:0:0:0:
322,262,168711,1,0,2:0:0:0:
326,252,168775,102,0,P|395:230|443:222,1,104.999996795654,0|0,1:0|2:0,2:0:0:0:
133,71,168969,2,0,P|202:93|250:101,1,104.999996795654,2|0,2:0|2:0,2:0:0:0:
445,10,169162,6,0,P|429:48|423:96,1,75,2|0,2:1|2:0,2:0:0:0:
163,261,169356,2,0,P|179:299|185:347,1,75,2|0,2:0|2:0,2:0:0:0:
471,253,169549,101,8,2:0:0:0:
480,253,169614,1,0,2:0:0:0:
486,246,169678,1,0,2:0:0:0:
487,237,169743,1,2,2:0:0:0:
480,230,169808,2,0,P|447:220|412:224,1,50,0|0,2:0|2:0,2:0:0:0:
361,163,169937,5,2,2:1:0:0:
354,189,170001,1,0,2:0:0:0:
335,207,170066,1,0,2:0:0:0:
315,213,170130,1,2,2:0:0:0:
301,211,170195,1,0,2:0:0:0:
294,204,170259,1,0,2:0:0:0:
291,198,170324,102,0,P|308:119|355:-16,1,209.999993591309,0|2,1:0|2:0,2:0:0:0:
217,283,170614,1,2,2:3:0:0:
217,283,170711,2,0,P|204:230|184:184,1,104.999996795654,2|0,2:1|2:0,2:0:0:0:
354,0,170904,6,0,P|402:24|395:100,1,104.999996795654,2|0,2:0|2:0,2:0:0:0:
112,147,171098,102,0,L|58:135,1,37.5,8|0,2:0|3:0,2:0:0:0:
118,140,171195,2,0,L|68:114,1,37.5,0|0,3:0|3:0,3:0:0:0:
187,109,171291,6,0,P|240:96|278:79,1,75,2|0,2:0|2:0,2:0:0:0:
475,370,171485,102,0,P|402:349|286:338,1,157.499995193482,2|0,2:1|2:0,2:0:0:0:
317,333,171678,2,0,L|291:251,1,52.4999983978272,2|0,3:2|3:0,3:0:0:0:
324,330,171775,2,0,L|322:251,1,52.4999983978272,0|0,3:0|3:0,3:0:0:0:
388,232,171872,6,0,P|404:155|310:203,1,209.999993591309,0|2,1:0|2:0,2:0:0:0:
183,366,172162,2,0,P|113:365|142:258,1,209.999993591309,2|0,2:3|2:0,2:0:0:0:
135,259,172453,1,2,2:0:0:0:
432,352,172646,102,0,P|379:336|318:324,1,104.999996795654,8|0,2:0|2:0,2:0:0:0:
493,211,172840,2,0,P|434:222|379:239,1,104.999996795654,2|0,2:0|2:0,2:0:0:0:
186,363,173033,5,10,1:0:0:0:
51,72,173227,102,0,P|58:97|64:125,1,37.5,0|0,1:0|3:0,2:0:0:0:
67,71,173324,2,0,P|68:92|65:125,1,37.5,0|0,1:0|3:0,2:0:0:0:
88,179,173420,5,4,1:0:0:0:
126,152,173517,1,0,2:0:0:0:
178,151,173614,1,2,2:0:0:0:
214,191,173711,1,0,2:0:0:0:
222,243,173808,1,2,1:0:0:0:
247,286,173904,1,0,2:0:0:0:
296,303,174001,1,2,2:0:0:0:
338,288,174098,1,0,2:0:0:0:
399,329,174195,101,0,1:0:0:0:
463,294,174295,1,0,2:0:0:0:
459,222,174395,1,2,2:0:0:0:
406,171,174495,1,0,2:0:0:0:
336,176,174595,1,2,1:0:0:0:
273,142,174695,1,0,2:0:0:0:
252,73,174795,1,2,2:0:0:0:
283,9,174895,1,0,2:0:0:0:
395,84,174995,5,4,1:0:0:0:
320,99,175102,1,0,2:0:0:0:
245,121,175209,1,2,2:0:0:0:
170,144,175316,1,0,2:0:0:0:
78,87,175423,101,2,1:0:0:0:
159,45,175530,1,0,2:0:0:0:
92,163,175637,2,0,P|66:217|58:262,1,75,2|0,2:0|2:0,2:0:0:0:
60,381,175852,5,12,1:2:0:0:
99,375,175928,1,8,2:0:0:0:
121,338,176005,1,8,2:0:0:0:
115,300,176082,1,10,2:0:0:0:
0,331,176198,1,8,2:0:0:0:
57,235,176313,101,0,1:0:0:0:
44,232,176371,1,8,2:0:0:0:
34,223,176428,1,8,2:0:0:0:
32,212,176486,1,8,2:0:0:0:
35,201,176544,2,0,P|55:172|82:157,1,37.5,10|0,2:0|2:0,2:0:0:0:
48,95,176659,2,0,P|83:97|109:113,1,37.5,8|0,2:0|2:0,2:0:0:0:
148,228,176775,6,0,P|123:278|116:303,1,75,4|0,1:0|2:0,2:0:0:0:
14,23,177025,2,0,P|39:73|46:98,1,75,0|0,1:0|2:0,2:0:0:0:
0,186,177275,102,0,L|47:174,1,37.5,2|0,1:2|2:0,2:0:0:0:
53,173,177400,6,0,L|100:161,1,37.5,2|0,1:2|2:0,2:0:0:0:
118,157,177525,102,0,L|165:145,1,37.5,2|0,1:2|2:0,2:0:0:0:
223,132,177650,6,0,L|270:120,1,37.5,2|0,1:2|2:0,2:0:0:0:
377,96,177775,102,0,B|458:81|458:81|475:176|475:176|330:201|330:201|322:152,1,359.999989013672,4|0,1:0|2:0,2:0:0:0:
377,96,178150,6,0,B|500:121|500:121|468:271|468:271|382:249|382:249|397:188,1,389.999982147218,4|0,1:0|2:0,2:0:0:0:
377,96,178525,102,0,B|370:64|370:64|321:73|321:73|331:122|331:122|380:112|380:112|377:96,1,194.999991073609,4|0,1:0|2:0,2:0:0:0:
195,163,178775,6,0,B|179:223|179:223|200:230|200:230|217:167,1,150,0|8,3:0|2:0,2:0:0:0:
134,68,179184,102,0,L|149:120,1,37.5,0|0,3:0|2:0,2:0:0:0:
124,198,179320,2,0,B|132:223|132:223|223:192|223:192|209:141,1,150,0|8,2:0|2:0,2:0:0:0:
128,66,179593,6,0,B|91:79|91:79|89:115,1,75,0|0,3:0|2:0,2:0:0:0:
154,294,179729,2,0,B|183:319|183:319|215:303,1,75,0|0,2:0|2:0,2:0:0:0:
338,157,179865,2,0,B|345:118|345:118|315:98,1,75,8|0,2:0|2:0,2:0:0:0:
226,175,180002,101,2,2:0:0:0:
226,175,180070,1,0,2:0:0:0:
226,175,180138,1,0,3:0:0:0:
445,320,180275,5,10,2:0:0:0:
445,320,180343,1,8,2:0:0:0:
445,320,180411,2,0,B|362:302,1,75,2|0,3:0|2:0,2:0:0:0:
62,214,180547,102,0,B|120:200,1,60,8|0,3:0|2:0,2:0:0:0:
385,169,180684,6,0,B|341:160,1,44.999998626709,8|0,3:0|2:0,2:0:0:0:
125,63,180820,102,0,B|154:56,1,30,0|0,3:0|2:0,2:0:0:0:
256,0,180956,85,4,1:0:0:0:
154,294,181093,2,0,B|129:300|129:300|99:283|59:292|59:292|321:231,1,360,2|0,2:0|2:0,2:0:0:0:
316,232,181365,1,2,2:0:0:0:
445,320,181502,6,2,L|437:267,1,44.999998626709,8|0,1:2|2:0,2:0:0:0:
378,348,181638,2,2,L|370:295,1,44.999998626709,0|0,2:0|2:0,2:0:0:0:
399,119,181775,102,2,L|385:169,1,52.4999983978272,2|0,2:0|2:0,2:0:0:0:
319,94,181911,2,2,L|305:144,1,52.4999983978272,2|0,2:0|2:0,2:0:0:0:
276,375,182047,5,0,1:0:0:0:
225,174,182184,102,0,L|211:123,1,52.4999983978272,2|0,2:0|2:0,2:0:0:0:
143,142,182456,6,0,L|156:192,1,52.4999983978272,2|0,2:0|2:0,2:0:0:0:
119,307,182593,102,0,B|100:295|66:351|128:397|222:316|189:262|107:264|115:194|180:152|256:138|335:188|336:244|336:244|314:197|265:188|226:215|216:146,1,551.249983177186,12|0,1:2|2:0,2:0:0:0:
437,26,183138,6,0,L|509:6,1,75,0|2,1:0|2:0,2:0:0:0:
467,128,183411,102,2,L|471:113,1,9.375,0|0,2:0|2:0,2:0:0:0:
423,116,183547,2,2,L|427:101,1,9.375,2|0,2:0|2:0,2:0:0:0:
296,2,183684,6,2,L|300:16,1,9.375,8|0,1:2|2:0,2:0:0:0:
251,11,183820,2,2,L|255:25,1,9.375,0|0,2:0|2:0,2:0:0:0:
225,174,183956,102,2,B|207:189|207:189|138:175,1,84.3750032186509,2|0,2:0|2:0,2:0:0:0:
16,118,184093,2,2,B|75:105|75:105|93:120,1,84.3750032186509,2|0,2:0|2:0,2:0:0:0:
75,358,184229,6,0,L|2:377,1,75,0|2,1:0|2:0,2:0:0:0:
33,291,184502,102,2,L|29:276,1,9.375,0|0,2:0|2:0,2:0:0:0:
77,279,184638,2,2,L|73:264,1,9.375,2|0,2:0|2:0,2:0:0:0:
192,185,184775,6,2,L|187:199,1,9.375,8|0,1:2|2:0,2:0:0:0:
147,176,184911,102,2,B|140:196|140:196|166:214|171:248,1,84.3750032186509,2|0,2:0|2:0,2:0:0:0:
239,318,185047,2,2,B|266:297|269:265|269:265|290:262,1,84.3750032186509,0|0,2:0|2:0,2:0:0:0:
388,242,185184,2,2,B|408:238|408:238|422:267|454:278,1,84.3750032186509,2|0,2:0|2:0,2:0:0:0:
455,278,185320,5,0,1:0:0:0:
322,171,185456,2,0,L|365:373,1,206.250001966953,2|0,2:0|2:0,2:0:0:0:
364,372,185729,2,0,L|374:312,1,44.999998626709,0|0,2:0|2:0,2:0:0:0:
455,278,185865,102,2,L|465:218,1,44.999998626709,8|0,1:2|2:0,2:0:0:0:
388,242,186002,2,2,L|398:182,1,60,0|0,2:0|2:0,2:0:0:0:
290,31,186138,6,2,L|298:75,1,44.999998626709,0|0,2:0|2:0,2:0:0:0:
222,61,186275,2,2,L|234:120,1,60,0|0,2:0|2:0,2:0:0:0:
233,120,186411,1,2,1:2:0:0:
428,38,186547,102,0,L|479:23,1,52.4999983978272,2|0,2:0|2:0,2:0:0:0:
321,206,186820,2,0,L|333:132,1,67.4999979400635,2|0,2:0|2:0,2:0:0:0:
222,61,186956,6,0,B|163:40|116:98|146:115|124:185|21:203|-4:96|40:32|40:32|27:70|46:105|56:96|79:129|74:166,1,472.499985580445,12|0,1:2|2:0,2:0:0:0:
38,347,187502,102,0,L|19:274,1,75,0|0,1:0|2:0,2:0:0:0:
88,231,187775,6,2,L|84:246,1,9.375,2|0,2:0|2:0,2:0:0:0:
160,251,187911,2,2,L|156:266,1,9.375,2|0,2:0|2:0,2:0:0:0:
246,230,188047,102,0,B|254:221|268:217|268:217|252:179|265:132|265:132|252:179|218:203|218:203|227:213|231:226,1,225,8|0,1:2|2:0,2:0:0:0:
161,335,188320,6,0,B|213:331|231:282|231:282|287:295,1,150,2|0,2:0|2:0,2:0:0:0:
295,297,188456,2,0,L|331:307,1,37.5,2|0,2:0|2:0,2:0:0:0:
464,298,188593,102,0,B|493:305|493:305|448:309|425:340|442:363|404:387|360:367|360:367|390:259|390:259|386:255|386:255|406:184|406:184|411:183|411:183|423:137|398:112|398:112|383:168|383:168|394:188|389:211,1,562.500021457673,4|0,1:2|2:0,2:0:0:0:
286,294,189002,2,0,B|259:337|259:337|286:322|286:322|305:252|305:252|303:245|303:245|359:35,1,375,4|0,1:2|2:0,2:0:0:0:
469,10,189411,6,0,B|361:-49|274:30|274:30|271:68|241:88,1,281.25,4|0,1:2|2:0,2:0:0:0:
193,24,189684,1,4,1:0:0:0:
138,156,189820,102,0,B|131:177|131:177|152:209|140:249|140:249|202:207|194:128|165:93|105:85|113:21,1,360,2|0,2:0|2:0,2:0:0:0:
112,21,190093,1,2,2:0:0:0:
1,237,190229,6,2,L|67:222,1,67.4999979400635,8|0,1:2|2:0,2:0:0:0:
137,155,190365,2,2,L|209:178,1,75,0|0,2:0|2:0,2:0:0:0:
287,189,190502,102,2,B|277:223|277:223|272:226|272:226|259:276,1,89.9999972534181,2|0,2:0|2:0,2:0:0:0:
167,334,190638,2,2,B|154:287|154:287|149:284|149:284|140:249,1,89.9999972534181,2|0,2:0|2:0,2:0:0:0:
91,96,190775,5,2,1:2:0:0:
76,301,190911,102,0,L|63:366,1,52.4999983978272,2|0,2:0|2:0,2:0:0:0:
73,373,191184,6,0,L|86:308,1,52.4999983978272,2|0,2:0|2:0,2:0:0:0:
209,178,191320,102,0,B|226:116|212:33|133:14|133:14|180:38|189:90|171:100|192:138|218:146,1,367.49998878479,12|0,1:2|2:0,2:0:0:0:
297,384,191865,6,0,L|319:310,1,75,4|0,1:0|2:0,2:0:0:0:
510,170,192138,102,2,L|514:185,1,9.375,2|0,2:0|2:0,2:0:0:0:
466,182,192274,2,2,L|470:197,1,9.375,2|0,2:0|2:0,2:0:0:0:
362,248,192411,6,2,L|367:234,1,9.375,8|0,1:2|2:0,2:0:0:0:
317,235,192547,2,2,L|322:221,1,9.375,0|0,2:0|2:0,2:0:0:0:
352,76,192684,102,0,B|357:54|357:54|422:35,1,84.3750032186509,2|0,2:0|2:0,2:0:0:0:
507,72,192820,2,0,B|502:94|502:94|437:113,1,84.3750032186509,2|0,2:0|2:0,2:0:0:0:
289,0,192956,6,0,L|273:73,1,75,0|2,1:0|2:0,2:0:0:0:
96,261,193229,102,2,L|92:246,1,9.375,0|0,2:0|2:0,2:0:0:0:
140,249,193365,2,2,L|136:234,1,9.375,0|0,2:0|2:0,2:0:0:0:
254,157,193502,6,2,L|256:147,1,9.375,8|0,1:2|2:0,2:0:0:0:
182,96,193638,102,2,B|166:121|166:121|180:178,1,84.3750032186509,2|0,2:0|2:0,2:0:0:0:
67,365,193775,2,0,B|96:366|96:366|139:325,1,84.3750032186509,0|0,2:0|2:0,2:0:0:0:
358,331,193911,2,0,B|344:304|344:304|287:288,1,84.3750032186509,2|0,2:0|2:0,2:0:0:0:
96,177,194047,5,4,1:0:0:0:
216,357,194184,2,0,B|225:305|225:305|230:302|230:302|239:259|239:259|235:254|235:254|255:152,1,206.250001966953,10|0,2:0|2:0,2:0:0:0:
254,157,194456,102,0,B|256:134|256:134|279:146,1,44.999998626709,8|8,2:0|2:0,2:0:0:0:
499,184,194593,2,0,L|316:218,1,179.999994506836,10|8,2:0|2:0,2:0:0:0:
331,88,194865,6,0,B|362:75|362:75|384:99,1,67.4999979400635,10|0,2:0|2:0,2:0:0:0:
446,37,195002,102,0,B|493:56|493:56|484:106,1,101.250000386238,8|0,2:0|2:0,2:0:0:0:
510,342,195138,2,0,L|247:278,1,225.000008583069,10|0,2:0|2:0,2:0:0:0:
283,286,195343,5,0,2:0:0:0:
275,284,195411,2,0,B|248:259|248:259|211:289|211:289|209:318,2,112.500004291535,10|8|2,2:0|2:0|2:0,2:0:0:0:
271,367,195820,101,8,2:0:0:0:
322,216,195956,1,8,2:0:0:0:
130,330,196093,5,8,2:0:0:0:
130,330,196161,1,8,2:0:0:0:
130,330,196229,102,0,B|136:272|136:272|72:204|72:204|80:132,1,225.000008583069,12|0,2:0|2:0,2:0:0:0:
159,120,196502,6,0,L|174:193,1,75,10|0,2:0|2:0,2:0:0:0:
54,293,196638,2,0,L|65:219,1,75,8|0,2:0|2:0,2:0:0:0:
143,39,196775,101,10,2:0:0:0:
197,44,196843,1,8,2:0:0:0:
236,87,196911,1,8,2:0:0:0:
284,114,196979,1,8,2:0:0:0:
333,86,197047,1,10,2:0:0:0:
174,193,197184,5,8,2:3:0:0:
162,196,197252,1,8,2:3:0:0:
151,200,197320,101,8,2:3:0:0:
365,229,197456,1,8,2:3:0:0:
284,29,197593,1,8,2:3:0:0:
268,314,197729,6,0,L|252:237,1,75,0|0,3:0|2:0,2:0:0:0:
252,240,198138,102,0,B|287:222|332:243|366:284|338:298|326:341|360:365|404:355|395:314|372:309,1,225,0|0,3:0|2:0,2:0:0:0:
365,229,198411,6,0,P|276:254|218:328,1,187.5,4|0,1:0|2:0,2:0:0:0:
218,326,198820,1,0,1:0:0:0:
159,120,198956,101,2,2:0:0:0:
154,103,199093,1,0,2:0:0:0:
87,134,199229,1,0,1:0:0:0:
237,167,199366,1,0,2:0:0:0:
119,344,199502,6,0,P|107:263|79:196,1,140.625,10|0,2:0|2:0,2:0:0:0:
86,209,199775,2,0,L|177:229,1,93.75,0|0,2:0|1:0,2:0:0:0:
307,183,200047,102,0,B|280:146|280:146|237:166,2,93.75,2|4|0,2:0|3:0|2:0,2:0:0:0:
251,330,200593,2,0,B|248:310|239:294|239:294|251:237,2,93.75,2|0|0,2:0|1:0|2:0,2:0:0:0:
251,330,201002,1,0,1:0:0:0:
159,120,201138,5,2,1:2:0:0:
485,292,201411,2,0,L|348:261,1,140.625,0|0,1:0|2:0,2:0:0:0:
347,261,201684,2,0,B|387:216|358:141|358:141|372:173|398:182,1,187.5,10|0,2:0|2:0,2:0:0:0:
398,182,202229,101,2,2:0:0:0:
119,344,202502,6,0,L|73:352,3,46.875,0|0|0|0,3:0|3:0|3:0|3:0,3:0:0:0:
119,344,202775,1,2,1:2:0:0:
33,275,202911,102,0,B|140:296|124:360|188:372,1,187.5,0|0,2:0|1:0,2:0:0:0:
0,384,203320,1,2,2:0:0:0:
0,384,203456,1,0,2:0:0:0:
113,265,203593,5,0,1:0:0:0:
113,265,203729,1,0,2:0:0:0:
57,22,203865,102,0,B|39:19|20:32|20:32|79:40|104:85,1,140.625,10|0,2:0|2:0,2:0:0:0:
108,159,204138,2,0,B|145:160|173:136|162:123|188:95|231:98,1,140.625,0|0,2:0|2:0,2:0:0:0:
301,79,204411,6,0,B|320:122|320:122|284:149,2,93.75,2|4|0,2:0|2:3|2:0,2:0:0:0:
411,315,204820,101,0,1:0:0:0:
411,315,204888,1,0,1:0:0:0:
411,315,204956,1,2,1:2:0:0:
258,312,205093,5,8,2:0:0:0:
433,233,205229,1,0,1:0:0:0:
331,354,205365,1,0,1:0:0:0:
283,149,205502,101,10,2:0:0:0:
300,239,205638,1,0,1:0:0:0:
416,143,205775,1,0,1:0:0:0:
258,312,205911,5,8,2:0:0:0:
244,308,205979,1,0,1:0:0:0:
238,298,206047,101,2,1:2:0:0:
294,152,206184,1,0,1:0:0:0:
182,384,206320,6,0,P|162:336|127:306,1,93.75,8|0,2:0|1:0,2:0:0:0:
177,22,206593,2,0,P|196:69|231:99,1,93.75,10|0,2:0|1:0,2:0:0:0:
416,143,206865,101,8,2:0:0:0:
460,128,206934,1,8,2:0:0:0:
460,81,207002,1,8,2:0:0:0:
415,67,207070,1,8,2:0:0:0:
352,106,207138,6,0,B|314:185|402:202|390:282,1,187.5,4|0,1:0|2:0,2:0:0:0:
390,280,207547,1,0,1:0:0:0:
193,166,207684,101,2,2:0:0:0:
178,158,207821,1,0,2:0:0:0:
227,97,207957,1,0,1:0:0:0:
260,247,208094,1,0,2:0:0:0:
177,22,208229,6,0,P|111:37|49:75,1,140.625,10|0,2:0|2:0,2:0:0:0:
49,74,208502,2,0,L|71:166,1,93.75,0|0,2:0|1:0,2:0:0:0:
57,261,208775,102,0,B|96:282|96:282|127:245,2,93.75,2|4|0,2:0|2:3|2:0,2:0:0:0:
57,261,209184,6,0,L|33:351,1,93.75,0|2,1:0|2:0,2:0:0:0:
172,384,209456,2,0,L|199:280,1,93.75,0|0,1:0|2:0,2:0:0:0:
156,146,209729,1,0,1:0:0:0:
256,384,209865,101,2,2:0:0:0:
352,106,210138,6,0,P|412:128|467:194,1,140.625,0|0,1:0|2:0,2:0:0:0:
462,183,210411,2,0,B|450:158|462:125|462:125|430:199|370:204,1,187.5,10|0,2:0|1:0,2:0:0:0:
286,148,210820,101,0,1:0:0:0:
286,148,210888,1,0,1:0:0:0:
286,148,210956,6,0,B|278:143|269:143|269:143|260:129|260:129|270:112|270:112|277:137,1,75.000002861023,4|0,1:0|2:0,2:0:0:0:
352,106,211138,102,0,B|352:94|346:84|346:84|356:65|356:65|383:64|383:64|358:89,1,100,4|0,1:0|2:0,2:0:0:0:
482,87,211320,6,0,B|489:74|489:60|489:60|510:46|510:46|539:62|539:62|498:73,1,125,4|0,1:0|2:0,2:0:0:0:
447,258,211502,101,10,2:0:0:0:
433,6,211638,1,8,2:0:0:0:
370,203,211775,1,0,1:0:0:0:
128,78,211911,6,0,L|364:106,1,225,10|0,2:0|2:0,2:0:0:0:
351,105,212184,1,0,1:0:0:0:
203,329,212320,101,10,2:0:0:0:
110,181,212456,1,0,1:0:0:0:
110,181,212525,1,0,1:0:0:0:
110,181,212593,6,0,L|207:154,1,75,12|0,2:0|2:0,2:0:0:0:
301,8,212729,102,0,L|166:265,1,281.25,10|0,2:0|1:0,2:0:0:0:
170,256,213002,5,10,2:0:0:0:
257,141,213138,1,0,1:0:0:0:
34,202,213275,1,0,1:0:0:0:
270,230,213411,102,0,L|304:234,1,27.7500006774902,10|0,2:0|2:0,2:0:0:0:
72,303,213684,6,0,L|50:243,1,56.2500021457673,12|0,2:0|2:0,2:0:0:0:
162,108,213820,2,0,L|184:168,1,56.2500021457673,8|0,2:0|2:0,2:0:0:0:
199,285,213956,2,0,L|139:307,1,56.2500021457673,2|0,1:2|1:0,2:0:0:0:
35,126,214093,2,0,L|95:104,1,56.2500021457673,8|0,2:0|2:0,2:0:0:0:
340,299,214229,101,10,2:0:0:0:
368,284,214297,1,0,2:0:0:0:
378,252,214365,1,0,1:0:0:0:
371,215,214434,1,0,1:0:0:0:
297,233,214502,5,10,2:0:0:0:
269,218,214570,1,0,2:0:0:0:
259,186,214638,1,8,2:0:0:0:
266,149,214707,1,0,2:0:0:0:
321,101,214775,101,2,1:2:0:0:
365,111,214843,1,0,1:0:0:0:
419,124,214911,1,0,1:0:0:0:
468,135,214979,1,0,1:0:0:0:
512,71,215047,5,8,2:0:0:0:
459,237,215320,102,0,B|485:245|485:245|451:266|441:307|441:307|470:194|353:151|353:151|379:180|370:216,1,375,8|0,2:3|2:0,2:0:0:0:
297,233,215729,6,0,P|307:273|340:299,1,84.3750032186509,8|0,2:0|2:0,2:0:0:0:
475,3,215865,5,4,1:2:0:0:
475,3,216956,1,8,2:0:0:0:
475,3,218047,1,12,1:2:0:0:
503,267,219090,5,8,3:2:0:0:
256,194,219351,1,2,3:0:0:0:
256,194,219481,1,4,3:0:0:0:
12,114,219743,1,2,3:0:0:0:
12,114,219873,1,8,3:0:0:0:
37,381,220133,101,4,1:2:0:0:
37,381,221133,1,8,2:0:0:0:
37,381,222133,1,4,1:2:0:0:
238,28,222853,5,0,1:0:0:0:
276,336,223093,1,8,3:0:0:0:
233,273,223213,1,8,3:0:0:0:
279,212,223333,1,2,3:0:0:0:
233,150,223453,1,8,3:0:0:0:
276,91,223573,2,0,P|306:83|354:76,1,56.2500021457673,0|0,3:0|2:0,2:0:0:0:
475,3,223813,102,0,L|515:12,3,28.1250010728836,0|0|0|0,3:0|3:0|3:0|3:0,3:0:0:0:
464,9,224053,5,4,1:2:0:0:
507,262,224283,1,8,2:0:0:0:
253,306,224514,1,8,2:0:0:0:
210,52,224745,1,8,2:0:0:0:
353,376,224976,101,12,1:2:0:0:
406,58,225206,1,8,2:0:0:0:
88,3,225437,1,8,2:0:0:0:
34,322,225668,1,8,2:0:0:0:
450,121,225899,6,0,L|355:138,1,75,12|0,1:2|2:0,2:0:0:0:
186,171,226113,1,8,2:0:0:0:
470,245,226327,102,0,L|379:212,1,75,8|0,1:2|2:0,2:0:0:0:
135,112,226541,1,8,2:0:0:0:
373,370,226756,6,0,L|331:282,1,75,12|0,1:2|2:0,2:0:0:0:
185,19,226970,1,8,2:0:0:0:
189,384,227184,102,0,L|229:296,1,75,12|0,1:2|2:0,2:0:0:0:
361,0,227398,1,8,2:0:0:0:
42,367,227613,5,10,2:0:0:0:
0,307,227713,1,8,2:0:0:0:
19,236,227813,1,8,2:0:0:0:
88,208,227913,1,8,2:0:0:0:
153,246,228013,1,10,2:0:0:0:
166,321,228113,1,8,2:0:0:0:
222,368,228213,1,8,2:0:0:0:
294,354,228313,1,8,2:0:0:0:
321,281,228413,1,10,2:0:0:0:
296,209,228513,1,8,2:0:0:0:
230,174,228613,1,8,2:0:0:0:
200,103,228713,1,8,2:0:0:0:
220,26,228813,1,10,2:0:0:0:
289,0,228913,1,8,2:0:0:0:
357,21,229013,1,8,2:0:0:0:
381,91,229113,1,8,2:0:0:0:
453,133,229213,102,0,L|496:126,2,33.7499989700318,8|8|0,2:0|2:0|2:0,2:0:0:0:
75,200,229494,1,0,3:0:0:0:
67,201,229588,1,8,2:0:0:0:
58,203,229681,1,0,2:0:0:0:
50,205,229775,1,0,3:0:0:0:
292,86,229963,5,8,2:0:0:0:
290,95,230056,1,8,2:0:0:0:
288,103,230150,1,0,3:0:0:0:
367,307,230338,102,0,B|414:291|414:291|394:224|394:224|204:282|204:282|184:216|184:216|257:194,1,450,10|0,2:0|2:0,2:0:0:0:
192,374,230713,5,4,1:2:0:0:
200,371,230806,1,0,2:0:0:0:
197,361,230900,1,2,2:0:0:0:
188,365,230994,1,0,2:0:0:0:
108,342,231088,102,0,B|48:321|48:321|42:308|42:308|61:242|61:242|78:239|78:239|290:302|290:302|311:292|311:292|327:235|327:235|318:219|318:219|239:196,1,562.5,0|0,1:2|2:0,2:0:0:0:
246,119,231463,5,2,1:0:0:0:
167,132,231556,1,2,2:1:0:0:
93,149,231650,1,2,2:1:0:0:
16,165,231744,1,2,2:1:0:0:
181,54,231838,101,2,1:0:0:0:
134,62,231931,1,2,2:1:0:0:
88,71,232025,1,2,2:1:0:0:
42,82,232119,1,2,2:1:0:0:
6,12,232213,6,0,B|-10:-6|-10:-6|30:7,1,56.2500021457673,0|0,1:0|2:0,2:0:0:0:
328,118,232400,102,0,B|328:100|328:100|281:38|281:38|256:33,1,112.500004291535,2|0,2:0|2:0,2:0:0:0:
194,252,232588,6,0,B|118:152|118:152|130:111|130:111|244:24|244:24|286:32|286:32|369:141|369:141|366:173|366:173|288:233,1,562.5,0|0,1:0|2:0,2:0:0:0:
172,323,232963,101,2,1:0:0:0:
248,305,233056,1,2,2:1:0:0:
324,286,233150,1,2,2:1:0:0:
399,268,233244,1,2,2:1:0:0:
234,384,233338,5,2,1:0:0:0:
284,373,233431,1,2,2:1:0:0:
336,360,233525,1,2,2:1:0:0:
387,349,233619,1,2,2:1:0:0:
461,383,233713,101,2,1:2:0:0:
220,270,233900,1,0,2:0:0:0:
220,270,233994,1,8,2:3:0:0:
220,270,234088,1,0,1:0:0:0:
446,135,234275,2,0,B|473:111|473:111|462:58,1,75,2|0,2:0|2:0,2:0:0:0:
291,0,234463,6,0,L|315:96,1,75,0|0,1:0|2:0,2:0:0:0:
512,268,234650,2,0,L|416:240,1,75,2|0,2:0|2:0,2:0:0:0:
169,325,234838,2,0,L|240:256,1,75,0|0,1:0|2:0,2:0:0:0:
324,194,235025,101,0,3:2:0:0:
51,98,235213,6,0,B|104:47|104:47|179:76,1,150,0|0,1:0|2:0,2:0:0:0:
309,299,235494,1,2,2:0:0:0:
309,299,235588,2,0,B|335:324|335:324|373:310,1,75,0|0,1:0|2:0,2:0:0:0:
504,166,235775,2,0,B|512:130|512:130|481:105,1,75,2|0,2:0|2:0,2:0:0:0:
257,5,235963,102,0,L|282:185,1,150,0|2,1:0|2:0,2:0:0:0:
277,153,236244,1,8,2:3:0:0:
277,153,236338,1,0,1:0:0:0:
512,277,236525,6,0,L|505:316,1,37.5,8|0,2:3|2:0,2:0:0:0:
503,280,236619,2,0,L|496:319,1,37.5,0|0,2:0|2:0,2:0:0:0:
438,359,236713,101,0,1:2:0:0:
378,38,236900,1,2,2:0:0:0:
378,38,236994,1,0,2:0:0:0:
490,84,237088,6,0,B|475:60|475:60|419:49|419:49|383:72|383:72|338:255|338:255|301:279|301:279|239:264|239:264|225:229,1,450,0|0,1:0|2:0,2:0:0:0:
74,143,237463,101,2,1:0:0:0:
141,120,237556,1,2,2:1:0:0:
209,96,237650,1,2,2:1:0:0:
278,75,237744,1,2,2:1:0:0:
142,197,237838,5,2,1:0:0:0:
180,184,237931,1,2,2:1:0:0:
217,169,238025,1,2,2:1:0:0:
255,157,238119,1,2,2:1:0:0:
323,199,238213,101,0,1:0:0:0:
59,60,238400,6,0,B|21:50|21:50|55:77,1,75,2|0,2:0|2:0,2:0:0:0:
185,250,238588,102,0,B|133:268|133:268|104:252|104:252|95:222|95:222|112:191|112:191|255:141|255:141|275:114|275:114|264:83|264:83|235:70|235:70|191:86,1,450,0|0,1:0|2:0,2:0:0:0:
324,310,238963,5,2,1:0:0:0:
336,241,239056,1,2,2:1:0:0:
347,169,239150,1,2,2:1:0:0:
360,99,239244,1,2,2:1:0:0:
408,275,239338,101,2,1:0:0:0:
414,235,239431,1,2,2:1:0:0:
422,196,239525,1,2,2:1:0:0:
427,157,239619,1,2,2:1:0:0:
491,106,239713,5,2,1:2:0:0:
226,219,239900,1,0,2:0:0:0:
226,219,239994,1,8,2:3:0:0:
226,219,240088,1,0,1:0:0:0:
484,370,240275,1,2,2:0:0:0:
371,64,240463,102,0,B|339:86|339:86|334:144,1,75,0|8,1:0|2:3,2:0:0:0:
512,278,240650,1,2,2:0:0:0:
512,278,240744,1,0,2:0:0:0:
512,278,240838,2,0,B|507:239|507:239|460:206,1,75,2|0,1:2|2:0,2:0:0:0:
256,293,241025,2,0,B|291:308|291:308|343:284,1,75,2|0,1:2|2:0,2:0:0:0:
314,14,241213,5,0,1:0:0:0:
240,5,241306,1,0,2:0:0:0:
184,53,241400,1,8,2:0:0:0:
177,125,241494,1,8,2:0:0:0:
202,193,241588,1,0,1:0:0:0:
180,263,241681,1,8,2:0:0:0:
110,284,241775,1,0,2:0:0:0:
48,247,241869,1,8,2:0:0:0:
46,169,241963,102,0,L|120:157,1,50,2|0,3:2|2:0,2:0:0:0:
252,136,242088,6,0,L|326:124,1,50,0|0,3:0|2:0,2:0:0:0:
458,103,242213,102,0,L|532:91,1,50,2|0,3:2|2:0,2:0:0:0:
396,18,242338,6,0,L|385:78,1,37.5000014305115,12|0,2:0|2:0,2:0:0:0:
369,179,242463,102,0,L|358:239,1,37.5000014305115,10|0,2:0|2:0,2:0:0:0:
342,340,242588,6,0,L|331:400,1,37.5000014305115,0|0,3:0|2:0,2:0:0:0:
305,131,242713,102,0,P|198:154|224:251,1,225.000008583069,4|0,1:0|2:0,2:0:0:0:
419,271,242963,2,0,P|400:255|376:249,1,50,2|0,2:0|2:0,2:0:0:0:
195,317,243088,6,0,B|201:338|222:356|241:355|261:352|281:345|297:336|310:323|316:284|312:275|312:267|307:252|293:248|282:232|268:221|265:201|269:176|280:147|311:138|343:137|358:145|370:158|373:178,1,379.999989852906,4|0,1:2|2:0,2:0:0:0:
447,198,243400,101,0,2:0:0:0:
447,198,243463,2,0,P|468:197|484:177,1,37.5000014305115,2|0,1:0|2:0,2:0:0:0:
490,111,243588,2,0,P|478:93|453:89,1,37.5000014305115,2|0,2:1|2:0,2:0:0:0:
393,117,243713,2,0,P|383:136|392:160,1,37.5000014305115,2|0,2:1|2:0,2:0:0:0:
447,328,243838,6,0,P|445:352|422:371,1,37.5000014305115,6|0,1:2|2:0,2:0:0:0:
333,382,243963,2,0,P|311:367|306:338,1,37.5000014305115,2|0,2:1|2:0,2:0:0:0:
336,259,244088,2,0,P|358:247|386:258,1,37.5000014305115,2|0,2:1|2:0,2:0:0:0:
375,322,244213,102,0,P|268:296|127:278,1,225.000008583069,4|0,1:3|2:0,2:0:0:0:
100,131,244463,2,0,P|111:161|106:205,1,50,0|0,2:0|2:0,2:0:0:0:
129,383,244588,6,0,B|154:373|164:348|166:322|158:300|116:281|82:279|58:291|52:314|36:318|18:341|-9:345|-31:326|-58:288|-53:261|-31:234|-9:221|20:227|39:242|51:276,1,379.999989852906,4|0,1:2|2:0,2:0:0:0:
35,344,244900,101,0,2:0:0:0:
35,344,244963,2,0,P|22:369|17:391,1,37.5000014305115,2|0,1:0|2:0,2:0:0:0:
29,172,245088,2,0,P|19:155|7:141,1,37.5000014305115,2|0,2:1|2:0,2:0:0:0:
178,255,245213,2,0,P|197:256|216:252,1,37.5000014305115,2|0,2:1|2:0,2:0:0:0:
108,299,245338,6,0,P|117:315|122:333,1,37.5000014305115,6|0,1:2|2:0,2:0:0:0:
104,225,245463,2,0,P|114:209|127:196,1,37.5000014305115,2|0,2:1|2:0,2:0:0:0:
37,259,245588,2,0,P|19:258|0:254,1,37.5000014305115,2|0,2:1|2:0,2:0:0:0:
44,67,245713,101,2,1:2:0:0:
126,24,245838,1,0,2:0:0:0:
126,116,245963,1,2,2:0:0:0:
0,0,246088,5,12,1:2:0:0:
0,0,246150,1,0,2:0:0:0:
0,0,246213,2,0,B|66:-5|109:49|93:66|127:125|202:122,1,247.500002360344,2|0,2:0|2:0,2:0:0:0:
275,74,246463,101,2,1:2:0:0:
390,134,246588,1,0,2:0:0:0:
272,79,246713,1,2,2:0:0:0:
326,260,246838,6,0,P|352:120|381:46,1,202.500000772476,14|0,1:2|2:0,2:0:0:0:
438,33,247088,2,0,P|475:55|472:108,1,67.5000002574921,0|0,3:0|2:0,3:0:0:0:
323,263,247213,102,0,P|266:246|278:164,2,135.000000514984,2|0|2,1:2|2:0|2:0,2:0:0:0:
379,206,247525,1,0,2:0:0:0:
379,206,247588,1,4,1:2:0:0:
465,284,247713,2,0,P|371:286|258:353,1,202.500000772476,0|0,2:0|2:0,2:0:0:0:
173,289,247963,5,8,1:2:0:0:
108,328,248056,2,0,B|84:301|84:301|103:254,1,75,10|0,2:0|2:0,2:0:0:0:
185,151,248244,101,8,2:0:0:0:
250,190,248337,2,0,B|274:163|274:163|255:116,1,75,10|0,2:0|2:0,2:0:0:0:
65,6,248525,5,8,2:0:0:0:
78,78,248619,1,10,2:0:0:0:
93,149,248713,1,0,1:2:0:0:
410,72,248900,102,0,L|337:53,1,75,2|0,2:0|2:0,2:0:0:0:
62,10,249088,6,0,B|20:21|20:21|5:43|5:43|17:88|17:88|41:100|41:100|198:56|198:56|224:70|224:70|235:113|235:113|218:138|218:138|140:160,1,450,2|0,1:2|2:0,2:0:0:0:
39,200,249463,101,2,1:0:0:0:
112,219,249556,1,2,2:1:0:0:
185,238,249650,1,2,2:1:0:0:
259,257,249744,1,2,2:1:0:0:
70,287,249838,5,2,1:0:0:0:
110,297,249931,1,2,2:1:0:0:
151,308,250025,1,2,2:1:0:0:
193,318,250119,1,2,2:1:0:0:
239,384,250213,101,0,1:0:0:0:
155,42,250400,6,0,B|130:14|130:14|153:90,1,75,2|0,2:0|2:0,2:0:0:0:
259,257,250588,102,0,B|221:246|221:246|204:221|204:221|215:178|215:178|241:164|241:164|398:209|398:209|422:196|422:196|434:151|434:151|419:129|419:129|377:118,1,450,2|0,1:2|2:0,2:0:0:0:
299,65,250963,5,2,1:0:0:0:
309,139,251056,1,2,2:1:0:0:
320,212,251150,1,2,2:1:0:0:
332,285,251244,1,2,2:1:0:0:
225,129,251338,101,2,1:0:0:0:
230,172,251431,1,2,2:1:0:0:
237,215,251525,1,2,2:1:0:0:
244,258,251619,1,2,2:1:0:0:
194,325,251713,6,0,B|157:318|157:318|137:280,1,75,12|0,1:2|2:0,2:0:0:0:
84,65,251900,1,8,2:0:0:0:
155,42,251994,1,2,2:0:0:0:
204,94,252088,2,0,B|216:128|216:128|193:165,1,75,8|0,1:2|2:0,2:0:0:0:
1,200,252275,2,0,B|24:171|24:171|67:173,1,75,10|0,2:0|2:0,2:0:0:0:
341,43,252463,102,0,P|328:80|318:140,1,75,12|8,1:2|2:0,2:0:0:0:
160,356,252663,2,8,P|152:319|139:284,1,75,8|8,2:0|2:0,2:0:0:0:
61,172,252863,5,8,2:0:0:0:
130,152,252963,101,8,2:0:0:0:
179,206,253063,5,8,2:0:0:0:
254,197,253163,101,8,2:0:0:0:
311,245,253263,6,0,P|343:231|381:222,1,56.2500021457673,8|0,3:0|3:0,3:0:0:0:
364,225,253423,1,2,3:0:0:0:
364,225,253477,1,2,3:0:0:0:
436,188,253584,2,0,P|443:166|447:132,2,56.2500021457673,4|0|2,3:0|3:0|3:0,3:0:0:0:
441,265,253905,2,0,P|458:285|482:302,1,56.2500021457673,8|0,3:0|3:0,3:0:0:0:
512,376,254066,101,0,3:0:0:0:
512,376,254120,2,0,P|489:378|466:387,1,37.5,0|0,3:0|2:0,2:0:0:0:
0,8,254620,6,0,P|23:6|46:-3,1,37.5,0|0,3:0|2:0,2:0:0:0:
270,88,254892,102,0,L|265:140,1,37.5,8|0,2:0|2:0,2:0:0:0:
259,204,255029,2,0,L|254:256,1,37.5,8|0,2:0|2:0,2:0:0:0:
247,316,255165,1,0,1:0:0:0:
251,324,257450,70,8,B|230:314|230:314|227:292,3,44.999998626709,10|8|8|8,2:0|2:0|2:0|2:0,2:0:0:0:
318,202,258022,102,8,B|326:239|326:239|300:264,3,75,10|8|8|8,2:0|2:0|2:0|2:0,2:0:0:0:
154,252,258593,6,8,B|191:210|191:210|240:215,3,104.999996795654,10|8|8|8,2:0|2:0|2:0|2:0,2:0:0:0:
334,335,259165,102,8,B|267:345|267:345|227:292,3,134.999995880127,10|8|8|8,2:0|2:0|2:0|2:0,2:0:0:0:
107,20,259736,5,10,2:0:0:0:
89,28,259807,1,8,2:0:0:0:
75,43,259879,1,8,2:0:0:0:
64,70,259950,1,8,2:0:0:0:
68,104,260022,1,8,2:0:0:0:
92,142,260093,1,8,2:0:0:0:
140,163,260165,1,8,2:0:0:0:
201,158,260236,1,8,2:0:0:0:
257,116,260307,2,8,P|257:70|254:27,7,67.4999979400635,10|8|8|8|8|8|8|8,2:0|2:0|2:0|2:0|2:0|2:0|2:0|2:0,2:0:0:0:
404,359,260879,101,10,2:0:0:0:
422,351,260950,1,8,2:0:0:0:
436,336,261022,1,8,2:0:0:0:
447,309,261093,1,8,2:0:0:0:
443,275,261165,1,8,2:0:0:0:
418,237,261236,1,8,2:0:0:0:
370,215,261308,1,8,2:0:0:0:
310,218,261379,1,8,2:0:0:0:
254,263,261450,2,8,P|254:296|252:330,7,67.4999979400635,10|8|8|8|8|8|8|8,2:0|2:0|2:0|2:0|2:0|2:0|2:0|2:0,2:0:0:0:
11,159,262022,5,10,2:0:0:0:
16,178,262093,1,8,2:0:0:0:
19,159,262165,1,8,2:0:0:0:
8,177,262236,1,8,2:0:0:0:
23,166,262307,1,8,2:0:0:0:
3,171,262378,1,8,2:0:0:0:
22,174,262450,1,8,2:0:0:0:
4,163,262521,1,8,2:0:0:0:
13,169,262593,101,10,2:0:0:0:
70,175,262665,1,8,2:0:0:0:
127,183,262737,1,8,2:0:0:0:
186,189,262808,1,8,2:0:0:0:
244,198,262880,1,8,2:0:0:0:
303,205,262951,1,8,2:0:0:0:
361,212,263023,1,8,2:0:0:0:
419,222,263093,1,8,2:0:0:0:
419,222,263165,6,0,P|425:197|416:221,1,75,2|0,3:2|2:0,2:0:0:0:
390,36,263450,102,0,L|398:82,1,37.5,8|0,2:0|2:0,2:0:0:0:
398,81,263593,2,0,L|406:127,1,37.5,8|0,2:3|2:0,2:0:0:0:
455,353,263736,6,0,B|471:334|467:307|467:307|494:291,1,75,8|0,2:3|2:0,2:0:0:0:
455,353,263879,2,0,B|432:342|424:316|424:316|393:313,1,75,8|0,2:3|2:0,2:0:0:0:
512,225,264022,102,0,B|455:205|396:259|447:292|341:319|341:319|282:333|282:333|302:299|293:265,1,337.500012874604,12|0,2:0|2:0,2:0:0:0:
120,284,264307,6,0,P|261:286|399:313,1,281.25,4|0,1:0|2:0,2:0:0:0:
488,293,264593,2,0,P|475:206|388:190,1,187.5,8|0,1:2|2:0,2:0:0:0:
297,236,264807,1,0,2:0:0:0:
293,267,264879,1,2,1:2:0:0:
20,48,265022,1,0,2:0:0:0:
27,91,265093,1,0,2:0:0:0:
41,165,265165,101,8,1:2:0:0:
41,165,265307,2,0,B|148:192|148:192|204:139,1,187.5,2|0,2:0|1:2,2:0:0:0:
375,112,265593,2,0,L|274:89,1,93.75,2|0,2:0|2:0,2:0:0:0:
90,12,265736,1,8,1:2:0:0:
90,12,265879,2,0,L|110:115,1,93.75,0|0,2:0|2:0,2:0:0:0:
131,344,266022,6,0,P|256:342|232:219,1,281.25,2|0,1:2|2:0,2:0:0:0:
49,280,266307,2,0,B|0:302|0:360|0:360|77:272|204:291,1,314.999990386963,10|0,1:2|2:0,2:0:0:0:
388,349,266593,102,0,P|473:331|475:244,1,187.5,2|0,1:2|2:0,2:0:0:0:
334,48,266879,2,0,P|352:88|414:97,1,93.75,8|0,1:2|2:0,2:0:0:0:
512,53,267022,1,0,2:0:0:0:
512,53,267093,1,0,2:0:0:0:
512,53,267165,2,0,B|445:80|445:80|316:43,1,187.5,2|0,1:2|2:0,2:0:0:0:
144,95,267450,1,8,1:2:0:0:
264,196,267593,6,0,L|365:186,1,93.75,2|0,2:0|2:0,2:0:0:0:
512,176,267736,1,0,1:2:0:0:
254,186,267879,102,0,L|245:75,1,93.75,2|0,2:0|2:0,2:0:0:0:
236,5,268022,1,8,1:2:0:0:
248,197,268165,6,0,L|152:208,1,93.75,2|0,2:0|2:0,2:0:0:0:
0,222,268308,1,0,1:2:0:0:
263,312,268450,101,2,2:0:0:0:
182,364,268593,2,0,B|159:323|159:323|175:270,1,93.75,10|0,1:2|2:0,2:0:0:0:
346,262,268736,2,0,B|368:302|368:302|355:347,1,93.75,2|0,1:2|2:0,2:0:0:0:
39,284,268879,6,0,L|263:312,1,225,2|0,1:2|2:0,2:0:0:0:
443,368,269165,1,8,1:2:0:0:
512,73,269307,102,0,P|440:65|388:116,1,150,2|0,2:0|1:2,2:0:0:0:
404,194,269522,1,0,2:0:0:0:
404,193,269593,2,0,P|366:192|335:172,1,75,2|0,2:0|2:0,2:0:0:0:
197,95,269736,1,8,1:2:0:0:
198,265,269879,6,0,B|175:203|236:165|239:168|242:171|297:132|272:57,1,225,2|0,2:0|2:0,2:0:0:0:
207,9,270165,1,2,2:0:0:0:
350,337,270307,2,0,P|340:266|272:243,1,150,8|0,1:2|2:0,2:0:0:0:
117,314,270522,1,0,2:0:0:0:
128,327,270593,102,0,L|53:336,1,75,2|0,1:2|2:0,2:0:0:0:
432,297,270736,1,0,2:0:0:0:
432,297,270879,2,0,L|506:287,1,75,10|0,1:2|2:0,2:0:0:0:
271,365,271022,1,0,2:0:0:0:
271,365,271165,6,0,B|294:303|233:265|230:268|227:271|169:234|203:158,1,225,2|0,1:2|2:0,2:0:0:0:
270,201,271450,2,0,P|195:205|123:225,1,150,8|2,1:2|2:0,2:0:0:0:
48,118,271665,1,2,2:0:0:0:
48,118,271736,102,0,P|-11:169|33:260,1,150,2|0,1:2|2:0,2:0:0:0:
64,272,271950,2,0,P|90:297|127:299,1,75,2|8,2:0|1:2,2:0:0:0:
323,130,272165,2,0,P|352:107|389:101,1,75,2|0,2:0|2:0,2:0:0:0:
468,160,272307,6,0,P|476:228|485:256,1,75,2|0,1:2|2:0,2:0:0:0:
397,251,272450,2,0,P|389:183|380:155,1,75,0|0,2:0|2:0,2:0:0:0:
500,310,272593,102,0,P|464:321|433:343,1,75,10|0,1:2|2:0,2:0:0:0:
247,205,272736,2,0,P|282:221|318:230,1,75,0|0,2:0|2:0,2:0:0:0:
484,136,272879,6,0,B|500:58|500:58|412:1,1,150,4|0,1:2|2:0,2:0:0:0:
213,289,273093,2,0,B|271:364|271:364|384:332,1,187.5,6|0,1:2|2:0,2:0:0:0:
332,36,273307,2,0,L|239:51,1,93.75,2|0,1:2|2:0,2:0:0:0:
39,58,273450,102,0,B|35:43|16:24|16:24|90:-23|184:19|172:137,1,281.25,4|0,1:0|2:0,2:0:0:0:
319,156,273736,2,0,B|229:130|238:228|143:199,1,187.5,8|0,1:2|2:0,2:0:0:0:
94,150,273950,1,0,2:0:0:0:
89,120,274022,1,2,1:2:0:0:
11,372,274165,1,0,2:0:0:0:
17,325,274236,1,0,2:0:0:0:
26,251,274307,5,10,1:2:0:0:
26,251,274450,2,0,B|134:302|134:302|196:274,1,187.5,2|0,2:0|1:2,2:0:0:0:
430,318,274736,2,0,P|453:291|446:215,1,93.75,2|0,2:0|2:0,2:0:0:0:
323,25,274879,1,8,1:2:0:0:
323,25,275022,2,0,P|318:71|342:111,1,93.75,2|0,2:0|2:0,2:0:0:0:
491,374,275165,102,0,P|474:251|354:284,1,281.25,2|0,1:2|2:0,2:0:0:0:
256,336,275450,2,0,B|252:301|208:267|208:267|430:318,1,314.999990386963,10|0,1:2|2:0,2:0:0:0:
505,60,275736,6,0,B|450:98|450:98|437:223,1,187.5,2|0,1:2|2:0,2:0:0:0:
146,372,276022,2,0,B|123:358|123:358|110:287,1,93.75,8|0,1:2|2:0,2:0:0:0:
24,250,276165,1,0,2:0:0:0:
24,250,276236,1,0,2:0:0:0:
24,250,276307,2,0,P|54:167|143:165,1,187.5,2|0,1:2|2:0,2:0:0:0:
373,265,276593,1,8,1:2:0:0:
281,127,276736,102,0,L|271:221,1,93.75,2|0,2:0|2:0,2:0:0:0:
258,327,276879,1,0,1:2:0:0:
187,11,277022,6,0,L|196:105,1,93.75,2|0,2:0|2:0,2:0:0:0:
360,350,277165,1,8,1:2:0:0:
384,351,277236,1,0,2:0:0:0:
409,355,277307,1,2,2:0:0:0:
433,361,277379,1,2,2:0:0:0:
496,330,277450,101,2,1:2:0:0:
508,277,277522,1,2,2:0:0:0:
489,229,277593,1,0,1:2:0:0:
442,202,277665,1,0,2:0:0:0:
390,190,277736,1,2,1:2:0:0:
343,163,277808,1,2,2:0:0:0:
324,115,277879,1,2,1:2:0:0:
336,62,277951,1,2,2:0:0:0:
406,15,278022,6,0,P|331:25|257:32,1,150,4|0,1:0|2:0,2:0:0:0:
89,87,278307,1,8,2:0:0:0:
416,108,278450,1,4,1:2:0:0:
416,108,278736,102,0,P|379:111|349:133,1,75,2|0,2:0|2:0,2:0:0:0:
251,319,278879,2,0,P|253:268|249:219,1,75,10|0,1:2|2:0,2:0:0:0:
65,174,279022,2,0,P|101:178|130:201,1,75,2|0,2:0|2:0,2:0:0:0:
342,272,279165,6,0,B|249:250|258:326|163:303,1,187.5,4|0,1:0|2:0,2:0:0:0:
119,364,279379,2,2,P|91:329|91:283,1,93.75,2|10,2:0|2:0,2:0:0:0:
421,262,279522,1,0,2:0:0:0:
421,262,279593,2,0,P|420:299|399:330,1,75,2|0,2:0|2:0,2:0:0:0:
193,149,279736,102,0,B|143:91|143:91|168:12,1,150,4|0,1:2|2:0,2:0:0:0:
339,124,279950,2,8,B|313:196|313:196|232:214,1,150,4|0,1:2|2:0,2:0:0:0:
241,29,280165,2,0,L|354:10,1,75,4|0,1:2|2:0,2:0:0:0:
39,112,280307,5,4,1:0:0:0:
77,274,280450,1,0,2:0:0:0:
60,223,280522,1,0,2:0:0:0:
84,177,280593,1,10,2:0:0:0:
117,136,280665,1,0,2:0:0:0:
111,84,280736,101,0,1:2:0:0:
301,301,280879,1,0,2:0:0:0:
285,247,280950,1,0,2:0:0:0:
242,212,281021,1,10,2:0:0:0:
186,205,281093,1,0,2:0:0:0:
138,231,281164,5,0,1:2:0:0:
61,368,281307,1,10,2:0:0:0:
111,359,281379,1,8,2:0:0:0:
184,345,281450,102,0,P|192:232|201:121,1,225.000008583069,4|0,1:2|2:0,2:0:0:0:
357,29,281879,1,0,3:2:0:0:
357,29,281950,1,0,3:2:0:0:
277,30,282022,6,0,P|288:65|337:100,1,93.75,8|0,3:2|3:2,3:2:0:0:
277,191,282165,2,0,P|328:217|395:199,1,75,4|2,3:0|3:2,3:2:0:0:
379,302,282307,2,0,P|410:295|453:264,1,56.2500021457673,0|0,3:2|3:2,3:2:0:0:
492,334,282450,2,0,P|503:318|509:300,1,37.5,4|2,3:0|3:0,3:0:0:0:
449,187,282593,101,4,1:2:0:0:
389,194,282664,1,0,2:0:0:0:
330,202,282735,1,0,2:0:0:0:
271,211,282807,1,0,2:0:0:0:
212,219,282878,1,12,1:2:0:0:
65,338,283022,6,0,P|43:226|147:178,1,247.500007553101,6|0,2:0|2:0,2:0:0:0:
139,27,283307,2,0,P|210:62|210:140,1,165.000005035401,4|8,2:0|1:2,2:0:0:0:
138,355,283593,102,0,P|220:346|302:339,1,165.000005035401,4|0,2:0|1:2,2:0:0:0:
387,362,283807,1,0,2:0:0:0:
387,362,283879,2,0,P|380:285|447:244,1,165.000005035401,6|8,2:0|1:2,2:0:0:0:
512,365,284165,2,0,B|523:322|523:322|501:291,1,82.5000025177003,0|0,2:0|2:0,2:0:0:0:
210,245,284307,6,0,B|218:176|218:176|313:139|313:139|324:54,1,247.500007553101,4|0,1:2|2:0,2:0:0:0:
235,4,284593,2,0,P|241:44|245:85,1,82.5000025177003,14|0,1:2|2:0,2:0:0:0:
290,230,284736,2,0,P|327:236|373:246,1,82.5000025177003,4|0,2:0|2:0,2:0:0:0:
507,134,284879,101,4,1:2:0:0:
3,257,285165,1,12,1:2:0:0:
200,299,285307,1,4,2:0:0:0:
117,225,285450,1,0,1:2:0:0:
117,225,285522,1,0,2:0:0:0:
117,225,285593,1,2,2:0:0:0:
90,334,285736,6,0,L|5:352,1,56.2500021457673,12|0,1:2|2:0,2:0:0:0:
117,225,285879,2,0,L|193:210,1,56.2500021457673,0|0,2:0|2:0,2:0:0:0:
416,263,286022,101,0,1:2:0:0:
266,375,286165,2,0,L|273:319,1,56.2500021457673,6|0,2:0|2:0,2:0:0:0:
343,212,286307,1,8,1:2:0:0:
338,184,286378,1,0,2:0:0:0:
334,156,286449,1,6,2:0:0:0:
330,128,286521,1,4,2:0:0:0:
274,75,286593,6,0,B|247:53|247:53|191:58,1,75,4|0,1:2|2:0,2:0:0:0:
407,151,286736,2,0,B|434:173|434:173|490:168,1,75,6|0,2:0|2:0,2:0:0:0:
449,48,286879,102,0,B|408:54|408:54|379:85,1,75,12|0,1:2|2:0,2:0:0:0:
196,235,287022,2,0,B|237:229|237:229|266:198,1,75,6|0,1:2|2:0,2:0:0:0:
483,325,287165,5,4,1:2:0:0:
490,269,287236,1,0,2:0:0:0:
497,213,287307,1,0,2:0:0:0:
505,157,287379,1,0,2:0:0:0:
512,101,287450,1,12,1:2:0:0:
101,196,287593,2,0,P|154:300|270:290,1,247.500007553101,4|0,2:0|2:0,2:0:0:0:
403,341,287879,2,0,P|396:263|323:236,1,165.000005035401,4|8,2:0|1:2,2:0:0:0:
155,14,288165,102,0,P|161:87|172:181,1,165.000005035401,4|0,2:0|1:2,2:0:0:0:
231,228,288379,1,0,2:0:0:0:
231,228,288450,2,0,P|247:196|231:132,1,82.5000025177003,6|0,2:0|2:0,2:0:0:0:
0,153,288593,2,0,B|81:168|63:77|150:99,1,165.000005035401,12|4,1:2|2:0,2:0:0:0:
508,63,288879,6,0,P|470:57|424:45,1,82.5000025177003,4|0,1:2|2:0,2:0:0:0:
359,251,289022,2,0,P|398:239|439:232,1,82.5000025177003,6|0,2:0|2:0,2:0:0:0:
365,86,289165,102,0,P|379:125|390:165,1,82.5000025177003,12|0,1:2|2:0,2:0:0:0:
511,211,289307,2,0,P|497:173|486:133,1,82.5000025177003,6|0,2:0|2:0,2:0:0:0:
262,33,289450,5,4,1:2:0:0:
146,209,289593,1,4,2:0:0:0:
191,219,289664,1,4,2:0:0:0:
236,207,289735,1,12,1:2:0:0:
269,174,289807,1,4,2:0:0:0:
281,128,289878,1,6,2:0:0:0:
315,303,290022,1,4,1:2:0:0:
189,129,290165,101,4,2:0:0:0:
368,177,290307,1,10,1:2:0:0:
146,209,290450,5,4,2:0:0:0:
406,94,290593,1,0,1:2:0:0:
202,285,290736,101,4,2:0:0:0:
348,32,290879,1,10,1:2:0:0:
285,192,291022,6,0,L|271:119,1,75,4|0,1:2|1:2,1:2:0:0:
134,19,291165,1,0,1:2:0:0:
0,120,291307,101,4,1:2:0:0:
0,120,291379,1,4,2:0:0:0:
0,120,291450,1,6,1:2:0:0:
8,156,291521,1,4,2:0:0:0:
16,193,291592,1,4,1:2:0:0:
22,230,291664,1,4,2:0:0:0:
0,281,291736,5,6,1:2:0:0:
55,228,291807,1,6,2:0:0:0:
111,220,291879,1,4,2:0:0:0:
150,231,291950,1,4,2:0:0:0:
170,253,292022,1,12,1:2:0:0:
269,3,292165,101,6,2:0:0:0:
286,77,292236,1,6,2:0:0:0:
266,130,292308,1,4,1:2:0:0:
236,158,292379,1,4,2:0:0:0:
209,166,292451,1,4,2:0:0:0:
377,373,292593,5,14,1:2:0:0:
304,351,292664,1,6,2:0:0:0:
268,306,292736,1,4,2:0:0:0:
260,267,292807,1,4,2:0:0:0:
268,241,292879,101,6,1:2:0:0:
512,260,293022,2,0,P|430:266|349:278,1,165.000005035401,4|8,2:0|1:2,2:0:0:0:
0,139,293307,2,0,B|71:160|108:108|105:104|103:100|152:36|221:69,1,247.500007553101,4|0,2:0|2:0,2:0:0:0:
183,140,293593,6,0,P|141:141|110:99,1,82.5000025177003,4|4,2:0|2:0,2:0:0:0:
378,15,293736,1,14,1:2:0:0:
372,51,293807,1,4,2:0:0:0:
366,88,293878,1,4,2:0:0:0:
361,126,293950,1,4,2:0:0:0:
334,157,294022,101,6,1:2:0:0:
409,174,294093,1,6,2:0:0:0:
448,217,294165,1,4,2:0:0:0:
454,253,294236,1,4,2:0:0:0:
440,282,294307,1,12,1:2:0:0:
215,259,294450,5,6,2:0:0:0:
191,184,294521,1,6,2:0:0:0:
209,129,294593,1,4,1:2:0:0:
237,106,294664,1,4,2:0:0:0:
270,103,294735,1,4,2:0:0:0:
380,320,294879,101,14,1:2:0:0:
336,314,294950,1,6,2:0:0:0:
279,318,295022,1,4,2:0:0:0:
214,335,295093,1,4,2:0:0:0:
148,371,295165,6,0,P|94:342|82:279,1,125,6|0,1:2|2:0,2:0:0:0:
407,193,295355,2,0,P|409:253|360:296,1,125,6|0,1:2|2:0,2:0:0:0:
118,55,295545,2,0,P|169:22|230:43,1,125,6|0,1:2|2:0,2:0:0:0:
262,322,295736,102,0,P|257:284|253:247,1,75.000002861023,6|0,1:2|2:0,2:0:0:0:
108,186,295926,2,0,P|142:200|177:215,1,75.000002861023,6|0,1:2|2:0,2:0:0:0:
303,123,296117,2,0,P|274:146|244:168,1,75.000002861023,6|0,1:2|2:0,2:0:0:0:
2,366,296307,6,0,B|-5:303|-28:216|-28:216|-6:250|18:276,1,225,4|0,1:2|2:0,2:0:0:0:
246,335,296593,1,12,2:0:0:0:
84,352,296736,102,0,B|151:341|151:341|183:262|183:262|300:239,1,225,4|0,1:2|2:0,2:0:0:0:
481,317,297022,1,12,2:0:0:0:
366,355,297165,5,6,1:2:0:0:
371,305,297236,1,4,2:0:0:0:
377,255,297307,1,12,2:0:0:0:
382,205,297379,1,12,2:0:0:0:
440,146,297450,102,0,B|372:168|372:168|312:116,1,150,4|0,1:2|2:0,2:0:0:0:
379,40,297665,1,4,2:0:0:0:
382,53,297737,1,10,2:0:0:0:
384,66,297808,1,0,2:0:0:0:
387,82,297879,1,4,2:0:0:0:
79,84,298022,5,0,1:2:0:0:
288,247,298165,1,0,1:2:0:0:
103,329,298307,101,14,1:2:0:0:
305,151,298450,1,0,1:2:0:0:
0,130,298593,5,14,1:2:0:0:
52,175,298664,1,4,2:0:0:0:
121,170,298735,1,4,2:0:0:0:
274,42,298879,1,14,2:0:0:0:
256,41,298950,1,4,2:0:0:0:
240,38,299022,1,4,2:0:0:0:
487,202,299165,101,14,1:2:0:0:
425,189,299236,1,4,2:0:0:0:
374,223,299307,1,4,2:0:0:0:
203,366,299450,1,14,2:0:0:0:
222,362,299521,1,4,2:0:0:0:
241,360,299592,1,12,2:0:0:0:
261,360,299664,1,8,2:0:0:0:
280,360,299735,5,6,1:2:0:0:
319,323,299811,1,4,2:0:0:0:
310,271,299886,1,4,2:0:0:0:
324,160,300036,101,14,1:2:0:0:
294,127,300111,1,4,2:0:0:0:
247,123,300186,1,4,2:0:0:0:
163,78,300336,5,14,2:0:0:0:
124,78,300414,1,4,2:0:0:0:
94,102,300493,1,4,2:0:0:0:
21,147,300651,101,14,2:0:0:0:
9,169,300730,1,4,2:0:0:0:
13,188,300809,1,4,2:0:0:0:
60,314,300967,5,4,1:0:0:0:
132,297,301282,1,10,2:0:0:0:
225,208,301598,101,10,2:0:0:0:
152,187,301914,1,10,2:0:0:0:
240,372,302230,5,10,2:0:0:0:
318,358,302530,1,10,2:0:0:0:
449,179,302830,101,10,2:0:0:0:
367,154,303130,1,10,2:0:0:0:
321,369,303430,5,10,2:0:0:0:
346,329,303501,1,0,2:0:0:0:
329,283,303572,1,8,2:0:0:0:
285,264,303644,1,0,2:0:0:0:
237,271,303715,1,8,2:0:0:0:
209,310,303787,1,0,2:0:0:0:
165,328,303858,1,8,2:0:0:0:
122,305,303930,1,0,2:0:0:0:
109,259,304001,101,8,2:0:0:0:
132,218,304072,1,0,2:0:0:0:
178,205,304144,1,8,2:0:0:0:
212,172,304215,1,0,2:0:0:0:
218,124,304287,1,8,2:0:0:0:
198,81,304358,1,0,2:0:0:0:
153,61,304430,1,8,2:0:0:0:
100,73,304501,1,0,2:0:0:0:
65,138,304572,5,2,1:2:0:0:
81,142,304640,1,2,1:3:0:0:
100,147,304708,1,4,1:3:0:0:
123,152,304776,1,0,1:3:0:0:
148,158,304844,1,2,1:2:0:0:
175,165,304912,1,2,1:3:0:0:
206,173,304981,1,8,1:3:0:0:
244,182,305049,1,0,1:2:0:0:
284,192,305117,1,2,1:2:0:0:
331,204,305185,1,2,1:3:0:0:
383,217,305253,1,8,1:3:0:0:
441,232,305322,1,4,1:3:0:0:
506,262,305390,102,0,B|515:244|515:244|512:226,6,37.5,0|0|0|0|0|0|0,3:2|3:2|3:2|3:2|3:2|3:2|3:2,3:2:0:0:
416,346,305662,6,0,B|394:298|409:261|455:243|455:248|457:252|510:235|533:196|507:141,1,247.500007553101,6|0,1:2|2:0,2:0:0:0:
453,102,305935,2,0,P|415:95|360:84,1,82.5000025177003,8|0,1:2|2:0,2:0:0:0:
234,259,306072,2,0,B|221:343|221:343|295:385,1,165.000005035401,6|0,2:0|1:2,2:0:0:0:
347,15,306344,2,0,B|265:8|265:8|196:91,1,165.000005035401,2|8,2:0|1:2,2:0:0:0:
184,142,306549,1,0,2:0:0:0:
188,157,306617,1,4,2:0:0:0:
193,171,306685,1,4,2:0:0:0:
198,187,306753,101,6,1:2:0:0:
33,41,306890,1,0,2:0:0:0:
289,203,307026,5,14,1:2:0:0:
25,240,307162,1,0,2:0:0:0:
340,128,307299,101,6,1:2:0:0:
180,374,307435,1,0,2:0:0:0:
296,51,307572,5,14,1:2:0:0:
408,330,307708,1,0,2:0:0:0:
125,322,307844,102,0,B|102:236|184:251|159:168,1,165.000005035401,6|0,1:2|2:0,2:0:0:0:
110,114,308049,1,0,2:0:0:0:
110,114,308117,1,8,1:2:0:0:
180,374,308253,1,4,2:0:0:0:
48,261,308390,5,0,1:2:0:0:
100,243,308458,1,0,2:0:0:0:
153,249,308526,1,2,2:0:0:0:
205,254,308594,1,0,2:0:0:0:
256,236,308662,1,12,1:2:0:0:
35,180,308799,101,2,2:0:0:0:
265,313,308935,1,0,1:2:0:0:
390,164,309072,6,0,P|398:190|393:218,1,56.2500021457673,2|0,2:0|2:0,2:0:0:0:
191,278,309208,2,0,P|164:274|134:260,1,56.2500021457673,14|0,1:2|2:0,2:0:0:0:
180,55,309344,2,0,P|193:31|215:13,1,56.2500021457673,2|0,2:0|2:0,2:0:0:0:
321,198,309481,101,0,1:2:0:0:
186,202,309617,1,0,2:0:0:0:
252,82,309753,1,14,1:2:0:0:
254,157,309890,5,2,1:2:0:0:
466,82,310026,102,0,B|455:64|407:53|407:53|494:121|475:231,1,247.500007553101,6|0,1:2|2:0,2:0:0:0:
499,283,310299,2,0,P|462:285|417:257,1,82.5000025177003,8|0,1:2|2:0,2:0:0:0:
289,273,310435,2,0,P|367:267|398:195,1,165.000005035401,6|0,2:0|1:2,2:0:0:0:
135,351,310708,2,0,P|56:353|16:285,1,165.000005035401,2|8,2:0|1:2,2:0:0:0:
17,211,310912,1,0,2:0:0:0:
19,192,310981,1,4,2:0:0:0:
22,173,311050,1,4,2:0:0:0:
24,155,311118,5,6,1:2:0:0:
251,336,311253,1,0,2:0:0:0:
139,26,311390,101,14,1:2:0:0:
191,283,311526,1,0,2:0:0:0:
334,3,311662,5,6,1:2:0:0:
176,209,311799,1,0,2:0:0:0:
512,103,311935,101,14,1:2:0:0:
207,140,312072,1,0,2:0:0:0:
465,359,312208,6,0,B|456:296|456:296|361:257|361:257|347:171,1,247.500007553101,6|0,1:2|2:0,2:0:0:0:
431,206,312481,2,0,P|468:202|522:190,1,82.5000025177003,8|0,1:2|2:0,2:0:0:0:
385,349,312617,2,0,P|344:344|302:342,1,82.5000025177003,6|0,2:0|2:0,2:0:0:0:
96,354,312753,101,0,1:2:0:0:
90,309,312822,1,0,2:0:0:0:
85,264,312890,1,2,2:0:0:0:
79,219,312958,1,2,2:0:0:0:
121,165,313026,5,12,1:2:0:0:
118,134,313094,1,0,2:0:0:0:
113,102,313162,1,2,2:0:0:0:
110,71,313230,1,0,2:0:0:0:
48,36,313299,101,0,1:2:0:0:
246,79,313435,1,2,2:0:0:0:
214,266,313572,1,12,1:2:0:0:
0,224,313708,2,0,P|37:220|82:214,1,82.5000025177003,2|0,2:0|2:0,2:0:0:0:
221,346,313844,6,0,P|286:301|281:222,1,165.000005035401,0|0,1:2|1:2,2:0:0:0:
214,188,314049,1,0,2:0:0:0:
168,200,314117,1,0,1:2:0:0:
142,246,314185,1,2,2:0:0:0:
139,294,314253,1,2,1:2:0:0:
118,337,314322,1,2,2:0:0:0:
68,351,314390,102,0,B|11:317|11:317|55:129,1,247.500007553101,6|0,1:2|2:0,2:0:0:0:
158,16,314662,1,10,2:0:0:0:
0,88,314799,6,0,B|39:56|39:56|182:103|182:103|218:68,1,247.500007553101,4|0,1:2|2:0,2:0:0:0:
307,175,315072,1,0,2:0:0:0:
251,324,315208,102,0,L|238:242,1,82.5000025177003,14|0,1:2|2:0,2:0:0:0:
354,37,315344,2,0,L|367:119,1,82.5000025177003,0|0,2:0|2:0,2:0:0:0:
453,291,315481,6,0,P|422:179|306:175,1,247.500007553101,4|0,1:2|2:0,2:0:0:0:
166,341,315753,1,10,2:0:0:0:
124,188,315890,102,0,B|191:159|235:215|232:217|229:221|282:281|346:245,1,247.500007553101,4|0,1:2|2:0,2:0:0:0:
443,159,316162,1,0,2:0:0:0:
480,378,316299,6,0,B|433:393|388:362|412:356|367:327|323:347,1,165.000005035401,14|0,1:2|2:0,2:0:0:0:
327,347,316503,1,0,2:0:0:0:
327,347,316572,102,0,B|223:279|223:279|272:166,1,247.500007553101,4|0,1:2|2:0,2:0:0:0:
346,245,316844,1,10,2:0:0:0:
411,21,316981,6,0,B|366:80|366:80|194:58,1,247.500007553101,4|0,1:2|2:0,2:0:0:0:
94,192,317253,1,0,0:0:0:0:
112,56,317390,102,0,B|117:108|117:108|169:141|169:141|178:203,1,165.000005035401,14|0,1:2|2:0,2:0:0:0:
176,191,317594,1,0,2:0:0:0:
176,191,317662,5,4,1:2:0:0:
342,250,317799,1,0,2:0:0:0:
128,269,317935,101,14,1:2:0:0:
393,174,318072,1,0,2:0:0:0:
94,192,318208,5,4,1:2:0:0:
432,256,318344,1,0,2:0:0:0:
222,30,318481,101,14,1:2:0:0:
296,367,318617,1,0,2:0:0:0:
391,38,318753,5,6,1:2:0:0:
461,63,318822,1,0,2:0:0:0:
485,112,318890,1,0,2:0:0:0:
480,149,318958,1,0,2:0:0:0:
461,175,319026,1,8,2:0:0:0:
223,348,319162,1,6,1:2:0:0:
223,348,319231,1,0,2:0:0:0:
223,348,319299,2,0,P|260:348|308:360,2,82.5000025177003,0|0|0,2:0|2:0|2:0,2:0:0:0:
169,106,319572,2,0,P|128:108|90:121,3,82.5000025177003,14|0|0|0,1:2|2:0|2:0|2:0,2:0:0:0:
0,75,319844,101,6,1:2:0:0:
62,40,319912,1,0,2:0:0:0:
123,45,319981,1,0,2:0:0:0:
157,74,320049,1,0,2:0:0:0:
170,107,320117,1,8,2:0:0:0:
51,346,320253,1,6,1:2:0:0:
51,346,320322,1,0,2:0:0:0:
51,346,320390,2,0,P|33:283|45:222,2,82.5000025177003,0|0|0,2:0|2:0|2:0,2:0:0:0:
267,42,320662,1,14,1:2:0:0:
267,42,320731,1,0,2:0:0:0:
267,42,320799,2,0,P|258:78|258:126,1,82.5000025177003,0|0,2:0|2:0,2:0:0:0:
501,324,320935,6,0,B|438:341|395:277|399:273|403:271|370:202|294:222,1,247.500007553101,6|0,1:2|2:0,2:0:0:0:
146,318,321208,1,8,2:0:0:0:
310,370,321344,102,0,B|334:337|334:337|320:298,1,82.5000025177003,4|0,1:2|2:0,2:0:0:0:
155,234,321481,2,0,B|105:173|105:173|145:79,1,165.000005035401,2|0,1:2|2:0,2:0:0:0:
97,22,321685,5,0,2:0:0:0:
97,22,321753,2,0,B|165:13|165:13|240:91|240:91|327:78,1,247.500007553101,6|0,1:2|2:0,2:0:0:0:
309,80,322026,102,0,B|338:84|338:84|355:104,1,56.2500021457673,12|0,1:2|2:0,2:0:0:0:
396,260,322162,1,0,2:0:0:0:
396,260,322231,2,0,B|409:235|409:235|403:204,1,56.2500021457673,12|0,1:2|2:0,2:0:0:0:
468,115,322367,1,0,2:0:0:0:
468,115,322435,2,0,L|433:130,1,37.5,12|0,1:2|2:0,2:0:0:0:
52,292,322572,5,4,1:2:0:0:
74,299,322640,1,0,2:0:0:0:
92,313,322708,1,4,1:2:0:0:
104,333,322776,1,0,2:0:0:0:
108,357,322844,2,0,L|126:361,6,18.75,4|0|0|0|4|0|0,1:2|2:0|2:0|2:0|2:0|2:0|2:0,2:0:0:0:
33,364,323117,70,0,P|108:314|189:277,1,179.999994506836,6|0,1:2|2:0,2:0:0:0:
278,313,323322,1,0,2:0:0:0:
278,313,323390,2,0,P|252:340|235:373,1,75,8|0,2:0|2:0,2:0:0:0:
62,216,323526,6,0,B|-17:159|-1:25|119:21|164:114|89:154,1,292.499986610413,6|0,1:2|2:0,2:0:0:0:
239,206,323799,2,0,P|205:195|172:194,1,67.4999979400635,2|0,1:2|2:0,2:0:0:0:
354,354,323935,101,8,2:0:0:0:
390,370,324003,1,0,2:0:0:0:
430,367,324072,1,6,1:2:0:0:
463,345,324140,1,4,2:0:0:0:
485,310,324208,2,0,B|472:294|472:294|406:287|326:231,1,179.999994506836,4|0,2:0|1:2,2:0:0:0:
223,26,324412,5,0,1:2:0:0:
223,26,324481,2,0,P|203:47|213:116,1,82.5000025177003,14|0,1:2|2:0,2:0:0:0:
290,122,324617,2,0,P|314:89|312:49,1,82.5000025177003,0|0,1:2|2:0,2:0:0:0:
25,77,324753,102,0,L|97:56,1,75,6|0,1:2|2:0,2:0:0:0:
400,151,324890,1,0,2:0:0:0:
400,151,324958,1,0,2:0:0:0:
400,151,325026,2,0,P|425:87|405:0,1,150,14|0,1:2|1:2,2:0:0:0:
0,168,325299,6,0,P|70:177|97:243,1,150,4|0,1:2|2:0,2:0:0:0:
106,349,325503,1,0,2:0:0:0:
106,349,325572,2,0,P|66:328|23:314,1,89.9999972534181,8|0,2:0|2:0,2:0:0:0:
459,213,325708,101,6,1:2:0:0:
229,182,325844,5,0,2:0:0:0:
200,202,325912,1,0,2:0:0:0:
184,241,325981,1,2,1:2:0:0:
196,287,326049,1,2,2:0:0:0:
238,320,326117,1,8,2:0:0:0:
297,314,326185,1,0,2:0:0:0:
334,259,326253,2,0,L|307:127,1,112.500004291535,0|0,1:2|2:0,2:0:0:0:
292,33,326390,2,0,P|274:12|285:42,1,89.9999972534181,6|0,1:2|2:0,2:0:0:0:
512,92,326526,101,0,2:0:0:0:
417,290,326662,1,8,2:0:0:0:
182,63,326799,2,0,P|164:42|175:72,1,89.9999972534181,6|0,1:2|2:0,2:0:0:0:
183,377,326935,5,0,2:0:0:0:
370,193,327072,1,0,2:0:0:0:
73,94,327208,2,0,P|55:73|66:103,1,89.9999972534181,14|0,1:2|2:0,2:0:0:0:
228,182,327344,101,8,2:0:0:0:
228,182,327412,1,8,2:0:0:0:
228,182,327481,2,0,B|222:199|221:215|221:215|79:289,1,179.999994506836,4|0,1:2|2:0,2:0:0:0:
12,237,327685,1,0,2:0:0:0:
12,237,327753,2,0,B|19:228|22:216|22:216|88:183,1,89.9999972534181,8|0,2:0|2:0,2:0:0:0:
417,290,327890,6,0,B|493:372|493:372|328:297,1,292.499986610413,6|0,1:2|2:0,2:0:0:0:
258,338,328162,1,2,1:2:0:0:
364,70,328299,101,8,2:0:0:0:
399,38,328367,1,0,2:0:0:0:
446,40,328435,1,6,1:2:0:0:
482,69,328503,1,4,2:0:0:0:
489,119,328572,2,0,P|445:129|405:152,1,89.9999972534181,4|0,2:0|2:0,2:0:0:0:
263,257,328708,5,0,1:2:0:0:
263,257,328776,1,0,1:2:0:0:
263,257,328844,2,0,P|242:219|235:179,1,82.5000025177003,14|0,1:2|2:0,2:0:0:0:
140,204,328981,2,0,P|159:248|171:295,1,97.4999955368044,0|0,1:2|2:0,2:0:0:0:
351,374,329117,102,0,L|367:224,1,150,6|0,1:2|1:2,2:0:0:0:
170,32,329322,1,0,2:0:0:0:
170,32,329390,2,0,L|159:121,1,75,14|0,1:2|2:0,2:0:0:0:
317,155,329526,5,0,1:2:0:0:
317,155,329594,1,0,2:0:0:0:
317,155,329662,2,0,P|351:68|236:48,1,225,6|0,1:2|2:0,2:0:0:0:
76,96,329935,102,0,L|83:140,1,44.999998626709,12|0,2:0|2:0,2:0:0:0:
16,210,330072,2,0,P|119:201|146:302,1,225.000008583069,6|0,1:2|2:0,2:0:0:0:
265,374,330276,5,0,2:0:0:0:
310,357,330344,1,0,1:2:0:0:
319,310,330412,1,0,2:0:0:0:
282,278,330481,1,10,2:0:0:0:
237,295,330549,1,2,2:0:0:0:
231,323,330617,1,0,1:2:0:0:
216,353,330685,1,0,1:2:0:0:
192,375,330753,2,0,P|136:342|54:319,1,134.999995880127,2|0,1:2|1:2,2:0:0:0:
429,46,331026,102,0,P|338:84|245:110,1,194.999991073609,4|0,1:2|2:0,2:0:0:0:
476,273,331299,2,0,P|379:268|282:278,1,194.999991073609,4|0,1:2|2:0,2:0:0:0:
12,109,331572,5,8,1:2:0:0:
19,70,331640,1,8,1:2:0:0:
50,47,331708,1,8,1:2:0:0:
88,52,331776,1,8,1:2:0:0:
147,0,331844,102,0,L|108:167,1,165.000005035401,14|0,1:2|1:2,2:0:0:0:
378,363,332117,6,0,P|385:322|354:283,1,82.5000025177003,10|0,1:2|2:0,2:0:0:0:
271,308,332253,2,0,P|264:349|294:387,1,82.5000025177003,4|0,1:2|2:0,2:0:0:0:
486,147,332390,102,0,L|295:186,1,194.999991073609,8|0,1:2|1:2,2:0:0:0:
66,361,332662,5,10,1:2:0:0:
94,321,332731,1,0,2:0:0:0:
97,269,332799,1,4,1:2:0:0:
72,225,332867,1,4,2:0:0:0:
26,201,332935,2,0,P|20:254|8:317,1,97.4999955368044,12|0,1:2|2:0,2:0:0:0:
231,13,333072,101,0,1:2:0:0:
231,13,333140,1,0,2:0:0:0:
231,13,333208,2,0,P|234:57|242:102,1,89.9999972534181,14|0,1:2|2:0,2:0:0:0:
380,283,333344,5,0,1:2:0:0:
380,283,333412,1,0,2:0:0:0:
380,283,333480,2,0,P|356:246|369:204,1,89.9999972534181,14|0,1:2|2:0,2:0:0:0:
415,107,333617,2,0,P|459:110|485:146,1,89.9999972534181,0|0,1:2|2:0,2:0:0:0:
507,303,333753,2,0,P|485:341|443:352,1,89.9999972534181,12|0,1:2|2:0,2:0:0:0:
213,371,333890,101,0,1:2:0:0:
213,371,333958,1,0,1:2:0:0:
213,371,334026,2,0,B|215:354|228:342|228:342|196:183,1,194.999991073609,14|0,1:2|1:2,2:0:0:0:
17,17,334299,6,0,P|-4:51|4:91,1,82.5000025177003,10|0,1:2|2:0,2:0:0:0:
108,31,334435,2,0,P|116:70|96:106,1,82.5000025177003,4|0,1:2|2:0,2:0:0:0:
0,327,334572,102,0,B|92:276|25:235|126:177,1,194.999991073609,8|0,1:2|1:2,2:0:0:0:
383,121,334844,5,10,1:2:0:0:
340,139,334912,1,0,2:0:0:0:
298,117,334981,1,4,1:2:0:0:
288,66,335049,1,4,2:0:0:0:
325,30,335117,2,0,P|373:22|418:5,1,97.4999955368044,12|0,1:2|2:0,2:0:0:0:
259,265,335253,101,0,1:2:0:0:
259,265,335322,1,0,2:0:0:0:
259,265,335390,2,0,P|303:271|345:286,1,89.9999972534181,14|0,1:2|2:0,2:0:0:0:
101,109,335526,5,0,1:2:0:0:
101,109,335595,1,0,2:0:0:0:
101,109,335663,2,0,P|145:101|166:64,1,89.9999972534181,12|0,1:2|2:0,2:0:0:0:
27,189,335799,2,0,P|70:189|98:222,1,89.9999972534181,0|0,1:2|2:0,2:0:0:0:
155,368,335935,2,0,B|169:298|169:298|165:278|165:278|182:191,1,179.999994506836,14|0,1:2|1:2,2:0:0:0:
438,15,336208,101,14,1:2:0:0:
491,71,336276,1,0,1:2:0:0:
501,131,336344,1,0,1:2:0:0:
482,182,336412,1,0,1:2:0:0:
448,206,336481,1,2,1:2:0:0:
405,210,336549,1,0,1:2:0:0:
370,190,336617,2,0,P|360:164|402:117,1,97.4999955368044,4|0,1:2|1:2,1:2:0:0:
164,16,336753,5,2,1:2:0:0:
89,12,336822,1,0,1:2:0:0:
36,39,336890,1,0,1:2:0:0:
11,80,336958,1,0,1:2:0:0:
1,119,337026,2,0,P|14:165|22:213,1,97.4999955368044,6|0,1:2|1:2,1:2:0:0:
143,183,337162,2,0,P|129:136|121:88,1,97.4999955368044,0|0,1:2|1:2,1:2:0:0:
218,328,337299,101,6,1:2:0:0:
190,356,337367,1,0,1:2:0:0:
152,368,337435,1,0,1:2:0:0:
112,367,337503,1,0,1:2:0:0:
83,384,337572,5,6,1:2:0:0:
48,375,337640,1,0,1:2:0:0:
22,352,337708,1,0,1:2:0:0:
5,321,337776,1,0,1:2:0:0:
17,297,337844,101,6,1:2:0:0:
39,291,337912,1,0,1:2:0:0:
63,286,337980,1,0,1:2:0:0:
87,281,338048,1,0,1:2:0:0:
111,276,338116,1,6,1:2:0:0:
135,270,338184,1,0,1:2:0:0:
159,266,338253,1,0,1:2:0:0:
183,261,338321,1,0,1:2:0:0:
211,257,338390,2,0,B|234:263|234:263|241:262|241:262|258:266,4,48.7499977684022,4|0|0|0|0,2:0|2:0|2:0|2:0|2:0,2:0:0:0:
149,187,338594,5,0,1:2:0:0:
196,177,338662,1,2,1:2:0:0:
244,167,338731,1,0,1:2:0:0:
291,157,338799,2,0,B|314:163|314:163|321:162|321:162|338:166,4,48.7499977684022,4|0|0|0|0,2:0|2:0|2:0|2:0|2:0,2:0:0:0:
209,77,339003,101,0,1:2:0:0:
256,67,339071,1,2,1:2:0:0:
304,57,339140,1,0,1:2:0:0:
351,47,339208,2,0,B|374:53|374:53|381:52|381:52|398:56,4,48.7499977684022,4|0|0|0|0,1:2|1:2|1:2|1:2|1:2,1:2:0:0:
479,74,339412,5,0,1:2:0:0:
479,74,339481,1,4,1:2:0:0:
339,333,339617,1,4,2:0:0:0:
475,373,339753,1,8,2:0:0:0:
221,0,339890,101,4,1:2:0:0:
96,362,340026,1,4,2:0:0:0:
227,328,340162,1,8,2:0:0:0:
33,257,340299,6,0,P|13:221|17:181,1,82.5000025177003,4|0,1:2|2:0,2:0:0:0:
4,84,340435,1,0,2:0:0:0:
4,84,340503,1,0,2:0:0:0:
3,84,340572,2,0,P|121:109|235:144,1,240,6|8,1:2|2:3,2:0:0:0:
409,162,340981,101,0,3:0:0:0:
457,81,341117,1,0,3:0:0:0:
393,14,341253,1,8,3:0:0:0:
315,82,341390,5,4,3:0:0:0:
319,111,341458,1,2,3:0:0:0:
323,140,341526,1,0,3:0:0:0:
327,169,341594,1,2,3:0:0:0:
331,198,341662,1,8,3:0:0:0:
431,329,341799,101,2,3:0:0:0:
446,290,341867,1,0,3:0:0:0:
425,253,341935,1,8,3:0:0:0:
270,277,342072,1,2,3:0:0:0:
255,316,342140,1,0,3:0:0:0:
276,353,342208,1,8,3:0:0:0:
349,303,342344,5,0,3:0:0:0:
203,225,342481,101,0,1:3:0:0:
173,231,342549,1,2,3:0:0:0:
143,236,342617,1,2,3:0:0:0:
113,242,342685,1,2,3:0:0:0:
83,248,342753,1,0,1:3:0:0:
30,334,342890,2,0,P|59:339|87:348,2,60,0|0|4,1:3|3:0|3:0,3:0:0:0:
6,185,343162,5,0,3:0:0:0:
39,169,343231,1,2,3:0:0:0:
67,147,343299,1,0,3:0:0:0:
87,117,343367,1,2,3:0:0:0:
91,81,343435,1,4,3:0:0:0:
175,139,343572,101,0,3:0:0:0:
211,141,343641,1,2,3:0:0:0:
246,136,343709,1,0,3:0:0:0:
279,120,343777,1,2,3:0:0:0:
300,91,343844,2,0,P|289:62|289:33,1,60,4|0,3:0|3:0,3:0:0:0:
340,177,343981,5,2,3:0:0:0:
370,196,344050,1,0,3:0:0:0:
402,209,344118,1,2,3:0:0:0:
439,212,344186,1,0,3:0:0:0:
472,197,344253,2,0,P|477:167|491:141,1,60,4|0,3:0|3:0,3:0:0:0:
494,21,344390,102,0,L|376:44,1,120,0|0,3:0|3:0,3:0:0:0:
33,53,344662,6,0,L|91:36,1,60,8|0,3:0|3:0,3:0:0:0:
190,8,344799,1,0,1:3:0:0:
190,8,344867,1,0,1:3:0:0:
190,8,344935,2,0,L|156:245,1,240,2|8,1:2|3:0,3:0:0:0:
69,384,345344,101,0,1:3:0:0:
0,302,345481,1,2,3:0:0:0:
56,220,345617,1,4,3:0:0:0:
155,339,345753,5,0,3:0:0:0:
184,333,345822,1,2,3:0:0:0:
213,328,345890,1,0,3:0:0:0:
242,323,345958,1,2,3:0:0:0:
271,318,346026,1,8,3:0:0:0:
451,349,346162,101,2,3:0:0:0:
415,382,346231,1,0,3:0:0:0:
368,371,346299,1,8,3:0:0:0:
415,210,346435,1,2,3:0:0:0:
368,199,346503,1,0,3:0:0:0:
332,232,346572,1,8,3:0:0:0:
392,291,346708,5,0,3:0:0:0:
479,164,346844,101,0,1:3:0:0:
482,128,346912,1,2,3:0:0:0:
485,91,346981,1,0,3:0:0:0:
488,55,347049,1,2,3:0:0:0:
492,19,347117,1,0,1:3:0:0:
492,19,347253,1,2,1:3:0:0:
307,13,347390,6,0,P|342:61|389:97,1,120,8|0,3:0|3:0,3:0:0:0:
131,100,347662,102,0,P|185:124|244:131,1,120,10|0,3:0|3:0,3:0:0:0:
19,268,347935,6,0,P|78:261|133:238,1,120,10|0,3:0|3:0,3:0:0:0:
322,384,348208,101,4,3:0:0:0:
186,302,348344,1,0,3:0:0:0:
186,302,348412,1,4,3:0:0:0:
332,232,348549,1,0,3:0:0:0:
332,232,348617,1,4,3:0:0:0:
332,232,348685,1,4,3:0:0:0:
332,232,348753,1,8,3:0:0:0:
228,155,348890,1,4,3:0:0:0:
256,63,349026,5,8,3:0:0:0:
256,55,349094,101,10,3:0:0:0:
256,48,349162,5,8,3:0:0:0:
256,40,349230,101,10,3:0:0:0:
255,33,349299,6,0,B|371:52|443:9|443:9|491:90|409:153|409:153|239:-5|84:38|84:38|144:72|122:142,1,840,4|0,1:0|3:2,2:0:0:0:
72,295,351481,102,0,B|82:237|32:211|32:211|118:210|141:320|141:320|287:322|324:210|276:136|169:158|192:239,1,600,0|0,3:2|2:0,2:0:0:0:
400,357,353117,6,0,L|424:118,1,240,0|0,3:2|3:2,2:0:0:0:
400,41,353799,101,2,2:0:0:0:
491,167,353935,1,2,2:0:0:0:
343,119,354072,1,2,2:0:0:0:
491,71,354208,1,2,2:0:0:0:
399,197,354344,1,2,2:0:0:0:
399,197,354617,5,2,2:0:0:0:
491,71,354753,1,2,2:0:0:0:
343,119,354895,1,2,2:0:0:0:
491,167,355038,1,2,2:0:0:0:
400,41,355181,1,2,2:0:0:0:
400,41,355467,101,2,2:0:0:0:
491,167,355610,1,2,2:0:0:0:
343,119,355753,1,2,2:0:0:0:
491,71,355895,1,2,2:0:0:0:
399,197,356045,1,2,2:0:0:0:
399,197,356345,5,2,2:0:0:0:
491,167,356495,1,2,2:0:0:0:
491,71,356645,1,2,2:0:0:0:
400,41,356795,1,2,2:0:0:0:
343,119,356945,1,2,2:0:0:0:
343,119,357261,101,2,2:0:0:0:
281,162,357428,1,2,2:0:0:0:
206,149,357595,1,2,2:0:0:0:
171,82,357761,1,2,2:0:0:0:
104,48,357961,1,2,2:0:0:0:
35,79,358161,1,2,2:0:0:0:
18,151,358361,1,2,2:0:0:0:
256,76,358561,5,0,3:2:0:0:
