osu file format v14

[General]
AudioFilename: 08 MariannE.mp3
AudioLeadIn: 0
PreviewTime: 226066
Countdown: 0
SampleSet: Soft
StackLeniency: 0.7
Mode: 0
LetterboxInBreaks: 0
WidescreenStoryboard: 0

[Editor]
Bookmarks: 17019,26129,30213,40265,60370,80474,103082,123187,133239,143292,145962,163396,167480,178318,206129,226234,266433,286538,305386,306642
DistanceSpacing: 1
BeatDivisor: 8
GridSize: 8
TimelineZoom: 2.2

[Metadata]
Title:MariannE
TitleUnicode:MariannE
Artist:Yooh
ArtistUnicode:Yooh
Creator:waefwerf
Version:Cathedral
Source:
Tags:KAKATTEKOYEAH!!!! c.h.s gothic themed c87
BeatmapID:903885
BeatmapSetID:417419

[Difficulty]
HPDrainRate:5
CircleSize:4
OverallDifficulty:8
ApproachRate:9.3
SliderMultiplier:1.9
SliderTickRate:2

[Events]
//Background and Video events
0,0,"SO57p38.jpg",0,0
//Break Periods
2,40455,49125
2,103282,112581
//Storyboard Layer 0 (Background)
//Storyboard Layer 1 (Fail)
//Storyboard Layer 2 (Pass)
//Storyboard Layer 3 (Foreground)
//Storyboard Sound Samples

[TimingPoints]
46,314.13612565445,4,2,1,50,1,0
46,-200,4,2,2,50,0,0
203,-200,4,2,0,50,0,0
10098,-153.846153846154,4,2,1,50,0,0
10726,-153.846153846154,4,2,1,30,0,0
11040,-153.846153846154,4,2,1,50,0,0
11354,-200,4,2,1,50,0,0
12611,-153.846153846154,4,2,1,50,0,0
14496,-200,4,2,1,50,0,0
15124,-153.846153846154,4,2,1,50,0,0
16381,-200,4,2,1,50,0,0
17637,-200,4,2,1,55,0,0
19522,-100,4,2,1,60,0,0
20150,-100,4,2,2,65,0,0
20464,-100,4,2,2,65,0,0
22977,-80,4,2,2,65,0,0
23213,-80,4,2,2,30,0,0
23292,-100,4,2,2,65,0,0
30203,-100,4,2,2,65,0,0
30360,-100,4,2,2,65,0,0
35543,-100,4,2,2,35,0,0
35700,-100,4,2,2,40,0,0
35857,-100,4,2,2,45,0,0
36014,-100,4,2,2,50,0,0
36171,-100,4,2,2,60,0,0
37742,-100,4,2,2,65,0,0
37820,-100,4,2,2,20,0,0
38056,-100,4,2,2,30,0,0
38213,-100,4,2,2,40,0,0
38370,-100,4,2,2,50,0,0
38527,-100,4,2,2,60,0,0
38684,-100,4,2,2,70,0,0
38998,-133.333333333333,4,2,10,60,0,0
40255,-100,4,2,2,60,0,0
49679,-100,4,2,2,40,0,0
49993,-100,4,2,1,60,0,0
50307,-100,4,2,2,60,0,0
55333,-100,4,2,2,65,0,0
56590,-100,4,2,2,70,0,0
56904,-100,4,2,2,72,0,0
57218,-100,4,2,2,74,0,0
57532,-100,4,2,2,76,0,0
57847,-100,4,2,2,80,0,0
59103,-100,4,2,1,60,0,0
60360,-100,4,2,2,70,0,0
79208,-133.333333333333,4,2,10,70,0,0
80150,-66.6666666666667,4,2,1,70,0,0
80464,-200,4,2,1,70,0,0
80543,-200,4,2,0,40,0,0
83763,-133.333333333333,4,2,0,60,0,0
84234,-200,4,2,0,40,0,0
90517,-166.666666666667,4,2,1,50,0,0
90595,-166.666666666667,4,2,0,50,0,0
91773,-200,4,2,0,50,0,0
92559,-133.333333333333,4,2,0,50,0,0
93030,-200,4,2,0,50,0,0
93658,-133.333333333333,4,2,0,50,0,0
94286,-166.666666666667,4,2,0,50,0,0
97428,-133.333333333333,4,2,0,55,0,0
99313,-200,4,2,0,60,0,0
99941,-133.333333333333,4,2,0,70,0,0
101826,-86.9565217391303,4,2,1,70,0,0
102768,-57.1428571428571,4,2,2,80,0,0
103082,-57.1428571428571,4,2,1,50,0,0
113135,-100,4,2,1,65,0,0
113449,-133.333333333333,4,2,3,55,0,0
118161,-111.111111111111,4,2,3,60,0,0
118475,-125,4,2,3,60,0,0
123187,-111.111111111111,4,2,1,50,0,0
123344,-111.111111111111,4,2,4,50,0,0
124443,-111.111111111111,4,2,4,55,0,0
128213,-105.263157894737,4,2,4,60,0,0
129470,-105.263157894737,4,2,4,65,0,0
133239,-100,4,2,2,70,0,0
140778,-90.9090909090909,4,2,2,75,0,0
141721,-80,4,2,2,75,0,0
142035,-133.333333333333,4,2,10,55,0,0
142977,-79.9999999999999,4,2,1,75,0,0
143292,-90.9090909090909,4,2,2,75,0,1
162140,-111.111111111111,4,2,1,75,0,0
163396,-90.9090909090909,4,2,2,75,0,1
183501,-90.9090909090909,4,2,2,50,0,1
183658,-90.9090909090909,4,2,2,53,0,1
183815,-90.9090909090909,4,2,2,56,0,1
183972,-90.9090909090909,4,2,2,60,0,1
184129,-90.9090909090909,4,2,2,65,0,1
184286,-90.9090909090909,4,2,2,70,0,1
184443,-90.9090909090909,4,2,2,75,0,1
184758,-125,4,2,10,55,0,0
185700,-83.3333333333333,4,2,2,70,0,0
186014,-200,4,2,0,50,0,0
206119,-111.111111111111,4,2,2,65,0,0
206276,-111.111111111111,4,2,2,30,0,0
207375,-111.111111111111,4,2,2,35,0,0
208632,-111.111111111111,4,2,2,40,0,0
209888,-111.111111111111,4,2,2,45,0,0
211145,-111.111111111111,4,2,2,50,0,0
212402,-111.111111111111,4,2,2,55,0,0
213658,-111.111111111111,4,2,2,65,0,0
214915,-111.111111111111,4,2,2,70,0,0
216171,-95.2380952380952,4,2,2,75,0,0
221197,-133.333333333333,4,2,2,40,0,0
221511,-125,4,2,2,45,0,0
221826,-117.647058823529,4,2,2,50,0,0
222140,-111.111111111111,4,2,2,55,0,0
222454,-100,4,2,2,60,0,0
222768,-100,4,2,2,65,0,0
223082,-90.9090909090909,4,2,2,70,0,0
223396,-90.9090909090909,4,2,2,75,0,0
223710,-90.9090909090909,4,2,2,80,0,0
224967,-125,4,2,2,80,0,0
225281,-83.3333333333333,4,2,2,70,0,0
225556,-83.3333333333333,4,2,2,20,0,0
225595,-133.333333333333,4,2,2,50,0,0
225909,-55.5555555555556,4,2,2,90,0,0
226145,-55.5555555555556,4,2,2,20,0,0
226224,-83.3333333333333,4,2,2,75,0,1
230936,-100,4,2,2,75,0,1
231250,-83.3333333333333,4,2,2,75,0,1
240674,-100,4,2,2,75,0,1
240988,-76.9230769230769,4,2,2,75,0,1
241302,-83.3333333333333,4,2,2,75,0,1
245072,-111.111111111111,4,2,2,55,0,0
246328,-83.3333333333333,4,2,2,75,0,1
265176,-111.111111111111,4,2,2,65,0,0
266433,-83.3333333333333,4,2,2,75,0,1
285281,-166.666666666667,4,2,10,60,0,0
285909,-125,4,2,10,65,0,0
286184,-125,4,2,2,25,0,0
286224,-66.6666666666667,4,2,2,95,0,0
286538,-83.3333333333333,4,2,2,80,0,1
301616,-100,4,2,2,60,0,1
302873,-111.111111111111,4,2,2,65,0,1
303501,-111.111111111111,4,2,2,70,0,1
303815,-111.111111111111,4,2,2,75,0,1
304129,-111.111111111111,4,2,2,80,0,1
305386,-111.111111111111,4,2,10,60,0,0
306328,-83.3333333333333,4,2,2,75,0,0
306642,-111.111111111111,4,2,2,65,0,0
316066,-200,4,2,2,65,0,0
316381,-111.111111111111,4,2,2,60,0,0
326747,-125,4,2,2,50,0,0
336799,-100,4,2,2,65,0,0
347480,-100,4,2,2,55,0,0
348108,-100,4,2,2,45,0,0
348737,-100,4,2,2,40,0,0
349365,-100,4,2,2,35,0,0
349993,-100,4,2,2,30,0,0
350621,-100,4,2,2,20,0,0

[Colours]
Combo1 : 47,62,240
Combo2 : 0,249,249
Combo3 : 196,160,121
Combo4 : 150,45,255

[HitObjects]
130,124,46,6,0,L|334:102,1,190,4|0,0:2|0:0,0:0:0:0:
412,92,988,1,0,0:0:0:0:
400,186,1302,6,0,P|392:242|410:290,2,95
402,182,2244,1,0,0:0:0:0:
404,178,2559,6,0,L|336:360,1,190,2|0,0:0|0:0,0:0:0:0:
228,340,3501,1,0,0:0:0:0:
140,271,3815,6,0,B|197:177|89:172|144:75,1,190,2|0,0:0|0:0,0:0:0:0:
77,221,4758,1,0,0:0:0:0:
226,220,5072,6,0,P|325:163|343:93,1,190,2|0,0:0|0:0,0:0:0:0:
220,95,6014,1,0,0:0:0:0:
105,49,6328,6,0,P|58:43|12:55,2,95
123,172,7271,1,0,0:0:0:0:
224,242,7585,6,0,L|421:215,2,190,2|2|2,0:0|0:0|0:0,0:0:0:0:
410,38,9470,2,0,L|410:139,1,95,2|0,0:0|0:0,0:0:0:0:
316,326,10098,6,0,P|216:304|84:364,1,246.999988693238,4|8,0:3|0:0,0:0:0:0:
80,160,11040,1,4,0:3:0:0:
80,160,11354,2,0,L|105:64,1,95,4|0,0:3|0:0,0:0:0:0:
184,220,11983,2,0,L|275:166,1,95,8|0,0:0|0:0,0:0:0:0:
316,280,12611,6,0,P|240:200|108:216,1,246.999988693238,4|8,0:3|0:0,0:0:0:0:
66,325,13553,1,4,0:3:0:0:
144,80,13867,1,4,0:3:0:0:
336,242,14182,1,4,0:3:0:0:
436,188,14496,2,0,L|432:72,1,95,8|0,0:0|0:0,0:0:0:0:
336,242,15124,6,0,P|296:264|132:176,1,246.999988693238,4|8,0:3|0:0,0:0:0:0:
164,64,16066,1,4,0:3:0:0:
377,120,16381,2,0,L|264:128,1,95,4|0,0:3|0:0,0:0:0:0:
384,248,17009,2,0,L|497:255,1,95,8|0,0:0|0:0,0:0:0:0:
256,352,17637,5,4,0:3:0:0:
152,44,18265,1,10,0:0:0:0:
256,92,18580,1,4,0:3:0:0:
360,44,18894,1,4,0:3:0:0:
256,280,19208,1,4,0:3:0:0:
170,126,19522,5,8,0:0:0:0:
190,277,19679,2,0,L|158:280,1,23.75,4|0,0:3|0:0,0:0:0:0:
341,258,19836,2,0,L|344:289,1,23.75,4|0,0:3|0:1,0:1:0:0:
322,106,19993,2,0,L|353:103,1,23.75,4|0,0:3|0:0,0:0:0:0:
256,192,20150,6,0,B|353:162|348:235|448:188,1,190,4|0,0:0|0:0,0:0:0:0:
192,58,20778,1,8,0:0:0:0:
132,132,20936,1,0,0:0:0:0:
119,226,21093,1,2,0:0:0:0:
153,314,21250,1,0,0:0:0:0:
241,347,21407,5,2,0:0:0:0:
282,183,21564,1,0,0:0:0:0:
345,340,21721,1,0,0:0:0:0:
202,251,21878,1,0,0:0:0:0:
370,239,22035,2,0,P|384:177|347:102,1,142.5,8|0,0:0|0:0,0:0:0:0:
318,73,22349,2,0,P|265:82|165:62,1,142.5,0|0,0:0|0:0,0:0:0:0:
137,42,22663,5,2,0:0:0:0:
150,254,22977,2,0,P|110:280|185:295,1,178.125,0|0,0:0|0:0,0:0:0:0:
194,264,23292,1,8,0:0:0:0:
334,280,23449,1,0,0:0:0:0:
229,176,23606,1,2,0:0:0:0:
369,192,23763,1,0,0:0:0:0:
313,63,23920,6,0,L|210:73,1,95,2|0,0:0|0:0,0:0:0:0:
162,145,24155,1,2,0:3:0:0:
162,145,24234,2,0,L|265:155,1,95,6|2,0:3|0:3,0:0:0:0:
464,209,24548,2,0,L|369:218,1,95,8|0,0:0|0:0,0:0:0:0:
67,155,24862,2,0,L|161:145,1,95,2|0,0:0|0:0,0:0:0:0:
350,126,25176,5,2,0:0:0:0:
162,330,25491,2,0,P|152:284|153:237,1,95,0|0,0:0|0:0,0:0:0:0:
161,144,25805,1,8,0:0:0:0:
67,155,25962,1,0,0:0:0:0:
251,115,26119,1,2,0:0:0:0:
350,126,26276,1,0,0:0:0:0:
428,179,26433,5,2,0:0:0:0:
349,48,26590,1,0,0:0:0:0:
306,203,26747,1,2,0:3:0:0:
272,214,26826,1,0,0:0:0:0:
237,218,26904,1,0,0:0:0:0:
202,212,26983,1,0,0:0:0:0:
169,197,27061,2,0,L|172:102,1,95,8|0,0:0|0:0,0:0:0:0:
306,203,27375,2,0,L|302:346,1,142.5
302,345,27689,5,2,0:0:0:0:
378,223,27847,1,0,0:0:0:0:
235,217,28004,1,0,0:0:0:0:
302,345,28161,1,0,0:0:0:0:
378,223,28318,1,8,0:0:0:0:
255,148,28475,1,0,0:0:0:0:
180,270,28632,2,0,P|134:274|76:268,1,95,2|0,0:0|0:0,0:0:0:0:
255,148,28946,6,0,P|301:152|359:146,1,95,2|0,0:0|0:0,0:0:0:0:
431,135,29182,1,2,0:3:0:0:
431,135,29260,1,6,0:3:0:0:
433,248,29417,1,2,0:0:0:0:
351,327,29574,1,8,0:0:0:0:
148,181,29731,1,0,0:0:0:0:
433,248,29888,1,2,0:0:0:0:
228,360,30045,1,2,0:0:0:0:
149,276,30203,6,0,P|145:228|150:169,1,95,6|0,0:0|0:0,0:0:0:0:
291,45,30517,2,0,P|294:92|290:152,1,95,2|0,0:0|0:0,0:0:0:0:
276,241,30831,1,10,0:0:0:0:
291,45,30988,1,0,0:0:0:0:
157,134,31145,1,2,0:0:0:0:
410,152,31302,1,0,0:0:0:0:
343,308,31459,5,2,0:0:0:0:
169,308,31616,1,0,0:0:0:0:
342,315,31773,1,2,0:0:0:0:
169,300,31930,1,0,0:0:0:0:
341,323,32087,2,0,P|410:322|455:313,1,95,10|0,0:0|0:0,0:0:0:0:
427,160,32402,2,0,P|358:161|313:170,1,95,2|0,0:0|0:0,0:0:0:0:
170,65,32716,5,2,0:0:0:0:
131,151,32873,1,0,0:0:0:0:
181,267,33030,1,2,0:0:0:0:
90,296,33187,1,0,0:0:0:0:
299,256,33344,1,10,0:0:0:0:
392,273,33501,1,0,0:0:0:0:
464,211,33658,1,2,0:0:0:0:
371,194,33815,1,0,0:0:0:0:
299,256,33972,5,2,0:0:0:0:
157,210,34129,1,2,0:3:0:0:
157,210,34208,1,2,0:3:0:0:
157,210,34286,2,0,L|154:112,1,95,2|0,0:0|0:0,0:0:0:0:
70,160,34600,1,10,0:0:0:0:
241,153,34758,1,0,0:0:0:0:
341,253,34915,1,2,0:0:0:0:
405,56,35072,1,0,0:0:0:0:
472,134,35229,6,0,L|351:137,1,95,6|0,1:2|0:0,0:0:0:0:
146,181,35543,1,2,0:0:0:0:
291,133,35700,1,2,0:0:0:0:
102,98,35857,1,10,0:0:0:0:
168,273,36014,1,2,0:0:0:0:
234,44,36171,1,2,0:0:0:0:
68,188,36328,1,2,0:0:0:0:
246,262,36485,5,2,0:0:0:0:
128,99,36642,1,2,0:0:0:0:
168,273,36799,1,2,0:0:0:0:
308,113,36956,1,2,0:0:0:0:
233,339,37114,1,10,0:0:0:0:
212,104,37271,1,2,0:0:0:0:
332,262,37428,1,2,0:0:0:0:
212,104,37585,1,2,0:0:0:0:
188,322,37742,6,0,L|234:339,3,47.5,2|2|2|2,0:0|0:0|0:0|0:0,0:0:0:0:
281,338,38056,2,0,L|327:321,3,47.5,2|2|2|2,0:0|0:0|0:0|0:0,0:0:0:0:
374,297,38370,1,10,0:0:0:0:
383,250,38449,1,2,0:0:0:0:
376,203,38527,1,2,0:0:0:0:
355,161,38606,1,2,0:0:0:0:
322,128,38684,6,0,L|290:105,2,23.75,2|0|2,0:0|0:0|0:0,0:0:0:0:
240,181,38841,2,0,L|272:204,2,23.75,2|0|2,0:0|0:0|0:0,0:0:0:0:
196,89,38998,5,0,0:0:0:0:
196,89,39077,1,0,0:0:0:0:
196,89,39155,1,0,0:0:0:0:
196,89,39234,1,0,0:0:0:0:
196,89,39313,1,8,0:0:0:0:
128,215,39470,2,0,L|132:260,1,35.625001358986
112,348,39627,5,0,0:0:0:0:
126,187,39784,1,0,0:0:0:0:
209,325,39941,1,0,0:0:0:0:
60,262,40098,1,0,0:0:0:0:
217,226,40255,5,4,0:0:0:0:
184,90,49679,6,0,B|289:91|289:91|269:129,1,142.5
244,189,49993,5,8,0:2:0:0:
245,224,50072,1,8,0:0:0:0:
246,260,50150,1,8,0:0:0:0:
248,295,50229,1,8,0:0:0:0:
249,331,50307,6,0,L|357:325,1,95,6|0,0:0|0:0,0:0:0:0:
244,189,50621,1,8,0:0:0:0:
149,186,50778,1,0,0:0:0:0:
61,223,50936,2,0,P|31:155|39:113,1,95,2|0,0:0|0:0,0:0:0:0:
160,24,51250,1,8,0:0:0:0:
68,48,51407,1,0,0:0:0:0:
254,37,51564,6,0,P|261:91|254:135,1,95,2|0,0:0|0:0,0:0:0:0:
243,316,51878,1,8,0:0:0:0:
163,155,52035,1,0,0:0:0:0:
343,166,52192,2,0,P|389:171|436:164,1,95,2|0,0:0|0:0,0:0:0:0:
336,315,52506,2,0,P|289:309|242:316,1,95,8|0,0:0|0:0,0:0:0:0:
148,331,52820,6,0,L|146:215,1,95,2|0,0:0|0:0,0:0:0:0:
104,44,53135,2,0,L|106:160,1,95,8|0,0:0|0:0,0:0:0:0:
146,236,53449,1,2,0:0:0:0:
239,215,53606,1,0,0:0:0:0:
333,239,53763,2,0,P|381:242|435:290,1,95,8|0,0:0|0:0,0:0:0:0:
348,335,54077,6,0,P|302:332|262:306,1,95,2|0,0:0|0:0,0:0:0:0:
177,106,54391,1,8,0:0:0:0:
239,215,54548,1,0,0:0:0:0:
146,236,54705,1,2,0:0:0:0:
98,236,54784,1,0,0:0:0:0:
52,224,54862,2,0,L|29:178,1,47.5
177,106,55019,1,8,0:0:0:0:
382,173,55176,1,2,0:0:0:0:
186,285,55333,6,0,L|214:230,1,47.5
240,186,55491,1,0,0:0:0:0:
298,282,55648,1,8,0:0:0:0:
344,286,55726,1,0,0:0:0:0:
383,261,55805,1,0,0:0:0:0:
398,217,55883,1,0,0:0:0:0:
382,173,55962,1,2,0:0:0:0:
351,139,56040,1,0,0:0:0:0:
352,93,56119,1,0,0:0:0:0:
384,59,56197,1,0,0:0:0:0:
430,57,56276,1,8,0:0:0:0:
465,88,56354,1,0,0:0:0:0:
470,134,56433,1,0,0:0:0:0:
454,178,56511,1,0,0:0:0:0:
421,212,56590,5,2,0:0:0:0:
373,211,56669,1,0,0:0:0:0:
328,196,56747,2,0,L|296:158,1,47.5
164,67,56904,5,8,0:0:0:0:
172,113,56983,1,0,0:0:0:0:
163,159,57061,2,0,L|112:175,1,47.5
328,196,57218,5,2,0:0:0:0:
320,242,57297,1,0,0:0:0:0:
329,288,57375,2,0,L|380:304,1,47.5
123,331,57532,5,8,0:0:0:0:
123,331,57611,1,0,0:0:0:0:
123,331,57689,2,0,L|119:265,1,47.5
164,67,57847,1,2,0:0:0:0:
256,192,57925,12,8,58789,0:0:0:0:
210,252,59103,5,8,0:0:0:0:
273,82,59260,1,0,0:0:0:0:
339,252,59417,1,8,0:0:0:0:
273,82,59574,1,0,0:0:0:0:
130,196,59731,2,0,L|126:308,1,95,8|0,0:0|0:0,0:0:0:0:
114,335,59967,1,8,0:0:0:0:
114,335,60045,5,8,0:0:0:0:
161,337,60124,1,8,0:0:0:0:
208,339,60203,1,8,0:0:0:0:
256,341,60281,1,8,0:0:0:0:
303,343,60360,6,0,P|310:271|323:235,1,95,6|0,0:0|0:0,0:0:0:0:
420,148,60674,1,8,0:0:0:0:
300,115,60831,1,0,0:0:0:0:
192,175,60988,1,2,0:0:0:0:
316,250,61145,1,0,0:0:0:0:
177,88,61302,1,8,0:0:0:0:
172,294,61459,1,0,0:0:0:0:
218,196,61616,5,2,0:0:0:0:
81,200,61773,1,0,0:0:0:0:
218,203,61930,1,8,0:0:0:0:
82,194,62087,1,0,0:0:0:0:
293,290,62244,2,0,P|350:290|391:278,1,95,2|0,0:0|0:0,0:0:0:0:
501,139,62559,2,0,P|444:139|403:151,1,95,8|0,0:0|0:0,0:0:0:0:
281,202,62873,5,2,0:0:0:0:
233,120,63030,1,0,0:0:0:0:
144,84,63187,2,0,P|67:82|15:115,1,95,8|0,0:0|0:0,0:0:0:0:
101,293,63501,1,2,0:0:0:0:
192,266,63658,1,0,0:0:0:0:
278,304,63815,2,0,L|402:299,1,95,8|0,0:0|0:0,0:0:0:0:
278,304,64129,5,2,0:0:0:0:
239,146,64286,1,0,0:0:0:0:
192,266,64443,1,8,0:0:0:0:
350,207,64600,1,0,0:0:0:0:
191,167,64758,1,2,0:0:0:0:
192,338,64915,1,0,0:0:0:0:
102,187,65072,6,0,L|105:136,1,47.5,8|0,0:0|0:0,0:0:0:0:
254,50,65229,2,0,L|257:101,1,47.5,8|0,0:0|0:0,0:0:0:0:
260,189,65386,5,2,0:0:0:0:
183,127,65543,1,0,0:0:0:0:
243,285,65700,1,8,0:0:0:0:
353,170,65857,1,0,0:0:0:0:
148,293,66014,2,0,P|100:295|57:313,1,95,2|0,0:0|0:0,0:0:0:0:
183,127,66328,2,0,P|215:172|248:196,1,95,8|0,0:0|0:0,0:0:0:0:
388,154,66642,5,2,0:0:0:0:
390,17,66799,1,0,0:0:0:0:
394,153,66956,1,8,0:0:0:0:
383,17,67114,1,0,0:0:0:0:
443,253,67271,2,0,P|385:266|331:251,1,95,2|0,0:0|0:0,0:0:0:0:
79,148,67585,2,0,P|137:135|191:150,1,95,8|0,0:0|0:0,0:0:0:0:
244,201,67899,5,2,0:0:0:0:
320,129,68056,1,0,0:0:0:0:
420,117,68213,2,0,P|474:120|515:134,1,95,8|0,0:0|0:0,0:0:0:0:
473,253,68527,1,2,0:0:0:0:
329,161,68684,1,0,0:0:0:0:
195,268,68841,2,0,P|147:266|100:260,1,95,8|0,0:0|0:0,0:0:0:0:
283,302,69155,5,2,0:0:0:0:
357,242,69313,1,0,0:0:0:0:
220,134,69470,1,8,0:0:0:0:
175,341,69627,1,0,0:0:0:0:
54,196,69784,2,0,L|160:186,1,95,2|0,0:0|0:0,0:0:0:0:
427,229,70098,6,0,P|429:272|427:292,1,47.5,8|0,0:0|0:0,0:0:0:0:
274,157,70255,1,8,0:0:0:0:
261,101,70333,1,8,0:0:0:0:
272,44,70412,6,0,P|361:42|391:55,1,95,6|0,0:0|0:0,0:0:0:0:
440,125,70726,1,8,0:0:0:0:
274,157,70883,1,0,0:0:0:0:
427,229,71040,1,2,0:0:0:0:
345,81,71197,1,0,0:0:0:0:
325,249,71354,1,8,0:0:0:0:
345,81,71511,1,0,0:0:0:0:
191,193,71669,5,2,0:0:0:0:
159,63,71826,1,0,0:0:0:0:
134,282,71983,1,8,0:0:0:0:
159,63,72140,1,0,0:0:0:0:
290,196,72297,2,0,P|360:195|388:186,1,95,2|0,0:0|0:0,0:0:0:0:
468,337,72611,2,0,P|421:326|374:328,1,95,8|0,0:0|0:0,0:0:0:0:
209,351,72925,5,2,0:0:0:0:
112,290,73082,1,0,0:0:0:0:
128,68,73239,1,8,0:0:0:0:
93,177,73396,1,0,0:0:0:0:
270,186,73553,2,0,L|400:182,1,95,2|0,0:0|0:0,0:0:0:0:
112,290,73867,2,0,L|-18:294,1,95,8|0,0:0|0:0,0:0:0:0:
179,122,74182,5,2,0:0:0:0:
244,282,74339,1,0,0:0:0:0:
312,77,74496,1,8,0:0:0:0:
93,177,74653,1,0,0:0:0:0:
273,202,74810,1,2,0:0:0:0:
142,69,74967,1,0,0:0:0:0:
103,284,75124,6,0,L|56:278,1,47.5,10|0,0:0|0:0,0:0:0:0:
226,209,75281,2,0,L|298:199,1,47.5,10|0,0:0|0:0,0:0:0:0:
384,309,75438,5,12,0:0:0:0:
431,315,75517,1,0,0:3:0:0:
475,298,75595,1,2,0:3:0:0:
380,173,75752,1,10,0:0:0:0:
266,304,75909,1,0,0:0:0:0:
188,139,76066,1,10,0:0:0:0:
261,323,76224,1,0,0:0:0:0:
375,140,76381,1,10,0:0:0:0:
256,342,76538,1,0,0:0:0:0:
295,108,76695,5,14,0:0:0:0:
296,60,76773,1,2,0:3:0:0:
298,13,76852,1,2,0:3:0:0:
419,177,77009,1,10,0:0:0:0:
188,139,77166,1,0,0:0:0:0:
266,305,77323,1,10,0:0:0:0:
295,108,77480,1,0,0:0:0:0:
105,220,77637,1,10,0:0:0:0:
329,240,77794,1,0,0:0:0:0:
188,139,77951,5,10,0:0:0:0:
153,145,78030,1,0,0:0:0:0:
117,144,78108,1,8,0:0:0:0:
83,133,78187,1,0,0:0:0:0:
53,115,78265,1,10,0:0:0:0:
88,83,78344,1,0,0:0:0:0:
131,64,78422,1,8,0:0:0:0:
178,58,78501,1,0,0:0:0:0:
224,66,78580,6,0,L|293:66,1,47.5,10|0,0:0|0:0,0:0:0:0:
440,150,78737,2,0,L|371:149,1,47.5,10|0,0:0|0:0,0:0:0:0:
161,210,78894,2,0,L|229:209,1,47.5,10|0,0:0|0:0,0:0:0:0:
371,291,79051,2,0,L|302:290,1,47.5,10|0,0:0|0:0,0:0:0:0:
110,320,79208,5,0,0:0:0:0:
109,308,79286,1,0,0:0:0:0:
108,296,79365,1,0,0:0:0:0:
107,284,79443,1,0,0:0:0:0:
106,272,79522,1,8,0:0:0:0:
123,149,79679,1,0,0:0:0:0:
123,149,79758,1,0,0:0:0:0:
123,149,79836,2,0,P|77:144|35:154,1,71.2500027179719
293,160,80150,6,0,P|289:110|279:159,1,142.500005435944,8|8,1:0|1:0,0:0:0:0:
228,309,80464,6,0,L|428:316,1,190,4|0,0:0|0:0,0:0:0:0:
456,228,81407,1,0,0:0:0:0:
410,144,81721,2,0,P|363:135|316:144,2,95,2|0|2,0:0|0:0|0:0,0:0:0:0:
245,81,82663,1,0,0:0:0:0:
165,132,82977,6,0,P|229:156|281:276,1,190,2|0,0:0|0:0,0:0:0:0:
237,342,83763,2,0,L|309:347,2,71.2500027179719
128,314,84234,6,0,P|184:287|203:250,1,95,2|0,0:0|0:0,0:0:0:0:
191,165,84862,2,0,P|144:172|101:153,1,95,2|0,0:0|0:0,0:0:0:0:
279,128,85491,6,0,P|331:121|443:216,1,190,2|0,0:0|0:0,0:0:0:0:
437,292,86433,1,0,0:0:0:0:
347,323,86747,6,0,L|236:340,1,95,2|0,0:0|0:0,0:0:0:0:
259,242,87375,2,0,L|148:259,1,95,2|0,0:0|0:0,0:0:0:0:
149,350,88004,6,0,P|87:312|92:193,1,190,2|0,0:0|0:0,0:0:0:0:
209,87,88946,2,0,L|279:89,1,47.5,2|0,0:0|0:0,0:0:0:0:
303,89,89260,5,2,0:0:0:0:
372,153,89574,2,0,L|400:151,6,15.8333333333333,2|0|0|2|0|0|0,0:0|0:0|0:0|0:0|0:0|0:0|0:0,0:0:0:0:
276,211,90045,1,0,0:0:0:0:
359,253,90203,2,0,L|421:252,1,47.5
276,211,90517,6,0,P|161:220|97:131,1,227.999993041992,4|0,0:0|0:0,0:0:0:0:
136,31,91459,1,0,0:0:0:0:
210,117,91773,6,0,L|219:320,1,190,2|0,0:0|0:0,0:0:0:0:
129,235,92559,2,0,L|45:231,2,71.2500027179719
264,213,93030,6,0,L|374:191,1,95,2|0,0:0|0:0,0:0:0:0:
493,165,93658,1,0,0:0:0:0:
390,91,93815,2,0,P|351:77|317:75,2,71.2500027179719,2|0|0,0:0|0:0|0:0,0:0:0:0:
255,146,94286,6,0,B|193:151|193:151|133:132,1,113.999996520996,2|0,0:0|0:0,0:0:0:0:
89,33,94915,1,2,0:0:0:0:
27,217,95229,1,2,0:0:0:0:
148,338,95543,6,0,P|210:275|366:266,1,227.999993041992,2|8,0:0|0:0,0:0:0:0:
439,319,96485,1,2,0:0:0:0:
230,265,96799,6,0,P|221:229|301:52,1,227.999993041992,2|8,0:0|0:0,0:0:0:0:
438,148,97585,2,0,P|437:106|442:77,1,71.2500027179719,2|0,0:0|0:0,0:0:0:0:
489,238,97899,1,2,0:0:0:0:
372,262,98056,6,0,B|313:281|270:254|270:254|209:222|161:251,1,213.750008153916,2|0,0:0|0:0,0:0:0:0:
76,292,98684,1,8,0:0:0:0:
89,82,98998,1,0,0:0:0:0:
208,97,99155,1,0,0:0:0:0:
208,97,99313,5,2,0:0:0:0:
394,60,99627,2,0,L|400:34,6,15.8333333333333,2|0|0|0|0|0|8,0:0|0:0|0:0|0:0|0:0|0:0|0:0,0:0:0:0:
435,138,100098,1,2,0:0:0:0:
390,265,100255,1,2,0:0:0:0:
306,158,100412,1,2,0:0:0:0:
263,314,100569,5,2,0:0:0:0:
125,155,100883,2,0,L|127:120,6,23.7500009059906,2|0|2|0|2|0|10,0:0|0:0|0:0|0:0|0:0|0:0|0:0,0:0:0:0:
71,237,101354,1,2,0:0:0:0:
176,271,101511,2,0,L|270:260,1,71.2500027179719,2|0,0:0|0:0,0:0:0:0:
374,145,101826,5,2,0:0:0:0:
320,150,101904,1,2,0:0:0:0:
269,132,101983,1,2,0:0:0:0:
231,93,102061,1,2,0:0:0:0:
214,41,102140,1,2,0:0:0:0:
334,29,102297,1,2,0:0:0:0:
334,29,102375,1,2,0:0:0:0:
334,29,102454,1,10,0:0:0:0:
435,220,102611,2,0,L|348:215,1,54.6250010418892
196,216,102768,6,0,P|165:161|222:189,1,166.250001585484,2|2,0:0|0:0,0:0:0:0:
245,332,103082,1,4,0:0:0:0:
50,163,113135,6,0,B|133:137|212:166|212:166|188:181,1,190,4|0,0:0|0:0,0:0:0:0:
130,249,113606,1,2,0:3:0:0:
130,249,113684,1,2,0:0:0:0:
130,249,113763,1,2,0:0:0:0:
285,265,113920,1,2,0:3:0:0:
362,215,114077,2,0,P|408:218|435:230,1,71.2500027179719,0|2,0:0|0:3,0:0:0:0:
303,359,114391,6,0,P|257:356|230:344,1,71.2500027179719,0|2,0:0|0:3,0:0:0:0:
193,153,114705,1,0,0:0:0:0:
148,246,114862,1,2,0:3:0:0:
191,263,114941,1,2,0:0:0:0:
234,249,115019,2,0,L|282:251,2,35.625001358986,0|0|2,0:0|0:0|0:3,0:0:0:0:
431,109,115333,2,0,P|429:151|417:188,1,71.2500027179719,0|2,0:0|0:3,0:0:0:0:
433,242,115569,1,0,0:0:0:0:
433,242,115648,6,0,L|330:244,1,71.2500027179719,0|2,0:0|0:3,0:0:0:0:
205,293,115962,2,0,L|152:294,1,35.625001358986
56,247,116119,2,0,L|91:246,1,35.625001358986,2|2,0:3|0:3,0:0:0:0:
209,177,116276,2,0,L|134:175,1,71.2500027179719,0|2,0:0|0:3,0:0:0:0:
224,44,116590,2,0,L|259:43,2,35.625001358986,0|0|2,0:0|0:0|0:3,0:0:0:0:
307,235,116904,6,0,L|310:306,1,71.2500027179719,0|2,0:0|0:3,0:0:0:0:
229,252,117218,1,0,0:0:0:0:
193,247,117297,1,0,0:3:0:0:
158,242,117375,2,0,L|113:236,1,35.625001358986,2|2,0:0|0:3,0:0:0:0:
69,303,117532,2,0,P|117:315|162:311,1,71.2500027179719,0|2,0:0|0:0,0:0:0:0:
97,163,117847,2,0,P|49:151|4:155,1,71.2500027179719,0|2,0:0|0:0,0:0:0:0:
119,76,118161,6,0,L|301:71,1,170.999994781494
327,69,118553,1,2,0:3:0:0:
327,69,118632,1,2,0:0:0:0:
218,261,118789,2,0,P|216:214|223:171,1,76,0|2,0:0|0:0,0:0:0:0:
389,172,119103,2,0,L|391:214,1,38,0|0,0:0|0:3,0:0:0:0:
316,283,119260,2,0,L|314:241,1,38,2|0,0:0|0:0,0:0:0:0:
197,186,119417,6,0,B|156:184|156:184|96:194,1,76,0|2,0:0|0:0,0:0:0:0:
73,336,119731,2,0,L|74:276,1,38
160,257,119888,2,0,L|161:317,1,38,2|2,0:0|0:3,0:0:0:0:
246,336,120045,2,0,P|293:339|343:329,1,76,0|2,0:0|0:0,0:0:0:0:
390,221,120360,1,0,0:0:0:0:
390,221,120438,1,0,0:0:0:0:
390,221,120517,2,0,L|373:168,1,38,2|0,0:0|0:0,0:0:0:0:
346,108,120674,5,0,0:0:0:0:
256,192,120752,12,0,123030,0:0:0:0:
230,246,123187,5,4,0:1:0:0:
332,235,123344,1,0,0:0:0:0:
420,182,123501,1,2,0:0:0:0:
439,84,123658,1,0,0:0:0:0:
344,115,123815,1,2,0:0:0:0:
420,182,123972,1,0,0:0:0:0:
270,50,124129,1,2,0:0:0:0:
230,246,124286,1,0,0:0:0:0:
315,318,124443,6,0,L|332:235,1,85.4999973907472,2|0,0:0|0:0,0:0:0:0:
186,32,124758,2,0,L|169:115,1,85.4999973907472,2|0,0:0|0:0,0:0:0:0:
230,246,125072,2,0,L|146:229,1,85.4999973907472,2|0,0:0|0:0,0:0:0:0:
10,323,125386,2,0,L|93:339,1,85.4999973907472,2|0,0:0|0:0,0:0:0:0:
396,278,125700,6,0,L|312:261,1,85.4999973907472,2|0,0:0|0:0,0:0:0:0:
62,246,126014,2,0,L|145:229,1,85.4999973907472,2|0,0:0|0:0,0:0:0:0:
420,182,126328,2,0,L|336:165,1,85.4999973907472,2|0,0:0|0:0,0:0:0:0:
214,42,126642,2,0,L|207:149,1,85.4999973907472,2|0,0:0|0:0,0:0:0:0:
223,313,126956,5,2,0:0:0:0:
229,158,127114,1,0,0:0:0:0:
248,335,127271,1,2,0:0:0:0:
376,246,127428,1,0,0:0:0:0:
175,242,127585,1,2,0:0:0:0:
398,221,127742,1,0,0:0:0:0:
281,109,127899,2,0,P|290:54|309:14,1,85.4999973907472,2|0,0:0|0:0,0:0:0:0:
376,246,128213,6,0,P|340:289|304:314,1,90.2499975900651,2|0,0:0|0:0,0:0:0:0:
232,319,128527,1,2,0:0:0:0:
157,277,128684,1,0,0:0:0:0:
115,202,128841,1,2,0:0:0:0:
115,111,128998,1,0,0:0:0:0:
274,160,129155,1,2,0:0:0:0:
157,277,129313,1,0,0:0:0:0:
104,101,129470,6,0,L|105:-5,1,90.2499975900651,2|0,0:0|0:0,0:0:0:0:
288,165,129784,2,0,L|287:271,1,90.2499975900651,2|0,0:0|0:0,0:0:0:0:
40,189,130098,2,0,L|41:83,1,90.2499975900651,2|0,0:0|0:0,0:0:0:0:
157,277,130412,2,0,L|156:383,1,90.2499975900651,2|0,0:0|0:0,0:0:0:0:
301,365,130726,6,0,P|298:322|302:270,1,90.2499975900651,2|0,0:0|0:0,0:0:0:0:
380,109,131040,2,0,P|383:152|379:204,1,90.2499975900651,2|0,0:0|0:0,0:0:0:0:
174,281,131354,2,0,P|171:238|175:186,1,90.2499975900651,2|0,0:0|0:0,0:0:0:0:
253,25,131669,2,0,P|256:68|252:120,1,90.2499975900651,2|0,0:0|0:0,0:0:0:0:
175,282,131983,5,2,0:0:0:0:
243,83,132140,1,0,0:0:0:0:
304,284,132297,1,2,0:0:0:0:
137,157,132454,1,0,0:0:0:0:
347,161,132611,1,2,0:0:0:0:
168,288,132768,5,0,0:0:0:0:
243,69,132925,1,2,0:0:0:0:
310,290,133082,1,0,0:0:0:0:
27,230,133239,6,0,P|94:224|139:237,1,95,6|0,0:0|0:0,0:0:0:0:
231,331,133553,1,2,0:0:0:0:
337,220,133710,1,0,0:0:0:0:
272,78,133867,1,2,0:0:0:0:
263,329,134025,1,0,0:0:0:0:
344,180,134182,1,2,0:0:0:0:
234,48,134339,1,0,0:0:0:0:
490,189,134496,6,0,L|380:187,1,95,2|0,0:0|0:0,0:0:0:0:
208,320,134810,1,2,0:0:0:0:
105,115,134967,1,0,0:0:0:0:
350,117,135124,1,2,0:0:0:0:
101,211,135281,1,0,0:0:0:0:
226,48,135438,1,2,0:0:0:0:
313,235,135595,1,0,0:0:0:0:
191,244,135752,5,14,0:0:0:0:
226,48,135909,1,0,0:0:0:0:
195,253,136066,1,2,0:0:0:0:
221,37,136224,1,0,0:0:0:0:
200,264,136381,1,2,0:0:0:0:
216,26,136538,1,0,0:0:0:0:
207,275,136695,1,2,0:0:0:0:
209,17,136852,1,0,0:0:0:0:
328,171,137009,5,2,0:0:0:0:
243,128,137166,1,0,0:0:0:0:
333,266,137323,1,2,0:0:0:0:
323,76,137480,1,0,0:0:0:0:
253,317,137637,1,2,0:0:0:0:
158,85,137794,1,0,0:0:0:0:
413,214,137951,1,2,0:0:0:0:
119,274,138108,1,0,0:0:0:0:
123,151,138265,6,0,L|110:57,1,95,12|0,0:0|0:0,0:0:0:0:
196,15,138580,1,2,0:3:0:0:
377,194,138737,6,0,L|389:100,2,95,0|12|0,0:0|0:0|0:0,0:0:0:0:
446,257,139208,1,2,0:3:0:0:
196,297,139365,1,0,0:0:0:0:
206,77,139522,6,0,P|200:102|207:128,1,47.5,14|0,0:0|0:0,0:0:0:0:
268,242,139679,2,0,P|274:217|267:191,1,47.5
284,27,139836,2,0,P|288:50|283:73,1,47.5,2|0,0:0|0:0,0:0:0:0:
134,198,139993,2,0,P|128:173|135:147,1,47.5
345,173,140150,2,0,P|367:178|390:174,1,47.5,14|0,0:0|0:0,0:0:0:0:
147,285,140307,2,0,P|124:278|101:283,1,47.5
198,75,140474,2,0,L|204:125,1,47.5,2|0,0:0|0:0,0:0:0:0:
421,218,140621,2,0,L|426:170,1,47.5
364,80,140778,5,14,0:0:0:0:
316,59,140856,1,0,0:0:0:0:
265,65,140936,1,2,0:0:0:0:
224,96,141013,1,0,0:0:0:0:
205,144,141092,1,2,0:0:0:0:
214,195,141170,1,0,0:0:0:0:
247,235,141250,1,2,0:0:0:0:
299,239,141328,1,0,0:0:0:0:
346,219,141406,1,6,0:0:0:0:
396,231,141485,1,2,0:0:0:0:
429,271,141564,1,2,0:0:0:0:
432,322,141642,1,2,0:0:0:0:
404,366,141721,6,0,L|359:369,2,29.6875,2|0|0,0:0|0:0|0:0,0:0:0:0:
283,291,141878,2,0,L|328:293,2,29.6875,2|0|0,0:0|0:0|0:0,0:0:0:0:
372,225,142035,6,0,L|372:178,1,35.625001358986
318,39,142192,2,0,L|318:86,1,35.625001358986
281,144,142349,1,8,0:0:0:0:
411,130,142506,1,0,0:0:0:0:
411,130,142585,1,0,0:0:0:0:
411,130,142663,2,0,L|489:130,1,71.2500027179719,2|2,0:0|0:0,0:0:0:0:
174,306,142977,6,0,P|144:309|115:307,1,59.375,8|0,0:0|0:0,0:0:0:0:
93,165,143135,2,0,P|123:164|152:166,1,59.375
303,198,143292,6,0,P|355:202|408:200,1,104.500003189087,6|0,0:0|0:0,0:0:0:0:
213,252,143606,1,8,0:0:0:0:
153,167,143763,1,0,0:0:0:0:
256,156,143920,1,2,0:0:0:0:
213,252,144077,1,0,0:0:0:0:
196,71,144234,1,8,0:0:0:0:
368,63,144391,1,0,0:0:0:0:
376,235,144548,6,0,L|385:339,1,104.500003189087,2|0,0:0|0:0,0:0:0:0:
153,167,144862,2,0,L|143:62,1,104.500003189087,8|0,0:0|0:0,0:0:0:0:
65,306,145176,2,0,L|169:297,1,104.500003189087,2|0,0:0|0:0,0:0:0:0:
308,140,145491,1,8,0:0:0:0:
204,150,145648,1,0,0:0:0:0:
80,77,145805,5,2,0:0:0:0:
62,179,145962,1,0,0:0:0:0:
126,261,146119,2,0,L|23:285,1,104.500003189087,8|0,0:0|0:0,0:0:0:0:
282,295,146433,1,2,0:0:0:0:
379,256,146590,1,0,0:0:0:0:
418,159,146747,2,0,P|413:99|419:41,1,104.500003189087,8|0,0:0|0:0,0:0:0:0:
379,256,147061,5,2,0:0:0:0:
185,256,147218,1,0,0:0:0:0:
282,295,147375,1,8,0:0:0:0:
145,159,147532,1,0,0:0:0:0:
185,256,147689,1,2,0:0:0:0:
185,62,147847,1,0,0:0:0:0:
418,159,148004,2,0,L|415:214,1,52.2500015945435,8|0,0:0|0:0,0:0:0:0:
379,62,148161,2,0,L|376:9,1,52.2500015945435,8|0,0:0|0:0,0:0:0:0:
315,145,148318,5,2,0:0:0:0:
145,159,148475,1,0,0:0:0:0:
330,275,148632,1,8,0:0:0:0:
379,62,148789,1,0,0:0:0:0:
440,183,148946,2,0,P|388:196|334:189,1,104.500003189087,2|0,0:0|0:0,0:0:0:0:
75,156,149260,2,0,P|127:143|181:150,1,104.500003189087,8|0,0:0|0:0,0:0:0:0:
238,320,149574,5,2,0:0:0:0:
254,216,149731,1,0,0:0:0:0:
439,287,149888,2,0,B|365:287|365:287|336:281,1,104.500003189087,8|0,0:0|0:0,0:0:0:0:
150,209,150203,2,0,B|224:209|224:209|253:215,1,104.500003189087,2|0,0:0|0:0,0:0:0:0:
48,304,150517,2,0,L|48:196,1,104.500003189087,8|0,0:0|0:0,0:0:0:0:
263,64,150831,5,2,0:0:0:0:
310,199,150988,1,0,0:0:0:0:
256,44,151145,1,8,0:0:0:0:
192,231,151302,1,0,0:0:0:0:
279,318,151459,2,0,P|336:316|382:294,1,104.500003189087,2|0,0:0|0:0,0:0:0:0:
192,231,151773,2,0,P|150:200|124:156,1,104.500003189087,8|0,0:0|0:0,0:0:0:0:
203,70,152087,5,2,0:0:0:0:
123,155,152244,1,0,0:0:0:0:
264,116,152402,1,8,0:0:0:0:
107,162,152559,1,0,0:0:0:0:
265,188,152716,1,2,0:0:0:0:
86,50,152873,1,0,0:0:0:0:
52,288,153030,6,0,L|123:295,1,52.2500015945435,8|0,0:0|0:0,0:0:0:0:
265,188,153187,1,8,0:0:0:0:
277,137,153265,1,8,0:0:0:0:
269,85,153344,6,0,P|216:80|164:83,1,104.500003189087,6|0,0:0|0:0,0:0:0:0:
265,188,153658,1,8,0:0:0:0:
302,286,153815,1,0,0:0:0:0:
221,352,153972,1,2,0:0:0:0:
160,194,154129,1,0,0:0:0:0:
302,286,154286,1,8,0:0:0:0:
394,144,154443,1,0,0:0:0:0:
133,295,154600,6,0,P|76:301|19:332,1,104.500003189087,2|0,0:0|0:0,0:0:0:0:
394,144,154915,2,0,P|417:91|418:26,1,104.500003189087,8|0,0:0|0:0,0:0:0:0:
87,120,155229,2,0,P|120:166|176:200,1,104.500003189087,2|0,0:0|0:0,0:0:0:0:
464,250,155543,2,0,L|349:253,1,104.500003189087,8|0,0:0|0:0,0:0:0:0:
159,193,155857,6,0,L|274:196,1,104.500003189087,2|0,0:0|0:0,0:0:0:0:
225,312,156171,2,0,L|110:309,1,104.500003189087,8|0,0:0|0:0,0:0:0:0:
126,75,156485,1,2,0:0:0:0:
231,78,156642,1,0,0:0:0:0:
335,80,156799,2,0,L|439:82,1,104.500003189087,8|0,0:0|0:0,0:0:0:0:
465,184,157114,5,2,0:0:0:0:
335,80,157271,1,0,0:0:0:0:
178,139,157428,2,0,P|178:203|196:259,1,104.500003189087,8|0,0:0|0:0,0:0:0:0:
330,330,157742,1,2,0:0:0:0:
335,80,157899,1,0,0:0:0:0:
465,184,158056,6,0,L|464:244,1,52.2500015945435,8|0,0:0|0:0,0:0:0:0:
330,330,158213,2,8,L|328:277,1,52.2500015945435
191,148,158370,6,0,P|141:163|90:159,1,104.500003189087,6|0,0:0|0:0,0:0:0:0:
198,263,158684,1,8,0:0:0:0:
130,54,158841,1,0,0:0:0:0:
0,237,158998,2,0,L|133:240,1,104.500003189087,2|0,0:0|0:0,0:0:0:0:
373,203,159313,2,0,L|240:200,1,104.500003189087,8|0,0:0|0:0,0:0:0:0:
130,54,159627,5,6,0:0:0:0:
365,87,159784,1,0,0:0:0:0:
198,263,159941,1,8,0:0:0:0:
258,36,160098,1,0,0:0:0:0:
302,279,160255,2,0,L|442:268,1,104.500003189087,2|0,0:0|0:0,0:0:0:0:
198,263,160569,1,8,0:0:0:0:
94,247,160726,1,0,0:0:0:0:
237,362,160883,5,6,0:0:0:0:
12,312,161040,1,0,0:0:0:0:
213,161,161197,2,0,B|223:106|223:106|209:59,1,104.500003189087,8|0,0:0|0:0,0:0:0:0:
382,120,161511,5,6,0:0:0:0:
72,105,161669,1,0,0:0:0:0:
294,224,161826,2,0,B|331:237|331:237|395:227,1,104.500003189087,8|0,0:0|0:0,0:0:0:0:
161,310,162140,6,0,L|109:325,2,42.7499986953736,8|0|0,0:0|0:3|0:0,0:0:0:0:
133,198,162454,2,0,L|78:199,2,42.7499986953736,8|0|0,0:0|0:0|0:0,0:0:0:0:
151,84,162768,2,0,L|98:70,2,42.7499986953736,8|0|0,0:0|0:0|0:0,0:0:0:0:
258,113,163004,1,8,0:0:0:0:
273,120,163082,6,0,L|270:187,1,42.7499986953736,8|0,0:0|0:0,0:0:0:0:
372,116,163239,2,0,L|375:49,1,42.7499986953736,8|0,0:0|0:0,0:0:0:0:
447,272,163396,6,0,L|322:261,1,104.500003189087,6|0,0:0|0:0,0:0:0:0:
111,333,163710,2,0,L|123:259,1,52.2500015945435,8|0,0:0|0:0,0:0:0:0:
137,186,163867,1,0,0:0:0:0:
5,288,164025,1,2,0:0:0:0:
226,325,164182,1,0,0:0:0:0:
154,88,164339,1,8,0:0:0:0:
111,333,164496,1,0,0:0:0:0:
0,198,164653,6,0,L|125:187,1,104.500003189087,2|0,0:0|0:0,0:0:0:0:
303,121,164967,2,0,L|240:115,1,52.2500015945435,8|0,0:0|0:0,0:0:0:0:
197,111,165124,1,0,0:0:0:0:
198,271,165281,2,0,P|200:340|192:386,1,104.500003189087,2|0,0:0|0:0,0:0:0:0:
314,113,165595,2,0,P|312:44|320:-2,1,104.500003189087,8|0,0:0|0:0,0:0:0:0:
350,240,165909,6,0,P|419:242|465:234,1,104.500003189087,2|0,0:0|0:0,0:0:0:0:
187,316,166224,2,0,P|118:313|72:322,1,104.500003189087,8|0,0:0|0:0,0:0:0:0:
98,197,166538,1,2,0:0:0:0:
344,209,166695,1,0,0:3:0:0:
235,360,166852,1,8,0:0:0:0:
256,76,167009,1,0,0:0:0:0:
349,214,167166,6,0,P|416:217|454:205,1,104.500003189087,2|0,0:0|0:0,0:0:0:0:
252,70,167480,2,0,P|185:67|147:79,1,104.500003189087,8|0,0:0|0:0,0:0:0:0:
393,98,167794,2,0,P|429:41|437:2,1,104.500003189087,2|0,0:0|0:0,0:0:0:0:
444,295,168108,2,0,L|376:314,1,52.2500015945435,8|0,0:0|0:0,0:0:0:0:
277,266,168265,2,0,L|209:247,1,52.2500015945435,8|0,0:0|0:0,0:0:0:0:
103,322,168422,5,2,0:0:0:0:
136,163,168580,1,0,0:0:0:0:
200,340,168737,2,0,L|234:301,1,52.2500015945435,8|0,0:0|0:0,0:0:0:0:
326,198,168894,1,0,0:0:0:0:
141,164,169051,1,2,0:0:0:0:
143,9,169208,1,0,0:0:0:0:
145,163,169365,1,8,0:0:0:0:
138,9,169522,1,0,0:0:0:0:
302,76,169679,6,0,P|360:67|410:69,1,104.500003189087,2|0,0:0|0:0,0:0:0:0:
149,163,169993,2,0,L|94:159,2,52.2500015945435,8|0|0,0:0|0:0|0:0,0:0:0:0:
342,242,170307,2,0,L|446:233,1,104.500003189087,2|0,0:0|0:0,0:0:0:0:
244,308,170621,1,8,0:0:0:0:
43,274,170778,1,0,0:0:0:0:
149,163,170936,6,0,L|140:59,2,104.500003189087,2|0|8,0:0|0:0|0:0,0:0:0:0:
155,200,171328,1,0,0:0:0:0:
162,238,171407,1,0,0:0:0:0:
244,308,171564,2,0,P|302:300|359:303,1,104.500003189087,2|0,0:0|0:0,0:0:0:0:
142,344,171878,1,8,0:0:0:0:
153,134,172035,1,0,0:0:0:0:
305,230,172192,6,0,P|360:234|427:218,1,104.500003189087,2|0,0:0|0:0,0:0:0:0:
316,131,172506,2,0,L|276:130,5,34.8333343963623,8|0|0|0|0|0,0:0|0:0|0:0|0:0|0:0|0:0,0:0:0:0:
251,151,172820,1,2,0:0:0:0:
165,87,172977,1,0,0:0:0:0:
129,279,173135,2,0,L|120:343,1,52.2500015945435,8|0,0:0|0:0,0:0:0:0:
303,259,173292,2,0,L|312:323,1,52.2500015945435,8|0,0:0|0:0,0:0:0:0:
416,92,173449,6,0,L|297:83,1,104.500003189087,6|0,0:0|0:0,0:0:0:0:
224,213,173763,2,0,L|198:160,1,52.2500015945435,8|0,0:0|0:0,0:0:0:0:
165,87,173920,1,0,0:0:0:0:
367,177,174077,2,0,P|363:232|374:287,1,104.500003189087,2|0,0:0|0:0,0:0:0:0:
118,293,174391,2,0,P|122:238|111:183,1,104.500003189087,8|0,0:0|0:0,0:0:0:0:
14,297,174705,6,0,P|69:300|124:290,1,104.500003189087,2|0,0:0|0:0,0:0:0:0:
327,159,175019,2,0,L|325:226,1,52.2500015945435,8|0,0:0|0:0,0:0:0:0:
319,322,175176,1,0,0:0:0:0:
113,189,175333,1,2,0:0:0:0:
216,317,175491,5,0,0:0:0:0:
327,159,175648,1,8,0:0:0:0:
113,189,175805,1,0,0:0:0:0:
389,51,175962,6,0,P|309:47|266:25,1,104.500003189087,6|0,0:0|0:0,0:0:0:0:
106,99,176276,1,8,0:0:0:0:
106,99,176354,1,0,0:0:0:0:
106,99,176433,1,0,0:0:0:0:
184,222,176590,1,2,0:0:0:0:
137,360,176747,5,0,0:0:0:0:
246,98,176904,1,8,0:0:0:0:
406,275,177061,1,0,0:0:0:0:
184,222,177218,6,0,B|111:217|111:217|81:200,1,104.500003189087,2|0,0:0|0:0,0:0:0:0:
336,92,177532,2,0,L|328:161,1,52.2500015945435,8|0,0:0|0:0,0:0:0:0:
308,274,177689,1,0,0:0:0:0:
314,53,177847,1,2,0:0:0:0:
424,213,178004,1,0,0:0:0:0:
165,332,178161,6,0,L|100:336,1,52.2500015945435,8|0,0:0|0:0,0:0:0:0:
95,128,178318,2,0,L|160:132,1,52.2500015945435,8|0,0:0|0:0,0:0:0:0:
321,226,178475,5,14,0:0:0:0:
372,219,178553,1,2,0:3:0:0:
424,213,178632,1,2,0:3:0:0:
260,325,178789,1,10,0:0:0:0:
218,127,178946,1,0,0:0:0:0:
104,285,179103,1,10,0:0:0:0:
321,226,179260,1,0,0:0:0:0:
109,131,179417,1,10,0:0:0:0:
102,338,179574,1,0,0:0:0:0:
218,127,179731,5,14,0:0:0:0:
217,74,179810,1,2,0:3:0:0:
216,22,179888,1,2,0:3:0:0:
348,114,180045,1,10,0:0:0:0:
109,131,180203,1,0,0:0:0:0:
251,298,180360,1,10,0:0:0:0:
216,22,180517,1,0,0:0:0:0:
98,265,180674,1,10,0:0:0:0:
323,219,180831,1,0,0:0:0:0:
173,195,180988,6,0,L|108:199,1,52.2500015945435,14|0,0:0|0:0,0:0:0:0:
217,74,181145,2,0,L|282:70,1,52.2500015945435,10|0,0:0|0:0,0:0:0:0:
323,219,181302,2,0,L|259:206,1,52.2500015945435,10|0,0:0|0:0,0:0:0:0:
396,113,181459,2,0,L|459:125,1,52.2500015945435,10|0,0:0|0:0,0:0:0:0:
448,321,181616,1,14,0:0:0:0:
403,336,181695,1,0,0:0:0:0:
357,339,181773,1,10,0:0:0:0:
311,329,181852,1,0,0:0:0:0:
270,307,181930,1,10,0:0:0:0:
229,285,182009,1,0,0:0:0:0:
183,275,182087,1,10,0:0:0:0:
137,278,182166,1,0,0:0:0:0:
93,294,182244,6,0,L|33:312,1,52.2500015945435,14|0,0:0|0:0,0:0:0:0:
91,138,182402,2,0,L|151:156,1,52.2500015945435,10|0,0:0|0:0,0:0:0:0:
270,307,182559,2,0,L|210:325,1,52.2500015945435,10|0,0:0|0:0,0:0:0:0:
299,149,182716,2,0,L|359:131,1,52.2500015945435,10|0,0:0|0:0,0:0:0:0:
373,296,182873,6,0,L|364:207,1,52.2500015945435,14|0,0:0|0:0,0:0:0:0:
301,46,183030,2,0,L|295:97,1,52.2500015945435,10|0,0:0|0:0,0:0:0:0:
219,322,183187,2,0,L|210:233,1,52.2500015945435,10|0,0:0|0:0,0:0:0:0:
147,72,183344,2,0,L|141:123,1,52.2500015945435,10|0,0:0|0:0,0:0:0:0:
81,283,183501,5,14,0:0:0:0:
106,288,183580,1,0,0:0:0:0:
132,290,183658,1,10,0:0:0:0:
158,288,183737,1,0,0:0:0:0:
184,282,183815,1,10,0:0:0:0:
208,273,183894,1,0,0:0:0:0:
231,260,183972,1,10,0:0:0:0:
252,245,184051,1,0,0:0:0:0:
270,226,184129,5,14,0:0:0:0:
319,207,184208,1,2,0:0:0:0:
371,203,184286,1,10,0:0:0:0:
421,216,184365,1,2,0:0:0:0:
466,243,184443,6,0,L|464:280,2,26.1250007972718,6|2|2,0:0|0:0|0:0,0:0:0:0:
439,142,184600,2,0,L|441:105,2,26.1250007972718,2|2|2,0:0|0:0|0:0,0:0:0:0:
338,55,184758,5,0,0:0:0:0:
336,73,184836,1,0,0:0:0:0:
335,92,184915,1,0,0:0:0:0:
334,111,184993,1,0,0:0:0:0:
333,130,185072,1,8,0:0:0:0:
192,134,185229,5,0,0:0:0:0:
154,133,185307,1,0,0:0:0:0:
113,132,185386,2,0,L|13:131,1,76
224,348,185700,5,14,0:0:0:0:
300,348,185778,1,0,0:0:0:0:
356,300,185857,1,0,0:0:0:0:
372,228,185936,1,0,0:0:0:0:
359,155,186014,6,0,P|288:72|201:78,1,190,4|0,0:0|0:0,0:0:0:0:
140,137,186799,2,0,P|121:123|105:99,2,47.5
72,250,187271,2,0,B|152:287|253:232|253:232|302:259|298:315,1,285,2|0,0:0|0:0,0:0:0:0:
396,201,188527,6,0,L|401:7,1,190,2|0,0:0|0:0,0:0:0:0:
400,11,189313,1,0,0:0:0:0:
271,94,189470,2,0,L|319:98,1,47.5
204,152,189784,6,0,B|124:196|24:134|24:134|20:190|37:243,1,285,2|0,0:0|0:0,0:0:0:0:
122,311,191040,6,0,L|318:308,1,190,2|0,0:0|0:0,0:0:0:0:
390,73,192297,6,0,L|194:76,1,190,2|0,0:0|0:0,0:0:0:0:
265,305,193553,6,0,P|245:208|283:123,1,190,2|0,0:0|0:0,0:0:0:0:
361,174,194339,2,0,L|420:158,2,47.5
245,213,194810,6,0,P|198:220|151:214,3,95,2|0|2|0,0:0|0:0|0:0|0:0,0:0:0:0:
420,319,196066,6,0,P|409:266|436:179,1,142.5,2|0,0:0|0:0,0:0:0:0:
484,121,196695,1,2,0:0:0:0:
381,46,196852,2,0,L|425:82,2,47.5
298,91,197323,6,0,P|222:102|152:77,1,142.5,2|0,0:0|0:0,0:0:0:0:
79,52,197951,2,0,P|74:81|99:145,1,95
242,205,198580,6,0,L|46:229,1,190,2|0,0:0|0:0,0:0:0:0:
220,287,199365,2,0,L|278:279,2,47.5
136,329,199836,6,0,P|128:227|102:186,1,142.5,2|0,0:0|0:0,0:0:0:0:
33,167,200464,2,0,B|34:102|34:102|60:63,1,95,2|0,0:0|0:0,0:0:0:0:
258,131,201093,6,0,P|316:132|412:41,1,190,2|0,0:0|0:0,0:0:0:0:
254,253,202349,6,0,P|196:252|100:343,1,190,2|0,0:0|0:0,0:0:0:0:
384,332,203606,6,0,L|385:225,1,95,2|0,0:0|0:0,0:0:0:0:
384,237,204391,6,0,L|383:284,2,47.5
304,336,204862,6,0,P|256:333|209:335,2,95,2|2|2,0:0|0:0|0:0,0:0:0:0:
304,336,205805,1,2,0:0:0:0:
108,115,206119,6,0,P|145:96|187:89,1,85.4999973907472,6|0,0:0|0:0,0:0:0:0:
120,282,206433,1,2,0:0:0:0:
97,200,206590,1,0,0:0:0:0:
93,108,206747,6,0,P|134:86|180:78,1,85.4999973907472,2|0,0:0|0:0,0:0:0:0:
106,291,207061,1,2,0:0:0:0:
81,200,207218,1,0,0:0:0:0:
256,72,207375,6,0,P|297:81|335:101,1,85.4999973907472,2|0,0:0|0:0,0:0:0:0:
256,72,207689,2,0,P|214:81|176:101,1,85.4999973907472,2|0,0:0|0:0,0:0:0:0:
360,54,208004,2,0,P|401:63|439:83,1,85.4999973907472,2|0,0:0|0:0,0:0:0:0:
152,54,208318,2,0,P|110:63|72:83,1,85.4999973907472,2|0,0:0|0:0,0:0:0:0:
291,283,208632,6,0,P|332:273|370:253,1,85.4999973907472,2|0,0:0|0:0,0:0:0:0:
390,161,208946,1,2,0:0:0:0:
366,69,209103,1,0,0:0:0:0:
294,292,209260,6,0,P|340:282|381:259,1,85.4999973907472,2|0,0:0|0:0,0:0:0:0:
403,157,209574,1,2,0:0:0:0:
377,56,209731,1,0,0:0:0:0:
200,259,209888,6,0,L|99:289,1,85.4999973907472,2|0,0:0|0:0,0:0:0:0:
312,259,210203,2,0,L|413:289,1,85.4999973907472,2|0,0:0|0:0,0:0:0:0:
188,111,210517,2,0,L|67:75,1,85.4999973907472,2|0,0:0|0:0,0:0:0:0:
323,111,210831,2,0,L|444:75,1,85.4999973907472,2|0,0:0|0:0,0:0:0:0:
315,232,211145,5,2,0:0:0:0:
224,208,211302,1,0,0:0:0:0:
199,299,211459,1,2,0:0:0:0:
290,323,211616,1,0,0:0:0:0:
382,303,211773,2,0,P|441:305|470:314,1,85.4999973907472,2|0,0:0|0:0,0:0:0:0:
199,299,212087,2,0,L|169:305,3,28.4999991302491,2|0|0|0,0:0|0:0|0:0|0:0,0:0:0:0:
62,320,212402,6,0,P|72:278|71:235,1,85.4999973907472,2|0,0:0|0:0,0:0:0:0:
46,145,212716,1,2,0:0:0:0:
121,89,212873,1,0,0:0:0:0:
260,132,213030,2,0,P|303:132|345:123,1,85.4999973907472,2|0,0:0|0:0,0:0:0:0:
157,201,213344,2,0,L|135:174,3,28.4999991302491,2|0|0|0,0:0|0:0|0:0|0:0,0:0:0:0:
360,285,213658,6,0,L|260:279,1,85.4999973907472,2|0,0:0|0:0,0:0:0:0:
90,246,213972,2,0,L|190:240,1,85.4999973907472,2|0,0:0|0:0,0:0:0:0:
445,279,214286,2,0,L|360:285,1,85.4999973907472,2|0,0:0|0:0,0:0:0:0:
90,246,214600,2,0,L|62:245,3,28.4999991302491,2|0|0|0,0:0|0:0|0:0|0:0,0:0:0:0:
179,300,214915,6,0,P|192:257|186:208,1,85.4999973907472,2|0,0:0|0:0,0:0:0:0:
128,37,215229,2,0,P|115:80|121:129,1,85.4999973907472,2|0,0:0|0:0,0:0:0:0:
291,326,215543,2,0,P|278:285|281:243,1,85.4999973907472,2|0,0:0|0:0,0:0:0:0:
437,28,215857,2,0,P|450:71|444:120,1,85.4999973907472,2|0,0:0|0:0,0:0:0:0:
456,309,216171,5,14,0:0:0:0:
351,275,216328,1,2,0:0:0:0:
247,312,216485,1,10,0:0:0:0:
146,269,216642,1,2,0:0:0:0:
54,329,216799,1,10,0:0:0:0:
135,153,216956,1,2,0:0:0:0:
247,312,217114,1,10,0:0:0:0:
54,329,217271,1,2,0:0:0:0:
307,159,217428,6,0,P|365:154|405:133,1,99.7499969558717,10|2,0:0|0:0,0:0:0:0:
205,159,217742,2,0,P|147:154|107:133,1,99.7499969558717,10|2,0:0|0:0,0:0:0:0:
321,249,218056,2,0,P|396:242|448:215,1,99.7499969558717,10|2,0:0|0:0,0:0:0:0:
188,249,218370,2,0,P|112:242|60:215,1,99.7499969558717,10|2,0:0|0:0,0:0:0:0:
356,330,218684,5,14,0:0:0:0:
247,82,218841,1,2,0:0:0:0:
176,165,218998,1,10,0:0:0:0:
228,261,219155,1,2,0:0:0:0:
152,341,219313,1,10,0:0:0:0:
317,274,219470,1,2,0:0:0:0:
176,165,219627,1,10,0:0:0:0:
152,341,219784,1,2,0:0:0:0:
282,111,219941,6,0,L|284:9,1,99.7499969558717,10|2,0:0|0:0,0:0:0:0:
176,165,220255,2,0,L|174:267,1,99.7499969558717,10|2,0:0|0:0,0:0:0:0:
278,301,220569,1,10,0:0:0:0:
53,204,220726,1,2,0:0:0:0:
215,56,220883,1,10,0:0:0:0:
314,200,221040,1,2,0:0:0:0:
362,63,221197,6,0,L|326:61,3,35.625001358986,14|0|0|0,0:0|0:0|0:0|0:0,0:0:0:0:
215,56,221511,2,0,L|175:53,3,38,10|0|0|0,0:0|0:0|0:0|0:0,0:0:0:0:
200,183,221826,6,0,L|239:185,3,40.375000770092,14|0|0|0,0:0|0:0|0:0|0:0,0:0:0:0:
317,152,222140,2,0,L|320:101,1,42.7499986953736,10|0,0:0|0:0,0:0:0:0:
415,192,222297,2,0,L|418:243,1,42.7499986953736
387,330,222454,6,0,L|324:340,1,47.5,14|0,0:0|0:0,0:0:0:0:
285,235,222611,2,0,L|222:225,1,47.5,2|0,0:0|0:0,0:0:0:0:
246,352,222768,2,0,L|183:362,1,47.5,10|0,0:0|0:0,0:0:0:0:
144,213,222925,2,0,L|81:203,1,47.5,2|0,0:0|0:0,0:0:0:0:
69,341,223082,6,0,L|74:283,1,52.2500015945435,14|0,0:0|0:0,0:0:0:0:
144,73,223239,2,0,L|149:131,1,52.2500015945435,2|0,0:0|0:0,0:0:0:0:
216,292,223396,2,0,L|221:350,2,34.8333343963623,10|0|0,0:0|0:0|0:0,0:0:0:0:
253,255,223553,2,0,L|258:197,1,52.2500015945435,2|0,0:0|0:0,0:0:0:0:
310,24,223710,5,14,0:0:0:0:
360,19,223788,1,2,0:0:0:0:
403,48,223867,1,2,0:0:0:0:
416,97,223945,1,2,0:0:0:0:
395,144,224024,1,2,0:0:0:0:
349,166,224102,1,2,0:0:0:0:
299,153,224181,1,2,0:0:0:0:
258,120,224260,1,2,0:0:0:0:
209,103,224338,1,6,0:0:0:0:
159,116,224417,1,2,0:0:0:0:
123,153,224495,1,2,0:0:0:0:
113,204,224574,1,2,0:0:0:0:
132,252,224653,6,2,L|126:300,2,26.1250007972718
213,224,224810,2,2,L|206:176,2,26.1250007972718
266,289,224967,5,6,0:0:0:0:
268,107,225281,2,0,P|183:112|74:54,1,199.499993911743
68,58,225595,2,0,L|69:107,3,35.625001358986
76,222,225909,6,0,P|96:299|90:211,1,256.499992172241,4|0,1:1|0:0,0:0:0:0:
76,222,226224,6,0,P|144:227|204:212,1,113.999996520996,6|0,0:0|0:0,0:0:0:0:
283,154,226538,1,8,0:0:0:0:
317,45,226695,1,0,0:0:0:0:
464,257,226852,6,0,P|407:262|351:252,1,113.999996520996,2|0,0:0|0:0,0:0:0:0:
279,164,227166,1,8,0:0:0:0:
320,34,227323,1,0,0:0:0:0:
188,52,227480,6,0,P|132:51|79:71,1,113.999996520996,2|0,0:0|0:0,0:0:0:0:
300,149,227794,2,0,P|327:199|371:234,1,113.999996520996,8|0,0:0|0:0,0:0:0:0:
131,309,228108,2,0,P|162:252|168:203,1,113.999996520996,2|0,0:0|0:0,0:0:0:0:
19,76,228422,1,8,0:0:0:0:
169,204,228580,1,0,0:0:0:0:
390,119,228737,6,0,L|258:119,1,113.999996520996,2|0,0:0|0:0,0:0:0:0:
169,204,229051,1,8,0:0:0:0:
132,72,229208,1,0,0:0:0:0:
85,330,229365,6,0,L|85:198,1,113.999996520996,2|0,0:0|0:0,0:0:0:0:
0,109,229679,1,8,0:0:0:0:
132,72,229836,1,0,0:0:0:0:
306,207,229993,6,0,L|427:195,1,113.999996520996,2|0,0:0|0:0,0:0:0:0:
270,56,230307,2,0,P|212:68|148:62,1,113.999996520996,8|0,0:0|0:0,0:0:0:0:
63,218,230621,2,0,P|121:206|185:212,1,113.999996520996,2|0,0:0|0:0,0:0:0:0:
237,302,230936,2,0,L|240:245,1,47.5,8|2,0:0|0:3,0:0:0:0:
118,316,231093,2,0,L|120:363,1,47.5,8|2,0:0|0:3,0:0:0:0:
311,319,231250,6,0,P|372:316|427:301,1,113.999996520996,2|0,0:0|0:0,0:0:0:0:
280,199,231564,1,8,0:0:0:0:
337,50,231721,1,0,0:0:0:0:
437,173,231878,1,2,0:0:0:0:
235,96,232035,1,0,0:0:0:0:
144,240,232192,2,0,L|151:279,3,37.9999988403321,8|0|0|0,0:0|0:0|0:0|0:0,0:0:0:0:
242,308,232506,6,0,P|294:302|365:310,1,113.999996520996,2|0,0:0|0:0,0:0:0:0:
407,138,232820,2,0,P|355:144|284:136,1,113.999996520996,8|0,0:0|0:0,0:0:0:0:
119,50,233135,2,0,L|118:166,1,113.999996520996,2|0,0:0|0:0,0:0:0:0:
289,63,233449,2,0,L|288:19,3,37.9999988403321,8|0|0|0,0:0|0:0|0:0|0:0,0:0:0:0:
340,162,233763,6,0,L|457:148,1,113.999996520996,2|0,0:0|0:0,0:0:0:0:
355,328,234077,2,0,L|238:314,1,113.999996520996,8|0,0:0|0:0,0:0:0:0:
101,148,234391,2,0,L|218:134,1,113.999996520996,2|0,0:0|0:0,0:0:0:0:
364,80,234705,2,0,L|410:86,3,37.9999988403321,8|0|0|0,0:0|0:0|0:0|0:0,0:0:0:0:
393,230,235019,6,0,L|400:357,1,113.999996520996,2|0,0:0|0:0,0:0:0:0:
264,161,235333,2,0,L|271:34,1,113.999996520996,8|0,0:0|0:0,0:0:0:0:
173,262,235648,1,2,0:0:0:0:
122,83,235805,1,0,0:0:0:0:
81,325,235961,1,8,0:0:0:0:
123,363,236040,1,8,0:0:0:0:
178,374,236118,1,8,0:0:0:0:
231,357,236197,1,8,0:0:0:0:
270,316,236276,6,0,P|334:309|405:321,1,113.999996520996,6|0,0:0|0:0,0:0:0:0:
290,139,236590,2,0,P|233:145|177:137,1,113.999996520996,8|0,0:0|0:0,0:0:0:0:
119,234,236904,1,2,0:0:0:0:
235,40,237061,1,0,0:0:0:0:
346,238,237218,1,8,0:0:0:0:
119,234,237375,1,0,0:0:0:0:
290,139,237532,6,0,P|346:132|402:140,1,113.999996520996,2|0,0:0|0:0,0:0:0:0:
194,127,237847,2,0,P|160:81|138:28,1,113.999996520996,8|0,0:0|0:0,0:0:0:0:
232,217,238161,2,0,P|208:268|174:314,1,113.999996520996,2|0,0:0|0:0,0:0:0:0:
409,330,238475,2,0,L|404:189,1,113.999996520996,8|0,0:0|0:0,0:0:0:0:
292,59,238789,5,2,0:0:0:0:
256,303,238946,1,0,0:0:0:0:
234,172,239103,2,0,L|245:285,1,113.999996520996,8|0,0:0|0:0,0:0:0:0:
64,44,239417,1,2,0:0:0:0:
103,312,239574,1,0,0:0:0:0:
127,168,239731,2,0,L|114:292,1,113.999996520996,8|0,0:0|0:0,0:0:0:0:
271,107,240045,6,0,P|352:97|419:110,1,113.999996520996,2|0,0:0|0:0,0:0:0:0:
238,224,240360,2,0,P|263:274|299:318,1,113.999996520996,8|0,0:0|0:0,0:0:0:0:
129,293,240674,2,0,L|11:299,1,95,2|0,0:0|0:0,0:0:0:0:
119,114,240988,2,0,L|125:40,1,61.7499971733095,8|2,0:0|0:3,0:0:0:0:
252,104,241145,2,0,L|256:165,1,61.7499971733095,8|2,0:0|0:3,0:0:0:0:
340,270,241302,6,0,L|475:258,1,113.999996520996,2|0,0:0|0:0,0:0:0:0:
453,144,241616,1,8,0:0:0:0:
198,181,241773,1,0,0:0:0:0:
307,54,241930,2,0,L|316:205,1,113.999996520996,2|0,0:0|0:0,0:0:0:0:
207,322,242244,2,0,L|210:374,3,37.9999988403321,8|0|0|0,0:0|0:0|0:0|0:0,0:0:0:0:
60,207,242559,5,2,0:0:0:0:
255,136,242716,1,0,0:0:0:0:
176,59,242873,1,8,0:0:0:0:
145,267,243030,1,0,0:0:0:0:
335,209,243187,2,0,L|470:208,1,113.999996520996,2|0,0:0|0:0,0:0:0:0:
253,91,243501,2,0,L|207:87,3,37.9999988403321,8|0|0|0,0:0|0:0|0:0|0:0,0:0:0:0:
168,223,243815,6,0,P|112:216|56:223,1,113.999996520996,2|0,0:0|0:0,0:0:0:0:
263,286,244129,1,8,0:0:0:0:
375,269,244286,1,0,0:0:0:0:
435,172,244443,1,2,0:0:0:0:
385,279,244600,1,0,0:0:0:0:
284,150,244758,2,0,L|153:155,1,113.999996520996,8|0,0:0|0:0,0:0:0:0:
101,239,245072,6,0,P|102:262|97:284,2,42.7499986953736,8|2|2,0:0|0:3|0:3,0:0:0:0:
185,67,245386,2,0,P|184:44|189:22,2,42.7499986953736,8|2|2,0:0|0:3|0:3,0:0:0:0:
260,248,245700,2,0,P|261:271|256:293,2,42.7499986953736,8|2|2,0:0|0:3|0:3,0:0:0:0:
380,143,246014,1,8,0:0:0:0:
336,151,246093,1,8,0:0:0:0:
292,150,246171,1,8,0:0:0:0:
249,139,246250,1,8,0:0:0:0:
209,118,246328,6,0,P|205:55|217:2,1,113.999996520996,6|0,0:0|0:0,0:0:0:0:
291,293,246642,2,0,L|232:300,1,56.9999982604981,8|2,0:0|0:3,0:0:0:0:
64,314,246799,1,0,0:3:0:0:
179,173,246956,1,2,0:0:0:0:
302,296,247114,1,0,0:0:0:0:
52,319,247271,1,8,0:0:0:0:
179,164,247428,1,0,0:0:0:0:
344,219,247585,6,0,B|401:210|401:210|457:216,1,113.999996520996,2|0,0:0|0:0,0:0:0:0:
192,325,247899,1,8,0:0:0:0:
176,329,247977,1,2,0:3:0:0:
160,333,248056,1,0,0:3:0:0:
335,310,248213,2,0,P|330:226|314:190,1,113.999996520996,2|0,0:0|0:0,0:0:0:0:
128,227,248527,2,0,P|133:311|149:347,1,113.999996520996,8|0,0:0|0:0,0:0:0:0:
191,102,248841,5,2,0:0:0:0:
441,121,248998,1,0,0:0:0:0:
356,61,249155,2,0,L|355:121,1,56.9999982604981,8|2,0:0|0:3,0:0:0:0:
373,169,249313,1,0,0:3:0:0:
322,283,249470,1,2,0:0:0:0:
88,202,249627,1,0,0:0:0:0:
173,142,249784,2,0,B|174:222|174:222|142:273,1,113.999996520996,8|0,0:0|0:0,0:0:0:0:
349,168,250098,6,0,P|422:159|460:134,1,113.999996520996,2|0,0:0|0:0,0:0:0:0:
200,40,250412,2,0,P|127:49|89:74,1,113.999996520996,8|0,0:0|0:0,0:0:0:0:
199,331,250726,1,2,0:0:0:0:
249,144,250883,1,0,0:0:0:0:
325,293,251040,2,0,L|388:280,1,56.9999982604981,8|2,0:0|0:3,0:0:0:0:
254,228,251197,2,0,L|191:215,1,56.9999982604981,8|2,0:0|0:3,0:0:0:0:
199,331,251354,6,0,L|198:192,1,113.999996520996,2|0,0:0|0:0,0:0:0:0:
287,361,251669,2,0,L|208:336,1,56.9999982604981,8|2,0:0|0:3,0:0:0:0:
111,301,251826,1,0,0:3:0:0:
281,193,251983,2,0,L|282:54,1,113.999996520996,2|0,0:0|0:0,0:0:0:0:
428,236,252297,2,0,P|430:253|424:276,3,37.9999988403321,8|0|0|0,0:0|0:0|0:0|0:0,0:0:0:0:
473,330,252611,6,0,P|418:316|363:328,1,113.999996520996,2|0,0:0|0:0,0:0:0:0:
264,356,252925,1,8,0:0:0:0:
214,266,253082,2,0,L|219:152,1,113.999996520996,0|2,0:0|0:0,0:0:0:0:
131,206,253396,1,0,0:0:0:0:
231,59,253553,2,0,L|290:52,3,37.9999988403321,8|0|0|0,0:0|0:3|0:0|0:0,0:0:0:0:
133,197,253867,6,0,L|18:186,1,113.999996520996,2|0,0:0|0:0,0:0:0:0:
337,269,254182,2,0,L|348:193,1,56.9999982604981,8|2,0:0|0:3,0:0:0:0:
364,91,254339,1,0,0:0:0:0:
443,225,254496,2,0,L|453:339,1,113.999996520996,2|0,0:0|0:0,0:0:0:0:
226,321,254810,2,0,L|186:326,3,37.9999988403321,8|0|0|0,0:0|0:0|0:0|0:0,0:0:0:0:
107,344,255124,5,2,0:0:0:0:
185,177,255281,1,0,0:0:0:0:
267,357,255438,1,8,0:0:0:0:
184,162,255595,1,0,0:0:0:0:
78,226,255752,1,2,0:0:0:0:
364,254,255909,1,0,0:0:0:0:
52,262,256066,5,8,0:0:0:0:
53,219,256145,1,8,0:0:0:0:
55,176,256224,1,8,0:0:0:0:
56,133,256302,1,8,0:0:0:0:
58,91,256381,5,6,0:0:0:0:
311,121,256538,1,0,0:0:0:0:
219,55,256695,1,8,0:0:0:0:
219,55,256773,1,2,0:3:0:0:
219,55,256852,1,0,0:0:0:0:
165,259,257009,2,0,P|87:256|31:266,1,113.999996520996,2|0,0:0|0:0,0:0:0:0:
269,332,257323,1,8,0:0:0:0:
326,205,257480,1,0,0:0:0:0:
411,272,257637,6,0,B|423:244|423:244|426:150,1,113.999996520996,2|0,0:0|0:0,0:0:0:0:
283,41,257951,2,0,L|281:104,1,56.9999982604981,8|2,0:0|0:3,0:0:0:0:
277,181,258108,1,0,0:0:0:0:
108,99,258265,1,2,0:0:0:0:
96,308,258422,1,0,0:0:0:0:
38,226,258580,2,0,B|74:217|74:217|171:216,1,113.999996520996,8|0,0:0|0:0,0:0:0:0:
283,41,258894,5,2,0:0:0:0:
150,216,259051,1,0,0:0:0:0:
284,239,259208,1,8,0:0:0:0:
415,201,259365,1,0,0:0:0:0:
151,118,259522,5,2,0:0:0:0:
415,201,259679,1,0,0:0:0:0:
337,312,259836,1,8,0:0:0:0:
217,377,259993,1,0,0:0:0:0:
90,329,260150,6,0,P|85:265|96:216,1,113.999996520996,2|0,0:0|0:0,0:0:0:0:
302,145,260464,2,0,L|240:136,1,56.9999982604981,8|2,0:0|0:3,0:0:0:0:
151,118,260621,1,0,0:0:0:0:
270,265,260778,2,0,L|256:384,1,113.999996520996,2|0,0:0|0:0,0:0:0:0:
422,187,261093,6,0,L|365:185,1,56.9999982604981,8|2,0:0|0:3,0:0:0:0:
236,183,261250,2,0,L|179:181,1,56.9999982604981,8|2,0:0|0:3,0:0:0:0:
34,241,261407,5,6,0:0:0:0:
91,137,261564,1,0,0:0:0:0:
177,284,261721,1,8,0:0:0:0:
18,243,261878,1,0,0:0:0:0:
304,217,262035,2,0,L|443:219,1,113.999996520996,2|0,0:0|0:0,0:0:0:0:
159,290,262349,2,0,L|116:291,3,37.9999988403321,8|2|0|0,0:0|0:3|0:0|0:0,0:0:0:0:
247,333,262663,5,6,0:0:0:0:
264,130,262820,1,0,0:0:0:0:
382,283,262977,1,8,0:0:0:0:
156,212,263135,1,0,0:0:0:0:
238,18,263292,1,2,0:0:0:0:
295,268,263449,1,0,0:0:0:0:
125,165,263606,2,0,L|82:158,3,37.9999988403321,8|2|2|0,0:0|0:3|0:3|0:0,0:0:0:0:
405,164,263920,5,6,0:0:0:0:
301,116,264077,1,0,0:0:0:0:
232,207,264234,1,8,0:0:0:0:
125,165,264391,1,0,0:0:0:0:
244,308,264548,1,6,0:0:0:0:
301,116,264705,1,0,0:0:0:0:
238,42,264862,2,0,P|168:42|105:61,1,113.999996520996,8|0,0:0|0:0,0:0:0:0:
95,217,265176,5,8,0:0:0:0:
95,217,265255,1,2,0:3:0:0:
95,217,265333,1,2,0:3:0:0:
202,184,265491,1,8,0:0:0:0:
202,184,265569,1,2,0:3:0:0:
202,184,265648,1,2,0:3:0:0:
304,226,265805,1,8,0:0:0:0:
304,226,265883,1,2,0:3:0:0:
304,226,265962,1,2,0:3:0:0:
370,314,266119,5,8,0:0:0:0:
409,263,266198,1,8,0:0:0:0:
428,203,266276,1,8,0:0:0:0:
426,139,266355,1,8,0:0:0:0:
402,79,266433,6,0,P|327:65|278:69,1,113.999996520996,6|0,0:0|0:0,0:0:0:0:
344,190,266747,2,0,L|411:212,1,56.9999982604981,8|2,0:0|0:3,0:0:0:0:
465,230,266904,1,0,0:0:0:0:
370,314,267061,1,2,0:0:0:0:
256,122,267218,1,0,0:0:0:0:
197,341,267375,2,0,L|81:350,1,113.999996520996,8|0,0:0|0:0,0:0:0:0:
148,94,267689,6,0,L|264:103,1,113.999996520996,2|0,0:0|0:0,0:0:0:0:
443,176,268004,2,0,L|374:181,1,56.9999982604981,8|2,0:0|0:3,0:0:0:0:
264,190,268161,1,0,0:0:0:0:
100,39,268318,2,0,P|93:96|103:152,1,113.999996520996,2|0,0:0|0:0,0:0:0:0:
232,357,268632,2,0,P|242:301|235:244,1,113.999996520996,8|0,0:0|0:0,0:0:0:0:
62,334,268946,5,2,0:0:0:0:
217,219,269103,1,0,0:0:0:0:
317,339,269260,2,0,L|329:268,1,56.9999982604981,8|2,0:0|0:3,0:0:0:0:
349,117,269417,1,0,0:0:0:0:
420,328,269574,1,2,0:0:0:0:
133,281,269731,1,0,0:0:0:0:
249,77,269888,1,8,0:0:0:0:
295,339,270045,1,0,0:0:0:0:
307,191,270203,6,0,L|436:185,1,113.999996520996,2|0,0:0|0:0,0:0:0:0:
104,24,270517,2,0,P|96:61|95:90,1,56.9999982604981,8|2,0:0|0:3,0:0:0:0:
125,168,270674,1,0,0:0:0:0:
64,302,270831,1,2,0:0:0:0:
327,281,270988,1,0,0:0:0:0:
160,254,271145,2,0,L|220:245,1,56.9999982604981,8|2,0:0|0:3,0:0:0:0:
236,156,271302,2,0,L|179:147,1,56.9999982604981,8|2,0:0|0:3,0:0:0:0:
154,44,271459,6,0,L|310:36,1,113.999996520996,2|0,0:0|0:0,0:0:0:0:
412,265,271773,2,0,L|392:201,1,56.9999982604981,8|2,0:0|0:3,0:0:0:0:
360,113,271930,1,0,0:0:0:0:
252,325,272087,2,0,P|182:328|136:314,1,113.999996520996,2|0,0:0|0:0,0:0:0:0:
29,174,272402,5,8,0:0:0:0:
51,171,272454,1,2,0:3:0:0:
74,168,272506,1,0,0:0:0:0:
96,166,272559,1,0,0:0:0:0:
227,184,272716,6,0,L|229:62,1,113.999996520996,2|0,0:0|0:0,0:0:0:0:
96,166,273030,2,0,L|164:159,1,56.9999982604981,8|2,0:0|0:3,0:0:0:0:
301,134,273187,1,0,0:0:0:0:
59,112,273344,1,2,0:0:0:0:
309,68,273501,1,0,0:0:0:0:
181,279,273658,5,8,0:0:0:0:
181,279,273710,1,0,0:3:0:0:
181,279,273763,1,0,0:0:0:0:
181,279,273815,1,0,0:0:0:0:
267,348,273972,6,0,P|317:334|384:336,1,113.999996520996,2|0,0:0|0:0,0:0:0:0:
181,279,274286,2,0,P|131:265|64:267,1,113.999996520996,8|0,0:0|0:0,0:0:0:0:
273,39,274600,2,0,L|276:170,1,113.999996520996,2|0,0:0|0:0,0:0:0:0:
473,214,274915,2,0,L|427:214,3,37.9999988403321,8|0|2|0,0:0|0:3|0:3|0:3,0:0:0:0:
218,178,275229,5,2,0:0:0:0:
47,266,275386,1,0,0:0:0:0:
161,94,275543,2,0,L|164:166,1,56.9999982604981,8|2,0:0|0:3,0:0:0:0:
165,311,275700,1,0,0:0:0:0:
309,78,275857,1,2,0:0:0:0:
304,263,276014,1,0,0:0:0:0:
201,71,276171,5,8,0:0:0:0:
256,57,276250,1,2,0:3:0:0:
312,59,276328,1,8,0:0:0:0:
366,78,276407,1,2,0:3:0:0:
412,112,276485,6,0,B|421:25|421:25|412:-2,1,113.999996520996,6|0,0:0|0:0,0:0:0:0:
242,172,276799,2,0,L|177:185,1,56.9999982604981,8|2,0:0|0:3,0:0:0:0:
160,286,276956,1,0,0:0:0:0:
91,145,277114,1,2,0:0:0:0:
232,76,277271,1,0,0:0:0:0:
301,217,277428,2,0,L|366:204,1,56.9999982604981,8|2,0:0|0:3,0:0:0:0:
449,179,277585,1,0,0:0:0:0:
313,317,277742,6,0,P|242:333|172:313,1,113.999996520996,2|0,0:0|0:0,0:0:0:0:
89,127,278056,2,0,L|85:195,1,56.9999982604981,8|2,0:0|0:3,0:0:0:0:
76,296,278213,1,0,0:0:0:0:
189,201,278370,1,2,0:0:0:0:
197,28,278527,1,0,0:0:0:0:
398,116,278684,2,0,L|338:120,2,56.9999982604981,8|2|0,0:0|0:3|0:0,0:0:0:0:
484,205,278998,6,0,L|366:212,1,113.999996520996,6|0,0:0|0:0,0:0:0:0:
206,288,279313,2,0,L|211:229,1,56.9999982604981,8|2,0:0|0:3,0:0:0:0:
226,128,279470,1,0,0:0:0:0:
298,339,279627,1,2,0:0:0:0:
70,263,279784,1,0,0:0:0:0:
337,174,279941,2,0,L|270:174,1,56.9999982604981,8|2,0:0|0:3,0:0:0:0:
75,177,280098,1,0,0:0:0:0:
162,336,280255,5,2,0:0:0:0:
188,61,280412,1,0,0:0:0:0:
280,309,280569,1,8,0:0:0:0:
280,309,280648,1,2,0:3:0:0:
280,309,280726,1,0,0:0:0:0:
348,97,280883,1,2,0:0:0:0:
387,325,281040,1,0,0:0:0:0:
278,49,281197,6,0,L|269:131,1,56.9999982604981,8|2,0:0|0:3,0:0:0:0:
190,313,281354,2,0,L|181:231,1,56.9999982604981,8|2,0:0|0:3,0:0:0:0:
84,100,281511,6,0,L|218:76,1,113.999996520996,6|0,0:0|0:0,0:0:0:0:
336,278,281826,2,0,L|279:271,1,56.9999982604981,10|2,0:0|0:3,0:0:0:0:
176,258,281983,1,0,0:0:0:0:
349,139,282140,6,0,L|290:184,1,56.9999982604981,10|2,0:0|0:3,0:0:0:0:
168,280,282297,1,0,0:0:0:0:
198,56,282454,6,0,L|189:129,1,56.9999982604981,10|2,0:0|0:3,0:0:0:0:
166,305,282611,1,8,0:0:0:0:
400,284,282768,5,14,0:0:0:0:
109,199,282925,1,0,0:0:0:0:
230,79,283082,1,10,0:0:0:0:
230,79,283161,1,2,0:3:0:0:
230,79,283239,1,0,0:0:0:0:
331,355,283396,5,10,0:0:0:0:
331,355,283475,1,2,0:3:0:0:
331,355,283553,1,0,0:0:0:0:
64,265,283710,5,10,0:0:0:0:
57,227,283763,1,2,0:3:0:0:
58,189,283815,1,2,0:3:0:0:
68,152,283867,1,0,0:0:0:0:
178,317,284025,5,14,0:0:0:0:
391,214,284182,1,8,0:0:0:0:
227,43,284339,1,8,0:0:0:0:
271,347,284496,1,8,0:0:0:0:
98,285,284653,1,14,0:0:0:0:
109,241,284731,1,8,0:0:0:0:
94,197,284810,1,8,0:0:0:0:
60,166,284888,1,8,0:0:0:0:
31,130,284967,1,8,0:0:0:0:
40,87,285045,1,8,0:0:0:0:
79,59,285124,1,8,0:0:0:0:
124,58,285203,1,8,0:0:0:0:
162,82,285281,6,0,L|206:84,4,28.4999991302491,0|0|0|0|8,0:0|0:0|0:0|0:0|0:0,0:0:0:0:
157,176,285752,1,0,0:0:0:0:
157,176,285831,1,0,0:0:0:0:
157,176,285909,6,0,P|246:175|288:151,1,133
290,134,286224,6,0,L|297:358,1,213.750008153916,4|0,1:1|0:0,0:0:0:0:
297,348,286538,6,0,L|236:350,1,56.9999982604981,14|0,0:0|0:0,0:0:0:0:
93,279,286695,1,0,0:0:0:0:
93,279,286773,1,0,0:0:0:0:
93,279,286852,2,0,L|175:274,1,56.9999982604981,10|0,0:0|0:0,0:0:0:0:
198,103,287009,1,0,0:0:0:0:
198,103,287087,1,0,0:0:0:0:
198,103,287166,2,0,L|209:171,1,56.9999982604981,10|0,0:0|0:0,0:0:0:0:
382,113,287323,1,0,0:0:0:0:
382,113,287402,1,0,0:0:0:0:
382,113,287480,2,0,L|393:45,1,56.9999982604981,10|0,0:0|0:0,0:0:0:0:
428,240,287637,1,0,0:0:0:0:
428,240,287716,1,0,0:0:0:0:
428,240,287794,5,10,0:0:0:0:
387,271,287873,1,0,0:0:0:0:
337,281,287951,1,0,0:0:0:0:
288,268,288030,1,0,0:0:0:0:
240,249,288108,1,10,0:0:0:0:
188,249,288187,1,0,0:0:0:0:
144,274,288265,1,0,0:0:0:0:
112,315,288344,1,0,0:0:0:0:
61,321,288422,1,10,0:0:0:0:
16,295,288501,1,0,0:0:0:0:
12,243,288580,1,0,0:0:0:0:
37,198,288658,1,0,0:0:0:0:
85,180,288737,2,0,L|148:185,3,56.9999982604981,10|0|0|0,0:0|0:0|0:0|0:0,0:0:0:0:
212,289,289051,6,0,L|213:225,1,56.9999982604981,14|0,0:0|0:0,0:0:0:0:
285,63,289208,2,0,L|284:127,1,56.9999982604981
300,228,289365,1,10,0:0:0:0:
350,233,289443,1,0,0:0:0:0:
400,220,289522,1,0,0:0:0:0:
429,178,289600,1,0,0:0:0:0:
423,126,289679,1,10,0:0:0:0:
416,116,289758,1,0,0:0:0:0:
407,108,289836,2,0,P|378:90|348:79,1,56.9999982604981
178,197,289993,1,10,0:0:0:0:
186,204,290072,1,0,0:0:0:0:
196,209,290150,2,0,L|254:212,1,56.9999982604981
95,303,290307,5,10,0:0:0:0:
95,303,290386,1,0,0:0:0:0:
95,303,290464,2,0,L|99:205,1,56.9999982604981
178,74,290621,1,10,0:0:0:0:
178,74,290700,1,0,0:0:0:0:
178,74,290778,2,0,L|180:130,1,56.9999982604981
256,308,290936,1,10,0:0:0:0:
256,308,291014,1,0,0:0:0:0:
256,308,291093,2,0,L|328:302,1,56.9999982604981
373,163,291250,5,10,0:0:0:0:
321,139,291328,1,0,0:0:0:0:
263,137,291407,1,8,0:0:0:0:
209,156,291485,1,0,0:0:0:0:
186,208,291564,5,14,0:0:0:0:
178,252,291642,1,0,0:0:0:0:
150,287,291721,1,0,0:0:0:0:
107,302,291799,1,0,0:0:0:0:
63,293,291878,1,10,0:0:0:0:
29,263,291956,1,0,0:0:0:0:
18,219,292035,1,0,0:0:0:0:
27,176,292114,1,0,0:0:0:0:
59,143,292192,1,10,0:0:0:0:
102,129,292271,1,0,0:0:0:0:
147,129,292349,1,0,0:0:0:0:
191,142,292428,1,0,0:0:0:0:
227,171,292506,1,10,0:0:0:0:
270,185,292585,1,0,0:0:0:0:
313,171,292663,1,0,0:0:0:0:
345,139,292742,1,0,0:0:0:0:
353,94,292820,6,0,P|354:56|351:25,3,56.9999982604981,10|0|0|0,0:0|0:0|0:0|0:0,0:0:0:0:
313,171,293135,2,0,P|312:209|315:240,3,56.9999982604981,10|0|0|0,0:0|0:0|0:0|0:0,0:0:0:0:
259,371,293449,2,0,P|259:342|257:314,1,56.9999982604981,10|0,0:0|0:0,0:0:0:0:
142,213,293606,2,0,P|141:241|144:270,1,56.9999982604981
313,171,293763,2,0,P|313:142|311:114,1,56.9999982604981,10|0,0:0|0:0,0:0:0:0:
196,13,293920,2,0,P|195:41|197:69,1,56.9999982604981
231,216,294077,5,14,0:0:0:0:
221,171,294155,1,0,0:0:0:0:
190,137,294234,1,0,0:0:0:0:
144,130,294313,1,0,0:0:0:0:
100,140,294391,1,10,0:0:0:0:
54,131,294470,1,0,0:0:0:0:
31,91,294548,1,0,0:0:0:0:
35,45,294627,1,0,0:0:0:0:
69,15,294705,1,10,0:0:0:0:
114,19,294784,1,0,0:0:0:0:
153,41,294862,1,0,0:0:0:0:
198,41,294941,1,0,0:0:0:0:
237,19,295019,1,10,0:0:0:0:
282,16,295098,1,0,0:0:0:0:
323,34,295176,1,0,0:0:0:0:
335,78,295255,1,0,0:0:0:0:
334,123,295333,6,0,L|333:192,1,56.9999982604981,10|0,0:0|0:0,0:0:0:0:
250,333,295491,2,0,L|251:264,1,56.9999982604981
209,80,295648,2,0,L|208:149,1,56.9999982604981,10|0,0:0|0:0,0:0:0:0:
96,308,295805,2,0,L|97:239,1,56.9999982604981
286,202,295962,2,0,L|367:210,1,56.9999982604981,10|0,0:0|0:0,0:0:0:0:
142,108,296119,2,0,L|61:116,1,56.9999982604981
44,257,296276,5,10,0:0:0:0:
108,278,296354,1,0,0:0:0:0:
176,275,296433,1,8,0:0:0:0:
240,254,296511,1,8,0:0:0:0:
286,202,296590,5,6,0:0:0:0:
215,71,296747,1,2,0:0:0:0:
176,275,296904,1,10,0:0:0:0:
362,174,297061,1,2,0:0:0:0:
118,135,297218,1,10,0:0:0:0:
388,204,297375,1,2,0:0:0:0:
200,58,297532,1,10,0:0:0:0:
221,339,297689,1,2,0:0:0:0:
28,157,297847,5,14,0:0:0:0:
320,166,298004,1,2,0:0:0:0:
138,65,298161,2,0,P|137:93|143:121,1,56.9999982604981,10|2,0:0|0:3,0:0:0:0:
312,298,298318,1,2,0:0:0:0:
134,236,298475,1,10,0:0:0:0:
269,48,298632,1,2,0:0:0:0:
372,223,298789,1,10,0:0:0:0:
68,208,298946,1,2,0:0:0:0:
314,207,299103,5,14,0:0:0:0:
215,41,299260,1,2,0:0:0:0:
486,142,299417,1,10,0:0:0:0:
122,178,299574,1,2,0:0:0:0:
334,38,299731,1,10,0:0:0:0:
291,330,299888,1,2,0:0:0:0:
107,168,300045,1,10,0:0:0:0:
428,221,300203,1,2,0:0:0:0:
291,330,300360,5,14,0:0:0:0:
166,65,300517,1,2,0:0:0:0:
150,334,300674,6,0,L|193:279,1,56.9999982604981,10|2,0:0|0:3,0:0:0:0:
321,125,300831,1,2,0:0:0:0:
36,172,300988,5,10,0:0:0:0:
383,289,301145,1,2,0:0:0:0:
264,31,301302,5,10,0:0:0:0:
150,334,301459,1,2,0:0:0:0:
101,232,301616,6,0,P|153:223|209:235,1,95,12|0,0:0|0:0,0:0:0:0:
346,279,301930,1,0,0:3:0:0:
355,66,302087,1,0,0:0:0:0:
404,168,302244,2,0,P|352:177|296:165,1,95,12|0,0:0|0:0,0:0:0:0:
140,64,302559,1,2,0:3:0:0:
58,214,302716,1,0,0:0:0:0:
58,214,302794,1,0,0:0:0:0:
58,214,302873,5,14,0:0:0:0:
97,229,302951,1,0,0:0:0:0:
140,227,303030,1,0,0:0:0:0:
178,208,303108,1,0,0:0:0:0:
205,176,303187,1,10,0:0:0:0:
217,135,303265,1,0,0:0:0:0:
209,92,303344,1,0,0:0:0:0:
211,49,303422,1,0,0:0:0:0:
243,20,303501,1,14,0:0:0:0:
285,16,303580,1,0,0:0:0:0:
323,33,303658,1,0,0:0:0:0:
333,74,303737,1,0,0:0:0:0:
335,116,303815,1,10,0:0:0:0:
349,156,303894,1,0,0:0:0:0:
389,169,303972,1,0,0:0:0:0:
431,171,304051,1,0,0:0:0:0:
472,160,304129,5,14,0:0:0:0:
434,131,304208,1,0,0:0:0:0:
389,117,304286,1,10,0:0:0:0:
342,111,304365,1,0,0:0:0:0:
295,115,304443,1,10,0:0:0:0:
248,136,304522,1,0,0:0:0:0:
219,178,304600,1,10,0:0:0:0:
202,227,304679,1,0,0:0:0:0:
157,252,304758,1,14,0:0:0:0:
97,245,304836,1,2,0:0:0:0:
52,204,304915,1,10,0:0:0:0:
49,144,304993,1,2,0:0:0:0:
81,93,305072,2,0,L|102:92,2,21.3749993476868,10|2|2,0:0|0:0|0:0,0:0:0:0:
198,49,305229,2,0,L|177:50,2,21.3749993476868,2|2|2,0:0|0:0|0:0,0:0:0:0:
131,165,305386,5,0,0:0:0:0:
131,165,305464,1,0,0:0:0:0:
131,165,305543,1,0,0:0:0:0:
131,165,305621,1,0,0:0:0:0:
131,165,305700,1,8,0:0:0:0:
158,283,305857,2,0,L|215:283,1,42.7499986953736
337,277,306014,2,0,L|243:281,1,85.4999973907472,2|2,0:0|0:0,0:0:0:0:
208,147,306328,6,0,L|203:212,1,56.9999982604981,10|0,0:0|0:0,0:0:0:0:
327,94,306485,2,0,L|321:38,1,56.9999982604981,2|0,0:3|0:0,0:0:0:0:
427,189,306642,6,0,L|218:198,1,170.999994781494,6|8,0:0|0:0,0:0:0:0:
171,268,307114,1,0,0:0:0:0:
67,156,307271,2,0,P|59:212|62:254,1,85.4999973907472,2|0,0:0|0:0,0:0:0:0:
185,277,307585,2,0,P|185:234|178:192,1,85.4999973907472,8|0,0:0|0:0,0:0:0:0:
310,274,307899,6,0,L|411:269,1,85.4999973907472,2|0,0:0|0:0,0:0:0:0:
401,157,308213,2,0,L|300:162,1,85.4999973907472,8|0,0:0|0:0,0:0:0:0:
202,274,308527,1,2,0:0:0:0:
202,274,308684,1,0,0:0:0:0:
111,157,308841,2,0,L|212:162,1,85.4999973907472,8|0,0:0|0:0,0:0:0:0:
336,132,309155,6,0,P|358:81|359:31,1,85.4999973907472,2|0,0:0|0:0,0:0:0:0:
151,51,309470,2,0,P|157:93|176:132,1,85.4999973907472,8|0,0:0|0:0,0:0:0:0:
335,251,309784,2,0,P|354:290|360:332,1,85.4999973907472,2|0,0:0|0:0,0:0:0:0:
151,332,310098,2,0,P|157:290|176:251,1,85.4999973907472,8|0,0:0|0:0,0:0:0:0:
282,157,310412,6,0,L|373:154,1,85.4999973907472,2|0,0:0|0:0,0:0:0:0:
469,149,310726,1,8,0:0:0:0:
469,149,310805,1,0,0:0:0:0:
469,149,310883,1,0,0:0:0:0:
335,251,311040,2,0,B|285:254|285:254|229:241,1,85.4999973907472,2|0,0:0|0:0,0:0:0:0:
74,188,311354,2,0,L|69:240,1,42.7499986953736,8|0,0:0|0:0,0:0:0:0:
111,109,311511,2,0,L|68:78,1,42.7499986953736,8|0,0:0|0:0,0:0:0:0:
161,181,311669,6,0,L|256:137,1,85.4999973907472,2|0,0:0|0:0,0:0:0:0:
340,158,311983,1,8,0:0:0:0:
331,260,312140,1,0,0:0:0:0:
334,143,312297,2,0,P|333:91|340:48,1,85.4999973907472,2|0,0:0|0:0,0:0:0:0:
242,152,312611,2,0,P|243:204|236:247,1,85.4999973907472,8|0,0:0|0:0,0:0:0:0:
80,292,312925,5,2,0:0:0:0:
178,320,313082,1,0,0:0:0:0:
278,300,313239,2,0,P|326:299|373:310,1,85.4999973907472,8|0,0:0|0:0,0:0:0:0:
178,320,313553,1,2,0:0:0:0:
158,220,313710,1,0,0:0:0:0:
186,122,313867,2,0,P|193:80|192:37,1,85.4999973907472,8|0,0:0|0:0,0:0:0:0:
322,179,314182,6,0,L|416:183,1,85.4999973907472,2|0,0:0|0:0,0:0:0:0:
214,200,314496,2,0,L|120:204,1,85.4999973907472,8|0,0:0|0:0,0:0:0:0:
355,265,314810,2,0,L|449:269,1,85.4999973907472,2|0,0:0|0:0,0:0:0:0:
197,286,315124,2,0,L|103:290,1,85.4999973907472,8|0,0:0|0:0,0:0:0:0:
0,325,315438,5,2,0:0:0:0:
12,105,316066,6,0,L|103:100,1,71.25
127,156,316381,5,10,0:0:0:0:
168,148,316459,1,0,0:0:0:0:
202,122,316538,1,2,0:3:0:0:
219,83,316616,1,0,0:0:0:0:
218,40,316695,6,0,P|269:23|318:29,1,85.4999973907472,6|0,0:0|0:0,0:0:0:0:
330,181,317009,2,0,P|297:154|276:118,1,85.4999973907472,8|0,0:0|0:0,0:0:0:0:
396,12,317323,2,0,P|389:54|368:90,1,85.4999973907472,2|0,0:0|0:0,0:0:0:0:
302,190,317637,2,0,P|280:226|274:268,1,85.4999973907472,8|0,0:0|0:0,0:0:0:0:
69,234,317951,5,2,0:0:0:0:
147,168,318108,1,0,0:0:0:0:
147,82,318265,2,0,L|147:179,1,85.4999973907472,8|0,0:0|0:0,0:0:0:0:
182,264,318580,1,2,0:0:0:0:
282,285,318737,1,0,0:0:0:0:
302,159,318894,2,0,P|342:156|389:164,1,85.4999973907472,8|0,0:0|0:0,0:0:0:0:
443,269,319208,6,0,L|347:263,1,85.4999973907472,2|0,0:0|0:0,0:0:0:0:
80,231,319522,2,0,L|176:225,1,85.4999973907472,8|0,0:0|0:0,0:0:0:0:
409,174,319836,2,0,L|313:168,1,85.4999973907472,2|0,0:0|0:0,0:0:0:0:
196,72,320150,1,8,0:0:0:0:
196,72,320229,1,0,0:0:0:0:
196,72,320307,1,0,0:0:0:0:
135,131,320464,6,0,P|133:185|138:224,1,85.4999973907472,2|0,0:0|0:0,0:0:0:0:
257,229,320778,2,0,P|259:175|254:136,1,85.4999973907472,8|0,0:0|0:0,0:0:0:0:
122,121,321093,2,0,P|120:175|125:214,1,85.4999973907472,2|0,0:0|0:0,0:0:0:0:
269,238,321407,2,0,L|271:182,1,42.7499986953736,8|2,0:0|0:3,0:0:0:0:
312,93,321564,2,0,L|314:149,1,42.7499986953736,8|0,0:0|0:0,0:0:0:0:
349,206,321721,6,0,P|403:202|446:180,1,85.4999973907472,2|0,0:0|0:0,0:0:0:0:
259,158,322035,2,0,P|205:162|162:184,1,85.4999973907472,8|0,0:0|0:0,0:0:0:0:
128,244,322349,1,2,0:0:0:0:
95,164,322506,1,0,0:0:0:0:
123,83,322663,1,8,0:0:0:0:
206,64,322820,1,0,0:0:0:0:
281,103,322977,6,0,L|382:88,1,85.4999973907472,2|0,0:0|0:0,0:0:0:0:
123,83,323292,2,0,L|22:68,1,85.4999973907472,8|0,0:0|0:0,0:0:0:0:
95,255,323606,2,0,P|89:206|100:159,1,85.4999973907472,2|0,0:0|0:0,0:0:0:0:
261,232,323920,2,0,P|267:281|256:328,1,85.4999973907472,8|0,0:0|0:0,0:0:0:0:
175,326,324234,5,2,0:0:0:0:
348,307,324391,1,0,0:0:0:0:
406,244,324548,2,0,L|401:143,1,85.4999973907472,8|0,0:0|0:0,0:0:0:0:
287,60,324862,2,0,L|292:161,1,85.4999973907472,2|0,0:0|0:0,0:0:0:0:
247,236,325176,1,8,0:0:0:0:
247,236,325255,1,0,0:0:0:0:
247,236,325333,1,0,0:0:0:0:
93,285,325491,5,8,0:0:0:0:
438,165,325805,1,8,0:0:0:0:
48,41,326119,1,8,0:0:0:0:
350,207,326354,1,8,0:0:0:0:
350,207,326433,5,8,0:0:0:0:
308,211,326511,1,8,0:0:0:0:
265,215,326590,1,8,0:0:0:0:
223,219,326669,1,8,0:0:0:0:
180,223,326747,6,0,L|10:239,1,152,4|8,0:0|0:0,0:0:0:0:
83,314,327218,1,0,0:0:0:0:
133,151,327375,2,0,L|140:254,1,76,2|0,0:0|0:0,0:0:0:0:
220,315,327689,2,0,L|227:212,1,76,8|0,0:0|0:0,0:0:0:0:
251,116,328004,6,0,P|149:116|92:81,1,152,2|8,0:0|0:0,0:0:0:0:
58,161,328475,1,0,0:0:0:0:
104,232,328632,2,0,P|68:242|31:240,1,76,2|0,0:0|0:0,0:0:0:0:
201,188,328946,2,0,P|237:177|274:180,1,76,8|0,0:0|0:0,0:0:0:0:
353,227,329260,6,0,P|363:191|361:154,1,76,2|0,0:0|0:0,0:0:0:0:
287,98,329574,2,0,P|276:134|279:171,1,76,8|0,0:0|0:0,0:0:0:0:
278,255,329888,2,0,P|240:252|204:262,1,76,2|0,0:0|0:0,0:0:0:0:
260,336,330203,2,0,P|297:338|333:328,1,76,8|0,0:0|0:0,0:0:0:0:
118,336,330517,6,0,L|30:339,1,76,2|0,0:0|0:0,0:0:0:0:
42,262,330831,2,0,L|130:265,1,76,8|0,0:0|0:0,0:0:0:0:
118,188,331145,2,0,L|30:191,1,76,2|0,0:0|0:0,0:0:0:0:
139,91,331459,2,0,L|139:63,1,19,8|0,0:0|0:0,0:0:0:0:
244,90,331616,2,0,L|244:62,1,19,8|0,0:0|0:0,0:0:0:0:
260,179,331773,6,0,P|283:263|256:347,1,152,2|8,0:0|0:0,0:0:0:0:
186,340,332244,1,0,0:0:0:0:
130,227,332402,2,0,L|129:141,1,76,2|0,0:0|0:0,0:0:0:0:
236,45,332716,2,0,L|237:131,1,76,8|0,0:0|0:0,0:0:0:0:
331,191,333030,6,0,L|414:185,1,76,2|0,0:0|0:0,0:0:0:0:
380,71,333344,2,0,L|297:65,1,76,8|0,0:0|0:0,0:0:0:0:
221,54,333658,1,2,0:0:0:0:
144,86,333815,1,0,0:0:0:0:
105,160,333972,2,0,P|103:211|111:263,1,76,8|0,0:0|0:0,0:0:0:0:
199,283,334286,6,0,P|201:232|193:180,1,76,2|0,0:0|0:0,0:0:0:0:
116,333,334600,1,8,0:0:0:0:
192,367,334758,1,0,0:0:0:0:
272,344,334915,1,2,0:0:0:0:
315,272,335072,1,0,0:0:0:0:
319,188,335229,2,0,P|313:134|303:92,1,76,8|0,0:0|0:0,0:0:0:0:
206,274,335543,5,2,0:0:0:0:
122,171,335700,1,0,0:0:0:0:
87,273,335857,2,0,P|86:322|92:352,1,76,8|0,0:0|0:0,0:0:0:0:
206,274,336171,1,2,0:0:0:0:
302,252,336328,1,0,0:0:0:0:
340,118,336485,5,8,0:0:0:0:
292,114,336564,1,8,0:0:0:0:
245,110,336642,1,8,0:0:0:0:
197,106,336721,1,8,0:0:0:0:
150,102,336799,6,0,P|142:219|170:283,1,190,6|10,0:0|0:0,0:0:0:0:
288,322,337271,1,0,0:0:0:0:
342,135,337428,2,0,L|335:235,1,95,10|0,0:0|0:0,0:0:0:0:
207,76,337742,2,0,L|213:170,1,95,10|0,0:0|0:0,0:0:0:0:
288,322,338056,5,10,0:0:0:0:
130,270,338213,1,0,0:0:0:0:
329,188,338370,2,0,L|331:293,1,95,10|0,0:0|0:0,0:0:0:0:
206,170,338684,1,10,0:0:0:0:
201,25,338841,1,0,0:0:0:0:
211,185,338998,2,0,L|204:293,1,95,10|0,0:0|0:0,0:0:0:0:
391,96,339313,6,0,L|292:91,1,95,14|0,0:0|0:0,0:0:0:0:
196,187,339627,1,10,0:0:0:0:
96,105,339784,1,0,0:0:0:0:
18,261,339941,1,10,0:0:0:0:
106,316,340098,1,0,0:0:0:0:
204,280,340255,2,0,B|253:276|253:276|306:286,1,95,10|0,0:0|0:0,0:0:0:0:
196,187,340569,5,10,0:0:0:0:
173,20,340726,1,0,0:0:0:0:
174,187,340883,5,10,0:0:0:0:
223,9,341040,1,0,0:0:0:0:
153,181,341197,5,10,0:0:0:0:
265,41,341354,1,0,0:0:0:0:
433,164,341511,5,10,0:0:0:0:
140,314,341826,5,14,0:0:0:0:
140,199,341983,1,8,0:0:0:0:
239,259,342140,1,10,0:0:0:0:
129,332,342297,1,8,0:0:0:0:
166,118,342454,1,10,0:0:0:0:
260,312,342611,1,8,0:0:0:0:
71,211,342768,1,10,0:0:0:0:
284,181,342925,1,8,0:0:0:0:
380,319,343082,5,14,0:0:0:0:
381,102,343239,1,8,0:0:0:0:
436,190,343396,1,10,0:0:0:0:
213,149,343553,1,8,0:0:0:0:
145,228,343710,1,10,0:0:0:0:
307,242,343867,1,8,0:0:0:0:
213,54,344025,2,0,L|213:159,1,95,10|8,0:0|0:0,0:0:0:0:
159,285,344339,5,14,0:0:0:0:
195,295,344417,1,0,0:0:0:0:
233,296,344496,1,8,0:0:0:0:
269,287,344574,1,0,0:0:0:0:
306,279,344653,1,10,0:0:0:0:
340,293,344731,1,0,0:0:0:0:
377,301,344810,1,8,0:0:0:0:
414,299,344888,1,0,0:0:0:0:
455,274,344967,5,6,0:0:0:0:
473,231,345045,1,0,0:0:0:0:
465,184,345124,1,2,0:0:0:0:
434,149,345202,1,0,0:0:0:0:
389,135,345281,1,2,0:0:0:0:
341,138,345360,1,0,0:0:0:0:
301,112,345438,1,2,0:0:0:0:
293,64,345517,1,2,0:0:0:0:
91,245,346538,5,8,0:0:0:0:
421,139,346852,5,4,0:0:0:0:
256,192,346930,12,0,350621,0:0:0:0:
