osu file format v14

[General]
AudioFilename: 08 MariannE.mp3
AudioLeadIn: 2000
PreviewTime: 153354
Countdown: 0
SampleSet: Normal
StackLeniency: 0.5
Mode: 1
LetterboxInBreaks: 0
EpilepsyWarning: 1
WidescreenStoryboard: 1

[Editor]
Bookmarks: 20153,40257,60362,80467,103085,123189,143294,163399,186017,206121,226226,246331,266435,286540,306645,326749
DistanceSpacing: 1
BeatDivisor: 4
GridSize: 4
TimelineZoom: 1.4

[Metadata]
Title:MariannE
TitleUnicode:MariannE
Artist:Yooh
ArtistUnicode:Yooh
Creator:neonat
Version:Taiko Collab
Source:
Tags:handsome Jerry Fullerene- mingmichael CLSW Nardoxyribonucleic Guy Xinely Tidek Ichigaki Fort Sayaka- pishifat Irreversible aabc271 _Gezo_ qoot8123 Kuo Kyoka DE-CADE Spectator kakattekoyeah c.h.s gothic themed c87 Raymond Minato Yukina Neppu CiiyusMiapah Nardo Unmei Muma
BeatmapID:647745
BeatmapSetID:285577

[Difficulty]
HPDrainRate:5
CircleSize:5
OverallDifficulty:6
ApproachRate:7
SliderMultiplier:1.4
SliderTickRate:1

[Events]
//Background and Video events
0,0,"SO57p38.jpg",0,0
//Break Periods
//Storyboard Layer 0 (Background)
//Storyboard Layer 1 (Fail)
//Storyboard Layer 2 (Pass)
//Storyboard Layer 3 (Foreground)
Sprite,Foreground,Centre,"SB\Marianne.png",320,240 F,0,40265,40765,0,1 F,0,44663,44863,1,0 M,2,44663,45163,320,360,320,260
Sprite,Foreground,Centre,"SB\collabtaiko.png",320,240 F,0,45291,45491,0,1 M,1,45291,45791,320,400,320,360 F,0,48747,48947,1,0 M,2,48747,49247,320,360,320,260
Sprite,Foreground,Centre,"SB\sb.png",320,240 F,0,49218,49418,0,1 M,1,49218,49718,320,400,320,360 F,0,50003,50203,1,0 M,2,50003,50503,320,360,320,260
Sprite,Foreground,Centre,"SB\whitenamebar.png",320,240 F,0,-300,0,0,0.9 C,0,0,20003,255,176,195 M,0,0,300000,475,275 S,0,0,300000,0.75 C,0,20003,,255,176,195,228,176,255 C,0,40108,40265,228,176,255,135,255,120 C,0,60213,60370,135,255,120,255,190,115 C,0,80317,80474,255,190,115,140,205,255 C,0,102935,103092,140,205,255,135,255,120 C,0,123040,123197,135,255,120,255,176,195 C,0,143145,143302,255,176,195,140,205,255 C,0,163249,163406,140,205,255,228,176,255 C,0,185867,186024,228,176,255,255,190,115 C,0,205972,206129,255,190,115,135,255,120 C,0,226076,226233,135,255,120,140,205,255 C,0,246181,246338,140,205,255,228,176,255 C,0,266286,266443,228,176,255,255,190,115 C,0,286391,286548,255,190,115,255,176,195 C,0,306495,306652,255,176,195,140,205,255 C,0,326600,326757,140,205,255,255,190,115 F,0,348118,348418,1,0
Sprite,Foreground,Centre,"SB\Names\aabc271.png",320,240 M,0,0,300000,475,275 S,0,0,300000,0.75 F,0,60370,60670,0,1 F,0,80317,80617,1,0 F,0,186024,186324,0,1 F,0,205972,206272,1,0 F,0,266443,266743,0,1 F,0,286391,286691,1,0 F,0,326757,327057,0,1 F,0,348118,348418,1,0
Sprite,Foreground,Centre,"SB\Names\qoot.png",320,240 F,0,0,300,0,1 M,0,0,300000,475,275 S,0,0,300000,0.75 F,0,20003,20303,1,0 F,0,123197,123497,0,1 F,0,143145,143445,1,0 F,0,286548,286848,0,1 F,0,306495,306795,1,0
Sprite,Foreground,Centre,"SB\Names\Jerry.png",320,240 M,0,0,300000,475,275 S,0,0,300000,0.75 F,0,80474,80774,0,1 F,0,102935,103235,1,0 F,0,143302,143602,0,1 F,0,163249,163549,1,0 F,0,226233,226533,0,1 F,0,246181,246481,1,0 F,0,306652,306952,0,1 F,0,326600,326900,1,0
Sprite,Foreground,Centre,"SB\Names\Nardo.png",320,240 M,0,0,300000,475,275 S,0,0,300000,0.75 F,0,20003,20303,0,1 F,0,40108,40408,1,0 F,0,163406,163706,0,1 F,0,185867,186167,1,0 F,0,246338,246638,0,1 F,0,266286,266586,1,0
Sprite,Foreground,Centre,"SB\Names\neonat.png",320,240 M,0,0,300000,475,275 S,0,0,300000,0.75 F,0,40265,40565,0,1 F,0,60213,60513,1,0 F,0,103092,103392,0,1 F,0,123040,123340,1,0 F,0,206129,206429,0,1 F,0,226076,226376,1,0
//Storyboard Sound Samples

[TimingPoints]
56,314.13612565445,4,1,0,70,1,0
55343,-98.0392156862745,4,1,0,70,0,0
55972,-96.1538461538461,4,1,0,70,0,0
56600,-94.3396226415094,4,1,0,70,0,0
57228,-92.5925925925926,4,1,0,70,0,0
57857,-90.9090909090909,4,1,0,70,0,0
59427,-92.5925925925926,4,1,0,70,0,0
59741,-94.3396226415094,4,1,0,70,0,0
59898,-96.1538461538461,4,1,0,70,0,0
60370,-98.0392156862745,4,1,0,70,0,0
60527,-99.009900990099,4,1,0,70,0,0
60841,-100,4,1,0,70,0,0
75448,-98.0392156862745,4,1,0,70,0,0
76705,-96.1538461538461,4,1,0,70,0,0
77961,-94.3396226415094,4,1,0,70,0,0
78590,-92.5925925925926,4,1,0,70,0,0
79218,-90.9090909090909,4,1,0,70,0,0
80631,-91.743119266055,4,1,0,70,0,0
80788,-92.5925925925926,4,1,0,70,0,0
80946,-93.4579439252336,4,1,0,70,0,0
81103,-94.3396226415094,4,1,0,70,0,0
81260,-95.2380952380952,4,1,0,70,0,0
81417,-96.1538461538461,4,1,0,70,0,0
81574,-97.0873786407767,4,1,0,70,0,0
81731,-98.0392156862745,4,1,0,70,0,0
81888,-99.009900990099,4,1,0,70,0,0
82045,-100,4,1,0,70,0,0
143302,-90.9090909090909,4,1,0,70,0,1
186024,-100,4,1,0,70,0,0
187281,-200,4,1,0,70,0,0
205186,-160,4,1,0,70,0,0
205501,-133.333333333333,4,1,0,70,0,0
205815,-114.285714285714,4,1,0,70,0,0
206129,-100,4,1,0,70,0,0
216181,-98.0392156862745,4,1,0,70,0,0
218694,-96.1538461538461,4,1,0,70,0,0
221207,-94.3396226415094,4,1,0,70,0,0
221836,-92.5925925925926,4,1,0,70,0,0
222464,-90.9090909090909,4,1,0,70,0,0
223092,-89.2857142857143,4,1,0,70,0,0
223720,-86.9565217391304,4,1,0,70,0,0
225291,-100,4,1,0,70,0,0
226234,-90.9090909090909,4,1,0,70,0,1
306652,-100,4,1,0,70,0,0
327385,-101.010101010101,4,1,0,70,0,0
328014,-102.040816326531,4,1,0,70,0,0
328642,-103.092783505155,4,1,0,70,0,0
329270,-104.166666666667,4,1,0,70,0,0
329898,-105.263157894737,4,1,0,70,0,0
330527,-106.382978723404,4,1,0,70,0,0
331155,-107.52688172043,4,1,0,70,0,0
331783,-108.695652173913,4,1,0,70,0,0
332412,-109.89010989011,4,1,0,70,0,0
333040,-111.111111111111,4,1,0,70,0,0
333668,-112.359550561798,4,1,0,70,0,0
334296,-113.636363636364,4,1,0,70,0,0
334925,-114.942528735632,4,1,0,70,0,0
335553,-116.279069767442,4,1,0,70,0,0
336181,-117.647058823529,4,1,0,70,0,0
337438,-116.279069767442,4,1,0,70,0,0
338066,-114.942528735632,4,1,0,70,0,0
338694,-113.636363636364,4,1,0,70,0,0
339323,-112.359550561798,4,1,0,70,0,0
339951,-111.111111111111,4,1,0,70,0,0
340579,-109.89010989011,4,1,0,70,0,0
341207,-108.695652173913,4,1,0,70,0,0
341836,-107.52688172043,4,1,0,70,0,0
341993,-106.951871657754,4,1,0,70,0,0
342150,-106.382978723404,4,1,0,70,0,0
342307,-105.820105820106,4,1,0,70,0,0
342464,-105.263157894737,4,1,0,70,0,0
342621,-104.712041884817,4,1,0,70,0,0
342778,-104.166666666667,4,1,0,70,0,0
342935,-103.626943005181,4,1,0,70,0,0
343092,-103.092783505155,4,1,0,70,0,0
343249,-102.040816326531,4,1,0,70,0,0
343406,-101.010101010101,4,1,0,70,0,0
343485,-100.502512562814,4,1,0,70,0,0
343563,-100,4,1,0,70,0,0
343720,-99.009900990099,4,1,0,70,0,0
343877,-98.0392156862745,4,1,0,70,0,0
344035,-97.0873786407767,4,1,0,70,0,0
344113,-96.6183574879227,4,1,0,70,0,0
344192,-96.1538461538461,4,1,0,70,0,0
344349,-95.2380952380952,4,1,0,70,0,0
344427,-94.7867298578199,4,1,0,70,0,0
344506,-94.3396226415094,4,1,0,70,0,0
344584,-93.8967136150235,4,1,0,70,0,0
344663,-93.4579439252336,4,1,0,70,0,0
344741,-93.0232558139535,4,1,0,70,0,0
344820,-92.5925925925926,4,1,0,70,0,0
344898,-92.1658986175115,4,1,0,70,0,0
344977,-91.743119266055,4,1,0,70,0,0
345055,-91.324200913242,4,1,0,70,0,0
345134,-90.9090909090909,4,1,0,70,0,0
345213,-90.4977375565611,4,1,0,70,0,0
345291,-90.0900900900901,4,1,0,70,0,0
345370,-89.6860986547085,4,1,0,70,0,0
345448,-89.2857142857143,4,1,0,70,0,0
345527,-88.8888888888889,4,1,0,70,0,0
345605,-88.4955752212389,4,1,0,70,0,0
346548,-200,4,1,0,70,0,0
346862,-200,4,1,0,50,0,0
347490,-200,4,1,0,45,0,0
348118,-200,4,1,0,40,0,0
348747,-200,4,1,0,35,0,0
349375,-200,4,1,0,30,0,0
350003,-200,4,1,0,25,0,0
350631,-200,4,1,0,20,0,0
351260,-200,4,1,0,15,0,0
351888,-200,4,1,0,10,0,0

[Colours]
Combo1 : 209,147,16
Combo2 : 185,91,198
Combo3 : 45,139,255
Combo4 : 250,160,174

[HitObjects]
256,192,56,5,0,0:0:0:0:
256,192,2569,5,0,0:0:0:0:
256,192,3825,1,8,0:0:0:0:
256,192,5082,1,0,0:0:0:0:
256,192,7595,1,0,0:0:0:0:
256,192,8223,1,8,0:0:0:0:
256,192,8851,1,0,0:0:0:0:
256,192,9480,1,8,0:0:0:0:
256,192,10108,1,4,0:0:0:0:
256,192,10736,1,8,0:0:0:0:
256,192,11050,1,0,0:0:0:0:
256,192,11364,1,0,0:0:0:0:
256,192,11993,1,8,0:0:0:0:
256,192,12621,1,0,0:0:0:0:
256,192,13249,1,8,0:0:0:0:
256,192,13563,1,0,0:0:0:0:
256,192,13877,1,0,0:0:0:0:
256,192,14192,1,0,0:0:0:0:
256,192,14506,1,8,0:0:0:0:
256,192,15134,1,0,0:0:0:0:
256,192,15762,1,8,0:0:0:0:
256,192,16076,1,0,0:0:0:0:
256,192,16391,1,0,0:0:0:0:
256,192,17019,1,8,0:0:0:0:
256,192,17647,1,0,0:0:0:0:
256,192,18275,1,8,0:0:0:0:
256,192,18590,1,0,0:0:0:0:
256,192,18904,1,0,0:0:0:0:
256,192,19218,1,0,0:0:0:0:
256,192,19532,1,8,0:0:0:0:
256,192,19689,1,0,0:0:0:0:
256,192,19846,1,0,0:0:0:0:
256,192,20003,1,0,0:0:0:0:
256,192,20160,1,4,0:0:0:0:
256,192,20474,1,0,0:0:0:0:
256,192,20788,1,8,0:0:0:0:
256,192,21103,1,0,0:0:0:0:
256,192,21260,1,8,0:0:0:0:
256,192,21417,1,0,0:0:0:0:
256,192,21731,1,0,0:0:0:0:
256,192,22045,1,8,0:0:0:0:
256,192,22673,1,0,0:0:0:0:
256,192,22987,1,0,0:0:0:0:
256,192,23302,1,8,0:0:0:0:
256,192,23616,1,0,0:0:0:0:
256,192,23773,1,8,0:0:0:0:
256,192,23930,1,0,0:0:0:0:
256,192,24244,1,0,0:0:0:0:
256,192,24401,1,8,0:0:0:0:
256,192,24558,1,8,0:0:0:0:
256,192,24715,1,0,0:0:0:0:
256,192,24872,1,8,0:0:0:0:
256,192,25029,1,0,0:0:0:0:
256,192,25186,1,0,0:0:0:0:
256,192,25501,1,0,0:0:0:0:
256,192,25815,1,8,0:0:0:0:
256,192,26129,1,0,0:0:0:0:
256,192,26286,1,8,0:0:0:0:
256,192,26443,1,0,0:0:0:0:
256,192,26757,1,0,0:0:0:0:
256,192,27071,1,8,0:0:0:0:
256,192,27699,1,0,0:0:0:0:
256,192,28014,1,0,0:0:0:0:
256,192,28328,1,8,0:0:0:0:
256,192,28485,1,0,0:0:0:0:
256,192,28642,1,8,0:0:0:0:
256,192,28799,1,8,0:0:0:0:
256,192,28956,1,0,0:0:0:0:
256,192,29270,1,8,0:0:0:0:
256,192,29427,1,0,0:0:0:0:
256,192,29584,1,8,0:0:0:0:
256,192,29741,1,0,0:0:0:0:
256,192,29898,1,8,0:0:0:0:
256,192,30055,1,8,0:0:0:0:
256,192,30213,1,4,0:0:0:0:
256,192,30527,1,0,0:0:0:0:
256,192,30841,1,8,0:0:0:0:
256,192,31155,1,0,0:0:0:0:
256,192,31312,1,8,0:0:0:0:
256,192,31469,1,0,0:0:0:0:
256,192,31626,1,8,0:0:0:0:
256,192,31783,1,0,0:0:0:0:
256,192,31940,1,0,0:0:0:0:
256,192,32097,1,8,0:0:0:0:
256,192,32412,1,0,0:0:0:0:
256,192,32569,1,8,0:0:0:0:
256,192,32726,1,8,0:0:0:0:
256,192,33040,1,0,0:0:0:0:
256,192,33354,1,8,0:0:0:0:
256,192,33511,1,0,0:0:0:0:
256,192,33668,1,8,0:0:0:0:
256,192,33825,1,8,0:0:0:0:
256,192,33982,1,0,0:0:0:0:
256,192,34139,1,8,0:0:0:0:
256,192,34218,1,8,0:0:0:0:
256,192,34296,1,0,0:0:0:0:
256,192,34453,1,8,0:0:0:0:
256,192,34610,1,8,0:0:0:0:
256,192,34768,1,0,0:0:0:0:
256,192,34925,1,8,0:0:0:0:
256,192,35082,1,0,0:0:0:0:
256,192,35239,1,4,0:0:0:0:
256,192,35396,1,0,0:0:0:0:
256,192,35553,1,8,0:0:0:0:
256,192,35710,1,0,0:0:0:0:
256,192,35867,1,0,0:0:0:0:
256,192,36024,1,0,0:0:0:0:
256,192,36181,1,8,0:0:0:0:
256,192,36338,1,0,0:0:0:0:
256,192,36495,1,0,0:0:0:0:
256,192,36652,1,0,0:0:0:0:
256,192,36809,1,8,0:0:0:0:
256,192,36966,1,0,0:0:0:0:
256,192,37124,1,0,0:0:0:0:
256,192,37281,1,0,0:0:0:0:
256,192,37438,1,8,0:0:0:0:
256,192,37595,1,0,0:0:0:0:
256,192,37752,1,0,0:0:0:0:
256,192,37830,1,0,0:0:0:0:
256,192,37909,1,8,0:0:0:0:
256,192,37987,1,8,0:0:0:0:
256,192,38066,1,0,0:0:0:0:
256,192,38145,1,0,0:0:0:0:
256,192,38223,1,0,0:0:0:0:
256,192,38302,1,0,0:0:0:0:
256,192,38380,1,8,0:0:0:0:
256,192,38459,1,8,0:0:0:0:
256,192,38537,1,0,0:0:0:0:
256,192,38616,1,0,0:0:0:0:
256,192,38694,1,8,0:0:0:0:
256,192,38773,1,8,0:0:0:0:
256,192,38851,1,8,0:0:0:0:
256,192,38930,1,8,0:0:0:0:
256,192,39008,1,0,0:0:0:0:
256,192,39087,1,0,0:0:0:0:
256,192,39165,1,0,0:0:0:0:
256,192,39244,1,0,0:0:0:0:
256,192,39323,1,8,0:0:0:0:
256,192,39401,1,8,0:0:0:0:
256,192,39480,1,0,0:0:0:0:
256,192,39558,1,0,0:0:0:0:
256,192,39637,1,8,0:0:0:0:
256,192,39794,1,0,0:0:0:0:
256,192,39951,1,8,0:0:0:0:
256,192,40108,1,0,0:0:0:0:
256,192,40265,1,4,0:0:0:0:
256,192,40579,1,0,0:0:0:0:
256,192,40893,1,0,0:0:0:0:
256,192,41207,1,0,0:0:0:0:
256,192,41521,1,0,0:0:0:0:
256,192,41836,1,0,0:0:0:0:
256,192,42150,1,0,0:0:0:0:
256,192,42464,1,0,0:0:0:0:
256,192,42778,1,0,0:0:0:0:
256,192,43092,1,0,0:0:0:0:
256,192,43406,1,0,0:0:0:0:
256,192,43720,1,0,0:0:0:0:
252,188,44035,1,0,0:0:0:0:
252,188,44349,1,0,0:0:0:0:
252,188,44663,1,0,0:0:0:0:
252,188,44977,1,4,0:0:0:0:
252,184,45134,1,4,0:0:0:0:
252,184,45291,1,4,0:0:0:0:
252,188,45605,1,0,0:0:0:0:
252,188,45762,1,8,0:0:0:0:
252,184,45919,1,0,0:0:0:0:
252,184,46234,1,0,0:0:0:0:
252,188,46391,1,8,0:0:0:0:
252,184,46548,1,0,0:0:0:0:
252,184,46862,1,0,0:0:0:0:
256,188,47019,1,8,0:0:0:0:
252,184,47176,1,0,0:0:0:0:
252,184,47490,1,0,0:0:0:0:
256,188,47647,1,8,0:0:0:0:
252,184,47804,1,0,0:0:0:0:
252,184,48118,1,0,0:0:0:0:
252,184,48275,1,8,0:0:0:0:
252,184,48432,1,0,0:0:0:0:
252,184,48590,1,0,0:0:0:0:
252,184,48747,1,0,0:0:0:0:
252,184,48904,1,8,0:0:0:0:
252,184,49061,1,0,0:0:0:0:
252,184,50003,5,8,0:0:0:0:
252,184,50082,1,0,0:0:0:0:
252,184,50160,1,0,0:0:0:0:
252,184,50239,1,0,0:0:0:0:
252,184,50317,1,8,0:0:0:0:
252,184,50474,1,0,0:0:0:0:
252,184,50631,1,0,0:0:0:0:
252,184,50788,1,0,0:0:0:0:
252,184,50946,1,8,0:0:0:0:
252,184,51103,1,0,0:0:0:0:
252,184,51260,1,0,0:0:0:0:
252,184,51574,1,8,0:0:0:0:
252,184,51731,1,0,0:0:0:0:
252,184,51888,1,0,0:0:0:0:
252,184,52045,1,0,0:0:0:0:
252,184,52202,1,8,0:0:0:0:
252,184,52359,1,8,0:0:0:0:
252,184,52516,1,0,0:0:0:0:
252,184,52830,1,8,0:0:0:0:
252,184,52987,1,0,0:0:0:0:
252,184,53145,1,0,0:0:0:0:
252,184,53302,1,8,0:0:0:0:
252,184,53459,1,8,0:0:0:0:
252,184,53616,1,0,0:0:0:0:
252,184,53773,1,0,0:0:0:0:
252,184,54087,1,8,0:0:0:0:
252,184,54165,1,8,0:0:0:0:
252,184,54244,1,8,0:0:0:0:
252,184,54401,1,0,0:0:0:0:
252,184,54715,1,8,0:0:0:0:
252,184,54794,1,0,0:0:0:0:
252,184,54872,1,8,0:0:0:0:
252,184,55029,1,0,0:0:0:0:
252,184,55186,1,0,0:0:0:0:
252,184,55343,1,4,0:0:0:0:
252,184,55501,1,0,0:0:0:0:
252,184,55658,1,8,0:0:0:0:
252,184,55815,1,0,0:0:0:0:
252,184,55972,1,0,0:0:0:0:
252,184,56129,1,0,0:0:0:0:
252,184,56286,1,8,0:0:0:0:
252,184,56443,1,0,0:0:0:0:
252,184,56600,1,0,0:0:0:0:
252,184,56757,1,0,0:0:0:0:
252,184,56914,1,8,0:0:0:0:
252,184,57071,1,0,0:0:0:0:
252,184,57228,1,0,0:0:0:0:
252,184,57385,1,0,0:0:0:0:
252,184,57542,1,8,0:0:0:0:
252,184,57699,1,0,0:0:0:0:
252,184,57857,1,8,0:0:0:0:
252,184,57935,1,0,0:0:0:0:
252,184,58014,1,0,0:0:0:0:
252,184,58092,1,0,0:0:0:0:
252,184,58171,1,8,0:0:0:0:
252,184,58249,1,0,0:0:0:0:
252,184,58328,1,0,0:0:0:0:
252,184,58406,1,0,0:0:0:0:
252,184,58485,1,8,0:0:0:0:
252,184,58563,1,0,0:0:0:0:
252,184,58642,1,0,0:0:0:0:
252,184,58720,1,0,0:0:0:0:
252,184,58799,1,8,0:0:0:0:
252,184,58877,1,8,0:0:0:0:
252,184,58956,1,8,0:0:0:0:
252,184,59035,1,8,0:0:0:0:
252,184,59113,1,0,0:0:0:0:
252,184,59427,1,0,0:0:0:0:
252,184,59741,1,0,0:0:0:0:
252,184,59898,1,0,0:0:0:0:
252,184,59977,1,0,0:0:0:0:
252,184,60055,1,8,0:0:0:0:
252,184,60134,1,8,0:0:0:0:
252,184,60213,1,0,0:0:0:0:
256,192,60370,5,4,0:0:0:0:
256,192,60527,5,8,0:0:0:0:
256,192,60605,1,8,0:0:0:0:
256,192,60684,5,0,0:0:0:0:
256,192,60841,5,8,0:0:0:0:
256,192,60998,5,0,0:0:0:0:
256,192,61312,5,8,0:0:0:0:
256,192,61469,5,0,0:0:0:0:
256,192,61626,1,0,0:0:0:0:
256,192,61783,5,8,0:0:0:0:
256,192,61862,1,8,0:0:0:0:
256,192,61940,5,0,0:0:0:0:
256,192,62097,5,8,0:0:0:0:
256,192,62254,1,8,0:0:0:0:
256,192,62412,5,0,0:0:0:0:
256,192,62569,5,8,0:0:0:0:
256,192,62726,5,0,0:0:0:0:
256,192,62883,1,0,0:0:0:0:
256,192,63040,5,8,0:0:0:0:
256,192,63197,1,8,0:0:0:0:
256,192,63275,1,8,0:0:0:0:
256,192,63354,5,0,0:0:0:0:
256,192,63511,5,8,0:0:0:0:
256,192,63668,5,0,0:0:0:0:
256,192,63825,5,8,0:0:0:0:
256,192,63904,5,0,0:0:0:0:
256,192,63982,1,0,0:0:0:0:
256,192,64139,1,0,0:0:0:0:
256,192,64296,5,8,0:0:0:0:
256,192,64453,5,0,0:0:0:0:
256,192,64610,5,8,0:0:0:0:
256,192,64768,1,8,0:0:0:0:
256,192,64925,1,8,0:0:0:0:
256,192,65082,5,0,0:0:0:0:
256,192,65239,1,0,0:0:0:0:
256,192,65396,1,0,0:0:0:0:
256,192,65553,5,8,0:0:0:0:
256,192,65631,1,8,0:0:0:0:
256,192,65710,5,0,0:0:0:0:
256,192,65867,5,8,0:0:0:0:
256,192,66024,5,0,0:0:0:0:
256,192,66338,5,8,0:0:0:0:
256,192,66495,5,0,0:0:0:0:
256,192,66652,1,0,0:0:0:0:
256,192,66809,5,8,0:0:0:0:
256,192,66888,1,8,0:0:0:0:
256,192,66966,5,0,0:0:0:0:
256,192,67124,5,8,0:0:0:0:
256,192,67281,1,8,0:0:0:0:
256,192,67438,5,0,0:0:0:0:
256,192,67595,5,8,0:0:0:0:
256,192,67752,5,0,0:0:0:0:
256,192,67909,5,8,0:0:0:0:
256,192,68066,5,0,0:0:0:0:
256,192,68145,1,0,0:0:0:0:
256,192,68223,5,8,0:0:0:0:
256,192,68380,1,8,0:0:0:0:
256,192,68537,1,8,0:0:0:0:
256,192,68694,5,0,0:0:0:0:
256,192,68773,1,0,0:0:0:0:
256,192,68851,5,8,0:0:0:0:
256,192,69008,1,8,0:0:0:0:
256,192,69165,1,8,0:0:0:0:
256,192,69323,5,0,0:0:0:0:
256,192,69480,5,8,0:0:0:0:
256,192,69558,1,8,0:0:0:0:
256,192,69637,5,0,0:0:0:0:
256,192,69794,5,8,0:0:0:0:
256,192,69872,1,8,0:0:0:0:
256,192,69951,5,0,0:0:0:0:
256,192,70029,1,0,0:0:0:0:
256,192,70108,5,8,0:0:0:0:
256,192,70186,1,8,0:0:0:0:
256,192,70265,5,0,0:0:0:0:
256,192,70422,1,4,0:0:0:0:
256,192,70579,5,8,0:0:0:0:
256,192,70658,1,8,0:0:0:0:
256,192,70736,5,0,0:0:0:0:
256,192,70893,5,8,0:0:0:0:
256,192,71050,5,0,0:0:0:0:
256,192,71286,1,0,0:0:0:0:
256,192,71364,5,8,0:0:0:0:
256,192,71521,5,0,0:0:0:0:
256,192,71679,1,0,0:0:0:0:
256,192,71836,5,8,0:0:0:0:
256,192,71993,5,0,0:0:0:0:
256,192,72071,5,8,0:0:0:0:
256,192,72150,1,8,0:0:0:0:
256,192,72307,1,8,0:0:0:0:
256,192,72464,5,0,0:0:0:0:
256,192,72621,5,8,0:0:0:0:
256,192,72699,1,8,0:0:0:0:
256,192,72778,5,0,0:0:0:0:
256,192,72935,1,0,0:0:0:0:
256,192,73092,1,0,0:0:0:0:
256,192,73171,5,8,0:0:0:0:
256,192,73249,1,8,0:0:0:0:
256,192,73406,5,0,0:0:0:0:
256,192,73563,5,8,0:0:0:0:
256,192,73720,1,8,0:0:0:0:
256,192,73799,1,8,0:0:0:0:
256,192,73877,5,0,0:0:0:0:
256,192,74035,1,0,0:0:0:0:
256,192,74192,5,8,0:0:0:0:
256,192,74349,5,0,0:0:0:0:
256,192,74506,1,0,0:0:0:0:
256,192,74663,5,8,0:0:0:0:
256,192,74820,1,8,0:0:0:0:
256,192,74977,1,8,0:0:0:0:
256,192,75055,1,8,0:0:0:0:
256,192,75134,5,0,0:0:0:0:
256,192,75213,1,0,0:0:0:0:
256,192,75291,1,0,0:0:0:0:
256,192,75448,1,4,0:0:0:0:
256,192,75605,5,8,0:0:0:0:
256,192,75684,1,8,0:0:0:0:
256,192,75762,5,0,0:0:0:0:
256,192,75919,5,8,0:0:0:0:
256,192,76076,5,0,0:0:0:0:
256,192,76312,1,0,0:0:0:0:
256,192,76391,5,8,0:0:0:0:
256,192,76548,5,0,0:0:0:0:
256,192,76705,1,4,0:0:0:0:
256,192,76862,5,8,0:0:0:0:
256,192,77019,5,0,0:0:0:0:
256,192,77097,5,8,0:0:0:0:
256,192,77176,1,8,0:0:0:0:
256,192,77333,1,8,0:0:0:0:
256,192,77490,5,0,0:0:0:0:
256,192,77647,5,8,0:0:0:0:
256,192,77726,1,8,0:0:0:0:
256,192,77804,5,0,0:0:0:0:
256,192,77961,5,12,0:0:0:0:
256,192,78118,5,0,0:0:0:0:
256,192,78197,1,0,0:0:0:0:
256,192,78275,1,0,0:0:0:0:
256,192,78354,1,0,0:0:0:0:
256,192,78432,5,8,0:0:0:0:
256,192,78590,1,12,0:0:0:0:
256,192,78747,5,0,0:0:0:0:
256,192,78825,1,0,0:0:0:0:
256,192,78904,5,8,0:0:0:0:
256,192,78982,1,8,0:0:0:0:
256,192,79061,1,8,0:0:0:0:
256,192,79218,1,12,0:0:0:0:
256,192,79375,5,0,0:0:0:0:
256,192,79453,1,0,0:0:0:0:
256,192,79532,5,8,0:0:0:0:
256,192,79610,1,8,0:0:0:0:
256,192,79689,5,0,0:0:0:0:
256,192,79768,1,0,0:0:0:0:
256,192,79846,5,8,0:0:0:0:
256,192,79925,1,8,0:0:0:0:
256,192,80003,5,0,0:0:0:0:
256,192,80082,1,0,0:0:0:0:
256,192,80160,5,8,0:0:0:0:
256,192,80239,1,8,0:0:0:0:
256,192,80317,5,0,0:0:0:0:
256,192,80474,1,4,0:0:0:0:
256,192,80631,1,0,0:0:0:0:
256,192,80788,1,8,0:0:0:0:
256,192,80946,1,0,0:0:0:0:
256,192,81103,1,0,0:0:0:0:
256,192,81260,1,8,0:0:0:0:
256,192,81417,1,0,0:0:0:0:
256,192,81574,1,0,0:0:0:0:
256,192,81731,1,8,0:0:0:0:
256,192,81888,1,0,0:0:0:0:
256,192,82045,1,8,0:0:0:0:
256,192,82202,1,0,0:0:0:0:
256,192,82359,1,8,0:0:0:0:
256,192,82516,1,0,0:0:0:0:
256,192,82673,1,8,0:0:0:0:
256,192,82830,1,0,0:0:0:0:
256,192,82987,1,8,0:0:0:0:
256,192,83302,1,0,0:0:0:0:
256,192,83459,1,8,0:0:0:0:
256,192,83616,1,0,0:0:0:0:
256,192,83773,1,8,0:0:0:0:
256,192,83930,1,8,0:0:0:0:
256,192,84087,1,0,0:0:0:0:
256,192,84244,1,8,0:0:0:0:
256,192,84401,1,0,0:0:0:0:
256,192,84558,1,8,0:0:0:0:
256,192,84715,1,0,0:0:0:0:
256,192,84872,1,8,0:0:0:0:
256,192,85029,1,0,0:0:0:0:
256,192,85186,1,8,0:0:0:0:
256,192,85343,1,0,0:0:0:0:
256,192,85501,1,8,0:0:0:0:
256,192,85658,1,0,0:0:0:0:
256,192,85815,1,0,0:0:0:0:
256,192,85972,1,0,0:0:0:0:
256,192,86129,1,8,0:0:0:0:
256,192,86286,1,0,0:0:0:0:
256,192,86443,1,8,0:0:0:0:
256,192,86600,1,8,0:0:0:0:
256,192,86757,1,0,0:0:0:0:
256,192,87071,1,0,0:0:0:0:
256,192,87228,1,8,0:0:0:0:
256,192,87385,1,0,0:0:0:0:
256,192,87542,1,8,0:0:0:0:
256,192,87699,1,8,0:0:0:0:
256,192,87857,1,8,0:0:0:0:
256,192,88014,1,0,0:0:0:0:
256,192,88171,1,0,0:0:0:0:
256,192,88328,1,8,0:0:0:0:
256,192,88485,1,0,0:0:0:0:
256,192,88642,1,0,0:0:0:0:
256,192,88799,1,0,0:0:0:0:
256,192,88877,1,0,0:0:0:0:
256,192,88956,1,8,0:0:0:0:
256,192,89113,1,0,0:0:0:0:
256,192,89270,1,8,0:0:0:0:
256,192,89584,1,8,0:0:0:0:
256,192,89663,1,8,0:0:0:0:
256,192,89741,1,8,0:0:0:0:
256,192,89820,1,8,0:0:0:0:
256,192,89898,1,8,0:0:0:0:
256,192,90055,1,8,0:0:0:0:
256,192,90213,1,0,0:0:0:0:
256,192,90370,1,8,0:0:0:0:
256,192,90527,1,4,0:0:0:0:
256,192,90841,1,0,0:0:0:0:
256,192,90998,1,0,0:0:0:0:
256,192,91155,1,8,0:0:0:0:
256,192,91469,1,0,0:0:0:0:
256,192,91626,1,8,0:0:0:0:
256,192,91940,1,8,0:0:0:0:
256,192,92097,1,0,0:0:0:0:
256,192,92254,1,0,0:0:0:0:
256,192,92412,1,8,0:0:0:0:
256,192,92569,1,8,0:0:0:0:
256,192,92647,1,0,0:0:0:0:
256,192,92726,1,8,0:0:0:0:
256,192,92883,1,8,0:0:0:0:
256,192,93040,1,0,0:0:0:0:
256,192,93354,1,0,0:0:0:0:
256,192,93511,1,0,0:0:0:0:
256,192,93668,1,8,0:0:0:0:
256,192,93982,1,0,0:0:0:0:
256,192,94139,1,8,0:0:0:0:
256,192,94453,1,8,0:0:0:0:
256,192,94610,1,0,0:0:0:0:
256,192,94768,1,0,0:0:0:0:
256,192,94925,1,8,0:0:0:0:
256,192,95082,1,0,0:0:0:0:
256,192,95160,1,0,0:0:0:0:
256,192,95239,1,8,0:0:0:0:
256,192,95396,1,8,0:0:0:0:
256,192,95553,1,4,0:0:0:0:
256,192,95867,1,0,0:0:0:0:
256,192,96024,1,0,0:0:0:0:
256,192,96181,1,8,0:0:0:0:
256,192,96495,1,0,0:0:0:0:
256,192,96652,1,8,0:0:0:0:
256,192,96966,1,8,0:0:0:0:
256,192,97124,1,0,0:0:0:0:
256,192,97281,1,0,0:0:0:0:
256,192,97438,1,8,0:0:0:0:
256,192,97595,1,8,0:0:0:0:
256,192,97673,1,0,0:0:0:0:
256,192,97752,1,8,0:0:0:0:
256,192,97909,1,8,0:0:0:0:
256,192,98066,1,0,0:0:0:0:
256,192,98223,1,0,0:0:0:0:
256,192,98380,1,0,0:0:0:0:
256,192,98537,1,0,0:0:0:0:
256,192,98694,1,8,0:0:0:0:
256,192,98851,1,0,0:0:0:0:
256,192,99008,1,8,0:0:0:0:
256,192,99165,1,8,0:0:0:0:
256,192,99323,1,0,0:0:0:0:
256,192,99480,1,0,0:0:0:0:
256,192,99637,1,8,0:0:0:0:
256,192,99715,1,0,0:0:0:0:
256,192,99794,1,0,0:0:0:0:
256,192,99872,1,0,0:0:0:0:
256,192,99951,1,8,0:0:0:0:
256,192,100108,1,8,0:0:0:0:
256,192,100265,1,0,0:0:0:0:
256,192,100422,1,8,0:0:0:0:
256,192,100579,1,0,0:0:0:0:
256,192,100658,1,0,0:0:0:0:
256,192,100736,1,0,0:0:0:0:
256,192,100893,1,8,0:0:0:0:
256,192,101050,1,8,0:0:0:0:
256,192,101207,1,0,0:0:0:0:
256,192,101286,1,0,0:0:0:0:
256,192,101364,1,0,0:0:0:0:
256,192,101521,1,8,0:0:0:0:
256,192,101679,1,8,0:0:0:0:
256,192,101836,1,0,0:0:0:0:
256,192,101914,1,0,0:0:0:0:
256,192,101993,1,0,0:0:0:0:
256,192,102071,1,0,0:0:0:0:
256,192,102150,1,8,0:0:0:0:
256,192,102307,1,8,0:0:0:0:
256,192,102464,1,0,0:0:0:0:
256,192,102542,1,8,0:0:0:0:
256,192,102621,1,0,0:0:0:0:
256,192,102699,1,0,0:0:0:0:
256,192,102778,1,8,0:0:0:0:
256,192,102935,1,0,0:0:0:0:
256,192,103092,1,4,0:0:0:0:
256,192,103406,1,0,0:0:0:0:
256,192,103563,1,0,0:0:0:0:
256,192,103642,1,0,0:0:0:0:
256,192,103720,1,8,0:0:0:0:
256,192,103877,1,0,0:0:0:0:
256,192,104035,1,0,0:0:0:0:
256,192,104192,1,0,0:0:0:0:
256,192,104349,1,8,0:0:0:0:
256,192,104663,1,0,0:0:0:0:
256,192,104820,1,0,0:0:0:0:
256,192,104898,1,0,0:0:0:0:
256,192,104977,1,8,0:0:0:0:
256,192,105134,1,0,0:0:0:0:
256,192,105291,1,0,0:0:0:0:
256,192,105448,1,0,0:0:0:0:
256,192,105605,1,8,0:0:0:0:
256,192,105919,1,0,0:0:0:0:
256,192,106076,1,0,0:0:0:0:
256,192,106155,1,8,0:0:0:0:
256,192,106234,1,8,0:0:0:0:
256,192,106391,1,0,0:0:0:0:
256,192,106548,1,0,0:0:0:0:
256,192,106705,1,8,0:0:0:0:
256,192,106862,1,8,0:0:0:0:
256,192,107019,1,0,0:0:0:0:
256,192,107176,1,0,0:0:0:0:
256,192,107333,1,8,0:0:0:0:
256,192,107412,1,8,0:0:0:0:
256,192,107490,1,8,0:0:0:0:
256,192,107647,1,0,0:0:0:0:
256,192,107804,1,0,0:0:0:0:
256,192,107883,1,0,0:0:0:0:
256,192,107961,1,8,0:0:0:0:
256,192,108118,1,8,0:0:0:0:
256,192,108432,1,0,0:0:0:0:
256,192,108590,1,0,0:0:0:0:
252,188,108668,1,0,0:0:0:0:
256,192,108747,1,8,0:0:0:0:
256,192,108904,1,0,0:0:0:0:
256,192,109061,1,0,0:0:0:0:
252,188,109218,1,0,0:0:0:0:
252,188,109375,1,8,0:0:0:0:
256,192,109689,1,0,0:0:0:0:
256,192,109846,1,0,0:0:0:0:
256,192,109925,1,0,0:0:0:0:
256,192,110003,1,8,0:0:0:0:
256,192,110160,1,0,0:0:0:0:
256,192,110317,1,0,0:0:0:0:
252,192,110474,1,0,0:0:0:0:
256,192,110631,1,8,0:0:0:0:
252,188,110946,1,0,0:0:0:0:
256,196,111103,1,0,0:0:0:0:
256,196,111181,1,0,0:0:0:0:
256,196,111260,1,8,0:0:0:0:
256,196,111338,1,8,0:0:0:0:
252,192,111417,1,0,0:0:0:0:
256,192,111574,1,0,0:0:0:0:
256,192,111731,1,0,0:0:0:0:
256,192,111888,1,8,0:0:0:0:
256,192,112045,1,0,0:0:0:0:
252,200,112202,1,0,0:0:0:0:
252,200,112359,1,0,0:0:0:0:
256,192,112516,1,8,0:0:0:0:
256,192,112595,1,0,0:0:0:0:
252,188,112673,1,0,0:0:0:0:
256,188,112830,1,0,0:0:0:0:
256,188,112987,1,0,0:0:0:0:
256,188,113145,1,12,0:0:0:0:
256,192,113459,1,0,0:0:0:0:
256,192,113616,1,0,0:0:0:0:
256,192,113694,1,0,0:0:0:0:
256,192,113773,1,8,0:0:0:0:
256,192,113930,1,0,0:0:0:0:
256,192,114087,1,0,0:0:0:0:
256,192,114244,1,0,0:0:0:0:
256,192,114401,1,8,0:0:0:0:
256,192,114558,1,0,0:0:0:0:
256,188,114715,1,0,0:0:0:0:
256,188,114872,1,0,0:0:0:0:
256,192,115029,1,8,0:0:0:0:
256,192,115108,1,0,0:0:0:0:
256,192,115186,1,0,0:0:0:0:
256,192,115343,1,0,0:0:0:0:
256,192,115501,1,0,0:0:0:0:
256,192,115658,1,8,0:0:0:0:
256,192,115972,1,0,0:0:0:0:
256,192,116129,1,0,0:0:0:0:
256,192,116207,1,0,0:0:0:0:
256,192,116286,1,8,0:0:0:0:
256,188,116443,1,0,0:0:0:0:
256,188,116600,1,0,0:0:0:0:
256,192,116757,1,0,0:0:0:0:
256,192,116914,1,8,0:0:0:0:
256,192,117071,1,0,0:0:0:0:
256,192,117228,1,0,0:0:0:0:
256,192,117385,1,0,0:0:0:0:
256,192,117542,1,8,0:0:0:0:
256,192,117621,1,8,0:0:0:0:
256,192,117699,1,0,0:0:0:0:
256,192,117778,1,0,0:0:0:0:
256,192,117857,1,8,0:0:0:0:
256,192,118014,1,0,0:0:0:0:
256,192,118171,1,8,0:0:0:0:
256,192,118485,1,0,0:0:0:0:
256,192,118642,1,0,0:0:0:0:
256,192,118720,1,0,0:0:0:0:
256,192,118799,1,8,0:0:0:0:
256,192,118956,1,0,0:0:0:0:
256,192,119113,1,0,0:0:0:0:
256,192,119270,1,0,0:0:0:0:
256,192,119427,1,8,0:0:0:0:
256,192,119506,1,0,0:0:0:0:
256,192,119584,1,8,0:0:0:0:
256,192,119741,1,0,0:0:0:0:
256,192,119898,1,0,0:0:0:0:
256,192,119977,1,0,0:0:0:0:
256,192,120055,1,8,0:0:0:0:
256,192,120134,1,0,0:0:0:0:
256,192,120213,1,8,0:0:0:0:
256,192,120370,1,0,0:0:0:0:
256,192,120527,1,0,0:0:0:0:
256,192,120684,1,8,0:0:0:0:
256,192,120841,1,0,0:0:0:0:
264,192,120998,1,0,0:0:0:0:
264,192,121155,1,0,0:0:0:0:
264,192,121312,1,8,0:0:0:0:
264,192,121391,1,0,0:0:0:0:
264,192,121469,1,8,0:0:0:0:
256,192,121626,1,0,0:0:0:0:
256,192,121783,1,0,0:0:0:0:
256,192,121940,1,8,0:0:0:0:
256,192,122019,1,8,0:0:0:0:
256,192,122097,1,0,0:0:0:0:
256,192,122176,1,0,0:0:0:0:
256,192,122254,1,8,0:0:0:0:
256,192,122333,1,8,0:0:0:0:
256,192,122412,1,0,0:0:0:0:
256,192,122569,1,8,0:0:0:0:
264,192,122726,1,0,0:0:0:0:
264,192,122883,1,0,0:0:0:0:
256,192,122961,1,8,0:0:0:0:
264,192,123040,1,0,0:0:0:0:
256,192,123197,5,4,0:0:0:0:
256,192,123511,1,0,0:0:0:0:
256,192,123668,1,0,0:0:0:0:
260,192,123825,1,8,0:0:0:0:
256,192,123982,1,0,0:0:0:0:
256,192,124139,1,8,0:0:0:0:
256,192,124296,1,8,0:0:0:0:
256,192,124453,1,0,0:0:0:0:
256,192,124768,1,8,0:0:0:0:
256,192,125082,1,8,0:0:0:0:
256,192,125239,1,0,0:0:0:0:
256,196,125396,1,8,0:0:0:0:
256,196,125710,1,0,0:0:0:0:
256,196,126024,1,8,0:0:0:0:
256,196,126338,1,0,0:0:0:0:
256,196,126495,1,0,0:0:0:0:
256,196,126652,1,8,0:0:0:0:
256,196,126966,1,0,0:0:0:0:
264,204,127124,1,8,0:0:0:0:
256,196,127202,1,0,0:0:0:0:
256,196,127281,1,0,0:0:0:0:
256,196,127438,1,8,0:0:0:0:
256,196,127595,1,0,0:0:0:0:
256,196,127752,1,8,0:0:0:0:
256,196,127830,1,0,0:0:0:0:
256,196,127909,1,8,0:0:0:0:
256,196,128066,1,0,0:0:0:0:
256,196,128223,1,0,0:0:0:0:
256,192,128537,1,0,0:0:0:0:
256,196,128694,1,0,0:0:0:0:
256,196,128851,1,8,0:0:0:0:
256,196,129008,1,0,0:0:0:0:
256,196,129165,1,8,0:0:0:0:
256,192,129323,1,8,0:0:0:0:
256,192,129480,1,0,0:0:0:0:
256,192,129794,1,8,0:0:0:0:
256,192,130108,1,8,0:0:0:0:
256,192,130265,1,0,0:0:0:0:
256,192,130422,1,8,0:0:0:0:
256,196,130736,1,0,0:0:0:0:
256,192,131050,1,8,0:0:0:0:
256,192,131364,1,0,0:0:0:0:
256,192,131521,1,0,0:0:0:0:
256,192,131679,1,8,0:0:0:0:
252,196,131993,1,0,0:0:0:0:
252,196,132150,1,8,0:0:0:0:
256,192,132228,1,0,0:0:0:0:
256,196,132307,1,0,0:0:0:0:
256,196,132464,1,8,0:0:0:0:
252,196,132621,1,0,0:0:0:0:
252,196,132778,1,8,0:0:0:0:
252,196,132857,1,0,0:0:0:0:
252,196,132935,1,8,0:0:0:0:
252,196,133092,1,8,0:0:0:0:
252,196,133249,1,4,0:0:0:0:
256,192,133563,1,0,0:0:0:0:
256,192,133720,1,0,0:0:0:0:
256,192,133877,1,8,0:0:0:0:
256,196,134035,1,0,0:0:0:0:
256,196,134192,1,8,0:0:0:0:
252,196,134349,1,8,0:0:0:0:
252,196,134506,1,0,0:0:0:0:
256,192,134820,1,0,0:0:0:0:
256,188,134977,1,0,0:0:0:0:
256,192,135134,1,8,0:0:0:0:
256,192,135291,1,0,0:0:0:0:
256,192,135448,1,8,0:0:0:0:
256,192,135605,1,8,0:0:0:0:
256,196,135762,1,4,0:0:0:0:
256,192,136076,1,0,0:0:0:0:
252,196,136234,1,0,0:0:0:0:
256,192,136391,1,8,0:0:0:0:
256,192,136548,1,0,0:0:0:0:
256,192,136705,1,8,0:0:0:0:
256,192,136862,1,8,0:0:0:0:
256,192,137019,1,0,0:0:0:0:
256,192,137333,1,0,0:0:0:0:
256,180,137490,1,0,0:0:0:0:
256,192,137647,1,8,0:0:0:0:
256,192,137804,1,0,0:0:0:0:
256,192,137961,1,8,0:0:0:0:
256,192,138118,1,8,0:0:0:0:
256,192,138275,1,0,0:0:0:0:
256,192,138432,1,0,0:0:0:0:
256,192,138590,1,0,0:0:0:0:
256,192,138747,1,8,0:0:0:0:
256,192,138904,1,0,0:0:0:0:
256,192,139061,1,0,0:0:0:0:
252,196,139218,1,0,0:0:0:0:
256,192,139375,1,8,0:0:0:0:
256,192,139532,1,0,0:0:0:0:
256,192,139689,1,0,0:0:0:0:
256,192,139846,1,0,0:0:0:0:
256,192,140003,1,8,0:0:0:0:
256,192,140160,1,0,0:0:0:0:
256,192,140317,1,0,0:0:0:0:
256,192,140474,1,0,0:0:0:0:
256,192,140631,1,8,0:0:0:0:
256,192,140788,5,0,0:0:0:0:
256,192,140867,1,0,0:0:0:0:
256,192,140946,1,0,0:0:0:0:
256,192,141024,1,0,0:0:0:0:
256,192,141103,1,8,0:0:0:0:
256,192,141181,1,0,0:0:0:0:
256,192,141260,1,0,0:0:0:0:
256,192,141338,1,0,0:0:0:0:
256,192,141417,1,8,0:0:0:0:
256,192,141495,1,0,0:0:0:0:
256,192,141574,1,0,0:0:0:0:
256,192,141652,1,0,0:0:0:0:
260,188,141731,1,8,0:0:0:0:
260,188,141809,1,8,0:0:0:0:
260,188,141888,1,8,0:0:0:0:
260,188,141966,1,8,0:0:0:0:
256,192,142045,1,0,0:0:0:0:
252,192,142987,1,8,0:0:0:0:
256,192,143302,5,4,0:0:0:0:
256,192,143459,1,8,0:0:0:0:
260,188,143537,1,8,0:0:0:0:
256,192,143616,1,0,0:0:0:0:
256,192,143773,1,8,0:0:0:0:
256,192,143930,1,0,0:0:0:0:
256,192,144087,1,0,0:0:0:0:
256,192,144165,1,0,0:0:0:0:
256,192,144244,1,8,0:0:0:0:
256,192,144401,1,8,0:0:0:0:
256,192,144558,1,0,0:0:0:0:
256,192,144872,1,8,0:0:0:0:
256,192,145186,1,0,0:0:0:0:
260,188,145343,1,8,0:0:0:0:
256,192,145422,1,8,0:0:0:0:
256,192,145501,1,0,0:0:0:0:
256,192,145658,1,8,0:0:0:0:
256,192,145815,1,0,0:0:0:0:
256,192,145893,1,0,0:0:0:0:
256,192,145972,1,0,0:0:0:0:
256,192,146129,1,8,0:0:0:0:
256,192,146286,1,8,0:0:0:0:
256,192,146443,1,0,0:0:0:0:
256,192,146521,1,8,0:0:0:0:
256,192,146600,1,0,0:0:0:0:
256,192,146757,1,8,0:0:0:0:
256,192,146914,1,8,0:0:0:0:
256,192,147071,1,0,0:0:0:0:
256,192,147150,1,0,0:0:0:0:
256,192,147228,1,0,0:0:0:0:
256,192,147385,1,8,0:0:0:0:
256,192,147542,1,0,0:0:0:0:
256,192,147699,1,8,0:0:0:0:
256,192,147857,1,8,0:0:0:0:
256,192,147935,1,8,0:0:0:0:
256,192,148014,1,8,0:0:0:0:
256,192,148171,1,8,0:0:0:0:
256,192,148328,1,0,0:0:0:0:
256,192,148485,1,8,0:0:0:0:
256,192,148563,1,8,0:0:0:0:
256,192,148642,1,0,0:0:0:0:
256,192,148799,1,8,0:0:0:0:
256,192,148956,1,0,0:0:0:0:
256,192,149113,1,0,0:0:0:0:
256,192,149192,1,0,0:0:0:0:
256,192,149270,1,8,0:0:0:0:
256,192,149427,1,0,0:0:0:0:
256,192,149584,1,0,0:0:0:0:
256,192,149898,1,8,0:0:0:0:
256,192,150213,1,0,0:0:0:0:
256,192,150370,1,0,0:0:0:0:
256,192,150448,1,0,0:0:0:0:
256,192,150527,1,8,0:0:0:0:
256,192,150684,1,8,0:0:0:0:
256,192,150841,1,0,0:0:0:0:
256,192,150998,1,0,0:0:0:0:
256,192,151155,1,8,0:0:0:0:
256,192,151312,1,8,0:0:0:0:
256,192,151391,1,8,0:0:0:0:
256,192,151469,1,8,0:0:0:0:
256,192,151626,1,0,0:0:0:0:
256,192,151783,1,8,0:0:0:0:
256,192,151940,1,8,0:0:0:0:
256,192,152097,1,0,0:0:0:0:
256,192,152176,1,0,0:0:0:0:
256,192,152254,1,0,0:0:0:0:
256,192,152333,1,0,0:0:0:0:
256,192,152412,1,8,0:0:0:0:
256,192,152569,1,8,0:0:0:0:
256,192,152726,1,8,0:0:0:0:
256,192,152883,1,8,0:0:0:0:
256,192,152961,1,8,0:0:0:0:
256,192,153040,1,0,0:0:0:0:
256,192,153197,1,8,0:0:0:0:
256,192,153354,1,4,0:0:0:0:
256,192,153511,1,0,0:0:0:0:
256,192,153590,1,0,0:0:0:0:
256,192,153668,1,8,0:0:0:0:
256,192,153825,1,8,0:0:0:0:
256,192,153982,1,0,0:0:0:0:
256,192,154061,1,0,0:0:0:0:
256,192,154139,1,0,0:0:0:0:
256,192,154296,1,8,0:0:0:0:
256,192,154453,1,8,0:0:0:0:
256,192,154610,1,0,0:0:0:0:
256,192,154925,1,8,0:0:0:0:
256,192,155239,1,0,0:0:0:0:
256,192,155396,1,0,0:0:0:0:
256,192,155474,1,0,0:0:0:0:
256,192,155553,1,8,0:0:0:0:
256,192,155710,1,8,0:0:0:0:
256,192,155867,1,0,0:0:0:0:
256,192,156024,1,0,0:0:0:0:
256,192,156103,1,0,0:0:0:0:
256,192,156181,1,8,0:0:0:0:
256,192,156338,1,8,0:0:0:0:
256,192,156495,1,0,0:0:0:0:
256,192,156652,1,0,0:0:0:0:
256,192,156731,1,0,0:0:0:0:
256,192,156809,1,8,0:0:0:0:
256,192,156966,1,8,0:0:0:0:
256,192,157124,1,0,0:0:0:0:
256,192,157281,1,8,0:0:0:0:
256,192,157359,1,8,0:0:0:0:
256,192,157438,1,0,0:0:0:0:
256,192,157595,1,8,0:0:0:0:
256,192,157752,1,0,0:0:0:0:
256,192,157830,1,0,0:0:0:0:
256,192,157909,1,8,0:0:0:0:
256,192,157987,1,8,0:0:0:0:
256,192,158066,1,0,0:0:0:0:
256,192,158223,1,8,0:0:0:0:
256,192,158380,1,4,0:0:0:0:
256,192,158537,1,0,0:0:0:0:
256,192,158616,1,0,0:0:0:0:
256,192,158694,1,8,0:0:0:0:
256,192,158851,1,8,0:0:0:0:
256,192,159008,1,0,0:0:0:0:
256,192,159087,1,0,0:0:0:0:
256,192,159165,1,0,0:0:0:0:
256,192,159323,1,0,0:0:0:0:
256,192,159480,1,8,0:0:0:0:
256,192,159637,1,4,0:0:0:0:
256,192,159951,1,8,0:0:0:0:
256,192,160265,1,0,0:0:0:0:
256,192,160422,1,0,0:0:0:0:
256,192,160501,1,0,0:0:0:0:
256,192,160579,1,8,0:0:0:0:
256,192,160736,1,8,0:0:0:0:
256,192,160893,1,12,0:0:0:0:
256,192,161050,1,0,0:0:0:0:
256,192,161129,1,0,0:0:0:0:
256,192,161207,1,8,0:0:0:0:
256,192,161364,1,8,0:0:0:0:
256,192,161521,1,12,0:0:0:0:
256,192,161679,1,0,0:0:0:0:
256,192,161757,1,8,0:0:0:0:
256,192,161836,1,0,0:0:0:0:
256,192,161993,1,8,0:0:0:0:
256,192,162150,1,8,0:0:0:0:
256,192,162307,1,0,0:0:0:0:
256,192,162385,1,0,0:0:0:0:
256,192,162464,1,8,0:0:0:0:
256,192,162621,5,0,0:0:0:0:
256,192,162778,1,8,0:0:0:0:
256,192,162935,1,8,0:0:0:0:
256,192,163014,1,8,0:0:0:0:
256,192,163092,1,0,0:0:0:0:
256,192,163249,1,0,0:0:0:0:
256,192,163406,1,4,0:0:0:0:
256,192,163563,1,8,0:0:0:0:
256,192,163720,1,0,0:0:0:0:
256,192,163877,1,0,0:0:0:0:
256,192,163956,1,0,0:0:0:0:
256,192,164035,1,8,0:0:0:0:
256,192,164113,1,8,0:0:0:0:
256,192,164192,1,0,0:0:0:0:
256,192,164349,1,8,0:0:0:0:
256,192,164506,1,0,0:0:0:0:
256,192,164584,1,0,0:0:0:0:
256,192,164663,1,8,0:0:0:0:
256,192,164820,1,0,0:0:0:0:
256,192,164977,1,8,0:0:0:0:
256,192,165055,1,8,0:0:0:0:
256,192,165134,1,0,0:0:0:0:
256,192,165291,1,0,0:0:0:0:
256,192,165370,1,8,0:0:0:0:
256,192,165448,1,0,0:0:0:0:
256,192,165527,1,0,0:0:0:0:
256,192,165605,1,8,0:0:0:0:
256,192,165919,1,8,0:0:0:0:
256,192,166076,1,0,0:0:0:0:
256,192,166155,1,0,0:0:0:0:
256,192,166234,1,8,0:0:0:0:
256,192,166391,1,0,0:0:0:0:
256,192,166469,1,8,0:0:0:0:
256,192,166548,1,0,0:0:0:0:
256,192,166705,1,8,0:0:0:0:
256,192,166783,1,0,0:0:0:0:
256,192,166862,1,8,0:0:0:0:
256,192,166940,1,8,0:0:0:0:
256,192,167019,1,0,0:0:0:0:
256,192,167176,1,8,0:0:0:0:
256,192,167333,1,0,0:0:0:0:
256,192,167490,1,8,0:0:0:0:
256,192,167569,1,8,0:0:0:0:
256,192,167647,1,0,0:0:0:0:
256,192,167804,1,8,0:0:0:0:
256,192,167961,1,0,0:0:0:0:
256,192,168118,1,8,0:0:0:0:
256,192,168197,1,8,0:0:0:0:
256,192,168275,1,0,0:0:0:0:
256,192,168432,1,8,0:0:0:0:
256,192,168590,1,8,0:0:0:0:
256,192,168668,1,8,0:0:0:0:
256,192,168747,1,0,0:0:0:0:
256,192,168904,1,0,0:0:0:0:
256,192,168982,1,0,0:0:0:0:
256,192,169061,1,8,0:0:0:0:
256,192,169139,1,8,0:0:0:0:
256,192,169218,1,0,0:0:0:0:
256,192,169375,1,8,0:0:0:0:
256,192,169532,1,0,0:0:0:0:
256,192,169610,1,0,0:0:0:0:
256,192,169689,1,8,0:0:0:0:
256,192,169846,1,0,0:0:0:0:
256,192,170003,1,8,0:0:0:0:
256,192,170082,1,8,0:0:0:0:
256,192,170160,1,0,0:0:0:0:
256,192,170317,1,0,0:0:0:0:
256,192,170396,1,8,0:0:0:0:
256,192,170474,1,0,0:0:0:0:
256,192,170553,1,0,0:0:0:0:
256,192,170631,1,8,0:0:0:0:
256,192,170946,1,8,0:0:0:0:
256,192,171103,1,0,0:0:0:0:
256,192,171260,1,8,0:0:0:0:
256,192,171338,1,8,0:0:0:0:
256,192,171417,1,0,0:0:0:0:
256,192,171574,1,8,0:0:0:0:
256,192,171731,1,0,0:0:0:0:
256,192,171809,1,0,0:0:0:0:
256,192,171888,1,8,0:0:0:0:
256,192,171966,1,8,0:0:0:0:
256,192,172045,1,0,0:0:0:0:
256,192,172202,1,8,0:0:0:0:
256,192,172359,1,0,0:0:0:0:
256,192,172516,1,8,0:0:0:0:
256,192,172595,1,8,0:0:0:0:
256,192,172673,1,0,0:0:0:0:
256,192,172752,1,8,0:0:0:0:
256,192,172830,1,0,0:0:0:0:
256,192,172987,1,0,0:0:0:0:
256,192,173145,1,8,0:0:0:0:
256,192,173302,1,8,0:0:0:0:
256,192,173459,1,4,0:0:0:0:
256,192,173616,1,8,0:0:0:0:
256,192,173694,1,8,0:0:0:0:
256,192,173773,1,0,0:0:0:0:
256,192,173930,1,0,0:0:0:0:
256,192,174087,1,8,0:0:0:0:
256,192,174165,1,8,0:0:0:0:
256,192,174244,1,0,0:0:0:0:
256,192,174323,1,0,0:0:0:0:
256,192,174401,1,8,0:0:0:0:
256,192,174558,1,8,0:0:0:0:
256,192,174637,1,0,0:0:0:0:
256,192,174715,1,8,0:0:0:0:
256,192,174872,1,0,0:0:0:0:
256,192,174951,1,0,0:0:0:0:
256,192,175029,1,8,0:0:0:0:
256,192,175186,1,0,0:0:0:0:
256,192,175343,1,0,0:0:0:0:
256,192,175422,1,8,0:0:0:0:
256,192,175501,1,0,0:0:0:0:
256,192,175658,1,8,0:0:0:0:
256,192,175815,1,0,0:0:0:0:
256,192,175972,1,12,0:0:0:0:
256,192,176129,1,0,0:0:0:0:
256,192,176207,1,0,0:0:0:0:
256,192,176286,1,8,0:0:0:0:
256,192,176443,1,0,0:0:0:0:
256,192,176521,1,8,0:0:0:0:
256,192,176600,1,0,0:0:0:0:
256,192,176757,1,8,0:0:0:0:
256,192,176836,1,0,0:0:0:0:
256,192,176914,1,8,0:0:0:0:
256,192,176993,1,8,0:0:0:0:
256,192,177071,1,0,0:0:0:0:
256,192,177228,1,8,0:0:0:0:
256,192,177385,1,0,0:0:0:0:
256,192,177464,1,0,0:0:0:0:
256,192,177542,1,8,0:0:0:0:
256,192,177699,1,0,0:0:0:0:
256,192,177857,1,8,0:0:0:0:
256,192,178014,1,0,0:0:0:0:
256,192,178092,1,0,0:0:0:0:
256,192,178171,1,8,0:0:0:0:
256,192,178328,1,0,0:0:0:0:
256,192,178485,1,12,0:0:0:0:
256,192,178642,1,8,0:0:0:0:
256,192,178720,1,8,0:0:0:0:
256,192,178799,1,0,0:0:0:0:
256,192,178956,1,0,0:0:0:0:
256,192,179113,1,8,0:0:0:0:
256,192,179192,1,8,0:0:0:0:
256,192,179270,1,0,0:0:0:0:
256,192,179349,1,0,0:0:0:0:
256,192,179427,1,8,0:0:0:0:
256,192,179584,1,0,0:0:0:0:
256,192,179741,1,12,0:0:0:0:
256,192,179898,1,0,0:0:0:0:
256,192,179977,1,0,0:0:0:0:
256,192,180055,1,8,0:0:0:0:
256,192,180213,1,0,0:0:0:0:
256,192,180370,1,0,0:0:0:0:
256,192,180448,1,8,0:0:0:0:
256,192,180527,1,0,0:0:0:0:
256,192,180605,1,0,0:0:0:0:
256,192,180684,1,8,0:0:0:0:
256,192,180841,1,0,0:0:0:0:
256,192,180998,1,12,0:0:0:0:
256,192,181155,1,0,0:0:0:0:
256,192,181312,1,0,0:0:0:0:
256,192,181469,1,0,0:0:0:0:
256,192,181626,1,12,0:0:0:0:
256,192,181783,1,0,0:0:0:0:
256,192,181940,1,0,0:0:0:0:
256,192,182097,1,0,0:0:0:0:
256,192,182254,1,12,0:0:0:0:
256,192,182412,1,0,0:0:0:0:
256,192,182569,1,0,0:0:0:0:
256,192,182726,1,0,0:0:0:0:
256,192,182883,1,12,0:0:0:0:
256,192,183040,1,0,0:0:0:0:
256,192,183197,1,8,0:0:0:0:
256,192,183354,1,8,0:0:0:0:
256,192,183511,1,8,0:0:0:0:
256,192,183590,1,8,0:0:0:0:
256,192,183668,1,0,0:0:0:0:
256,192,183825,1,8,0:0:0:0:
256,192,183904,1,8,0:0:0:0:
256,192,183982,1,8,0:0:0:0:
256,192,184061,1,8,0:0:0:0:
256,192,184139,1,0,0:0:0:0:
256,192,184218,1,0,0:0:0:0:
256,192,184296,1,0,0:0:0:0:
256,192,184375,1,0,0:0:0:0:
256,192,184453,1,8,0:0:0:0:
256,192,184532,1,8,0:0:0:0:
256,192,184610,1,0,0:0:0:0:
256,192,184689,1,0,0:0:0:0:
256,192,184768,1,8,0:0:0:0:
256,192,184925,1,0,0:0:0:0:
256,192,185082,1,8,0:0:0:0:
256,192,185239,1,8,0:0:0:0:
256,192,185317,1,8,0:0:0:0:
256,192,185396,1,0,0:0:0:0:
256,192,185553,1,0,0:0:0:0:
256,192,185710,1,8,0:0:0:0:
256,192,186024,5,12,0:0:0:0:
256,192,187281,5,0,0:0:0:0:
256,192,188537,5,8,0:0:0:0:
256,192,189480,5,8,0:0:0:0:
256,192,189637,5,0,0:0:0:0:
256,192,189794,5,8,0:0:0:0:
256,192,191050,5,0,0:0:0:0:
256,192,192307,5,8,0:0:0:0:
256,192,193563,5,0,0:0:0:0:
256,192,194349,1,0,0:0:0:0:
256,192,194506,5,8,0:0:0:0:
256,192,194663,5,0,0:0:0:0:
256,192,194820,5,8,0:0:0:0:
256,192,195134,5,0,0:0:0:0:
256,192,195448,5,8,0:0:0:0:
256,192,196076,1,12,0:0:0:0:
256,192,197333,5,0,0:0:0:0:
256,192,198590,5,8,0:0:0:0:
256,192,199532,1,8,0:0:0:0:
256,192,199689,5,0,0:0:0:0:
256,192,199846,5,8,0:0:0:0:
256,192,200474,5,0,0:0:0:0:
256,192,201103,5,8,0:0:0:0:
256,192,201731,5,0,0:0:0:0:
256,192,202359,5,8,0:0:0:0:
256,192,202987,1,8,0:0:0:0:
256,192,203616,1,12,0:0:0:0:
256,192,204401,1,8,0:0:0:0:
256,192,204558,5,0,0:0:0:0:
256,192,204715,5,8,0:0:0:0:
256,192,204872,5,0,0:0:0:0:
256,192,205186,5,8,0:0:0:0:
256,192,205501,1,8,0:0:0:0:
256,192,205815,5,0,0:0:0:0:
256,192,206129,1,4,0:0:0:0:
256,192,206443,1,0,0:0:0:0:
256,192,206600,1,0,0:0:0:0:
256,192,206757,1,8,0:0:0:0:
248,188,206914,1,0,0:0:0:0:
256,192,207071,1,8,0:0:0:0:
256,192,207228,1,8,0:0:0:0:
256,192,207385,1,8,0:0:0:0:
252,192,207699,1,8,0:0:0:0:
252,192,208014,1,0,0:0:0:0:
252,192,208328,1,8,0:0:0:0:
248,192,208642,1,8,0:0:0:0:
256,192,208956,1,0,0:0:0:0:
256,192,209113,1,0,0:0:0:0:
252,192,209270,1,8,0:0:0:0:
252,192,209427,1,8,0:0:0:0:
252,192,209584,1,0,0:0:0:0:
252,192,209741,1,0,0:0:0:0:
252,192,209898,1,8,0:0:0:0:
252,188,210213,1,8,0:0:0:0:
252,192,210527,1,0,0:0:0:0:
252,192,210841,1,0,0:0:0:0:
252,192,211155,1,8,0:0:0:0:
252,192,211312,1,0,0:0:0:0:
252,192,211469,1,0,0:0:0:0:
252,192,211626,1,8,0:0:0:0:
252,188,211783,1,8,0:0:0:0:
252,192,212097,1,8,0:0:0:0:
248,188,212176,1,0,0:0:0:0:
252,192,212254,1,8,0:0:0:0:
252,192,212412,1,8,0:0:0:0:
252,192,212569,1,0,0:0:0:0:
252,192,212726,1,0,0:0:0:0:
252,192,212883,1,8,0:0:0:0:
252,192,213040,1,8,0:0:0:0:
252,192,213354,1,8,0:0:0:0:
252,192,213432,1,8,0:0:0:0:
252,188,213511,1,8,0:0:0:0:
252,192,213668,1,8,0:0:0:0:
252,192,213825,1,0,0:0:0:0:
248,188,213982,1,0,0:0:0:0:
252,192,214139,1,8,0:0:0:0:
252,192,214296,1,8,0:0:0:0:
252,192,214610,1,8,0:0:0:0:
252,192,214689,1,0,0:0:0:0:
252,192,214768,1,8,0:0:0:0:
260,188,214925,1,0,0:0:0:0:
252,192,215082,1,8,0:0:0:0:
252,192,215239,1,0,0:0:0:0:
252,192,215396,1,8,0:0:0:0:
256,188,215553,1,0,0:0:0:0:
248,188,215710,1,8,0:0:0:0:
256,184,215867,1,0,0:0:0:0:
256,184,216024,1,8,0:0:0:0:
252,192,216181,1,4,0:0:0:0:
252,192,216338,1,0,0:0:0:0:
252,192,216495,1,8,0:0:0:0:
256,188,216652,1,0,0:0:0:0:
252,192,216809,1,0,0:0:0:0:
252,192,216966,1,0,0:0:0:0:
252,192,217124,1,8,0:0:0:0:
252,192,217281,1,8,0:0:0:0:
256,188,217438,1,0,0:0:0:0:
256,188,217595,1,0,0:0:0:0:
248,188,217752,1,8,0:0:0:0:
248,188,217909,1,0,0:0:0:0:
248,188,218066,1,0,0:0:0:0:
248,188,218223,1,0,0:0:0:0:
248,188,218380,1,8,0:0:0:0:
244,192,218537,1,0,0:0:0:0:
252,192,218694,1,4,0:0:0:0:
248,184,218851,1,0,0:0:0:0:
248,184,219008,1,8,0:0:0:0:
248,188,219165,1,0,0:0:0:0:
248,188,219323,1,0,0:0:0:0:
248,188,219480,1,0,0:0:0:0:
248,188,219637,1,8,0:0:0:0:
248,188,219794,1,8,0:0:0:0:
248,188,219951,1,0,0:0:0:0:
248,188,220108,1,0,0:0:0:0:
248,188,220265,1,8,0:0:0:0:
248,188,220422,1,0,0:0:0:0:
248,184,220579,1,0,0:0:0:0:
248,184,220736,1,0,0:0:0:0:
248,188,220893,1,8,0:0:0:0:
248,188,221050,1,0,0:0:0:0:
248,188,221207,1,4,0:0:0:0:
248,188,221364,1,0,0:0:0:0:
248,188,221521,1,8,0:0:0:0:
248,188,221679,1,0,0:0:0:0:
248,188,221836,1,8,0:0:0:0:
248,188,221993,1,0,0:0:0:0:
248,188,222150,1,8,0:0:0:0:
248,184,222307,1,8,0:0:0:0:
248,184,222464,1,8,0:0:0:0:
248,188,222621,1,0,0:0:0:0:
248,188,222778,1,8,0:0:0:0:
248,188,222935,1,0,0:0:0:0:
248,188,223092,1,8,0:0:0:0:
248,188,223249,1,0,0:0:0:0:
248,188,223406,1,8,0:0:0:0:
248,188,223563,1,8,0:0:0:0:
248,188,223720,1,8,0:0:0:0:
248,188,223799,1,0,0:0:0:0:
248,188,223877,1,0,0:0:0:0:
244,184,223956,1,0,0:0:0:0:
248,184,224035,1,8,0:0:0:0:
244,184,224113,1,0,0:0:0:0:
248,184,224192,1,0,0:0:0:0:
244,184,224270,1,0,0:0:0:0:
248,188,224349,1,8,0:0:0:0:
248,188,224427,1,0,0:0:0:0:
248,188,224506,1,0,0:0:0:0:
248,188,224584,1,0,0:0:0:0:
248,188,224663,1,8,0:0:0:0:
248,188,224741,1,0,0:0:0:0:
248,188,224820,1,8,0:0:0:0:
248,188,224898,1,8,0:0:0:0:
248,188,224977,1,8,0:0:0:0:
248,188,225291,1,8,0:0:0:0:
248,188,225605,1,0,0:0:0:0:
252,192,225919,1,0,0:0:0:0:
256,192,226234,5,4,0:0:0:0:
256,192,226391,1,8,0:0:0:0:
256,192,226548,1,0,0:0:0:0:
256,192,226626,1,0,0:0:0:0:
256,192,226705,1,8,0:0:0:0:
256,192,226862,1,0,0:0:0:0:
256,192,227019,1,8,0:0:0:0:
256,192,227097,1,8,0:0:0:0:
256,192,227176,1,0,0:0:0:0:
256,192,227333,1,8,0:0:0:0:
256,192,227490,1,0,0:0:0:0:
256,192,227804,1,8,0:0:0:0:
256,192,228118,1,0,0:0:0:0:
256,192,228275,1,0,0:0:0:0:
256,192,228354,1,0,0:0:0:0:
256,192,228432,1,8,0:0:0:0:
256,192,228590,1,8,0:0:0:0:
256,192,228747,1,0,0:0:0:0:
256,192,228904,1,0,0:0:0:0:
256,192,229061,1,8,0:0:0:0:
256,192,229139,1,0,0:0:0:0:
256,192,229218,1,0,0:0:0:0:
256,192,229375,1,8,0:0:0:0:
256,192,229532,1,0,0:0:0:0:
256,192,229689,1,0,0:0:0:0:
256,192,229846,1,8,0:0:0:0:
256,192,230003,1,8,0:0:0:0:
256,192,230317,1,0,0:0:0:0:
256,192,230631,1,8,0:0:0:0:
256,192,230788,1,0,0:0:0:0:
256,192,230867,1,0,0:0:0:0:
256,192,230946,1,8,0:0:0:0:
256,192,231103,1,0,0:0:0:0:
256,192,231260,1,8,0:0:0:0:
256,192,231417,1,0,0:0:0:0:
256,192,231574,1,8,0:0:0:0:
256,192,231731,1,0,0:0:0:0:
256,192,231809,1,0,0:0:0:0:
256,192,231888,1,0,0:0:0:0:
256,192,232045,1,0,0:0:0:0:
256,192,232202,1,8,0:0:0:0:
256,192,232516,1,8,0:0:0:0:
256,192,232673,1,0,0:0:0:0:
256,192,232830,1,8,0:0:0:0:
256,192,232987,1,0,0:0:0:0:
256,192,233066,1,0,0:0:0:0:
256,192,233145,1,0,0:0:0:0:
256,192,233302,1,0,0:0:0:0:
256,192,233459,1,8,0:0:0:0:
256,192,233773,1,8,0:0:0:0:
256,192,233930,1,0,0:0:0:0:
256,192,234087,1,8,0:0:0:0:
256,192,234244,1,0,0:0:0:0:
256,192,234323,1,0,0:0:0:0:
256,192,234401,1,0,0:0:0:0:
256,192,234558,1,0,0:0:0:0:
256,192,234715,1,8,0:0:0:0:
256,192,235029,1,8,0:0:0:0:
256,192,235186,1,0,0:0:0:0:
256,192,235265,1,0,0:0:0:0:
256,192,235343,1,8,0:0:0:0:
256,192,235501,1,0,0:0:0:0:
256,192,235658,1,8,0:0:0:0:
256,192,235736,1,0,0:0:0:0:
256,192,235815,1,0,0:0:0:0:
256,192,235893,1,0,0:0:0:0:
256,192,235972,1,8,0:0:0:0:
256,192,236129,1,8,0:0:0:0:
256,192,236286,1,4,0:0:0:0:
256,192,236443,1,8,0:0:0:0:
256,192,236600,1,0,0:0:0:0:
256,192,236679,1,0,0:0:0:0:
256,192,236757,1,8,0:0:0:0:
256,192,236914,1,8,0:0:0:0:
256,192,237071,1,0,0:0:0:0:
256,192,237228,1,8,0:0:0:0:
256,192,237307,1,8,0:0:0:0:
256,192,237385,1,0,0:0:0:0:
256,192,237542,1,0,0:0:0:0:
256,192,237857,1,8,0:0:0:0:
256,192,238171,1,0,0:0:0:0:
256,192,238328,1,0,0:0:0:0:
256,192,238406,1,0,0:0:0:0:
256,192,238485,1,8,0:0:0:0:
256,192,238642,1,8,0:0:0:0:
256,192,238799,1,0,0:0:0:0:
256,192,238956,1,8,0:0:0:0:
256,192,239113,1,0,0:0:0:0:
256,192,239192,1,0,0:0:0:0:
256,192,239270,1,8,0:0:0:0:
256,192,239427,1,8,0:0:0:0:
256,192,239584,1,0,0:0:0:0:
256,192,239741,1,8,0:0:0:0:
256,192,239820,1,8,0:0:0:0:
256,192,239898,1,0,0:0:0:0:
256,192,240055,1,8,0:0:0:0:
256,192,240370,1,0,0:0:0:0:
256,192,240684,1,8,0:0:0:0:
256,192,240841,1,0,0:0:0:0:
256,192,240919,1,0,0:0:0:0:
256,192,240998,1,8,0:0:0:0:
256,192,241155,1,0,0:0:0:0:
256,192,241312,1,8,0:0:0:0:
256,192,241469,1,0,0:0:0:0:
256,192,241626,1,0,0:0:0:0:
256,192,241705,1,0,0:0:0:0:
256,192,241783,1,8,0:0:0:0:
256,192,241940,1,8,0:0:0:0:
256,192,242254,1,8,0:0:0:0:
256,192,242333,1,8,0:0:0:0:
256,192,242412,1,0,0:0:0:0:
256,192,242490,1,0,0:0:0:0:
256,192,242569,1,8,0:0:0:0:
256,192,242726,1,0,0:0:0:0:
256,192,242883,1,0,0:0:0:0:
256,192,242961,1,0,0:0:0:0:
256,192,243040,1,8,0:0:0:0:
256,192,243197,1,8,0:0:0:0:
256,192,243511,1,8,0:0:0:0:
256,192,243590,1,0,0:0:0:0:
256,192,243668,1,8,0:0:0:0:
256,192,243747,1,0,0:0:0:0:
256,192,243825,1,8,0:0:0:0:
256,192,243982,1,0,0:0:0:0:
256,192,244139,1,8,0:0:0:0:
256,192,244296,1,0,0:0:0:0:
256,192,244453,1,8,0:0:0:0:
256,192,244610,1,8,0:0:0:0:
256,192,244768,1,0,0:0:0:0:
256,192,244925,1,0,0:0:0:0:
256,192,245082,1,8,0:0:0:0:
256,192,245160,1,0,0:0:0:0:
256,192,245239,1,0,0:0:0:0:
256,192,245317,1,0,0:0:0:0:
256,192,245396,1,8,0:0:0:0:
256,192,245553,5,0,0:0:0:0:
256,192,245710,1,8,0:0:0:0:
256,192,245788,1,8,0:0:0:0:
256,192,245867,1,0,0:0:0:0:
256,192,245946,1,0,0:0:0:0:
256,192,246024,1,8,0:0:0:0:
256,192,246181,1,0,0:0:0:0:
256,192,246338,1,4,0:0:0:0:
256,192,246495,1,0,0:0:0:0:
256,192,246574,1,0,0:0:0:0:
256,192,246652,1,0,0:0:0:0:
256,192,246809,1,0,0:0:0:0:
256,192,246966,1,8,0:0:0:0:
256,192,247124,1,0,0:0:0:0:
256,192,247202,1,0,0:0:0:0:
256,192,247281,1,0,0:0:0:0:
256,192,247438,1,8,0:0:0:0:
256,192,247595,1,8,0:0:0:0:
256,192,247909,1,8,0:0:0:0:
256,192,248223,1,0,0:0:0:0:
256,192,248537,1,8,0:0:0:0:
256,192,248851,1,8,0:0:0:0:
256,192,249008,1,0,0:0:0:0:
256,192,249087,1,0,0:0:0:0:
256,192,249165,1,0,0:0:0:0:
256,192,249323,1,8,0:0:0:0:
256,192,249480,1,8,0:0:0:0:
256,192,249558,1,8,0:0:0:0:
256,192,249637,1,0,0:0:0:0:
256,192,249794,1,0,0:0:0:0:
256,192,249951,1,8,0:0:0:0:
256,192,250108,1,8,0:0:0:0:
256,192,250422,1,8,0:0:0:0:
256,192,250736,1,8,0:0:0:0:
256,192,251050,1,0,0:0:0:0:
256,192,251364,1,8,0:0:0:0:
256,192,251521,1,0,0:0:0:0:
256,192,251679,1,8,0:0:0:0:
256,192,251836,1,0,0:0:0:0:
256,192,251914,1,0,0:0:0:0:
256,192,251993,1,8,0:0:0:0:
256,192,252150,1,0,0:0:0:0:
256,192,252307,1,0,0:0:0:0:
256,192,252385,1,8,0:0:0:0:
256,192,252464,1,0,0:0:0:0:
256,192,252621,1,8,0:0:0:0:
256,192,252778,1,0,0:0:0:0:
256,192,252935,1,8,0:0:0:0:
256,192,253092,1,0,0:0:0:0:
256,192,253171,1,0,0:0:0:0:
256,192,253249,1,8,0:0:0:0:
256,192,253406,1,0,0:0:0:0:
256,192,253563,1,0,0:0:0:0:
256,192,253642,1,8,0:0:0:0:
256,192,253720,1,0,0:0:0:0:
256,192,253877,1,8,0:0:0:0:
256,192,254035,1,0,0:0:0:0:
256,192,254192,1,8,0:0:0:0:
256,192,254349,1,0,0:0:0:0:
256,192,254427,1,0,0:0:0:0:
256,192,254506,1,8,0:0:0:0:
256,192,254663,1,0,0:0:0:0:
256,192,254820,1,0,0:0:0:0:
256,192,254898,1,8,0:0:0:0:
256,192,254977,1,0,0:0:0:0:
256,192,255134,1,0,0:0:0:0:
256,192,255448,1,0,0:0:0:0:
256,192,255762,1,8,0:0:0:0:
256,192,256076,1,8,0:0:0:0:
256,192,256155,1,8,0:0:0:0:
256,192,256234,1,0,0:0:0:0:
256,192,256391,1,12,0:0:0:0:
256,192,256548,1,0,0:0:0:0:
256,192,256626,1,0,0:0:0:0:
256,192,256705,1,0,0:0:0:0:
256,192,256862,1,0,0:0:0:0:
256,192,257019,1,8,0:0:0:0:
256,192,257176,1,0,0:0:0:0:
256,192,257254,1,0,0:0:0:0:
256,192,257333,1,0,0:0:0:0:
256,192,257490,1,8,0:0:0:0:
256,192,257647,1,8,0:0:0:0:
256,192,257961,1,8,0:0:0:0:
256,192,258275,1,0,0:0:0:0:
256,192,258590,1,8,0:0:0:0:
256,192,258904,1,8,0:0:0:0:
256,192,259061,1,0,0:0:0:0:
256,192,259139,1,0,0:0:0:0:
256,192,259218,1,0,0:0:0:0:
256,192,259375,1,8,0:0:0:0:
256,192,259532,1,8,0:0:0:0:
256,192,259610,1,8,0:0:0:0:
256,192,259689,1,0,0:0:0:0:
256,192,259846,1,0,0:0:0:0:
256,192,260003,1,8,0:0:0:0:
256,192,260160,1,8,0:0:0:0:
256,192,260474,1,8,0:0:0:0:
256,192,260788,1,8,0:0:0:0:
256,192,261103,1,0,0:0:0:0:
256,192,261417,1,8,0:0:0:0:
256,192,261574,1,0,0:0:0:0:
256,192,261731,1,8,0:0:0:0:
256,192,261888,1,0,0:0:0:0:
256,192,261966,1,0,0:0:0:0:
256,192,262045,1,8,0:0:0:0:
256,192,262202,1,0,0:0:0:0:
256,192,262359,1,0,0:0:0:0:
256,192,262438,1,8,0:0:0:0:
256,192,262516,1,0,0:0:0:0:
256,192,262673,1,8,0:0:0:0:
256,192,262830,1,0,0:0:0:0:
256,192,262987,1,8,0:0:0:0:
256,192,263145,1,0,0:0:0:0:
256,192,263223,1,0,0:0:0:0:
256,192,263302,1,8,0:0:0:0:
256,192,263459,1,0,0:0:0:0:
256,192,263616,1,8,0:0:0:0:
256,192,263694,1,8,0:0:0:0:
256,192,263773,1,8,0:0:0:0:
256,192,263851,1,0,0:0:0:0:
256,192,263930,1,8,0:0:0:0:
256,192,264087,1,0,0:0:0:0:
256,192,264244,1,8,0:0:0:0:
256,192,264401,1,0,0:0:0:0:
256,192,264480,1,0,0:0:0:0:
256,192,264558,1,8,0:0:0:0:
256,192,264715,1,0,0:0:0:0:
256,192,264872,1,0,0:0:0:0:
256,192,264951,1,8,0:0:0:0:
256,192,265029,1,0,0:0:0:0:
256,192,265186,1,8,0:0:0:0:
256,192,265501,1,8,0:0:0:0:
256,192,265815,1,0,0:0:0:0:
256,192,266129,1,0,0:0:0:0:
256,192,266207,1,0,0:0:0:0:
256,192,266286,1,0,0:0:0:0:
256,192,266443,5,12,0:0:0:0:
256,192,266757,5,0,0:0:0:0:
256,192,266914,5,8,0:0:0:0:
256,192,267071,5,0,0:0:0:0:
256,192,267228,5,8,0:0:0:0:
256,192,267307,1,8,0:0:0:0:
256,192,267385,5,0,0:0:0:0:
256,192,267542,5,8,0:0:0:0:
256,192,267699,1,12,0:0:0:0:
256,192,268014,5,4,0:0:0:0:
256,192,268328,1,4,0:0:0:0:
256,192,268642,5,12,0:0:0:0:
256,192,268956,1,12,0:0:0:0:
256,192,269270,5,0,0:0:0:0:
256,192,269427,5,8,0:0:0:0:
256,192,269584,5,0,0:0:0:0:
256,192,269741,5,8,0:0:0:0:
256,192,269820,1,8,0:0:0:0:
256,192,269898,5,0,0:0:0:0:
256,192,270055,1,0,0:0:0:0:
256,192,270213,5,12,0:0:0:0:
256,192,270527,1,12,0:0:0:0:
256,192,270841,5,4,0:0:0:0:
256,192,271155,1,4,0:0:0:0:
256,192,271469,5,12,0:0:0:0:
256,192,271783,5,0,0:0:0:0:
256,192,271940,5,8,0:0:0:0:
256,192,272097,1,8,0:0:0:0:
256,192,272254,5,0,0:0:0:0:
256,192,272412,1,0,0:0:0:0:
256,192,272490,5,8,0:0:0:0:
256,192,272569,5,0,0:0:0:0:
256,192,272726,5,12,0:0:0:0:
256,192,273040,5,0,0:0:0:0:
256,192,273197,5,8,0:0:0:0:
256,192,273354,1,8,0:0:0:0:
256,192,273511,5,0,0:0:0:0:
256,192,273668,1,0,0:0:0:0:
256,192,273747,5,8,0:0:0:0:
256,192,273825,5,0,0:0:0:0:
256,192,273982,5,12,0:0:0:0:
256,192,274296,5,0,0:0:0:0:
256,192,274453,5,8,0:0:0:0:
256,192,274610,1,8,0:0:0:0:
256,192,274768,5,0,0:0:0:0:
256,192,274925,1,0,0:0:0:0:
256,192,275003,5,8,0:0:0:0:
256,192,275082,5,0,0:0:0:0:
256,192,275239,1,0,0:0:0:0:
256,192,275396,1,0,0:0:0:0:
256,192,275474,1,0,0:0:0:0:
256,192,275553,5,8,0:0:0:0:
256,192,275710,5,0,0:0:0:0:
256,192,275867,5,8,0:0:0:0:
256,192,275946,1,8,0:0:0:0:
256,192,276024,1,8,0:0:0:0:
256,192,276103,1,8,0:0:0:0:
256,192,276181,5,0,0:0:0:0:
256,192,276338,1,0,0:0:0:0:
256,192,276495,5,12,0:0:0:0:
256,192,276809,5,0,0:0:0:0:
256,192,276966,5,8,0:0:0:0:
256,192,277124,5,0,0:0:0:0:
256,192,277281,5,8,0:0:0:0:
256,192,277359,1,8,0:0:0:0:
256,192,277438,5,0,0:0:0:0:
256,192,277595,5,8,0:0:0:0:
256,192,277752,1,12,0:0:0:0:
256,192,278066,5,4,0:0:0:0:
256,192,278380,1,4,0:0:0:0:
256,192,278694,5,12,0:0:0:0:
256,192,279008,1,12,0:0:0:0:
256,192,279323,5,0,0:0:0:0:
256,192,279480,5,8,0:0:0:0:
256,192,279637,5,0,0:0:0:0:
256,192,279794,5,8,0:0:0:0:
256,192,279872,1,8,0:0:0:0:
256,192,279951,5,0,0:0:0:0:
256,192,280108,1,0,0:0:0:0:
256,192,280265,5,12,0:0:0:0:
256,192,280579,1,12,0:0:0:0:
256,192,280893,5,4,0:0:0:0:
256,192,281207,1,4,0:0:0:0:
256,192,281521,5,12,0:0:0:0:
256,192,281836,5,0,0:0:0:0:
256,192,281993,5,8,0:0:0:0:
256,192,282150,1,8,0:0:0:0:
256,192,282228,1,8,0:0:0:0:
256,192,282307,5,0,0:0:0:0:
256,192,282385,1,0,0:0:0:0:
256,192,282464,5,8,0:0:0:0:
256,192,282621,5,0,0:0:0:0:
256,192,282778,5,12,0:0:0:0:
256,192,283092,5,0,0:0:0:0:
256,192,283249,5,8,0:0:0:0:
256,192,283406,5,8,0:0:0:0:
256,192,283485,1,8,0:0:0:0:
256,192,283563,5,0,0:0:0:0:
256,192,283642,1,0,0:0:0:0:
256,192,283720,5,8,0:0:0:0:
256,192,283877,1,8,0:0:0:0:
256,192,284035,1,12,0:0:0:0:
256,192,284192,5,0,0:0:0:0:
256,192,284349,1,0,0:0:0:0:
256,192,284427,1,0,0:0:0:0:
256,192,284506,5,8,0:0:0:0:
256,192,284663,5,0,0:0:0:0:
256,192,284741,1,0,0:0:0:0:
256,192,284820,5,8,0:0:0:0:
256,192,284898,1,8,0:0:0:0:
256,192,284977,5,0,0:0:0:0:
256,192,285055,5,8,0:0:0:0:
256,192,285134,1,8,0:0:0:0:
256,192,285291,1,12,0:0:0:0:
256,192,285605,5,4,0:0:0:0:
256,192,285919,1,4,0:0:0:0:
256,192,286234,5,12,0:0:0:0:
256,192,286548,5,4,0:0:0:0:
252,200,286862,5,8,0:0:0:0:
256,196,287176,1,8,0:0:0:0:
256,196,287333,1,0,0:0:0:0:
256,196,287490,1,8,0:0:0:0:
256,196,287647,1,8,0:0:0:0:
256,196,287804,1,0,0:0:0:0:
256,196,288118,1,8,0:0:0:0:
256,196,288432,1,0,0:0:0:0:
256,196,288590,1,0,0:0:0:0:
260,192,288747,1,8,0:0:0:0:
256,196,288904,1,0,0:0:0:0:
256,200,288982,1,0,0:0:0:0:
256,196,289061,1,0,0:0:0:0:
252,200,289375,1,8,0:0:0:0:
256,196,289689,1,8,0:0:0:0:
264,192,289846,1,0,0:0:0:0:
256,196,290003,1,8,0:0:0:0:
260,192,290317,1,8,0:0:0:0:
256,196,290631,1,8,0:0:0:0:
260,192,290946,1,8,0:0:0:0:
260,192,291103,1,0,0:0:0:0:
260,192,291260,1,8,0:0:0:0:
256,196,291338,1,0,0:0:0:0:
260,192,291417,1,8,0:0:0:0:
260,192,291574,1,4,0:0:0:0:
260,192,291888,1,8,0:0:0:0:
264,192,292202,1,8,0:0:0:0:
264,192,292359,1,0,0:0:0:0:
260,192,292516,1,8,0:0:0:0:
256,196,292673,1,8,0:0:0:0:
260,192,292830,1,0,0:0:0:0:
260,192,293145,1,8,0:0:0:0:
260,192,293459,1,0,0:0:0:0:
260,192,293616,1,0,0:0:0:0:
264,192,293773,1,8,0:0:0:0:
264,192,293930,1,0,0:0:0:0:
264,192,294008,1,0,0:0:0:0:
264,192,294087,1,0,0:0:0:0:
260,192,294401,1,8,0:0:0:0:
260,192,294715,1,8,0:0:0:0:
260,192,294872,1,0,0:0:0:0:
260,192,295029,1,8,0:0:0:0:
260,192,295343,1,8,0:0:0:0:
260,196,295658,1,8,0:0:0:0:
260,192,295972,1,8,0:0:0:0:
260,192,296129,1,0,0:0:0:0:
260,192,296286,1,8,0:0:0:0:
260,192,296364,1,0,0:0:0:0:
260,192,296443,1,8,0:0:0:0:
260,192,296600,1,4,0:0:0:0:
260,192,296914,1,8,0:0:0:0:
260,192,297228,1,0,0:0:0:0:
260,192,297385,1,0,0:0:0:0:
260,192,297542,1,8,0:0:0:0:
260,192,297699,1,0,0:0:0:0:
260,192,297857,1,4,0:0:0:0:
260,192,298171,1,8,0:0:0:0:
260,192,298485,1,0,0:0:0:0:
260,192,298642,1,0,0:0:0:0:
260,192,298799,1,8,0:0:0:0:
260,192,298956,1,0,0:0:0:0:
260,192,299113,1,12,0:0:0:0:
260,192,299427,1,8,0:0:0:0:
260,192,299741,1,8,0:0:0:0:
260,192,299898,1,8,0:0:0:0:
260,192,300055,1,0,0:0:0:0:
260,192,300213,1,0,0:0:0:0:
260,192,300370,1,12,0:0:0:0:
260,192,300684,1,8,0:0:0:0:
260,192,300998,1,8,0:0:0:0:
260,192,301155,1,0,0:0:0:0:
260,192,301312,1,8,0:0:0:0:
260,192,301469,1,8,0:0:0:0:
268,184,301626,1,4,0:0:0:0:
260,192,301783,1,0,0:0:0:0:
260,192,301940,1,8,0:0:0:0:
260,192,302097,1,0,0:0:0:0:
260,192,302254,1,0,0:0:0:0:
260,192,302412,1,0,0:0:0:0:
260,192,302569,1,8,0:0:0:0:
260,192,302726,1,0,0:0:0:0:
260,192,302883,1,0,0:0:0:0:
260,192,303040,1,0,0:0:0:0:
260,192,303197,1,8,0:0:0:0:
260,192,303354,1,0,0:0:0:0:
260,192,303511,1,0,0:0:0:0:
260,192,303668,1,0,0:0:0:0:
260,192,303825,1,8,0:0:0:0:
260,192,303982,1,0,0:0:0:0:
256,192,304139,5,8,0:0:0:0:
256,192,304218,1,0,0:0:0:0:
256,192,304296,1,0,0:0:0:0:
256,192,304375,1,0,0:0:0:0:
256,192,304453,1,8,0:0:0:0:
256,192,304532,1,0,0:0:0:0:
256,192,304610,1,0,0:0:0:0:
256,192,304689,1,0,0:0:0:0:
256,192,304768,1,8,0:0:0:0:
256,192,304846,1,0,0:0:0:0:
256,192,304925,1,0,0:0:0:0:
256,192,305003,1,0,0:0:0:0:
256,192,305082,1,8,0:0:0:0:
256,192,305160,1,8,0:0:0:0:
256,192,305239,1,8,0:0:0:0:
256,192,305317,1,8,0:0:0:0:
256,192,305396,1,0,0:0:0:0:
256,192,306338,1,8,0:0:0:0:
256,192,306652,5,12,0:0:0:0:
256,192,306966,1,0,0:0:0:0:
256,192,307281,1,8,0:0:0:0:
256,192,307438,1,8,0:0:0:0:
256,192,307595,1,0,0:0:0:0:
256,192,307909,1,8,0:0:0:0:
256,192,308066,1,8,0:0:0:0:
256,192,308380,1,0,0:0:0:0:
256,192,308537,1,8,0:0:0:0:
256,192,308851,1,0,0:0:0:0:
256,192,309165,1,8,0:0:0:0:
256,192,309480,1,0,0:0:0:0:
256,192,309794,1,8,0:0:0:0:
256,192,309951,1,8,0:0:0:0:
256,192,310108,1,0,0:0:0:0:
256,192,310422,1,8,0:0:0:0:
256,192,310579,1,8,0:0:0:0:
256,192,310893,1,0,0:0:0:0:
256,192,311050,1,8,0:0:0:0:
256,192,311364,1,0,0:0:0:0:
256,192,311679,1,8,0:0:0:0:
256,192,311993,1,0,0:0:0:0:
256,192,312307,1,8,0:0:0:0:
256,192,312464,1,8,0:0:0:0:
256,192,312621,1,0,0:0:0:0:
256,192,312935,1,8,0:0:0:0:
256,192,313092,1,8,0:0:0:0:
256,192,313249,1,0,0:0:0:0:
256,192,313406,1,0,0:0:0:0:
256,192,313563,1,8,0:0:0:0:
256,192,313877,1,0,0:0:0:0:
256,192,314192,1,8,0:0:0:0:
256,192,314506,1,0,0:0:0:0:
256,192,314663,1,0,0:0:0:0:
256,192,314820,1,8,0:0:0:0:
256,192,315134,1,0,0:0:0:0:
256,192,315291,1,8,0:0:0:0:
256,192,316391,1,8,0:0:0:0:
256,192,316705,5,12,0:0:0:0:
256,192,317019,1,0,0:0:0:0:
256,192,317176,1,0,0:0:0:0:
256,192,317333,1,8,0:0:0:0:
256,192,317647,1,0,0:0:0:0:
256,192,317961,1,8,0:0:0:0:
256,192,318118,1,8,0:0:0:0:
256,192,318275,1,8,0:0:0:0:
256,192,318432,1,0,0:0:0:0:
256,192,318590,1,8,0:0:0:0:
256,192,318904,1,0,0:0:0:0:
256,192,319218,1,8,0:0:0:0:
256,192,319532,1,0,0:0:0:0:
256,192,319689,1,0,0:0:0:0:
256,192,319846,1,8,0:0:0:0:
256,192,320160,1,0,0:0:0:0:
256,192,320474,1,8,0:0:0:0:
256,192,320631,1,8,0:0:0:0:
256,192,320788,1,0,0:0:0:0:
256,192,320946,1,8,0:0:0:0:
256,192,321103,1,8,0:0:0:0:
256,192,321417,1,0,0:0:0:0:
256,192,321731,1,8,0:0:0:0:
256,192,322045,1,0,0:0:0:0:
256,192,322202,1,8,0:0:0:0:
256,192,322359,1,8,0:0:0:0:
256,192,322673,1,0,0:0:0:0:
256,192,322987,1,8,0:0:0:0:
256,192,323145,1,8,0:0:0:0:
256,192,323302,1,0,0:0:0:0:
256,192,323459,1,0,0:0:0:0:
256,192,323616,1,8,0:0:0:0:
256,192,323930,1,0,0:0:0:0:
256,192,324244,1,8,0:0:0:0:
256,192,324401,1,8,0:0:0:0:
256,192,324558,1,0,0:0:0:0:
256,192,324715,1,0,0:0:0:0:
256,192,324872,1,8,0:0:0:0:
256,192,325029,1,8,0:0:0:0:
256,192,325108,1,8,0:0:0:0:
256,192,325186,1,0,0:0:0:0:
256,192,325343,1,0,0:0:0:0:
256,192,325501,1,8,0:0:0:0:
256,192,325815,1,8,0:0:0:0:
256,192,326129,5,8,0:0:0:0:
256,192,326364,1,8,0:0:0:0:
256,192,326443,1,8,0:0:0:0:
256,192,326600,1,8,0:0:0:0:
256,192,326757,5,12,0:0:0:0:
256,192,327071,5,0,0:0:0:0:
256,192,327385,5,8,0:0:0:0:
256,192,327542,1,8,0:0:0:0:
256,192,327699,5,0,0:0:0:0:
256,192,328014,5,8,0:0:0:0:
256,192,328328,5,0,0:0:0:0:
256,192,328642,5,8,0:0:0:0:
256,192,328799,1,8,0:0:0:0:
256,192,328956,5,0,0:0:0:0:
256,192,329113,1,0,0:0:0:0:
256,192,329270,5,8,0:0:0:0:
256,192,329584,5,0,0:0:0:0:
256,192,329898,5,8,0:0:0:0:
256,192,330055,5,0,0:0:0:0:
256,192,330213,1,0,0:0:0:0:
256,192,330527,5,8,0:0:0:0:
256,192,330841,5,0,0:0:0:0:
256,192,331155,5,8,0:0:0:0:
256,192,331312,5,0,0:0:0:0:
256,192,331469,1,0,0:0:0:0:
256,192,331626,1,0,0:0:0:0:
256,192,331783,5,8,0:0:0:0:
256,192,332097,5,0,0:0:0:0:
256,192,332412,5,8,0:0:0:0:
256,192,332569,1,8,0:0:0:0:
256,192,332726,5,0,0:0:0:0:
256,192,333040,5,8,0:0:0:0:
256,192,333354,5,0,0:0:0:0:
256,192,333668,5,8,0:0:0:0:
256,192,333825,1,8,0:0:0:0:
256,192,333982,5,0,0:0:0:0:
256,192,334139,1,0,0:0:0:0:
256,192,334296,5,8,0:0:0:0:
256,192,334610,5,0,0:0:0:0:
256,192,334925,5,8,0:0:0:0:
256,192,335082,5,0,0:0:0:0:
256,192,335239,1,0,0:0:0:0:
256,192,335553,5,8,0:0:0:0:
256,192,335867,5,0,0:0:0:0:
256,192,336181,5,8,0:0:0:0:
256,192,336338,5,0,0:0:0:0:
256,192,336495,1,0,0:0:0:0:
256,192,336652,1,0,0:0:0:0:
256,192,336731,1,0,0:0:0:0:
256,192,336809,5,8,0:0:0:0:
256,192,336966,1,8,0:0:0:0:
256,192,337124,5,0,0:0:0:0:
256,192,337438,5,8,0:0:0:0:
256,192,337595,1,8,0:0:0:0:
256,192,337752,5,0,0:0:0:0:
256,192,338066,5,8,0:0:0:0:
256,192,338223,1,8,0:0:0:0:
256,192,338380,5,0,0:0:0:0:
256,192,338694,5,8,0:0:0:0:
256,192,338851,1,8,0:0:0:0:
256,192,339008,5,0,0:0:0:0:
256,192,339165,1,0,0:0:0:0:
256,192,339244,1,0,0:0:0:0:
256,192,339323,5,8,0:0:0:0:
256,192,339480,5,0,0:0:0:0:
256,192,339637,1,0,0:0:0:0:
256,192,339951,5,8,0:0:0:0:
256,192,340108,5,0,0:0:0:0:
256,192,340265,1,0,0:0:0:0:
256,192,340579,5,8,0:0:0:0:
256,192,340736,5,0,0:0:0:0:
256,192,340893,1,0,0:0:0:0:
256,192,341207,5,8,0:0:0:0:
256,192,341364,5,0,0:0:0:0:
256,192,341521,1,0,0:0:0:0:
256,192,341679,1,0,0:0:0:0:
256,192,341757,1,0,0:0:0:0:
256,192,341836,5,8,0:0:0:0:
256,192,341993,1,8,0:0:0:0:
256,192,342150,5,0,0:0:0:0:
256,192,342307,1,0,0:0:0:0:
256,192,342464,5,8,0:0:0:0:
256,192,342621,1,8,0:0:0:0:
256,192,342778,5,0,0:0:0:0:
256,192,342935,1,0,0:0:0:0:
256,192,343092,1,4,0:0:0:0:
256,192,343249,5,8,0:0:0:0:
256,192,343406,5,0,0:0:0:0:
256,192,343485,1,0,0:0:0:0:
256,192,343563,5,8,0:0:0:0:
256,192,343720,5,0,0:0:0:0:
256,192,343877,5,8,0:0:0:0:
256,192,344035,5,0,0:0:0:0:
256,192,344113,1,8,0:0:0:0:
256,192,344192,1,8,0:0:0:0:
256,192,344349,5,0,0:0:0:0:
256,192,344427,1,0,0:0:0:0:
256,192,344506,5,8,0:0:0:0:
256,192,344584,1,8,0:0:0:0:
256,192,344663,5,0,0:0:0:0:
256,192,344741,5,8,0:0:0:0:
256,192,344820,1,8,0:0:0:0:
256,192,344898,1,8,0:0:0:0:
256,192,344977,5,0,0:0:0:0:
256,192,345055,5,8,0:0:0:0:
256,192,345134,1,8,0:0:0:0:
256,192,345213,1,8,0:0:0:0:
256,192,345291,1,8,0:0:0:0:
256,192,345370,1,8,0:0:0:0:
256,192,345448,1,8,0:0:0:0:
256,192,345527,1,8,0:0:0:0:
256,192,346548,1,8,0:0:0:0:
256,192,346862,5,4,0:0:0:0:
256,192,347019,12,0,351888,0:0:0:0:
