osu file format v14

[General]
AudioFilename: 08 MariannE.mp3
AudioLeadIn: 2000
PreviewTime: 153354
Countdown: 0
SampleSet: Soft
StackLeniency: 0.5
Mode: 3
LetterboxInBreaks: 0
EpilepsyWarning: 1
SpecialStyle: 0
WidescreenStoryboard: 1

[Editor]
Bookmarks: 40257,60362,70422,80467,103085,123189,143294,186017,206121,246331,286548,306645
DistanceSpacing: 0.5
BeatDivisor: 4
GridSize: 4
TimelineZoom: 1.4

[Metadata]
Title:MariannE
TitleUnicode:MariannE
Artist:Yooh
ArtistUnicode:Yooh
Creator:neonat
Version:Mania 7K Collab
Source:
Tags:handsome Jerry Fullerene- mingmichael CLSW Nardoxyribonucleic Guy Xinely Tidek Ichigaki Fort Sayaka- pishifat Irreversible aabc271 _Gezo_ qoot8123 Kuo Kyoka DE-CADE Spectator kakattekoyeah c.h.s gothic themed c87 Raymond Minato Yukina Neppu CiiyusMiapah Nardo Unmei Muma
BeatmapID:647117
BeatmapSetID:285577

[Difficulty]
HPDrainRate:8.5
CircleSize:7
OverallDifficulty:8.5
ApproachRate:9.3
SliderMultiplier:1.8
SliderTickRate:1

[Events]
//Background and Video events
0,0,"SO57p38.jpg",0,0
//Break Periods
//Storyboard Layer 0 (Background)
//Storyboard Layer 1 (Fail)
//Storyboard Layer 2 (Pass)
//Storyboard Layer 3 (Foreground)
Sprite,Foreground,Centre,"SB\Marianne.png",320,240 F,0,40265,40765,0,1 F,0,44663,44863,1,0 M,2,44663,45163,475,240,475,140 M,2,44663,45163,475,240,475,140
Sprite,Foreground,Centre,"SB\collabmania7.png",320,240 F,0,45291,45491,0,1 M,1,45291,45791,475,280,475,240 F,0,48747,48947,1,0 M,2,48747,49247,475,240,475,180
Sprite,Foreground,Centre,"SB\sb.png",320,240 F,0,49218,49418,0,1 M,1,49218,49718,475,280,475,240 F,0,50003,50203,1,0 M,2,50003,50503,475,240,475,180
Sprite,Foreground,Centre,"SB\whitenamebar.png",320,240 F,0,-300,0,0,0.9 C,0,0,,135,255,120 M,0,0,350000,475,400 S,0,0,350000,0.75 C,0,40108,40265,135,255,120,255,255,140 C,0,60213,60370,255,255,140,135,255,120 C,0,70265,70422,135,255,120,255,255,140 C,0,80318,80475,255,255,140,135,255,120 C,0,102935,103092,135,255,120,255,255,140 C,0,123040,123197,255,255,140,135,255,120 C,0,143145,143302,135,255,120,255,255,140 C,0,185867,186024,255,255,140,135,255,120 C,0,205972,206129,135,255,120,255,255,140 C,0,246182,246339,255,255,140,135,255,120 C,0,286391,286548,135,255,120,255,255,140 C,0,306496,306653,255,255,140,135,255,120 F,0,349700,350000,0.9,0
Sprite,Foreground,Centre,"SB\Names\Ichigaki.png",320,240 F,0,0,300,0,1 M,0,0,350000,475,400 S,0,0,350000,0.75 F,0,40108,40408,1,0 F,0,60370,60670,0,1 F,0,70265,70565,1,0 F,0,80475,80775,0,1 F,0,102935,103235,1,0 F,0,123197,123497,0,1 F,0,143145,143445,1,0 F,0,186024,186324,0,1 F,0,205972,206272,1,0 F,0,246339,246639,0,1 F,0,286391,286691,1,0 F,0,306653,306953,0,1 F,0,349700,350000,1,0
Sprite,Foreground,Centre,"SB\Names\DE-CADE.png",320,240 M,0,0,350000,475,400 S,0,0,350000,0.75 F,0,40265,40565,0,1 F,0,60213,60513,1,0 F,0,70422,70722,0,1 F,0,80318,80618,1,0 F,0,103092,103392,0,1 F,0,123040,123340,1,0 F,0,143302,143602,0,1 F,0,185867,186167,1,0 F,0,206129,206429,0,1 F,0,246182,246482,1,0 F,0,286548,286848,0,1 F,0,306496,306796,1,0
//Storyboard Sound Samples
Sample,56,0,"bell.wav",60
Sample,684,0,"bell.wav",50
Sample,1312,0,"bell.wav",40
Sample,1941,0,"bell.wav",30
Sample,2569,0,"bell.wav",20
Sample,3197,0,"bell.wav",10
Sample,10265,0,"hihat.wav",35
Sample,10422,0,"hihat.wav",35
Sample,10579,0,"hihat.wav",35
Sample,10736,0,"drum.wav",70
Sample,10736,0,"bell.wav",50
Sample,10893,0,"hihat.wav",35
Sample,11207,0,"hihat.wav",35
Sample,11365,0,"bell.wav",40
Sample,11521,0,"hihat.wav",35
Sample,11679,0,"hihat.wav",35
Sample,11836,0,"hihat.wav",35
Sample,11993,0,"bell.wav",30
Sample,11993,0,"drum.wav",70
Sample,12150,0,"hihat.wav",35
Sample,12307,0,"hihat.wav",35
Sample,12464,0,"hihat.wav",35
Sample,12621,0,"bell.wav",20
Sample,12778,0,"hihat.wav",35
Sample,12935,0,"hihat.wav",35
Sample,13092,0,"hihat.wav",35
Sample,13249,0,"bell.wav",10
Sample,13249,0,"drum.wav",70
Sample,13406,0,"hihat.wav",35
Sample,13720,0,"hihat.wav",35
Sample,14035,0,"hihat.wav",35
Sample,14349,0,"hihat.wav",35
Sample,14506,0,"drum.wav",70
Sample,14663,0,"hihat.wav",35
Sample,14820,0,"hihat.wav",35
Sample,14977,0,"hihat.wav",35
Sample,15291,0,"hihat.wav",35
Sample,15448,0,"hihat.wav",35
Sample,15605,0,"hihat.wav",35
Sample,15919,0,"hihat.wav",35
Sample,16234,0,"hihat.wav",35
Sample,16548,0,"hihat.wav",35
Sample,16705,0,"hihat.wav",35
Sample,16862,0,"hihat.wav",35
Sample,17019,0,"snare.wav",70
Sample,17176,0,"hihat.wav",35
Sample,17333,0,"hihat.wav",35
Sample,17490,0,"hihat.wav",35
Sample,17804,0,"hihat.wav",35
Sample,17961,0,"hihat.wav",35
Sample,18118,0,"hihat.wav",35
Sample,18275,0,"drum.wav",70
Sample,18432,0,"hihat.wav",35
Sample,18747,0,"hihat.wav",35
Sample,19061,0,"hihat.wav",35
Sample,19375,0,"hihat.wav",35
Sample,19532,0,"drum.wav",70
Sample,20789,0,"bell.wav",50
Sample,21417,0,"bell.wav",40
Sample,22045,0,"bell.wav",30
Sample,22673,0,"bell.wav",20
Sample,23302,0,"bell.wav",10
Sample,23616,0,"kick.wav",70
Sample,24244,0,"kick.wav",70
Sample,28642,0,"kick.wav",70
Sample,29742,0,"kick.wav",70
Sample,30056,0,"kick.wav",70
Sample,30213,0,"bell.wav",60
Sample,30213,0,"kick.wav",70
Sample,30841,0,"bell.wav",50
Sample,31470,0,"bell.wav",40
Sample,31784,0,"kick.wav",70
Sample,32098,0,"bell.wav",30
Sample,32726,0,"bell.wav",20
Sample,33354,0,"bell.wav",10
Sample,35553,0,"kick.wav",70
Sample,36182,0,"kick.wav",70
Sample,37831,0,"kick.wav",70
Sample,37909,0,"kick.wav",70
Sample,37988,0,"kick.wav",70
Sample,38066,0,"kick.wav",70
Sample,38223,0,"kick.wav",70
Sample,38538,0,"kick.wav",70
Sample,38694,0,"kick.wav",70
Sample,40265,0,"bell.wav",60
Sample,50003,0,"cymbol.wav",70
Sample,60370,0,"bell.wav",60
Sample,70187,0,"kick.wav",70
Sample,70422,0,"bell.wav",60
Sample,80474,0,"bell.wav",60
Sample,81103,0,"bell.wav",50
Sample,81731,0,"bell.wav",40
Sample,82360,0,"bell.wav",30
Sample,82988,0,"bell.wav",20
Sample,83616,0,"bell.wav",10
Sample,90527,0,"bell.wav",60
Sample,90684,0,"hihat.wav",35
Sample,90998,0,"hihat.wav",35
Sample,91155,0,"drum.wav",70
Sample,91155,0,"bell.wav",50
Sample,91312,0,"hihat.wav",35
Sample,91469,0,"kick.wav",70
Sample,91626,0,"kick.wav",70
Sample,91626,0,"hihat.wav",35
Sample,91783,0,"kick.wav",70
Sample,91784,0,"bell.wav",40
Sample,91940,0,"hihat.wav",35
Sample,92097,0,"hihat.wav",35
Sample,92097,0,"kick.wav",70
Sample,92254,0,"hihat.wav",35
Sample,92255,0,"kick.wav",70
Sample,92412,0,"bell.wav",30
Sample,92412,0,"drum.wav",70
Sample,93040,0,"kick.wav",70
Sample,93040,0,"bell.wav",20
Sample,93197,0,"hihat.wav",35
Sample,93511,0,"hihat.wav",35
Sample,93668,0,"bell.wav",10
Sample,93668,0,"drum.wav",70
Sample,93982,0,"kick.wav",70
Sample,94139,0,"kick.wav",70
Sample,94296,0,"kick.wav",70
Sample,94453,0,"hihat.wav",35
Sample,94610,0,"kick.wav",70
Sample,94768,0,"hihat.wav",35
Sample,94925,0,"drum.wav",70
Sample,95082,0,"hihat.wav",35
Sample,95239,0,"kick.wav",70
Sample,95396,0,"hihat.wav",35
Sample,95553,0,"kick.wav",70
Sample,95710,0,"kick.wav",70
Sample,95710,0,"hihat.wav",35
Sample,95867,0,"kick.wav",70
Sample,96024,0,"kick.wav",70
Sample,96024,0,"hihat.wav",35
Sample,96181,0,"drum.wav",70
Sample,96338,0,"hihat.wav",35
Sample,96495,0,"kick.wav",70
Sample,96652,0,"kick.wav",70
Sample,96652,0,"hihat.wav",35
Sample,96809,0,"kick.wav",70
Sample,96966,0,"hihat.wav",35
Sample,97124,0,"kick.wav",70
Sample,97124,0,"hihat.wav",35
Sample,97281,0,"kick.wav",70
Sample,97281,0,"hihat.wav",35
Sample,97438,0,"drum.wav",70
Sample,98066,0,"kick.wav",70
Sample,98223,0,"hihat.wav",35
Sample,98223,0,"kick.wav",70
Sample,98380,0,"kick.wav",70
Sample,98537,0,"hihat.wav",35
Sample,98538,0,"kick.wav",70
Sample,98694,0,"drum.wav",70
Sample,98851,0,"hihat.wav",35
Sample,99008,0,"kick.wav",70
Sample,99165,0,"kick.wav",70
Sample,99323,0,"kick.wav",70
Sample,99480,0,"hihat.wav",35
Sample,99637,0,"kick.wav",70
Sample,99637,0,"hihat.wav",35
Sample,99794,0,"kick.wav",70
Sample,99951,0,"drum.wav",70
Sample,100579,0,"kick.wav",70
Sample,100736,0,"hihat.wav",35
Sample,101207,0,"drum.wav",70
Sample,102150,0,"hihat.wav",35
Sample,103721,0,"bell.wav",50
Sample,104349,0,"bell.wav",40
Sample,104977,0,"bell.wav",30
Sample,113145,0,"bell.wav",60
Sample,114401,0,"bell.wav",40
Sample,115658,0,"bell.wav",20
Sample,123825,0,"bell.wav",50
Sample,139532,0,"kick.wav",70
Sample,140160,0,"kick.wav",70
Sample,140788,0,"snare.wav",70
Sample,141417,0,"snare.wav",70
Sample,142987,0,"drum.wav",70
Sample,143223,0,"kick.wav",70
Sample,153119,0,"kick.wav",70
Sample,153275,0,"kick.wav",70
Sample,153354,0,"bell.wav",60
Sample,163171,0,"kick.wav",70
Sample,163328,0,"kick.wav",70
Sample,166862,0,"snare.wav",70
Sample,173223,0,"kick.wav",70
Sample,173381,0,"kick.wav",70
Sample,183904,0,"kick.wav",70
Sample,184061,0,"kick.wav",70
Sample,185710,0,"drum.wav",70
Sample,186024,0,"bell.wav",60
Sample,186652,0,"bell.wav",50
Sample,187909,0,"bell.wav",30
Sample,189166,0,"bell.wav",10
Sample,206129,0,"bell.wav",60
Sample,221286,0,"kick.wav",70
Sample,221443,0,"kick.wav",70
Sample,221600,0,"kick.wav",70
Sample,221757,0,"kick.wav",70
Sample,221915,0,"kick.wav",70
Sample,222072,0,"kick.wav",70
Sample,222229,0,"kick.wav",70
Sample,222386,0,"kick.wav",70
Sample,222543,0,"kick.wav",70
Sample,222700,0,"kick.wav",70
Sample,223485,0,"kick.wav",70
Sample,226234,0,"bell.wav",60
Sample,236051,0,"kick.wav",70
Sample,236207,0,"kick.wav",70
Sample,246103,0,"kick.wav",70
Sample,246338,0,"bell.wav",60
Sample,246338,0,"crash-cymbol.wav",70
Sample,256155,0,"kick.wav",70
Sample,266443,0,"bell.wav",60
Sample,272412,0,"kick.wav",70
Sample,273668,0,"snare.wav",70
Sample,274925,0,"kick.wav",70
Sample,275396,0,"hihat.wav",35
Sample,275710,0,"hihat.wav",35
Sample,276024,0,"hihat.wav",35
Sample,276260,0,"kick.wav",70
Sample,276417,0,"kick.wav",70
Sample,284114,0,"kick.wav",70
Sample,284271,0,"kick.wav",70
Sample,284428,0,"kick.wav",70
Sample,284585,0,"kick.wav",70
Sample,286234,0,"snare.wav",70
Sample,286548,0,"bell.wav",60
Sample,287176,0,"bell.wav",50
Sample,287805,0,"bell.wav",40
Sample,288433,0,"bell.wav",30
Sample,289061,0,"bell.wav",20
Sample,289061,0,"kick.wav",70
Sample,289689,0,"bell.wav",10
Sample,291574,0,"kick.wav",70
Sample,296600,0,"bell.wav",60
Sample,297857,0,"bell.wav",40
Sample,299113,0,"bell.wav",20
Sample,301626,0,"crash-cymbol.wav",70
Sample,306338,0,"drum.wav",70
Sample,306652,0,"bell.wav",60
Sample,306652,0,"kick.wav",70
Sample,326286,0,"kick.wav",70
Sample,326757,0,"bell.wav",60
Sample,336809,0,"bell.wav",60
Sample,346862,0,"crash-cymbol.wav",70
Sample,346862,0,"kick.wav",70
Sample,346862,0,"bell.wav",50
Sample,349375,0,"bell.wav",40
Sample,350003,0,"bell.wav",30
Sample,350631,0,"bell.wav",20
Sample,351260,0,"bell.wav",10
Sample,351888,0,"bell.wav",10

[TimingPoints]
56,314.13612565445,4,2,0,70,1,0
80475,-105.263157894737,4,2,0,70,0,0
90527,-100,4,2,0,70,0,0
186025,-111.111111111111,4,2,0,70,0,0
206129,-100,4,2,0,70,0,0
345527,-22.2222222222222,4,2,0,70,0,0
345605,-200,4,2,0,70,0,0
346469,-166.666666666667,4,2,0,70,0,0
346489,-142.857142857143,4,2,0,70,0,0
346508,-125,4,2,0,70,0,0
346528,-111.111111111111,4,2,0,70,0,0
346548,-52.6315789473684,4,2,0,70,0,0
346567,-1000,4,2,0,70,0,0
346587,-52.6315789473684,4,2,0,70,0,0
346607,-1000,4,2,0,70,0,0
346626,-52.6315789473684,4,2,0,70,0,0
346646,-1000,4,2,0,70,0,0
346665,-52.6315789473684,4,2,0,70,0,0
346685,-1000,4,2,0,70,0,0
346705,-52.6315789473684,4,2,0,70,0,0
346724,-1000,4,2,0,70,0,0
346744,-52.6315789473684,4,2,0,70,0,0
346764,-1000,4,2,0,70,0,0
346783,-100,4,2,0,70,0,0

[Colours]
Combo1 : 209,147,16
Combo2 : 185,91,198
Combo3 : 45,139,255
Combo4 : 250,160,174

[HitObjects]
36,192,56,5,0,0:0:0:35:hihat.wav
475,192,56,1,0,0:0:0:70:crash-cymbol.wav
182,192,56,1,0,0:0:0:0:
329,192,213,1,0,0:0:0:35:hihat.wav
109,192,370,1,0,0:0:0:35:hihat.wav
402,192,527,1,0,0:0:0:35:hihat.wav
182,192,684,1,0,0:0:0:35:hihat.wav
36,192,841,1,0,0:0:0:35:hihat.wav
109,192,998,1,0,0:0:0:35:hihat.wav
256,192,1155,1,0,0:0:0:35:hihat.wav
475,192,1312,1,0,0:0:0:35:hihat.wav
329,192,1469,1,0,0:0:0:35:hihat.wav
182,192,1626,1,0,0:0:0:35:hihat.wav
36,192,1783,1,0,0:0:0:35:hihat.wav
475,192,1940,1,0,0:0:0:35:hihat.wav
256,192,2097,1,0,0:0:0:35:hihat.wav
402,192,2254,1,0,0:0:0:35:hihat.wav
182,192,2412,1,0,0:0:0:35:hihat.wav
475,192,2569,1,0,0:0:0:35:hihat.wav
36,192,2569,1,0,0:0:0:70:kick.wav
329,192,2569,1,0,0:0:0:0:
109,192,2726,1,0,0:0:0:35:hihat.wav
256,192,2883,1,0,0:0:0:35:hihat.wav
402,192,3040,1,0,0:0:0:35:hihat.wav
182,192,3197,1,0,0:0:0:35:hihat.wav
329,192,3354,1,0,0:0:0:35:hihat.wav
256,192,3511,1,0,0:0:0:35:hihat.wav
109,192,3668,1,0,0:0:0:35:hihat.wav
36,192,3825,1,0,0:0:0:70:kick.wav
475,192,3825,1,0,0:0:0:35:hihat.wav
402,192,3825,1,0,0:0:0:0:
182,192,3982,1,0,0:0:0:35:hihat.wav
109,192,4139,1,0,0:0:0:35:hihat.wav
256,192,4296,1,0,0:0:0:35:hihat.wav
402,192,4453,1,0,0:0:0:35:hihat.wav
475,192,4610,1,0,0:0:0:35:hihat.wav
256,192,4768,1,0,0:0:0:35:hihat.wav
109,192,4925,1,0,0:0:0:35:hihat.wav
36,192,5082,1,0,0:0:0:35:hihat.wav
475,192,5082,1,0,0:0:0:70:kick.wav
182,192,5082,1,0,0:0:0:0:
329,192,5239,1,0,0:0:0:35:hihat.wav
402,192,5396,1,0,0:0:0:35:hihat.wav
256,192,5553,1,0,0:0:0:35:hihat.wav
109,192,5710,1,0,0:0:0:35:hihat.wav
36,192,5867,1,0,0:0:0:35:hihat.wav
182,192,6024,1,0,0:0:0:35:hihat.wav
402,192,6181,1,0,0:0:0:35:hihat.wav
36,192,6338,1,0,0:0:0:35:hihat.wav
256,192,6495,1,0,0:0:0:35:hihat.wav
109,192,6652,1,0,0:0:0:35:hihat.wav
329,192,6809,1,0,0:0:0:35:hihat.wav
475,192,6966,1,0,0:0:0:35:hihat.wav
256,192,7124,1,0,0:0:0:35:hihat.wav
182,192,7281,1,0,0:0:0:35:hihat.wav
36,192,7438,1,0,0:0:0:35:hihat.wav
475,192,7595,1,0,0:0:0:35:hihat.wav
256,192,7595,1,0,0:0:0:70:kick.wav
329,192,7595,1,0,0:0:0:0:
109,192,7752,1,0,0:0:0:35:hihat.wav
402,192,7909,1,0,0:0:0:35:hihat.wav
256,192,8066,1,0,0:0:0:35:hihat.wav
329,192,8223,1,0,0:0:0:35:hihat.wav
36,192,8223,1,0,0:0:0:70:kick.wav
475,192,8223,1,0,0:0:0:0:
182,192,8380,1,0,0:0:0:35:hihat.wav
402,192,8537,1,0,0:0:0:35:hihat.wav
256,192,8694,1,0,0:0:0:35:hihat.wav
36,192,8851,1,0,0:0:0:35:hihat.wav
402,192,8851,1,0,0:0:0:70:kick.wav
475,192,8851,1,0,0:0:0:0:
109,192,9008,1,0,0:0:0:35:hihat.wav
256,192,9165,1,0,0:0:0:35:hihat.wav
402,192,9323,1,0,0:0:0:35:hihat.wav
475,192,9480,1,0,0:0:0:35:hihat.wav
182,192,9480,1,0,0:0:0:70:kick.wav
36,192,9480,1,0,0:0:0:0:
329,192,9637,1,0,0:0:0:35:hihat.wav
256,192,9794,1,0,0:0:0:35:hihat.wav
109,192,9951,1,0,0:0:0:35:hihat.wav
475,192,10108,1,0,0:0:0:35:hihat.wav
36,192,10108,1,0,0:0:0:70:kick.wav
402,192,10108,1,0,0:0:0:60:bell.wav
182,192,10265,1,0,0:0:0:0:
36,192,10422,128,0,10736:0:0:0:0:
329,192,10422,1,0,0:0:0:0:
109,192,10579,1,0,0:0:0:0:
256,192,10736,1,0,0:0:0:35:hihat.wav
402,192,10736,1,0,0:0:0:0:
475,192,10736,1,0,0:0:0:0:
182,192,10893,1,0,0:0:0:0:
36,192,11050,128,0,11364:0:0:0:35:hihat.wav
402,192,11050,1,0,0:0:0:70:kick.wav
256,192,11207,1,0,0:0:0:0:
329,192,11364,1,0,0:0:0:35:hihat.wav
109,192,11364,1,0,0:0:0:70:kick.wav
182,192,11521,1,0,0:0:0:0:
475,192,11679,128,0,11993:0:0:0:0:
402,192,11679,1,0,0:0:0:0:
256,192,11836,1,0,0:0:0:0:
109,192,11993,1,0,0:0:0:35:hihat.wav
36,192,11993,1,0,0:0:0:0:
329,192,11993,1,0,0:0:0:0:
182,192,12150,1,0,0:0:0:0:
475,192,12307,128,0,12621:0:0:0:0:
402,192,12307,1,0,0:0:0:0:
256,192,12464,1,0,0:0:0:0:
182,192,12621,1,0,0:0:0:35:hihat.wav
36,192,12621,1,0,0:0:0:70:kick.wav
109,192,12621,1,0,0:0:0:0:
329,192,12778,1,0,0:0:0:0:
36,192,12935,1,0,0:0:0:0:
256,192,12935,128,0,13249:0:0:0:0:
475,192,13092,1,0,0:0:0:0:
109,192,13249,1,0,0:0:0:35:hihat.wav
402,192,13249,1,0,0:0:0:0:
182,192,13249,1,0,0:0:0:0:
329,192,13406,1,0,0:0:0:0:
256,192,13563,128,0,13877:0:0:0:35:hihat.wav
36,192,13563,1,0,0:0:0:70:kick.wav
475,192,13563,1,0,0:0:0:0:
109,192,13720,1,0,0:0:0:0:
182,192,13877,1,0,0:0:0:35:hihat.wav
402,192,13877,1,0,0:0:0:70:kick.wav
475,192,13877,1,0,0:0:0:0:
329,192,14035,1,0,0:0:0:0:
109,192,14192,128,0,14506:0:0:0:35:hihat.wav
36,192,14192,1,0,0:0:0:70:kick.wav
256,192,14192,1,0,0:0:0:0:
329,192,14349,1,0,0:0:0:0:
402,192,14506,1,0,0:0:0:35:hihat.wav
475,192,14506,1,0,0:0:0:0:
182,192,14506,1,0,0:0:0:0:
256,192,14663,1,0,0:0:0:0:
109,192,14820,128,0,15134:0:0:0:0:
402,192,14820,1,0,0:0:0:0:
329,192,14977,1,0,0:0:0:0:
182,192,15134,1,0,0:0:0:35:hihat.wav
475,192,15134,1,0,0:0:0:70:kick.wav
36,192,15134,1,0,0:0:0:0:
256,192,15291,1,0,0:0:0:0:
402,192,15448,128,0,15762:0:0:0:0:
329,192,15448,1,0,0:0:0:0:
109,192,15605,1,0,0:0:0:0:
36,192,15762,1,0,0:0:0:70:drum.wav
256,192,15762,1,0,0:0:0:35:hihat.wav
182,192,15762,1,0,0:0:0:0:
329,192,15919,1,0,0:0:0:0:
402,192,16076,128,0,16391:0:0:0:35:hihat.wav
475,192,16076,1,0,0:0:0:70:kick.wav
109,192,16076,1,0,0:0:0:0:
182,192,16234,1,0,0:0:0:0:
109,192,16391,1,0,0:0:0:35:hihat.wav
329,192,16391,1,0,0:0:0:70:kick.wav
36,192,16391,1,0,0:0:0:0:
256,192,16548,1,0,0:0:0:0:
182,192,16705,128,0,17019:0:0:0:0:
402,192,16705,1,0,0:0:0:0:
329,192,16862,1,0,0:0:0:0:
36,192,17019,1,0,0:0:0:35:hihat.wav
475,192,17019,1,0,0:0:0:70:drum.wav
256,192,17019,1,0,0:0:0:0:
109,192,17019,1,0,0:0:0:0:
402,192,17176,1,0,0:0:0:0:
182,192,17333,128,0,17647:0:0:0:0:
329,192,17333,1,0,0:0:0:0:
402,192,17490,1,0,0:0:0:0:
256,192,17647,1,0,0:0:0:35:hihat.wav
475,192,17647,1,0,0:0:0:70:kick.wav
36,192,17647,1,0,0:0:0:0:
182,192,17804,1,0,0:0:0:0:
329,192,17961,128,0,18275:0:0:0:0:
109,192,17961,1,0,0:0:0:0:
256,192,18118,1,0,0:0:0:0:
36,192,18275,1,0,0:0:0:35:hihat.wav
475,192,18275,1,0,0:0:0:70:snare.wav
109,192,18275,1,0,0:0:0:0:
402,192,18275,1,0,0:0:0:0:
182,192,18432,1,0,0:0:0:0:
36,192,18590,1,0,0:0:0:35:hihat.wav
256,192,18590,1,0,0:0:0:70:kick.wav
329,192,18590,128,0,18904:0:0:0:0:
182,192,18747,1,0,0:0:0:0:
475,192,18904,1,0,0:0:0:35:hihat.wav
36,192,18904,1,0,0:0:0:70:kick.wav
109,192,18904,1,0,0:0:0:0:
402,192,19061,1,0,0:0:0:0:
329,192,19218,1,0,0:0:0:35:hihat.wav
36,192,19218,1,0,0:0:0:70:kick.wav
256,192,19218,128,0,19532:0:0:0:0:
402,192,19375,1,0,0:0:0:0:
182,192,19532,1,0,0:0:0:35:hihat.wav
329,192,19532,1,0,0:0:0:70:snare.wav
475,192,19532,1,0,0:0:0:0:
36,192,19532,1,0,0:0:0:0:
36,192,19689,1,0,0:0:0:35:hihat.wav
475,192,19689,1,0,0:0:0:70:kick.wav
402,192,19846,1,0,0:0:0:35:hihat.wav
109,192,19846,1,0,0:0:0:70:kick.wav
329,192,20003,1,0,0:0:0:35:hihat.wav
182,192,20003,1,0,0:0:0:70:kick.wav
109,192,20160,1,0,0:0:0:70:crash-cymbol.wav
36,192,20160,1,0,0:0:0:70:kick.wav
402,192,20160,1,0,0:0:0:35:hihat.wav
475,192,20160,1,0,0:0:0:60:bell.wav
256,192,20160,1,0,0:0:0:0:
182,192,20317,1,0,0:0:0:35:hihat.wav
475,192,20474,1,0,0:0:0:35:hihat.wav
329,192,20474,128,0,20788:0:0:0:0:
109,192,20631,1,0,0:0:0:35:hihat.wav
36,192,20788,1,0,0:0:0:70:drum.wav
256,192,20788,1,0,0:0:0:70:snare.wav
402,192,20788,1,0,0:0:0:35:hihat.wav
475,192,20788,1,0,0:0:0:0:
182,192,20946,1,0,0:0:0:35:hihat.wav
36,192,21103,1,0,0:0:0:35:hihat.wav
329,192,21103,1,0,0:0:0:70:kick.wav
109,192,21103,1,0,0:0:0:0:
36,192,21260,1,0,0:0:0:35:hihat.wav
402,192,21260,1,0,0:0:0:0:
36,192,21417,1,0,0:0:0:35:hihat.wav
475,192,21417,1,0,0:0:0:70:kick.wav
256,192,21417,128,0,21574:0:0:0:0:
109,192,21574,128,0,21731:0:0:0:35:hihat.wav
329,192,21731,128,0,21888:0:0:0:35:hihat.wav
182,192,21731,1,0,0:0:0:0:
475,192,21888,128,0,22045:0:0:0:35:hihat.wav
256,192,22045,1,0,0:0:0:35:hihat.wav
109,192,22045,1,0,0:0:0:70:snare.wav
36,192,22045,1,0,0:0:0:70:drum.wav
402,192,22045,1,0,0:0:0:0:
109,192,22202,128,0,22359:0:0:0:35:hihat.wav
329,192,22359,128,0,22673:0:0:0:35:hihat.wav
475,192,22359,1,0,0:0:0:0:
182,192,22516,1,0,0:0:0:35:hihat.wav
402,192,22673,1,0,0:0:0:35:hihat.wav
36,192,22673,1,0,0:0:0:70:kick.wav
475,192,22673,128,0,23302:0:0:0:0:
256,192,22830,1,0,0:0:0:35:hihat.wav
182,192,22987,128,0,23302:0:0:0:35:hihat.wav
402,192,22987,1,0,0:0:0:0:
329,192,23145,1,0,0:0:0:35:hihat.wav
402,192,23302,1,0,0:0:0:35:hihat.wav
109,192,23302,1,0,0:0:0:70:snare.wav
256,192,23302,1,0,0:0:0:70:drum.wav
36,192,23302,1,0,0:0:0:0:
329,192,23459,1,0,0:0:0:35:hihat.wav
109,192,23459,1,0,0:0:0:0:
109,192,23616,1,0,0:0:0:35:hihat.wav
402,192,23616,1,0,0:0:0:0:
475,192,23616,1,0,0:0:0:0:
109,192,23773,1,0,0:0:0:35:hihat.wav
256,192,23773,1,0,0:0:0:0:
109,192,23930,1,0,0:0:0:35:hihat.wav
329,192,23930,1,0,0:0:0:70:kick.wav
475,192,23930,1,0,0:0:0:0:
182,192,24087,1,0,0:0:0:35:hihat.wav
256,192,24165,1,0,0:0:0:0:
329,192,24244,128,0,24401:0:0:0:35:hihat.wav
475,192,24244,1,0,0:0:0:0:
36,192,24244,1,0,0:0:0:0:
182,192,24401,128,0,24558:0:0:0:35:hihat.wav
109,192,24558,1,0,0:0:0:35:hihat.wav
402,192,24558,1,0,0:0:0:70:snare.wav
36,192,24558,1,0,0:0:0:70:drum.wav
475,192,24558,1,0,0:0:0:0:
256,192,24715,128,0,24872:0:0:0:35:hihat.wav
36,192,24715,1,0,0:0:0:0:
329,192,24872,128,0,25029:0:0:0:35:hihat.wav
109,192,24872,1,0,0:0:0:0:
475,192,25029,128,0,25186:0:0:0:35:hihat.wav
182,192,25029,1,0,0:0:0:0:
36,192,25186,1,0,0:0:0:35:hihat.wav
329,192,25186,1,0,0:0:0:70:kick.wav
109,192,25186,128,0,25815:0:0:0:0:
256,192,25343,1,0,0:0:0:35:hihat.wav
402,192,25501,128,0,25815:0:0:0:35:hihat.wav
329,192,25501,1,0,0:0:0:0:
182,192,25658,1,0,0:0:0:35:hihat.wav
329,192,25815,1,0,0:0:0:35:hihat.wav
475,192,25815,1,0,0:0:0:70:snare.wav
36,192,25815,1,0,0:0:0:70:drum.wav
256,192,25815,1,0,0:0:0:0:
182,192,25972,1,0,0:0:0:35:hihat.wav
36,192,26129,1,0,0:0:0:35:hihat.wav
329,192,26129,1,0,0:0:0:70:kick.wav
475,192,26129,1,0,0:0:0:0:
329,192,26286,1,0,0:0:0:35:hihat.wav
182,192,26286,1,0,0:0:0:0:
109,192,26443,1,0,0:0:0:35:hihat.wav
329,192,26443,1,0,0:0:0:70:kick.wav
475,192,26443,128,0,26757:0:0:0:0:
36,192,26600,1,0,0:0:0:35:hihat.wav
182,192,26757,1,0,0:0:0:35:hihat.wav
402,192,26757,1,0,0:0:0:0:
329,192,26836,1,0,0:0:0:0:
182,192,26914,1,0,0:0:0:35:hihat.wav
329,192,26993,1,0,0:0:0:0:
475,192,27071,1,0,0:0:0:35:hihat.wav
36,192,27071,1,0,0:0:0:70:snare.wav
182,192,27071,1,0,0:0:0:70:drum.wav
402,192,27071,1,0,0:0:0:0:
36,192,27228,128,0,27385:0:0:0:35:hihat.wav
256,192,27228,1,0,0:0:0:0:
475,192,27385,1,0,0:0:0:35:hihat.wav
329,192,27385,1,0,0:0:0:0:
475,192,27542,128,0,27699:0:0:0:35:hihat.wav
182,192,27542,1,0,0:0:0:0:
109,192,27699,1,0,0:0:0:35:hihat.wav
329,192,27699,1,0,0:0:0:70:kick.wav
36,192,27699,128,0,28328:0:0:0:0:
182,192,27857,1,0,0:0:0:35:hihat.wav
475,192,28014,128,0,28328:0:0:0:35:hihat.wav
329,192,28014,1,0,0:0:0:0:
256,192,28171,1,0,0:0:0:35:hihat.wav
402,192,28328,1,0,0:0:0:35:hihat.wav
329,192,28328,1,0,0:0:0:70:snare.wav
109,192,28328,1,0,0:0:0:70:drum.wav
182,192,28328,1,0,0:0:0:0:
402,192,28485,1,0,0:0:0:35:hihat.wav
256,192,28485,1,0,0:0:0:0:
402,192,28642,1,0,0:0:0:35:hihat.wav
36,192,28642,1,0,0:0:0:0:
182,192,28642,1,0,0:0:0:0:
109,192,28799,1,0,0:0:0:35:hihat.wav
402,192,28799,1,0,0:0:0:0:
402,192,28956,1,0,0:0:0:35:hihat.wav
256,192,28956,1,0,0:0:0:70:kick.wav
475,192,28956,1,0,0:0:0:0:
182,192,29113,1,0,0:0:0:35:hihat.wav
256,192,29192,1,0,0:0:0:0:
475,192,29270,1,0,0:0:0:35:hihat.wav
329,192,29270,128,0,29427:0:0:0:70:kick.wav
36,192,29270,1,0,0:0:0:0:
182,192,29427,128,0,29584:0:0:0:35:hihat.wav
109,192,29427,1,0,0:0:0:0:
402,192,29584,1,0,0:0:0:35:hihat.wav
256,192,29584,1,0,0:0:0:70:snare.wav
475,192,29584,1,0,0:0:0:70:drum.wav
36,192,29584,1,0,0:0:0:0:
329,192,29741,1,0,0:0:0:35:hihat.wav
109,192,29741,1,0,0:0:0:0:
402,192,29898,128,0,30055:0:0:0:35:hihat.wav
182,192,29898,1,0,0:0:0:70:kick.wav
475,192,29898,1,0,0:0:0:0:
256,192,30055,128,0,30213:0:0:0:35:hihat.wav
109,192,30055,1,0,0:0:0:0:
36,192,30213,1,0,0:0:0:35:hihat.wav
182,192,30213,1,0,0:0:0:70:crash-cymbol.wav
329,192,30213,1,0,0:0:0:0:
475,192,30213,1,0,0:0:0:0:
402,192,30370,1,0,0:0:0:35:hihat.wav
109,192,30527,128,0,30841:0:0:0:35:hihat.wav
182,192,30527,1,0,0:0:0:70:kick.wav
329,192,30684,1,0,0:0:0:35:hihat.wav
256,192,30841,1,0,0:0:0:35:hihat.wav
475,192,30841,1,0,0:0:0:70:kick.wav
36,192,30841,1,0,0:0:0:70:snare.wav
402,192,30841,1,0,0:0:0:0:
109,192,30998,1,0,0:0:0:35:hihat.wav
329,192,31155,1,0,0:0:0:35:hihat.wav
182,192,31155,1,0,0:0:0:70:kick.wav
475,192,31155,1,0,0:0:0:0:
182,192,31312,1,0,0:0:0:35:hihat.wav
256,192,31312,1,0,0:0:0:0:
182,192,31469,1,0,0:0:0:35:hihat.wav
36,192,31469,128,0,31626:0:0:0:70:kick.wav
402,192,31469,1,0,0:0:0:0:
329,192,31626,128,0,31783:0:0:0:35:hihat.wav
109,192,31783,128,0,31940:0:0:0:35:hihat.wav
475,192,31783,1,0,0:0:0:0:
402,192,31940,128,0,32097:0:0:0:35:hihat.wav
36,192,32097,1,0,0:0:0:35:hihat.wav
329,192,32097,1,0,0:0:0:70:kick.wav
182,192,32097,128,0,32412:0:0:0:70:snare.wav
475,192,32097,1,0,0:0:0:0:
256,192,32254,1,0,0:0:0:35:hihat.wav
402,192,32412,128,0,32726:0:0:0:35:hihat.wav
109,192,32412,1,0,0:0:0:70:kick.wav
182,192,32569,1,0,0:0:0:35:hihat.wav
475,192,32726,1,0,0:0:0:35:hihat.wav
256,192,32726,128,0,33354:0:0:0:70:kick.wav
36,192,32726,1,0,0:0:0:0:
182,192,32883,1,0,0:0:0:35:hihat.wav
109,192,33040,128,0,33354:0:0:0:35:hihat.wav
402,192,33040,1,0,0:0:0:70:kick.wav
475,192,33040,1,0,0:0:0:0:
329,192,33197,1,0,0:0:0:35:hihat.wav
475,192,33354,1,0,0:0:0:35:hihat.wav
182,192,33354,1,0,0:0:0:70:kick.wav
36,192,33354,1,0,0:0:0:70:snare.wav
402,192,33354,1,0,0:0:0:0:
475,192,33511,1,0,0:0:0:35:hihat.wav
256,192,33511,1,0,0:0:0:0:
475,192,33668,1,0,0:0:0:35:hihat.wav
109,192,33668,1,0,0:0:0:70:kick.wav
329,192,33668,1,0,0:0:0:0:
475,192,33825,1,0,0:0:0:35:hihat.wav
182,192,33825,1,0,0:0:0:0:
475,192,33982,1,0,0:0:0:35:hihat.wav
36,192,33982,1,0,0:0:0:70:kick.wav
256,192,33982,1,0,0:0:0:0:
109,192,34139,1,0,0:0:0:35:hihat.wav
402,192,34139,1,0,0:0:0:0:
182,192,34218,1,0,0:0:0:0:
329,192,34296,128,0,34453:0:0:0:35:hihat.wav
475,192,34296,1,0,0:0:0:70:kick.wav
256,192,34296,1,0,0:0:0:0:
109,192,34453,128,0,34610:0:0:0:35:hihat.wav
36,192,34453,1,0,0:0:0:0:
402,192,34610,1,0,0:0:0:35:hihat.wav
182,192,34610,1,0,0:0:0:70:kick.wav
475,192,34610,1,0,0:0:0:70:snare.wav
256,192,34610,1,0,0:0:0:0:
109,192,34768,1,0,0:0:0:35:hihat.wav
329,192,34768,128,0,34925:0:0:0:0:
36,192,34925,1,0,0:0:0:35:hihat.wav
256,192,34925,128,0,35082:0:0:0:70:kick.wav
475,192,34925,1,0,0:0:0:0:
182,192,35082,128,0,35239:0:0:0:35:hihat.wav
402,192,35082,1,0,0:0:0:0:
36,192,35239,1,0,0:0:0:35:hihat.wav
475,192,35239,1,0,0:0:0:70:kick.wav
329,192,35239,1,0,0:0:0:0:
256,192,35396,128,0,35553:0:0:0:35:hihat.wav
402,192,35396,1,0,0:0:0:70:kick.wav
109,192,35553,1,0,0:0:0:35:hihat.wav
329,192,35553,1,0,0:0:0:0:
182,192,35710,1,0,0:0:0:35:hihat.wav
36,192,35710,128,0,35867:0:0:0:70:kick.wav
402,192,35867,1,0,0:0:0:35:hihat.wav
256,192,35867,1,0,0:0:0:70:kick.wav
475,192,35867,1,0,0:0:0:70:snare.wav
109,192,35867,1,0,0:0:0:0:
329,192,36024,128,0,36181:0:0:0:35:hihat.wav
182,192,36024,1,0,0:0:0:70:kick.wav
36,192,36181,1,0,0:0:0:35:hihat.wav
256,192,36181,1,0,0:0:0:0:
475,192,36181,1,0,0:0:0:0:
402,192,36338,1,0,0:0:0:35:hihat.wav
182,192,36338,128,0,36495:0:0:0:70:kick.wav
329,192,36495,1,0,0:0:0:35:hihat.wav
109,192,36495,1,0,0:0:0:70:kick.wav
475,192,36495,1,0,0:0:0:0:
182,192,36652,1,0,0:0:0:35:hihat.wav
36,192,36652,128,0,36809:0:0:0:70:kick.wav
256,192,36809,1,0,0:0:0:35:hihat.wav
402,192,36809,1,0,0:0:0:70:kick.wav
329,192,36966,128,0,37124:0:0:0:35:hihat.wav
109,192,36966,1,0,0:0:0:70:kick.wav
402,192,37124,1,0,0:0:0:35:hihat.wav
475,192,37124,1,0,0:0:0:70:kick.wav
36,192,37124,1,0,0:0:0:70:snare.wav
182,192,37124,1,0,0:0:0:0:
256,192,37281,1,0,0:0:0:35:hihat.wav
109,192,37281,128,0,37438:0:0:0:70:kick.wav
329,192,37438,1,0,0:0:0:35:hihat.wav
475,192,37438,1,0,0:0:0:70:kick.wav
256,192,37595,128,0,37752:0:0:0:35:hihat.wav
36,192,37595,1,0,0:0:0:70:kick.wav
475,192,37752,1,0,0:0:0:35:hihat.wav
109,192,37752,1,0,0:0:0:70:kick.wav
329,192,37830,1,0,0:0:0:0:
182,192,37909,1,0,0:0:0:35:hihat.wav
36,192,37909,128,0,38066:0:0:0:0:
402,192,37987,1,0,0:0:0:0:
256,192,38066,1,0,0:0:0:35:hihat.wav
109,192,38145,1,0,0:0:0:70:kick.wav
329,192,38223,1,0,0:0:0:35:hihat.wav
475,192,38223,128,0,38380:0:0:0:0:
182,192,38302,1,0,0:0:0:70:kick.wav
36,192,38380,1,0,0:0:0:35:hihat.wav
402,192,38380,1,0,0:0:0:70:kick.wav
256,192,38459,1,0,0:0:0:70:kick.wav
109,192,38537,1,0,0:0:0:35:hihat.wav
329,192,38616,1,0,0:0:0:70:kick.wav
256,192,38694,1,0,0:0:0:35:hihat.wav
475,192,38694,1,0,0:0:0:0:
182,192,38734,1,0,0:0:0:0:
109,192,38773,1,0,0:0:0:0:
329,192,38851,1,0,0:0:0:35:hihat.wav
36,192,38851,1,0,0:0:0:0:
402,192,38891,1,0,0:0:0:0:
475,192,38930,1,0,0:0:0:0:
182,192,39008,1,0,0:0:0:35:hihat.wav
36,192,39008,128,0,39323:0:0:0:0:
256,192,39087,1,0,0:0:0:0:
402,192,39165,1,0,0:0:0:35:hihat.wav
329,192,39244,1,0,0:0:0:0:
256,192,39323,1,0,0:0:0:35:hihat.wav
475,192,39323,1,0,0:0:0:0:
109,192,39323,1,0,0:0:0:0:
182,192,39480,1,0,0:0:0:35:hihat.wav
329,192,39480,1,0,0:0:0:0:
329,192,39558,1,0,0:0:0:0:
182,192,39558,1,0,0:0:0:0:
475,192,39637,128,0,39715:0:0:0:35:hihat.wav
329,192,39794,128,0,39872:0:0:0:35:hihat.wav
256,192,39951,128,0,40029:0:0:0:35:hihat.wav
109,192,40108,128,0,40186:0:0:0:35:hihat.wav
402,192,40265,1,0,0:0:0:70:crash-cymbol.wav
36,192,40265,1,0,0:0:0:70:kick.wav
182,192,40265,1,0,0:0:0:70:cymbol.wav
256,192,40265,1,0,0:0:0:0:
329,192,40422,128,0,40579:0:0:0:35:hihat.wav
475,192,40422,128,0,40579:0:0:0:0:
36,192,40579,1,0,0:0:0:70:kick.wav
182,192,40579,1,0,0:0:0:0:
329,192,40736,128,0,40893:0:0:0:35:hihat.wav
475,192,40736,128,0,40893:0:0:0:0:
182,192,40893,1,0,0:0:0:70:kick.wav
36,192,40893,1,0,0:0:0:50:bell.wav
256,192,41050,128,0,41207:0:0:0:35:hihat.wav
402,192,41050,128,0,41207:0:0:0:0:
109,192,41207,1,0,0:0:0:70:kick.wav
36,192,41207,1,0,0:0:0:0:
402,192,41364,128,0,41521:0:0:0:35:hihat.wav
256,192,41364,128,0,41521:0:0:0:0:
36,192,41521,1,0,0:0:0:70:kick.wav
109,192,41521,1,0,0:0:0:40:bell.wav
329,192,41679,128,0,41836:0:0:0:35:hihat.wav
475,192,41679,128,0,41836:0:0:0:0:
36,192,41836,1,0,0:0:0:70:kick.wav
182,192,41836,1,0,0:0:0:0:
329,192,41993,128,0,42150:0:0:0:35:hihat.wav
475,192,41993,128,0,42150:0:0:0:0:
36,192,42150,1,0,0:0:0:70:kick.wav
182,192,42150,1,0,0:0:0:30:bell.wav
402,192,42307,128,0,42464:0:0:0:35:hihat.wav
256,192,42307,128,0,42464:0:0:0:0:
36,192,42464,1,0,0:0:0:70:kick.wav
109,192,42464,1,0,0:0:0:0:
402,192,42621,128,0,42778:0:0:0:35:hihat.wav
256,192,42621,128,0,42778:0:0:0:0:
109,192,42778,1,0,0:0:0:70:kick.wav
36,192,42778,1,0,0:0:0:20:bell.wav
329,192,42935,128,0,43092:0:0:0:35:hihat.wav
475,192,42935,128,0,43092:0:0:0:0:
36,192,43092,1,0,0:0:0:70:kick.wav
182,192,43092,1,0,0:0:0:0:
475,192,43249,128,0,43406:0:0:0:35:hihat.wav
329,192,43249,128,0,43406:0:0:0:0:
182,192,43406,1,0,0:0:0:70:kick.wav
36,192,43406,1,0,0:0:0:10:bell.wav
402,192,43563,128,0,43720:0:0:0:35:hihat.wav
256,192,43563,128,0,43720:0:0:0:0:
36,192,43720,1,0,0:0:0:70:kick.wav
109,192,43720,1,0,0:0:0:0:
402,192,43877,128,0,44035:0:0:0:35:hihat.wav
256,192,43877,128,0,44035:0:0:0:0:
109,192,44035,1,0,0:0:0:70:kick.wav
36,192,44035,1,0,0:0:0:0:
475,192,44192,128,0,44349:0:0:0:35:hihat.wav
329,192,44192,128,0,44349:0:0:0:0:
182,192,44349,1,0,0:0:0:70:kick.wav
36,192,44349,1,0,0:0:0:0:
475,192,44506,128,0,44663:0:0:0:35:hihat.wav
329,192,44506,128,0,44663:0:0:0:0:
182,192,44663,1,0,0:0:0:70:kick.wav
36,192,44663,1,0,0:0:0:0:
329,192,44820,128,0,44977:0:0:0:35:hihat.wav
475,192,44820,128,0,44977:0:0:0:0:
402,192,44977,1,0,0:0:0:70:kick.wav
256,192,44977,1,0,0:0:0:0:
109,192,44977,1,0,0:0:0:0:
109,192,45134,1,0,0:0:0:70:kick.wav
256,192,45134,1,0,0:0:0:0:
402,192,45134,1,0,0:0:0:0:
109,192,45291,1,0,0:0:0:70:kick.wav
329,192,45291,1,0,0:0:0:0:
475,192,45291,1,0,0:0:0:0:
36,192,45448,128,0,45605:0:0:0:35:hihat.wav
182,192,45448,128,0,45605:0:0:0:0:
329,192,45605,1,0,0:0:0:70:kick.wav
475,192,45605,1,0,0:0:0:0:
182,192,45762,128,0,45919:0:0:0:35:hihat.wav
36,192,45762,128,0,45919:0:0:0:0:
475,192,45919,1,0,0:0:0:70:kick.wav
329,192,45919,1,0,0:0:0:0:
256,192,46076,128,0,46234:0:0:0:35:hihat.wav
109,192,46076,128,0,46234:0:0:0:0:
475,192,46234,1,0,0:0:0:70:kick.wav
329,192,46234,1,0,0:0:0:0:
109,192,46391,128,0,46548:0:0:0:35:hihat.wav
256,192,46391,128,0,46548:0:0:0:0:
329,192,46548,1,0,0:0:0:70:kick.wav
475,192,46548,1,0,0:0:0:0:
36,192,46705,128,0,46862:0:0:0:35:hihat.wav
182,192,46705,128,0,46862:0:0:0:0:
475,192,46862,1,0,0:0:0:70:kick.wav
329,192,46862,1,0,0:0:0:0:
36,192,47019,128,0,47176:0:0:0:35:hihat.wav
182,192,47019,128,0,47176:0:0:0:0:
329,192,47176,1,0,0:0:0:70:kick.wav
475,192,47176,1,0,0:0:0:0:
256,192,47333,128,0,47490:0:0:0:35:hihat.wav
109,192,47333,128,0,47490:0:0:0:0:
475,192,47490,1,0,0:0:0:70:kick.wav
329,192,47490,1,0,0:0:0:0:
109,192,47647,128,0,47804:0:0:0:35:hihat.wav
256,192,47647,128,0,47804:0:0:0:0:
329,192,47804,1,0,0:0:0:70:kick.wav
475,192,47804,1,0,0:0:0:0:
402,192,47961,128,0,48118:0:0:0:35:hihat.wav
256,192,47961,128,0,48118:0:0:0:0:
36,192,48118,1,0,0:0:0:70:kick.wav
182,192,48118,1,0,0:0:0:0:
402,192,48275,128,0,48432:0:0:0:35:hihat.wav
256,192,48275,128,0,48432:0:0:0:0:
36,192,48432,1,0,0:0:0:70:kick.wav
182,192,48432,1,0,0:0:0:0:
329,192,48590,128,0,48747:0:0:0:35:hihat.wav
475,192,48590,128,0,48747:0:0:0:0:
36,192,48747,1,0,0:0:0:70:kick.wav
182,192,48747,1,0,0:0:0:0:
475,192,48904,128,0,49061:0:0:0:35:hihat.wav
329,192,48904,128,0,49061:0:0:0:0:
256,192,49061,1,0,0:0:0:70:kick.wav
109,192,49061,1,0,0:0:0:0:
36,192,49218,128,0,49375:0:0:0:0:
36,192,49453,128,0,49689:0:0:0:0:
475,192,49689,128,0,49846:0:0:0:0:
329,192,49846,1,0,0:0:0:0:
36,192,50003,1,0,0:0:0:70:snare.wav
329,192,50003,128,0,50317:0:0:0:70:drum.wav
475,192,50003,1,0,0:0:0:0:
109,192,50082,1,0,0:0:0:0:
182,192,50160,1,0,0:0:0:0:
256,192,50239,1,0,0:0:0:0:
182,192,50317,1,0,0:0:0:70:kick.wav
36,192,50317,1,0,0:0:0:70:crash-cymbol.wav
402,192,50317,1,0,0:0:0:60:bell.wav
329,192,50474,1,0,0:0:0:35:hihat.wav
36,192,50631,1,0,0:0:0:70:snare.wav
475,192,50631,1,0,0:0:0:0:
182,192,50631,1,0,0:0:0:0:
329,192,50710,1,0,0:0:0:0:
256,192,50788,1,0,0:0:0:35:hihat.wav
109,192,50867,1,0,0:0:0:0:
329,192,50946,1,0,0:0:0:70:kick.wav
36,192,50946,1,0,0:0:0:50:bell.wav
402,192,51103,1,0,0:0:0:35:hihat.wav
36,192,51260,1,0,0:0:0:70:snare.wav
256,192,51260,1,0,0:0:0:0:
475,192,51260,1,0,0:0:0:0:
402,192,51338,1,0,0:0:0:0:
329,192,51417,1,0,0:0:0:35:hihat.wav
109,192,51495,1,0,0:0:0:0:
402,192,51574,1,0,0:0:0:70:kick.wav
36,192,51574,1,0,0:0:0:40:bell.wav
256,192,51731,1,0,0:0:0:35:hihat.wav
402,192,51888,1,0,0:0:0:70:snare.wav
36,192,51888,1,0,0:0:0:0:
475,192,51888,1,0,0:0:0:0:
329,192,51966,1,0,0:0:0:0:
182,192,52045,1,0,0:0:0:35:hihat.wav
109,192,52124,1,0,0:0:0:0:
36,192,52202,1,0,0:0:0:70:kick.wav
402,192,52202,1,0,0:0:0:30:bell.wav
256,192,52359,1,0,0:0:0:35:hihat.wav
329,192,52516,1,0,0:0:0:70:snare.wav
36,192,52516,1,0,0:0:0:0:
475,192,52516,1,0,0:0:0:0:
256,192,52595,1,0,0:0:0:0:
402,192,52673,1,0,0:0:0:35:hihat.wav
182,192,52752,1,0,0:0:0:0:
329,192,52830,1,0,0:0:0:70:kick.wav
36,192,52830,1,0,0:0:0:20:bell.wav
402,192,52909,1,0,0:0:0:0:
256,192,52987,1,0,0:0:0:35:hihat.wav
109,192,53066,1,0,0:0:0:0:
36,192,53145,1,0,0:0:0:70:snare.wav
182,192,53145,1,0,0:0:0:0:
475,192,53145,1,0,0:0:0:0:
402,192,53223,1,0,0:0:0:0:
329,192,53302,1,0,0:0:0:35:hihat.wav
109,192,53380,1,0,0:0:0:0:
36,192,53459,1,0,0:0:0:70:kick.wav
256,192,53459,1,0,0:0:0:10:bell.wav
475,192,53537,1,0,0:0:0:0:
329,192,53616,1,0,0:0:0:35:hihat.wav
256,192,53694,1,0,0:0:0:0:
36,192,53773,1,0,0:0:0:70:snare.wav
182,192,53773,1,0,0:0:0:0:
475,192,53773,1,0,0:0:0:0:
402,192,53851,1,0,0:0:0:0:
256,192,53930,1,0,0:0:0:35:hihat.wav
109,192,54008,1,0,0:0:0:0:
329,192,54087,1,0,0:0:0:70:kick.wav
36,192,54087,1,0,0:0:0:0:
402,192,54165,1,0,0:0:0:0:
256,192,54244,1,0,0:0:0:35:hihat.wav
109,192,54323,1,0,0:0:0:0:
36,192,54401,1,0,0:0:0:70:snare.wav
182,192,54401,1,0,0:0:0:0:
475,192,54401,1,0,0:0:0:0:
329,192,54480,1,0,0:0:0:0:
182,192,54558,1,0,0:0:0:35:hihat.wav
256,192,54637,1,0,0:0:0:0:
36,192,54715,1,0,0:0:0:70:kick.wav
402,192,54715,1,0,0:0:0:0:
329,192,54794,1,0,0:0:0:0:
182,192,54872,1,0,0:0:0:35:hihat.wav
109,192,54951,1,0,0:0:0:0:
256,192,55029,1,0,0:0:0:70:snare.wav
36,192,55029,1,0,0:0:0:0:
475,192,55029,1,0,0:0:0:0:
109,192,55186,1,0,0:0:0:70:kick.wav
402,192,55186,1,0,0:0:0:0:
402,192,55343,1,0,0:0:0:70:kick.wav
109,192,55343,1,0,0:0:0:0:
182,192,55501,1,0,0:0:0:35:hihat.wav
256,192,55579,1,0,0:0:0:0:
329,192,55658,1,0,0:0:0:70:snare.wav
36,192,55658,1,0,0:0:0:0:
475,192,55658,1,0,0:0:0:0:
182,192,55815,1,0,0:0:0:35:hihat.wav
329,192,55893,1,0,0:0:0:0:
402,192,55972,1,0,0:0:0:70:kick.wav
36,192,55972,1,0,0:0:0:0:
256,192,56129,1,0,0:0:0:35:hihat.wav
182,192,56207,1,0,0:0:0:0:
475,192,56286,1,0,0:0:0:70:snare.wav
329,192,56286,1,0,0:0:0:0:
36,192,56286,1,0,0:0:0:0:
256,192,56443,1,0,0:0:0:35:hihat.wav
109,192,56521,1,0,0:0:0:0:
402,192,56600,1,0,0:0:0:70:kick.wav
36,192,56600,1,0,0:0:0:0:
182,192,56757,1,0,0:0:0:35:hihat.wav
256,192,56836,1,0,0:0:0:0:
475,192,56914,1,0,0:0:0:70:snare.wav
329,192,56914,1,0,0:0:0:0:
36,192,56914,1,0,0:0:0:0:
109,192,57071,1,0,0:0:0:35:hihat.wav
256,192,57150,1,0,0:0:0:0:
402,192,57228,1,0,0:0:0:70:kick.wav
36,192,57228,1,0,0:0:0:0:
329,192,57385,1,0,0:0:0:35:hihat.wav
256,192,57464,1,0,0:0:0:0:
36,192,57542,1,0,0:0:0:70:snare.wav
182,192,57542,1,0,0:0:0:0:
475,192,57542,1,0,0:0:0:0:
329,192,57699,1,0,0:0:0:35:hihat.wav
182,192,57778,1,0,0:0:0:0:
256,192,57857,1,0,0:0:0:70:kick.wav
36,192,57857,1,0,0:0:0:0:
109,192,58014,1,0,0:0:0:35:hihat.wav
256,192,58092,1,0,0:0:0:0:
402,192,58171,1,0,0:0:0:70:snare.wav
475,192,58171,1,0,0:0:0:0:
36,192,58171,1,0,0:0:0:0:
109,192,58328,1,0,0:0:0:35:hihat.wav
182,192,58406,1,0,0:0:0:0:
256,192,58485,1,0,0:0:0:70:kick.wav
36,192,58485,1,0,0:0:0:0:
182,192,58642,1,0,0:0:0:35:hihat.wav
329,192,58720,1,0,0:0:0:0:
36,192,58799,1,0,0:0:0:70:snare.wav
256,192,58799,1,0,0:0:0:0:
475,192,58799,1,0,0:0:0:0:
109,192,58956,1,0,0:0:0:0:
402,192,58956,1,0,0:0:0:0:
256,192,59035,1,0,0:0:0:0:
329,192,59113,128,0,59270:0:0:0:70:snare.wav
36,192,59113,1,0,0:0:0:0:
475,192,59113,1,0,0:0:0:0:
182,192,59270,128,0,59427:0:0:0:0:
36,192,59427,1,0,0:0:0:70:snare.wav
329,192,59427,128,0,59584:0:0:0:0:
475,192,59427,1,0,0:0:0:0:
256,192,59584,128,0,59741:0:0:0:0:
36,192,59741,1,0,0:0:0:70:snare.wav
475,192,59741,1,0,0:0:0:0:
182,192,59741,128,0,59898:0:0:0:0:
402,192,59898,5,0,0:0:0:70:kick.wav
329,192,59977,1,0,0:0:0:70:kick.wav
256,192,60055,1,0,0:0:0:70:kick.wav
109,192,60055,1,0,0:0:0:0:
475,192,60134,1,0,0:0:0:70:kick.wav
329,192,60134,1,0,0:0:0:0:
36,192,60213,1,0,0:0:0:70:kick.wav
182,192,60213,1,0,0:0:0:0:
329,192,60291,1,0,0:0:0:70:kick.wav
475,192,60291,1,0,0:0:0:0:
36,192,60370,1,0,0:0:0:70:crash-cymbol.wav
402,192,60370,128,0,60527:0:0:0:70:cymbol.wav
256,192,60370,1,0,0:0:0:70:kick.wav
109,192,60370,1,0,0:0:0:0:
182,192,60527,128,0,60684:0:0:0:35:hihat.wav
475,192,60684,1,0,0:0:0:70:kick.wav
36,192,60684,1,0,0:0:0:70:snare.wav
329,192,60684,128,0,60841:0:0:0:0:
402,192,60841,128,0,60998:0:0:0:35:hihat.wav
256,192,60998,128,0,61155:0:0:0:70:kick.wav
109,192,60998,1,0,0:0:0:50:bell.wav
182,192,61155,1,0,0:0:0:35:hihat.wav
402,192,61312,128,0,61469:0:0:0:70:kick.wav
109,192,61312,1,0,0:0:0:70:snare.wav
36,192,61312,1,0,0:0:0:0:
329,192,61469,128,0,61626:0:0:0:35:hihat.wav
109,192,61626,128,0,61783:0:0:0:70:kick.wav
475,192,61626,1,0,0:0:0:40:bell.wav
256,192,61783,128,0,61940:0:0:0:35:hihat.wav
475,192,61940,128,0,62097:0:0:0:70:kick.wav
36,192,61940,1,0,0:0:0:70:snare.wav
182,192,61940,1,0,0:0:0:0:
329,192,62097,128,0,62254:0:0:0:35:hihat.wav
109,192,62254,128,0,62412:0:0:0:70:kick.wav
36,192,62254,1,0,0:0:0:30:bell.wav
402,192,62412,128,0,62569:0:0:0:35:hihat.wav
256,192,62569,128,0,62726:0:0:0:70:kick.wav
182,192,62569,1,0,0:0:0:70:snare.wav
475,192,62569,1,0,0:0:0:0:
36,192,62726,128,0,62883:0:0:0:35:hihat.wav
402,192,62883,128,0,63040:0:0:0:70:kick.wav
109,192,62883,1,0,0:0:0:20:bell.wav
182,192,63040,128,0,63197:0:0:0:35:hihat.wav
109,192,63197,128,0,63354:0:0:0:70:kick.wav
475,192,63197,1,0,0:0:0:70:snare.wav
329,192,63197,1,0,0:0:0:0:
402,192,63354,128,0,63511:0:0:0:35:hihat.wav
256,192,63511,128,0,63668:0:0:0:70:kick.wav
36,192,63511,1,0,0:0:0:10:bell.wav
182,192,63668,128,0,63825:0:0:0:35:hihat.wav
36,192,63825,128,0,63982:0:0:0:70:kick.wav
402,192,63825,1,0,0:0:0:70:snare.wav
329,192,63825,1,0,0:0:0:0:
256,192,63982,128,0,64139:0:0:0:35:hihat.wav
402,192,64139,128,0,64296:0:0:0:70:kick.wav
475,192,64139,1,0,0:0:0:0:
182,192,64296,128,0,64453:0:0:0:35:hihat.wav
329,192,64453,128,0,64610:0:0:0:70:kick.wav
109,192,64453,1,0,0:0:0:70:snare.wav
36,192,64453,1,0,0:0:0:0:
475,192,64610,128,0,64768:0:0:0:35:hihat.wav
256,192,64768,128,0,64925:0:0:0:70:kick.wav
109,192,64768,1,0,0:0:0:0:
329,192,64925,128,0,65082:0:0:0:35:hihat.wav
182,192,65082,128,0,65239:0:0:0:70:kick.wav
36,192,65082,1,0,0:0:0:70:snare.wav
475,192,65082,1,0,0:0:0:0:
256,192,65239,128,0,65396:0:0:0:70:snare.wav
475,192,65239,1,0,0:0:0:0:
402,192,65239,1,0,0:0:0:0:
36,192,65396,128,0,65553:0:0:0:70:kick.wav
329,192,65396,1,0,0:0:0:0:
475,192,65396,1,0,0:0:0:0:
182,192,65553,128,0,65710:0:0:0:35:hihat.wav
402,192,65710,1,0,0:0:0:70:snare.wav
475,192,65710,1,0,0:0:0:70:kick.wav
109,192,65710,128,0,65867:0:0:0:0:
329,192,65867,128,0,66024:0:0:0:35:hihat.wav
182,192,66024,128,0,66181:0:0:0:70:kick.wav
36,192,66024,1,0,0:0:0:0:
256,192,66181,1,0,0:0:0:35:hihat.wav
402,192,66338,128,0,66495:0:0:0:70:kick.wav
475,192,66338,1,0,0:0:0:70:snare.wav
109,192,66338,1,0,0:0:0:0:
182,192,66495,128,0,66652:0:0:0:35:hihat.wav
36,192,66652,128,0,66809:0:0:0:70:kick.wav
329,192,66652,1,0,0:0:0:0:
109,192,66809,128,0,66966:0:0:0:35:hihat.wav
329,192,66966,128,0,67124:0:0:0:70:snare.wav
475,192,66966,1,0,0:0:0:70:kick.wav
256,192,66966,1,0,0:0:0:0:
182,192,67124,128,0,67281:0:0:0:35:hihat.wav
402,192,67281,128,0,67438:0:0:0:70:kick.wav
36,192,67281,1,0,0:0:0:0:
256,192,67438,128,0,67595:0:0:0:35:hihat.wav
36,192,67595,128,0,67752:0:0:0:70:snare.wav
182,192,67595,1,0,0:0:0:70:kick.wav
475,192,67595,1,0,0:0:0:0:
329,192,67752,128,0,67909:0:0:0:35:hihat.wav
475,192,67909,128,0,68066:0:0:0:70:kick.wav
109,192,67909,1,0,0:0:0:0:
256,192,68066,128,0,68223:0:0:0:35:hihat.wav
109,192,68223,128,0,68380:0:0:0:70:kick.wav
402,192,68223,1,0,0:0:0:70:snare.wav
475,192,68223,1,0,0:0:0:0:
36,192,68380,128,0,68537:0:0:0:35:hihat.wav
402,192,68537,128,0,68694:0:0:0:70:kick.wav
182,192,68537,1,0,0:0:0:0:
256,192,68694,128,0,68851:0:0:0:35:hihat.wav
109,192,68851,128,0,69008:0:0:0:70:kick.wav
329,192,68851,1,0,0:0:0:70:snare.wav
475,192,68851,1,0,0:0:0:0:
182,192,69008,128,0,69165:0:0:0:35:hihat.wav
329,192,69165,128,0,69323:0:0:0:70:kick.wav
36,192,69165,1,0,0:0:0:0:
109,192,69323,128,0,69480:0:0:0:35:hihat.wav
402,192,69480,128,0,69637:0:0:0:70:snare.wav
182,192,69480,1,0,0:0:0:70:kick.wav
475,192,69480,1,0,0:0:0:0:
256,192,69637,128,0,69794:0:0:0:35:hihat.wav
182,192,69794,128,0,69951:0:0:0:70:kick.wav
329,192,69794,1,0,0:0:0:0:
36,192,69951,128,0,70108:0:0:0:35:hihat.wav
402,192,70108,1,0,0:0:0:70:kick.wav
329,192,70108,1,0,0:0:0:0:
182,192,70186,1,0,0:0:0:0:
109,192,70186,1,0,0:0:0:0:
402,192,70265,1,0,0:0:0:70:kick.wav
329,192,70265,1,0,0:0:0:0:
109,192,70343,1,0,0:0:0:70:kick.wav
182,192,70343,1,0,0:0:0:0:
475,192,70422,1,0,0:0:0:70:crash-cymbol.wav
36,192,70422,1,0,0:0:0:70:cymbol.wav
329,192,70422,1,0,0:0:0:70:kick.wav
402,192,70422,128,0,70579:0:0:0:0:
182,192,70579,128,0,70736:0:0:0:35:hihat.wav
36,192,70736,128,0,70893:0:0:0:70:snare.wav
475,192,70736,1,0,0:0:0:70:kick.wav
329,192,70736,1,0,0:0:0:0:
256,192,70893,128,0,71050:0:0:0:35:hihat.wav
109,192,71050,128,0,71207:0:0:0:70:kick.wav
402,192,71050,1,0,0:0:0:50:bell.wav
329,192,71207,1,0,0:0:0:35:hihat.wav
256,192,71364,1,0,0:0:0:70:snare.wav
36,192,71364,1,0,0:0:0:70:kick.wav
475,192,71364,128,0,71521:0:0:0:0:
182,192,71521,128,0,71679:0:0:0:35:hihat.wav
109,192,71679,1,0,0:0:0:70:kick.wav
329,192,71679,128,0,71836:0:0:0:40:bell.wav
475,192,71836,128,0,71993:0:0:0:35:hihat.wav
182,192,71993,128,0,72150:0:0:0:70:snare.wav
256,192,71993,1,0,0:0:0:70:kick.wav
36,192,71993,1,0,0:0:0:0:
329,192,72150,128,0,72307:0:0:0:35:hihat.wav
36,192,72307,128,0,72464:0:0:0:70:kick.wav
475,192,72307,1,0,0:0:0:30:bell.wav
256,192,72464,128,0,72621:0:0:0:35:hihat.wav
402,192,72464,1,0,0:0:0:0:
109,192,72621,128,0,72778:0:0:0:70:snare.wav
329,192,72621,1,0,0:0:0:70:kick.wav
402,192,72778,128,0,72935:0:0:0:35:hihat.wav
256,192,72778,1,0,0:0:0:0:
182,192,72935,1,0,0:0:0:70:kick.wav
475,192,72935,1,0,0:0:0:20:bell.wav
36,192,72935,128,0,73092:0:0:0:0:
329,192,73092,128,0,73249:0:0:0:35:hihat.wav
109,192,73249,128,0,73406:0:0:0:70:snare.wav
182,192,73249,1,0,0:0:0:70:kick.wav
402,192,73249,1,0,0:0:0:0:
256,192,73406,128,0,73563:0:0:0:35:hihat.wav
36,192,73563,128,0,73720:0:0:0:70:kick.wav
475,192,73563,1,0,0:0:0:10:bell.wav
402,192,73720,128,0,73877:0:0:0:35:hihat.wav
182,192,73877,1,0,0:0:0:70:snare.wav
475,192,73877,1,0,0:0:0:70:kick.wav
109,192,73877,128,0,74035:0:0:0:0:
256,192,74035,128,0,74192:0:0:0:35:hihat.wav
182,192,74192,1,0,0:0:0:70:kick.wav
402,192,74192,128,0,74349:0:0:0:0:
36,192,74349,128,0,74506:0:0:0:35:hihat.wav
182,192,74506,128,0,74663:0:0:0:70:snare.wav
329,192,74506,1,0,0:0:0:70:kick.wav
475,192,74506,1,0,0:0:0:0:
402,192,74663,128,0,74820:0:0:0:35:hihat.wav
256,192,74820,128,0,74977:0:0:0:70:kick.wav
36,192,74820,1,0,0:0:0:0:
475,192,74977,128,0,75134:0:0:0:35:hihat.wav
182,192,74977,1,0,0:0:0:0:
36,192,75134,1,0,0:0:0:70:snare.wav
329,192,75134,128,0,75291:0:0:0:70:kick.wav
36,192,75291,1,0,0:0:0:70:snare.wav
182,192,75291,128,0,75448:0:0:0:0:
36,192,75448,1,0,0:0:0:70:kick.wav
475,192,75448,1,0,0:0:0:70:snare.wav
402,192,75448,1,0,0:0:0:70:crash-cymbol.wav
329,192,75605,1,0,0:0:0:35:hihat.wav
36,192,75762,1,0,0:0:0:70:snare.wav
256,192,75762,1,0,0:0:0:70:kick.wav
402,192,75919,1,0,0:0:0:35:hihat.wav
36,192,76076,1,0,0:0:0:70:kick.wav
182,192,76076,1,0,0:0:0:70:snare.wav
329,192,76234,1,0,0:0:0:35:hihat.wav
36,192,76391,1,0,0:0:0:70:snare.wav
256,192,76391,1,0,0:0:0:70:kick.wav
182,192,76548,1,0,0:0:0:35:hihat.wav
36,192,76705,1,0,0:0:0:70:crash-cymbol.wav
475,192,76705,1,0,0:0:0:70:kick.wav
329,192,76705,1,0,0:0:0:70:snare.wav
182,192,76862,1,0,0:0:0:35:hihat.wav
475,192,77019,1,0,0:0:0:70:snare.wav
256,192,77019,1,0,0:0:0:70:kick.wav
109,192,77176,1,0,0:0:0:35:hihat.wav
475,192,77333,1,0,0:0:0:70:kick.wav
329,192,77333,1,0,0:0:0:70:snare.wav
182,192,77490,1,0,0:0:0:35:hihat.wav
475,192,77647,1,0,0:0:0:70:kick.wav
256,192,77647,1,0,0:0:0:70:snare.wav
109,192,77804,1,0,0:0:0:35:hihat.wav
475,192,77961,1,0,0:0:0:70:kick.wav
36,192,77961,1,0,0:0:0:0:
256,192,77961,1,0,0:0:0:0:
402,192,78118,1,0,0:0:0:35:hihat.wav
109,192,78118,1,0,0:0:0:70:kick.wav
182,192,78118,1,0,0:0:0:0:
36,192,78275,1,0,0:0:0:70:kick.wav
475,192,78275,1,0,0:0:0:0:
256,192,78275,1,0,0:0:0:0:
402,192,78432,1,0,0:0:0:35:hihat.wav
329,192,78432,1,0,0:0:0:70:kick.wav
109,192,78432,1,0,0:0:0:0:
36,192,78590,1,0,0:0:0:70:kick.wav
182,192,78590,1,0,0:0:0:0:
475,192,78668,1,0,0:0:0:70:kick.wav
329,192,78668,1,0,0:0:0:0:
36,192,78747,1,0,0:0:0:70:kick.wav
182,192,78747,1,0,0:0:0:0:
475,192,78825,1,0,0:0:0:70:kick.wav
329,192,78825,1,0,0:0:0:0:
36,192,78904,1,0,0:0:0:70:kick.wav
182,192,78904,1,0,0:0:0:0:
475,192,78982,1,0,0:0:0:70:kick.wav
329,192,78982,1,0,0:0:0:0:
36,192,79061,1,0,0:0:0:70:kick.wav
182,192,79061,1,0,0:0:0:0:
475,192,79139,1,0,0:0:0:70:kick.wav
329,192,79139,1,0,0:0:0:0:
36,192,79218,1,0,0:0:0:70:kick.wav
182,192,79218,1,0,0:0:0:0:
402,192,79218,1,0,0:0:0:0:
256,192,79375,1,0,0:0:0:35:hihat.wav
402,192,79532,1,0,0:0:0:0:
109,192,79532,1,0,0:0:0:0:
182,192,79689,1,0,0:0:0:35:hihat.wav
329,192,79689,1,0,0:0:0:0:
256,192,79846,1,0,0:0:0:0:
256,192,80003,1,0,0:0:0:35:hihat.wav
329,192,80160,1,0,0:0:0:0:
182,192,80160,1,0,0:0:0:0:
182,192,80317,1,0,0:0:0:35:hihat.wav
329,192,80317,1,0,0:0:0:0:
36,192,80474,5,0,0:0:0:70:kick.wav
402,192,80474,1,0,0:0:0:70:crash-cymbol.wav
256,192,80474,1,0,0:0:0:35:hihat.wav
475,192,80474,1,0,0:0:0:0:
182,192,80631,1,0,0:0:0:35:hihat.wav
109,192,80631,1,0,0:0:0:0:
329,192,80788,1,0,0:0:0:35:hihat.wav
475,192,80788,1,0,0:0:0:0:
256,192,80946,1,0,0:0:0:35:hihat.wav
36,192,80946,1,0,0:0:0:0:
109,192,81103,1,0,0:0:0:35:hihat.wav
329,192,81103,1,0,0:0:0:70:kick.wav
256,192,81260,1,0,0:0:0:35:hihat.wav
475,192,81260,1,0,0:0:0:0:
402,192,81417,1,0,0:0:0:35:hihat.wav
182,192,81417,1,0,0:0:0:0:
256,192,81574,1,0,0:0:0:35:hihat.wav
36,192,81574,1,0,0:0:0:0:
402,192,81731,1,0,0:0:0:35:hihat.wav
475,192,81731,1,0,0:0:0:70:kick.wav
109,192,81888,1,0,0:0:0:35:hihat.wav
256,192,82045,1,0,0:0:0:35:hihat.wav
329,192,82045,1,0,0:0:0:0:
402,192,82202,1,0,0:0:0:35:hihat.wav
182,192,82359,1,0,0:0:0:35:hihat.wav
109,192,82359,1,0,0:0:0:70:kick.wav
329,192,82516,1,0,0:0:0:35:hihat.wav
36,192,82673,1,0,0:0:0:35:hihat.wav
109,192,82673,1,0,0:0:0:0:
182,192,82830,1,0,0:0:0:35:hihat.wav
475,192,82987,1,0,0:0:0:35:hihat.wav
256,192,82987,1,0,0:0:0:70:kick.wav
36,192,83145,1,0,0:0:0:35:hihat.wav
329,192,83302,1,0,0:0:0:35:hihat.wav
109,192,83302,1,0,0:0:0:0:
182,192,83459,1,0,0:0:0:35:hihat.wav
109,192,83616,1,0,0:0:0:35:hihat.wav
402,192,83616,1,0,0:0:0:70:kick.wav
256,192,83773,1,0,0:0:0:35:hihat.wav
36,192,83773,1,0,0:0:0:0:
402,192,83930,1,0,0:0:0:35:hihat.wav
182,192,83930,1,0,0:0:0:0:
329,192,84087,1,0,0:0:0:35:hihat.wav
475,192,84087,1,0,0:0:0:0:
36,192,84244,1,0,0:0:0:35:hihat.wav
256,192,84244,1,0,0:0:0:70:kick.wav
109,192,84401,1,0,0:0:0:35:hihat.wav
329,192,84558,1,0,0:0:0:35:hihat.wav
182,192,84558,1,0,0:0:0:0:
475,192,84715,1,0,0:0:0:35:hihat.wav
256,192,84872,1,0,0:0:0:35:hihat.wav
36,192,84872,1,0,0:0:0:0:
402,192,85029,1,0,0:0:0:35:hihat.wav
109,192,85186,1,0,0:0:0:35:hihat.wav
329,192,85186,1,0,0:0:0:0:
182,192,85343,1,0,0:0:0:35:hihat.wav
36,192,85501,1,0,0:0:0:35:hihat.wav
475,192,85501,1,0,0:0:0:70:kick.wav
402,192,85658,1,0,0:0:0:35:hihat.wav
109,192,85658,1,0,0:0:0:0:
182,192,85815,1,0,0:0:0:35:hihat.wav
329,192,85815,1,0,0:0:0:0:
256,192,85972,1,0,0:0:0:35:hihat.wav
402,192,85972,1,0,0:0:0:0:
109,192,86129,1,0,0:0:0:35:hihat.wav
475,192,86129,1,0,0:0:0:0:
329,192,86286,1,0,0:0:0:35:hihat.wav
36,192,86286,1,0,0:0:0:0:
182,192,86443,1,0,0:0:0:35:hihat.wav
402,192,86443,1,0,0:0:0:0:
475,192,86600,1,0,0:0:0:35:hihat.wav
109,192,86600,1,0,0:0:0:0:
256,192,86757,1,0,0:0:0:35:hihat.wav
36,192,86757,1,0,0:0:0:70:kick.wav
402,192,86914,1,0,0:0:0:35:hihat.wav
475,192,87071,1,0,0:0:0:35:hihat.wav
182,192,87071,1,0,0:0:0:0:
256,192,87228,1,0,0:0:0:35:hihat.wav
402,192,87385,1,0,0:0:0:35:hihat.wav
109,192,87385,1,0,0:0:0:70:kick.wav
329,192,87542,1,0,0:0:0:35:hihat.wav
182,192,87699,1,0,0:0:0:35:hihat.wav
36,192,87699,1,0,0:0:0:0:
402,192,87857,1,0,0:0:0:35:hihat.wav
475,192,88014,1,0,0:0:0:35:hihat.wav
256,192,88014,1,0,0:0:0:70:kick.wav
329,192,88171,1,0,0:0:0:35:hihat.wav
109,192,88328,1,0,0:0:0:35:hihat.wav
402,192,88328,1,0,0:0:0:0:
182,192,88485,1,0,0:0:0:35:hihat.wav
36,192,88642,1,0,0:0:0:35:hihat.wav
329,192,88642,1,0,0:0:0:70:kick.wav
475,192,88799,1,0,0:0:0:35:hihat.wav
182,192,88956,1,0,0:0:0:35:hihat.wav
36,192,88956,1,0,0:0:0:0:
256,192,89113,1,0,0:0:0:35:hihat.wav
402,192,89113,1,0,0:0:0:0:
329,192,89270,1,0,0:0:0:35:hihat.wav
475,192,89270,1,0,0:0:0:70:kick.wav
256,192,89427,1,0,0:0:0:35:hihat.wav
109,192,89584,1,0,0:0:0:35:hihat.wav
475,192,89584,1,0,0:0:0:0:
182,192,89637,1,0,0:0:0:0:
329,192,89689,1,0,0:0:0:0:
402,192,89741,1,0,0:0:0:35:hihat.wav
36,192,89794,1,0,0:0:0:0:
109,192,89846,1,0,0:0:0:0:
256,192,89898,1,0,0:0:0:35:hihat.wav
475,192,89898,1,0,0:0:0:0:
402,192,90055,1,0,0:0:0:35:hihat.wav
182,192,90055,1,0,0:0:0:0:
36,192,90213,1,0,0:0:0:35:hihat.wav
329,192,90213,1,0,0:0:0:0:
109,192,90370,1,0,0:0:0:35:hihat.wav
402,192,90370,1,0,0:0:0:0:
36,192,90527,1,0,0:0:0:35:hihat.wav
182,192,90527,1,0,0:0:0:70:kick.wav
329,192,90527,1,0,0:0:0:70:crash-cymbol.wav
475,192,90527,1,0,0:0:0:0:
402,192,90684,1,0,0:0:0:0:
256,192,90684,1,0,0:0:0:0:
36,192,90841,1,0,0:0:0:35:hihat.wav
182,192,90841,1,0,0:0:0:0:
475,192,90998,1,0,0:0:0:0:
329,192,90998,1,0,0:0:0:0:
256,192,91155,1,0,0:0:0:35:hihat.wav
402,192,91155,1,0,0:0:0:0:
36,192,91155,1,0,0:0:0:70:snare.wav
109,192,91312,1,0,0:0:0:0:
475,192,91469,1,0,0:0:0:35:hihat.wav
256,192,91469,1,0,0:0:0:0:
402,192,91626,1,0,0:0:0:0:
182,192,91626,1,0,0:0:0:0:
36,192,91783,1,0,0:0:0:35:hihat.wav
256,192,91783,1,0,0:0:0:0:
329,192,91940,1,0,0:0:0:0:
109,192,92097,1,0,0:0:0:0:
402,192,92097,1,0,0:0:0:0:
182,192,92254,1,0,0:0:0:0:
109,192,92412,1,0,0:0:0:35:hihat.wav
475,192,92412,1,0,0:0:0:70:snare.wav
256,192,92412,1,0,0:0:0:0:
329,192,92569,1,0,0:0:0:35:hihat.wav
36,192,92569,1,0,0:0:0:0:
402,192,92726,1,0,0:0:0:35:hihat.wav
182,192,92726,1,0,0:0:0:0:
329,192,92883,1,0,0:0:0:35:hihat.wav
109,192,92883,1,0,0:0:0:0:
256,192,93040,1,0,0:0:0:35:hihat.wav
475,192,93040,1,0,0:0:0:0:
402,192,93197,1,0,0:0:0:0:
329,192,93354,1,0,0:0:0:35:hihat.wav
109,192,93354,1,0,0:0:0:0:
182,192,93511,1,0,0:0:0:0:
475,192,93668,1,0,0:0:0:35:hihat.wav
256,192,93668,1,0,0:0:0:70:snare.wav
36,192,93668,1,0,0:0:0:0:
329,192,93825,1,0,0:0:0:35:hihat.wav
182,192,93825,1,0,0:0:0:0:
36,192,93982,1,0,0:0:0:35:hihat.wav
402,192,93982,1,0,0:0:0:0:
109,192,94139,1,0,0:0:0:35:hihat.wav
256,192,94139,1,0,0:0:0:0:
182,192,94296,1,0,0:0:0:35:hihat.wav
475,192,94296,1,0,0:0:0:0:
402,192,94453,1,0,0:0:0:0:
256,192,94610,1,0,0:0:0:35:hihat.wav
109,192,94610,1,0,0:0:0:0:
182,192,94768,1,0,0:0:0:0:
475,192,94925,1,0,0:0:0:35:hihat.wav
36,192,94925,1,0,0:0:0:70:snare.wav
402,192,94925,1,0,0:0:0:0:
256,192,95082,1,0,0:0:0:0:
402,192,95239,1,0,0:0:0:35:hihat.wav
182,192,95239,1,0,0:0:0:0:
329,192,95396,1,0,0:0:0:0:
256,192,95553,1,0,0:0:0:35:hihat.wav
36,192,95553,1,0,0:0:0:0:
109,192,95710,1,0,0:0:0:0:
402,192,95710,1,0,0:0:0:0:
329,192,95867,1,0,0:0:0:35:hihat.wav
182,192,95867,1,0,0:0:0:0:
256,192,96024,1,0,0:0:0:0:
475,192,96024,1,0,0:0:0:0:
402,192,96181,1,0,0:0:0:35:hihat.wav
36,192,96181,1,0,0:0:0:70:snare.wav
109,192,96181,1,0,0:0:0:0:
182,192,96338,1,0,0:0:0:0:
329,192,96338,1,0,0:0:0:0:
36,192,96495,1,0,0:0:0:35:hihat.wav
256,192,96495,1,0,0:0:0:0:
402,192,96652,1,0,0:0:0:0:
182,192,96652,1,0,0:0:0:0:
475,192,96809,1,0,0:0:0:35:hihat.wav
109,192,96809,1,0,0:0:0:0:
256,192,96966,1,0,0:0:0:0:
36,192,97124,1,0,0:0:0:0:
402,192,97124,1,0,0:0:0:0:
182,192,97281,1,0,0:0:0:0:
329,192,97438,1,0,0:0:0:35:hihat.wav
475,192,97438,1,0,0:0:0:70:snare.wav
36,192,97438,1,0,0:0:0:0:
256,192,97595,1,0,0:0:0:35:hihat.wav
109,192,97595,1,0,0:0:0:0:
182,192,97752,1,0,0:0:0:35:hihat.wav
402,192,97752,1,0,0:0:0:0:
36,192,97909,1,0,0:0:0:35:hihat.wav
329,192,97909,1,0,0:0:0:0:
475,192,98066,1,0,0:0:0:35:hihat.wav
109,192,98066,1,0,0:0:0:0:
402,192,98223,1,0,0:0:0:0:
182,192,98223,1,0,0:0:0:0:
329,192,98380,1,0,0:0:0:35:hihat.wav
256,192,98380,1,0,0:0:0:0:
182,192,98537,1,0,0:0:0:0:
475,192,98537,1,0,0:0:0:0:
109,192,98694,1,0,0:0:0:35:hihat.wav
36,192,98694,1,0,0:0:0:70:snare.wav
402,192,98694,1,0,0:0:0:0:
329,192,98851,1,0,0:0:0:0:
256,192,99008,1,0,0:0:0:35:hihat.wav
36,192,99008,1,0,0:0:0:0:
402,192,99165,1,0,0:0:0:35:hihat.wav
109,192,99165,1,0,0:0:0:0:
256,192,99323,1,0,0:0:0:35:hihat.wav
475,192,99323,1,0,0:0:0:0:
329,192,99480,1,0,0:0:0:0:
256,192,99637,1,0,0:0:0:0:
36,192,99637,1,0,0:0:0:0:
402,192,99689,1,0,0:0:0:0:
475,192,99741,1,0,0:0:0:0:
182,192,99794,1,0,0:0:0:35:hihat.wav
329,192,99846,1,0,0:0:0:0:
402,192,99898,1,0,0:0:0:0:
256,192,99951,1,0,0:0:0:35:hihat.wav
109,192,99951,1,0,0:0:0:70:snare.wav
475,192,99951,1,0,0:0:0:0:
36,192,99951,1,0,0:0:0:0:
182,192,100108,1,0,0:0:0:35:hihat.wav
329,192,100108,1,0,0:0:0:0:
256,192,100265,1,0,0:0:0:35:hihat.wav
475,192,100265,1,0,0:0:0:0:
109,192,100422,1,0,0:0:0:35:hihat.wav
402,192,100422,1,0,0:0:0:0:
36,192,100579,1,0,0:0:0:35:hihat.wav
329,192,100579,1,0,0:0:0:0:
182,192,100736,1,0,0:0:0:0:
256,192,100893,1,0,0:0:0:35:hihat.wav
475,192,100893,1,0,0:0:0:0:
109,192,100946,1,0,0:0:0:0:
36,192,100998,1,0,0:0:0:0:
329,192,101050,1,0,0:0:0:35:hihat.wav
182,192,101103,1,0,0:0:0:0:
109,192,101155,1,0,0:0:0:0:
36,192,101207,1,0,0:0:0:35:hihat.wav
256,192,101207,1,0,0:0:0:70:snare.wav
475,192,101207,1,0,0:0:0:0:
402,192,101207,1,0,0:0:0:0:
402,192,101364,1,0,0:0:0:35:hihat.wav
182,192,101364,1,0,0:0:0:0:
329,192,101521,1,0,0:0:0:35:hihat.wav
36,192,101521,1,0,0:0:0:0:
256,192,101679,1,0,0:0:0:35:hihat.wav
36,192,101679,1,0,0:0:0:0:
475,192,101836,1,0,0:0:0:35:hihat.wav
182,192,101836,1,0,0:0:0:0:
256,192,101993,1,0,0:0:0:35:hihat.wav
475,192,101993,1,0,0:0:0:0:
329,192,102150,1,0,0:0:0:70:kick.wav
109,192,102150,1,0,0:0:0:0:
402,192,102307,1,0,0:0:0:35:hihat.wav
109,192,102307,1,0,0:0:0:0:
256,192,102464,1,0,0:0:0:70:snare.wav
36,192,102464,1,0,0:0:0:70:drum.wav
475,192,102464,1,0,0:0:0:0:
329,192,102464,1,0,0:0:0:0:
402,192,102621,1,0,0:0:0:0:
109,192,102621,1,0,0:0:0:0:
36,192,102778,1,0,0:0:0:70:kick.wav
329,192,102778,1,0,0:0:0:0:
475,192,102778,1,0,0:0:0:0:
36,192,102935,1,0,0:0:0:70:kick.wav
256,192,102935,1,0,0:0:0:0:
475,192,102935,1,0,0:0:0:0:
36,192,103092,1,0,0:0:0:70:crash-cymbol.wav
182,192,103092,1,0,0:0:0:70:kick.wav
402,192,103092,1,0,0:0:0:60:bell.wav
475,192,103092,1,0,0:0:0:0:
256,192,103406,1,0,0:0:0:35:hihat.wav
329,192,103563,1,0,0:0:0:0:
475,192,103720,1,0,0:0:0:70:kick.wav
182,192,103720,1,0,0:0:0:0:
109,192,104035,1,0,0:0:0:35:hihat.wav
329,192,104349,1,0,0:0:0:70:kick.wav
402,192,104349,1,0,0:0:0:0:
109,192,104663,1,0,0:0:0:35:hihat.wav
182,192,104820,1,0,0:0:0:0:
256,192,104977,1,0,0:0:0:70:kick.wav
475,192,104977,1,0,0:0:0:0:
329,192,105291,1,0,0:0:0:35:hihat.wav
402,192,105605,1,0,0:0:0:70:kick.wav
36,192,105605,1,0,0:0:0:20:bell.wav
256,192,105919,1,0,0:0:0:35:hihat.wav
182,192,106076,1,0,0:0:0:0:
109,192,106234,1,0,0:0:0:70:kick.wav
329,192,106234,1,0,0:0:0:10:bell.wav
256,192,106548,1,0,0:0:0:35:hihat.wav
109,192,106862,1,0,0:0:0:70:kick.wav
475,192,106862,1,0,0:0:0:0:
402,192,107176,1,0,0:0:0:35:hihat.wav
329,192,107333,1,0,0:0:0:0:
36,192,107490,1,0,0:0:0:70:kick.wav
256,192,107490,1,0,0:0:0:0:
182,192,107804,1,0,0:0:0:35:hihat.wav
402,192,108118,1,0,0:0:0:70:kick.wav
36,192,108118,1,0,0:0:0:0:
256,192,108432,1,0,0:0:0:35:hihat.wav
329,192,108590,1,0,0:0:0:0:
109,192,108747,1,0,0:0:0:70:kick.wav
402,192,108747,1,0,0:0:0:0:
329,192,109061,1,0,0:0:0:35:hihat.wav
36,192,109375,1,0,0:0:0:70:kick.wav
182,192,109375,1,0,0:0:0:0:
475,192,109689,1,0,0:0:0:35:hihat.wav
402,192,109846,1,0,0:0:0:0:
329,192,110003,1,0,0:0:0:70:kick.wav
109,192,110003,1,0,0:0:0:0:
182,192,110317,1,0,0:0:0:35:hihat.wav
109,192,110631,1,0,0:0:0:70:kick.wav
256,192,110631,1,0,0:0:0:0:
402,192,110788,1,0,0:0:0:0:
36,192,110946,1,0,0:0:0:35:hihat.wav
182,192,111103,1,0,0:0:0:0:
329,192,111260,1,0,0:0:0:70:kick.wav
475,192,111260,1,0,0:0:0:0:
182,192,111417,1,0,0:0:0:0:
256,192,111574,1,0,0:0:0:35:hihat.wav
109,192,111731,1,0,0:0:0:0:
475,192,111888,1,0,0:0:0:70:kick.wav
36,192,111888,1,0,0:0:0:0:
329,192,112045,1,0,0:0:0:0:
109,192,112202,1,0,0:0:0:35:hihat.wav
402,192,112359,1,0,0:0:0:0:
182,192,112516,1,0,0:0:0:70:kick.wav
36,192,112516,1,0,0:0:0:0:
475,192,112673,1,0,0:0:0:0:
256,192,112830,1,0,0:0:0:35:hihat.wav
402,192,112987,1,0,0:0:0:0:
109,192,113145,128,0,113459:0:0:0:70:kick.wav
329,192,113145,1,0,0:0:0:70:crash-cymbol.wav
256,192,113459,128,0,113773:0:0:0:35:hihat.wav
475,192,113459,1,0,0:0:0:0:
402,192,113616,1,0,0:0:0:0:
36,192,113773,128,0,114087:0:0:0:70:kick.wav
329,192,113773,1,0,0:0:0:50:bell.wav
182,192,114087,128,0,114401:0:0:0:35:hihat.wav
256,192,114087,1,0,0:0:0:0:
402,192,114401,128,0,114715:0:0:0:70:kick.wav
475,192,114401,1,0,0:0:0:0:
256,192,114715,128,0,115029:0:0:0:35:hihat.wav
36,192,114715,1,0,0:0:0:0:
109,192,114872,1,0,0:0:0:0:
475,192,115029,128,0,115343:0:0:0:70:kick.wav
182,192,115029,1,0,0:0:0:30:bell.wav
329,192,115343,128,0,115658:0:0:0:35:hihat.wav
256,192,115343,1,0,0:0:0:0:
109,192,115658,128,0,115972:0:0:0:70:kick.wav
475,192,115658,1,0,0:0:0:0:
256,192,115972,128,0,116286:0:0:0:35:hihat.wav
329,192,115972,1,0,0:0:0:0:
402,192,116129,1,0,0:0:0:0:
182,192,116286,128,0,116600:0:0:0:70:kick.wav
475,192,116286,1,0,0:0:0:10:bell.wav
329,192,116600,128,0,116914:0:0:0:35:hihat.wav
109,192,116600,1,0,0:0:0:0:
256,192,116914,128,0,117228:0:0:0:70:kick.wav
36,192,116914,1,0,0:0:0:0:
402,192,117228,128,0,117542:0:0:0:35:hihat.wav
182,192,117228,1,0,0:0:0:0:
109,192,117385,1,0,0:0:0:0:
329,192,117542,128,0,117857:0:0:0:70:kick.wav
36,192,117542,1,0,0:0:0:0:
475,192,117857,128,0,118171:0:0:0:35:hihat.wav
182,192,117857,1,0,0:0:0:0:
36,192,118171,128,0,118799:0:0:0:70:kick.wav
256,192,118171,1,0,0:0:0:0:
182,192,118485,128,0,118799:0:0:0:35:hihat.wav
475,192,118485,1,0,0:0:0:0:
402,192,118642,1,0,0:0:0:0:
109,192,118799,128,0,119427:0:0:0:70:kick.wav
329,192,118799,1,0,0:0:0:0:
256,192,119113,128,0,119427:0:0:0:35:hihat.wav
402,192,119113,1,0,0:0:0:0:
475,192,119427,128,0,120055:0:0:0:70:kick.wav
36,192,119427,1,0,0:0:0:0:
329,192,119741,128,0,120055:0:0:0:35:hihat.wav
182,192,119741,1,0,0:0:0:0:
109,192,119898,1,0,0:0:0:0:
402,192,120055,128,0,120684:0:0:0:70:kick.wav
36,192,120055,1,0,0:0:0:0:
256,192,120370,128,0,120684:0:0:0:35:hihat.wav
182,192,120370,1,0,0:0:0:0:
36,192,120684,128,0,121312:0:0:0:70:kick.wav
329,192,120684,1,0,0:0:0:0:
182,192,120998,128,0,121312:0:0:0:35:hihat.wav
256,192,120998,1,0,0:0:0:0:
329,192,121155,1,0,0:0:0:0:
475,192,121312,128,0,121940:0:0:0:70:kick.wav
402,192,121312,1,0,0:0:0:0:
329,192,121626,128,0,121940:0:0:0:35:hihat.wav
36,192,121626,1,0,0:0:0:0:
109,192,121940,128,0,122569:0:0:0:70:kick.wav
182,192,121940,1,0,0:0:0:0:
402,192,122254,128,0,122569:0:0:0:35:hihat.wav
329,192,122254,1,0,0:0:0:0:
256,192,122412,1,0,0:0:0:0:
182,192,122569,128,0,123197:0:0:0:70:kick.wav
36,192,122569,1,0,0:0:0:0:
329,192,122883,128,0,123197:0:0:0:35:hihat.wav
475,192,122883,1,0,0:0:0:0:
36,192,123197,5,0,0:0:0:70:kick.wav
109,192,123197,1,0,0:0:0:70:crash-cymbol.wav
402,192,123197,1,0,0:0:0:60:bell.wav
256,192,123354,1,0,0:0:0:0:
36,192,123511,1,0,0:0:0:70:kick.wav
475,192,123511,128,0,123668:0:0:0:0:
182,192,123668,128,0,123825:0:0:0:0:
36,192,123825,1,0,0:0:0:70:kick.wav
402,192,123825,128,0,123982:0:0:0:0:
109,192,123982,128,0,124139:0:0:0:0:
36,192,124139,1,0,0:0:0:70:kick.wav
329,192,124139,128,0,124296:0:0:0:0:
475,192,124296,128,0,124453:0:0:0:0:
36,192,124453,1,0,0:0:0:70:kick.wav
256,192,124453,128,0,124610:0:0:0:40:bell.wav
182,192,124610,1,0,0:0:0:0:
36,192,124768,1,0,0:0:0:70:kick.wav
402,192,124768,128,0,124925:0:0:0:0:
329,192,124925,1,0,0:0:0:0:
36,192,125082,1,0,0:0:0:70:kick.wav
182,192,125082,128,0,125239:0:0:0:30:bell.wav
256,192,125239,1,0,0:0:0:0:
36,192,125396,1,0,0:0:0:70:kick.wav
402,192,125396,128,0,125553:0:0:0:0:
182,192,125553,1,0,0:0:0:0:
36,192,125710,1,0,0:0:0:70:kick.wav
475,192,125710,128,0,125867:0:0:0:20:bell.wav
329,192,125867,1,0,0:0:0:0:
36,192,126024,1,0,0:0:0:70:kick.wav
182,192,126024,128,0,126181:0:0:0:0:
256,192,126181,1,0,0:0:0:0:
36,192,126338,1,0,0:0:0:70:kick.wav
402,192,126338,128,0,126495:0:0:0:10:bell.wav
329,192,126495,1,0,0:0:0:0:
36,192,126652,1,0,0:0:0:70:kick.wav
182,192,126652,128,0,126809:0:0:0:0:
475,192,126809,1,0,0:0:0:0:
36,192,126966,1,0,0:0:0:70:kick.wav
329,192,126966,128,0,127124:0:0:0:0:
256,192,127124,128,0,127281:0:0:0:0:
36,192,127281,1,0,0:0:0:70:kick.wav
402,192,127281,128,0,127438:0:0:0:0:
182,192,127438,128,0,127595:0:0:0:0:
36,192,127595,1,0,0:0:0:70:kick.wav
329,192,127595,128,0,127752:0:0:0:0:
475,192,127752,128,0,127909:0:0:0:0:
36,192,127909,1,0,0:0:0:70:kick.wav
402,192,127909,128,0,128066:0:0:0:0:
182,192,128066,128,0,128223:0:0:0:0:
475,192,128223,1,0,0:0:0:70:kick.wav
256,192,128223,1,0,0:0:0:0:
36,192,128223,1,0,0:0:0:0:
109,192,128380,1,0,0:0:0:0:
475,192,128537,1,0,0:0:0:70:kick.wav
329,192,128537,128,0,128694:0:0:0:0:
182,192,128537,1,0,0:0:0:0:
109,192,128694,128,0,128851:0:0:0:0:
475,192,128851,1,0,0:0:0:70:kick.wav
402,192,128851,128,0,129008:0:0:0:0:
256,192,128851,1,0,0:0:0:0:
182,192,129008,128,0,129165:0:0:0:0:
475,192,129165,1,0,0:0:0:70:kick.wav
329,192,129165,128,0,129323:0:0:0:0:
36,192,129165,1,0,0:0:0:0:
109,192,129323,128,0,129480:0:0:0:0:
475,192,129480,1,0,0:0:0:70:kick.wav
256,192,129480,128,0,129637:0:0:0:0:
402,192,129480,1,0,0:0:0:0:
182,192,129637,1,0,0:0:0:0:
475,192,129794,1,0,0:0:0:70:kick.wav
329,192,129794,128,0,129951:0:0:0:0:
109,192,129794,1,0,0:0:0:0:
256,192,129951,1,0,0:0:0:0:
475,192,130108,1,0,0:0:0:70:kick.wav
182,192,130108,128,0,130265:0:0:0:0:
36,192,130108,1,0,0:0:0:0:
109,192,130265,1,0,0:0:0:0:
329,192,130422,1,0,0:0:0:70:kick.wav
475,192,130422,1,0,0:0:0:0:
256,192,130422,128,0,130579:0:0:0:0:
182,192,130579,1,0,0:0:0:0:
475,192,130736,1,0,0:0:0:70:kick.wav
36,192,130736,128,0,130893:0:0:0:0:
109,192,130736,1,0,0:0:0:0:
329,192,130893,1,0,0:0:0:0:
475,192,131050,1,0,0:0:0:70:kick.wav
256,192,131050,128,0,131207:0:0:0:0:
402,192,131050,1,0,0:0:0:0:
182,192,131207,1,0,0:0:0:0:
475,192,131364,1,0,0:0:0:70:kick.wav
109,192,131364,128,0,131521:0:0:0:0:
329,192,131364,1,0,0:0:0:0:
256,192,131521,1,0,0:0:0:0:
475,192,131679,1,0,0:0:0:70:kick.wav
329,192,131679,128,0,131836:0:0:0:0:
36,192,131679,1,0,0:0:0:0:
182,192,131836,1,0,0:0:0:0:
475,192,131993,1,0,0:0:0:70:kick.wav
36,192,131993,128,0,132150:0:0:0:0:
402,192,131993,1,0,0:0:0:0:
256,192,132150,128,0,132307:0:0:0:0:
402,192,132307,1,0,0:0:0:70:kick.wav
109,192,132307,128,0,132464:0:0:0:0:
182,192,132307,1,0,0:0:0:0:
329,192,132464,128,0,132621:0:0:0:0:
475,192,132621,1,0,0:0:0:70:kick.wav
256,192,132621,128,0,132778:0:0:0:0:
36,192,132621,1,0,0:0:0:0:
402,192,132778,128,0,132935:0:0:0:0:
475,192,132935,1,0,0:0:0:70:kick.wav
182,192,132935,128,0,133092:0:0:0:0:
329,192,132935,1,0,0:0:0:0:
109,192,133092,128,0,133249:0:0:0:0:
36,192,133249,1,0,0:0:0:70:kick.wav
256,192,133249,1,0,0:0:0:70:crash-cymbol.wav
475,192,133249,1,0,0:0:0:0:
402,192,133249,1,0,0:0:0:0:
182,192,133406,1,0,0:0:0:70:kick.wav
329,192,133406,1,0,0:0:0:0:
475,192,133563,1,0,0:0:0:70:kick.wav
256,192,133563,1,0,0:0:0:0:
36,192,133563,128,0,133720:0:0:0:0:
329,192,133720,1,0,0:0:0:70:kick.wav
182,192,133720,128,0,133877:0:0:0:0:
402,192,133877,1,0,0:0:0:70:kick.wav
475,192,133877,1,0,0:0:0:0:
36,192,133877,128,0,134035:0:0:0:0:
329,192,134035,1,0,0:0:0:70:kick.wav
182,192,134035,128,0,134192:0:0:0:0:
256,192,134192,1,0,0:0:0:70:kick.wav
475,192,134192,1,0,0:0:0:0:
36,192,134192,128,0,134349:0:0:0:0:
329,192,134349,1,0,0:0:0:70:kick.wav
182,192,134349,128,0,134506:0:0:0:0:
475,192,134506,1,0,0:0:0:70:kick.wav
402,192,134506,1,0,0:0:0:0:
36,192,134506,1,0,0:0:0:0:
329,192,134663,1,0,0:0:0:70:kick.wav
109,192,134663,1,0,0:0:0:0:
182,192,134820,1,0,0:0:0:70:kick.wav
256,192,134820,1,0,0:0:0:0:
475,192,134820,128,0,134977:0:0:0:0:
109,192,134977,1,0,0:0:0:70:kick.wav
329,192,134977,128,0,135134:0:0:0:0:
36,192,135134,1,0,0:0:0:70:kick.wav
256,192,135134,1,0,0:0:0:0:
475,192,135134,128,0,135291:0:0:0:0:
182,192,135291,1,0,0:0:0:70:kick.wav
329,192,135291,128,0,135448:0:0:0:0:
256,192,135448,1,0,0:0:0:70:kick.wav
109,192,135448,1,0,0:0:0:0:
475,192,135448,128,0,135605:0:0:0:0:
182,192,135605,1,0,0:0:0:70:kick.wav
329,192,135605,128,0,135762:0:0:0:0:
402,192,135762,1,0,0:0:0:70:kick.wav
109,192,135762,1,0,0:0:0:70:crash-cymbol.wav
36,192,135762,1,0,0:0:0:0:
475,192,135762,1,0,0:0:0:0:
329,192,135919,1,0,0:0:0:70:kick.wav
182,192,135919,1,0,0:0:0:0:
256,192,136076,1,0,0:0:0:70:kick.wav
475,192,136076,1,0,0:0:0:0:
36,192,136076,128,0,136234:0:0:0:0:
402,192,136234,1,0,0:0:0:70:kick.wav
109,192,136234,128,0,136391:0:0:0:0:
256,192,136391,1,0,0:0:0:70:kick.wav
475,192,136391,1,0,0:0:0:0:
182,192,136391,128,0,136548:0:0:0:0:
329,192,136548,1,0,0:0:0:70:kick.wav
36,192,136548,128,0,136705:0:0:0:0:
402,192,136705,1,0,0:0:0:70:kick.wav
475,192,136705,1,0,0:0:0:0:
109,192,136705,128,0,136862:0:0:0:0:
329,192,136862,1,0,0:0:0:70:kick.wav
182,192,136862,128,0,137019:0:0:0:0:
475,192,137019,1,0,0:0:0:70:kick.wav
256,192,137019,1,0,0:0:0:0:
36,192,137019,1,0,0:0:0:0:
329,192,137176,1,0,0:0:0:70:kick.wav
182,192,137176,1,0,0:0:0:0:
109,192,137333,1,0,0:0:0:70:kick.wav
36,192,137333,1,0,0:0:0:0:
475,192,137333,128,0,137490:0:0:0:0:
256,192,137490,1,0,0:0:0:70:kick.wav
402,192,137490,128,0,137647:0:0:0:0:
182,192,137647,1,0,0:0:0:70:kick.wav
109,192,137647,1,0,0:0:0:0:
329,192,137647,128,0,137804:0:0:0:0:
256,192,137804,1,0,0:0:0:70:kick.wav
475,192,137804,128,0,137961:0:0:0:0:
36,192,137961,1,0,0:0:0:70:kick.wav
109,192,137961,1,0,0:0:0:0:
402,192,137961,128,0,138118:0:0:0:0:
182,192,138118,1,0,0:0:0:70:kick.wav
329,192,138118,128,0,138275:0:0:0:0:
256,192,138275,1,0,0:0:0:70:snare.wav
36,192,138275,1,0,0:0:0:0:
475,192,138275,1,0,0:0:0:0:
109,192,138354,1,0,0:0:0:0:
182,192,138432,1,0,0:0:0:0:
329,192,138432,1,0,0:0:0:0:
402,192,138511,1,0,0:0:0:0:
36,192,138590,1,0,0:0:0:70:kick.wav
475,192,138590,1,0,0:0:0:0:
256,192,138590,1,0,0:0:0:0:
109,192,138668,1,0,0:0:0:0:
329,192,138747,1,0,0:0:0:0:
182,192,138747,1,0,0:0:0:0:
402,192,138825,1,0,0:0:0:0:
475,192,138904,1,0,0:0:0:70:snare.wav
36,192,138904,1,0,0:0:0:0:
256,192,138904,1,0,0:0:0:0:
182,192,138982,1,0,0:0:0:0:
329,192,139061,1,0,0:0:0:0:
109,192,139061,1,0,0:0:0:0:
402,192,139139,1,0,0:0:0:0:
256,192,139218,1,0,0:0:0:70:kick.wav
475,192,139218,1,0,0:0:0:0:
36,192,139218,1,0,0:0:0:0:
182,192,139296,1,0,0:0:0:0:
329,192,139375,1,0,0:0:0:0:
109,192,139375,1,0,0:0:0:0:
402,192,139453,1,0,0:0:0:0:
256,192,139532,1,0,0:0:0:70:snare.wav
475,192,139532,1,0,0:0:0:0:
36,192,139532,1,0,0:0:0:0:
329,192,139610,1,0,0:0:0:70:kick.wav
182,192,139689,1,0,0:0:0:70:kick.wav
402,192,139689,1,0,0:0:0:0:
109,192,139768,1,0,0:0:0:70:kick.wav
36,192,139846,1,0,0:0:0:70:kick.wav
475,192,139846,1,0,0:0:0:0:
256,192,139846,1,0,0:0:0:0:
329,192,139925,1,0,0:0:0:70:kick.wav
402,192,140003,1,0,0:0:0:70:kick.wav
182,192,140003,1,0,0:0:0:0:
109,192,140082,1,0,0:0:0:70:kick.wav
475,192,140160,1,0,0:0:0:70:snare.wav
256,192,140160,1,0,0:0:0:0:
36,192,140160,1,0,0:0:0:0:
402,192,140239,1,0,0:0:0:70:kick.wav
109,192,140317,1,0,0:0:0:70:kick.wav
329,192,140317,1,0,0:0:0:0:
182,192,140396,1,0,0:0:0:70:kick.wav
256,192,140474,1,0,0:0:0:70:kick.wav
36,192,140474,1,0,0:0:0:0:
475,192,140474,1,0,0:0:0:0:
402,192,140553,1,0,0:0:0:70:kick.wav
109,192,140631,1,0,0:0:0:70:kick.wav
329,192,140631,1,0,0:0:0:0:
182,192,140710,1,0,0:0:0:70:kick.wav
36,192,140788,1,0,0:0:0:70:kick.wav
256,192,140788,1,0,0:0:0:0:
475,192,140788,1,0,0:0:0:0:
402,192,140867,1,0,0:0:0:70:kick.wav
109,192,140867,1,0,0:0:0:0:
329,192,140946,1,0,0:0:0:70:kick.wav
182,192,140946,1,0,0:0:0:0:
256,192,141024,1,0,0:0:0:70:kick.wav
475,192,141024,1,0,0:0:0:0:
402,192,141103,1,0,0:0:0:70:kick.wav
182,192,141103,1,0,0:0:0:0:
329,192,141181,1,0,0:0:0:70:kick.wav
109,192,141181,1,0,0:0:0:0:
256,192,141260,1,0,0:0:0:70:kick.wav
36,192,141260,1,0,0:0:0:0:
182,192,141338,1,0,0:0:0:70:kick.wav
475,192,141338,1,0,0:0:0:0:
109,192,141417,1,0,0:0:0:70:kick.wav
402,192,141417,1,0,0:0:0:0:
329,192,141495,1,0,0:0:0:70:kick.wav
36,192,141495,1,0,0:0:0:0:
109,192,141574,1,0,0:0:0:70:kick.wav
402,192,141574,1,0,0:0:0:0:
182,192,141652,1,0,0:0:0:70:kick.wav
475,192,141652,1,0,0:0:0:0:
256,192,141731,1,0,0:0:0:70:kick.wav
36,192,141731,1,0,0:0:0:0:
329,192,141770,1,0,0:0:0:0:
109,192,141770,1,0,0:0:0:0:
182,192,141809,1,0,0:0:0:0:
402,192,141809,1,0,0:0:0:0:
256,192,141888,1,0,0:0:0:0:
475,192,141888,1,0,0:0:0:0:
402,192,141927,1,0,0:0:0:0:
182,192,141927,1,0,0:0:0:0:
109,192,141966,1,0,0:0:0:0:
329,192,141966,1,0,0:0:0:0:
256,192,142045,1,0,0:0:0:0:
36,192,142045,1,0,0:0:0:0:
109,192,142202,1,0,0:0:0:0:
329,192,142202,1,0,0:0:0:0:
182,192,142359,1,0,0:0:0:0:
402,192,142359,1,0,0:0:0:0:
475,192,142516,1,0,0:0:0:0:
256,192,142516,1,0,0:0:0:0:
329,192,142673,1,0,0:0:0:0:
36,192,142673,1,0,0:0:0:0:
402,192,142830,1,0,0:0:0:0:
109,192,142830,1,0,0:0:0:0:
329,192,142987,1,0,0:0:0:70:snare.wav
475,192,142987,1,0,0:0:0:70:cymbol.wav
182,192,142987,1,0,0:0:0:0:
36,192,142987,1,0,0:0:0:0:
109,192,143145,1,0,0:0:0:70:kick.wav
402,192,143145,1,0,0:0:0:0:
475,192,143302,1,0,0:0:0:70:kick.wav
36,192,143302,1,0,0:0:0:70:crash-cymbol.wav
109,192,143302,1,0,0:0:0:60:bell.wav
402,192,143302,1,0,0:0:0:0:
256,192,143459,1,0,0:0:0:35:hihat.wav
402,192,143616,128,0,143773:0:0:0:70:kick.wav
36,192,143616,1,0,0:0:0:70:snare.wav
182,192,143616,1,0,0:0:0:0:
256,192,143773,128,0,143930:0:0:0:35:hihat.wav
329,192,143930,128,0,144087:0:0:0:70:kick.wav
109,192,143930,1,0,0:0:0:50:bell.wav
475,192,144087,128,0,144244:0:0:0:35:hihat.wav
402,192,144244,128,0,144401:0:0:0:70:kick.wav
36,192,144244,1,0,0:0:0:70:snare.wav
182,192,144244,1,0,0:0:0:0:
256,192,144401,128,0,144558:0:0:0:35:hihat.wav
329,192,144558,128,0,144715:0:0:0:70:kick.wav
109,192,144558,1,0,0:0:0:40:bell.wav
182,192,144715,1,0,0:0:0:35:hihat.wav
256,192,144872,1,0,0:0:0:70:kick.wav
36,192,144872,1,0,0:0:0:70:snare.wav
475,192,144872,1,0,0:0:0:0:
329,192,145029,1,0,0:0:0:35:hihat.wav
475,192,145186,1,0,0:0:0:70:kick.wav
109,192,145186,1,0,0:0:0:30:bell.wav
256,192,145186,1,0,0:0:0:0:
402,192,145343,1,0,0:0:0:35:hihat.wav
475,192,145501,1,0,0:0:0:70:kick.wav
329,192,145501,1,0,0:0:0:70:snare.wav
182,192,145501,1,0,0:0:0:0:
256,192,145658,1,0,0:0:0:35:hihat.wav
329,192,145815,1,0,0:0:0:70:kick.wav
36,192,145815,128,0,146129:0:0:0:20:bell.wav
109,192,145972,1,0,0:0:0:35:hihat.wav
475,192,146129,1,0,0:0:0:70:kick.wav
182,192,146129,1,0,0:0:0:70:snare.wav
329,192,146129,1,0,0:0:0:0:
402,192,146286,1,0,0:0:0:35:hihat.wav
36,192,146443,128,0,146757:0:0:0:70:kick.wav
329,192,146443,1,0,0:0:0:10:bell.wav
109,192,146600,1,0,0:0:0:35:hihat.wav
182,192,146757,1,0,0:0:0:70:kick.wav
256,192,146757,1,0,0:0:0:70:snare.wav
402,192,146757,1,0,0:0:0:0:
329,192,146914,1,0,0:0:0:35:hihat.wav
256,192,147071,1,0,0:0:0:70:kick.wav
475,192,147071,1,0,0:0:0:0:
182,192,147228,1,0,0:0:0:35:hihat.wav
109,192,147385,1,0,0:0:0:70:kick.wav
402,192,147385,1,0,0:0:0:70:snare.wav
329,192,147385,1,0,0:0:0:0:
256,192,147542,1,0,0:0:0:35:hihat.wav
182,192,147699,128,0,147857:0:0:0:70:kick.wav
402,192,147699,1,0,0:0:0:0:
36,192,147857,128,0,148014:0:0:0:35:hihat.wav
256,192,148014,128,0,148171:0:0:0:70:kick.wav
329,192,148014,1,0,0:0:0:70:snare.wav
475,192,148014,1,0,0:0:0:0:
109,192,148171,128,0,148328:0:0:0:70:snare.wav
475,192,148171,1,0,0:0:0:0:
475,192,148328,1,0,0:0:0:70:kick.wav
329,192,148328,1,0,0:0:0:0:
182,192,148485,1,0,0:0:0:35:hihat.wav
329,192,148642,1,0,0:0:0:70:snare.wav
475,192,148642,1,0,0:0:0:70:kick.wav
109,192,148642,128,0,148799:0:0:0:0:
256,192,148799,128,0,148956:0:0:0:35:hihat.wav
182,192,148956,128,0,149113:0:0:0:70:kick.wav
402,192,148956,1,0,0:0:0:0:
329,192,149113,128,0,149270:0:0:0:35:hihat.wav
475,192,149270,128,0,149427:0:0:0:70:kick.wav
36,192,149270,1,0,0:0:0:70:snare.wav
182,192,149270,1,0,0:0:0:0:
256,192,149427,128,0,149584:0:0:0:35:hihat.wav
402,192,149584,128,0,149741:0:0:0:70:kick.wav
109,192,149584,1,0,0:0:0:0:
182,192,149741,1,0,0:0:0:35:hihat.wav
256,192,149898,1,0,0:0:0:70:snare.wav
36,192,149898,1,0,0:0:0:70:kick.wav
475,192,149898,1,0,0:0:0:0:
329,192,150055,1,0,0:0:0:35:hihat.wav
36,192,150213,1,0,0:0:0:70:kick.wav
402,192,150213,1,0,0:0:0:0:
182,192,150213,1,0,0:0:0:0:
256,192,150370,1,0,0:0:0:35:hihat.wav
36,192,150527,1,0,0:0:0:70:snare.wav
329,192,150527,1,0,0:0:0:70:kick.wav
109,192,150527,1,0,0:0:0:0:
182,192,150684,1,0,0:0:0:35:hihat.wav
36,192,150841,1,0,0:0:0:70:kick.wav
475,192,150841,128,0,151469:0:0:0:0:
256,192,150841,1,0,0:0:0:0:
182,192,150998,1,0,0:0:0:35:hihat.wav
329,192,151155,128,0,151469:0:0:0:70:kick.wav
109,192,151155,1,0,0:0:0:70:snare.wav
182,192,151312,1,0,0:0:0:35:hihat.wav
109,192,151469,128,0,152097:0:0:0:70:kick.wav
256,192,151469,1,0,0:0:0:0:
329,192,151626,1,0,0:0:0:35:hihat.wav
402,192,151783,128,0,152097:0:0:0:70:kick.wav
256,192,151783,1,0,0:0:0:70:snare.wav
182,192,151940,1,0,0:0:0:35:hihat.wav
256,192,152097,1,0,0:0:0:70:kick.wav
36,192,152097,128,0,152254:0:0:0:0:
475,192,152097,128,0,152726:0:0:0:0:
182,192,152254,128,0,152412:0:0:0:35:hihat.wav
329,192,152412,128,0,152569:0:0:0:70:kick.wav
402,192,152412,1,0,0:0:0:70:snare.wav
182,192,152569,128,0,152726:0:0:0:35:hihat.wav
329,192,152726,128,0,152883:0:0:0:70:kick.wav
36,192,152726,128,0,153040:0:0:0:0:
109,192,152726,1,0,0:0:0:0:
475,192,152883,128,0,153040:0:0:0:35:hihat.wav
182,192,153040,1,0,0:0:0:70:kick.wav
329,192,153040,1,0,0:0:0:70:snare.wav
36,192,153118,1,0,0:0:0:0:
475,192,153118,1,0,0:0:0:0:
182,192,153197,1,0,0:0:0:70:kick.wav
329,192,153197,1,0,0:0:0:0:
36,192,153275,1,0,0:0:0:0:
475,192,153275,1,0,0:0:0:0:
182,192,153354,1,0,0:0:0:70:crash-cymbol.wav
256,192,153354,1,0,0:0:0:70:kick.wav
329,192,153354,1,0,0:0:0:0:
475,192,153511,1,0,0:0:0:35:hihat.wav
36,192,153668,1,0,0:0:0:70:kick.wav
182,192,153668,1,0,0:0:0:70:snare.wav
402,192,153668,128,0,153825:0:0:0:0:
256,192,153825,128,0,153982:0:0:0:35:hihat.wav
329,192,153982,128,0,154139:0:0:0:70:kick.wav
109,192,153982,1,0,0:0:0:50:bell.wav
182,192,154139,128,0,154296:0:0:0:35:hihat.wav
475,192,154296,1,0,0:0:0:70:kick.wav
36,192,154296,1,0,0:0:0:70:snare.wav
256,192,154296,128,0,154453:0:0:0:0:
109,192,154453,128,0,154610:0:0:0:35:hihat.wav
402,192,154610,1,0,0:0:0:70:kick.wav
182,192,154610,128,0,154768:0:0:0:40:bell.wav
329,192,154768,1,0,0:0:0:35:hihat.wav
475,192,154925,1,0,0:0:0:70:kick.wav
256,192,154925,1,0,0:0:0:70:snare.wav
36,192,154925,1,0,0:0:0:0:
182,192,155082,1,0,0:0:0:35:hihat.wav
256,192,155239,1,0,0:0:0:70:kick.wav
36,192,155239,1,0,0:0:0:30:bell.wav
402,192,155239,1,0,0:0:0:0:
109,192,155396,1,0,0:0:0:35:hihat.wav
329,192,155553,1,0,0:0:0:70:kick.wav
36,192,155553,1,0,0:0:0:70:snare.wav
182,192,155553,1,0,0:0:0:0:
256,192,155710,1,0,0:0:0:35:hihat.wav
475,192,155867,128,0,156181:0:0:0:70:kick.wav
182,192,155867,1,0,0:0:0:20:bell.wav
329,192,156024,1,0,0:0:0:35:hihat.wav
402,192,156181,1,0,0:0:0:70:kick.wav
256,192,156181,1,0,0:0:0:70:snare.wav
109,192,156181,1,0,0:0:0:0:
36,192,156338,1,0,0:0:0:35:hihat.wav
182,192,156495,1,0,0:0:0:70:kick.wav
475,192,156495,128,0,156809:0:0:0:10:bell.wav
329,192,156652,1,0,0:0:0:35:hihat.wav
109,192,156809,1,0,0:0:0:70:kick.wav
256,192,156809,1,0,0:0:0:70:snare.wav
402,192,156809,1,0,0:0:0:0:
182,192,156966,1,0,0:0:0:35:hihat.wav
475,192,157124,1,0,0:0:0:70:kick.wav
329,192,157124,1,0,0:0:0:0:
256,192,157281,1,0,0:0:0:35:hihat.wav
182,192,157438,1,0,0:0:0:70:snare.wav
36,192,157438,1,0,0:0:0:70:kick.wav
402,192,157438,1,0,0:0:0:0:
329,192,157595,1,0,0:0:0:35:hihat.wav
475,192,157752,128,0,157909:0:0:0:70:kick.wav
109,192,157752,1,0,0:0:0:0:
329,192,157909,128,0,158066:0:0:0:35:hihat.wav
256,192,157909,1,0,0:0:0:0:
109,192,158066,128,0,158223:0:0:0:70:snare.wav
402,192,158066,1,0,0:0:0:70:kick.wav
256,192,158223,128,0,158380:0:0:0:70:snare.wav
402,192,158223,1,0,0:0:0:0:
475,192,158380,1,0,0:0:0:70:kick.wav
36,192,158380,1,0,0:0:0:70:crash-cymbol.wav
182,192,158380,1,0,0:0:0:0:
329,192,158537,1,0,0:0:0:35:hihat.wav
402,192,158694,128,0,158851:0:0:0:70:snare.wav
109,192,158694,1,0,0:0:0:70:kick.wav
256,192,158694,1,0,0:0:0:0:
182,192,158851,128,0,159008:0:0:0:35:hihat.wav
329,192,159008,128,0,159165:0:0:0:70:kick.wav
36,192,159008,1,0,0:0:0:0:
475,192,159165,128,0,159323:0:0:0:35:hihat.wav
109,192,159323,128,0,159480:0:0:0:70:kick.wav
402,192,159323,1,0,0:0:0:70:snare.wav
256,192,159323,1,0,0:0:0:0:
329,192,159480,128,0,159637:0:0:0:35:hihat.wav
182,192,159637,128,0,159794:0:0:0:70:kick.wav
36,192,159637,1,0,0:0:0:70:crash-cymbol.wav
475,192,159637,1,0,0:0:0:0:
329,192,159794,1,0,0:0:0:35:hihat.wav
402,192,159951,1,0,0:0:0:70:snare.wav
256,192,159951,1,0,0:0:0:70:kick.wav
36,192,159951,1,0,0:0:0:0:
182,192,160108,1,0,0:0:0:35:hihat.wav
256,192,160265,1,0,0:0:0:70:kick.wav
402,192,160265,1,0,0:0:0:0:
36,192,160265,1,0,0:0:0:0:
109,192,160422,5,0,0:0:0:35:hihat.wav
475,192,160579,5,0,0:0:0:70:snare.wav
329,192,160579,1,0,0:0:0:70:kick.wav
182,192,160579,1,0,0:0:0:0:
256,192,160736,1,0,0:0:0:35:hihat.wav
109,192,160893,128,0,161521:0:0:0:70:kick.wav
402,192,160893,1,0,0:0:0:70:crash-cymbol.wav
36,192,160893,1,0,0:0:0:0:
329,192,161050,1,0,0:0:0:35:hihat.wav
256,192,161207,1,0,0:0:0:70:kick.wav
475,192,161207,1,0,0:0:0:70:snare.wav
36,192,161207,128,0,161521:0:0:0:0:
329,192,161364,1,0,0:0:0:35:hihat.wav
402,192,161521,128,0,162150:0:0:0:70:kick.wav
256,192,161521,1,0,0:0:0:70:crash-cymbol.wav
182,192,161521,1,0,0:0:0:0:
329,192,161679,1,0,0:0:0:35:hihat.wav
36,192,161836,1,0,0:0:0:70:kick.wav
256,192,161836,1,0,0:0:0:70:snare.wav
475,192,161836,128,0,162150:0:0:0:0:
182,192,161993,1,0,0:0:0:35:hihat.wav
109,192,162150,128,0,162778:0:0:0:70:snare.wav
329,192,162150,128,0,162307:0:0:0:0:
256,192,162150,1,0,0:0:0:0:
475,192,162307,128,0,162464:0:0:0:0:
182,192,162464,128,0,162621:0:0:0:70:snare.wav
256,192,162464,1,0,0:0:0:0:
329,192,162621,128,0,162778:0:0:0:0:
256,192,162778,128,0,163092:0:0:0:70:snare.wav
36,192,162778,128,0,162935:0:0:0:0:
402,192,162778,1,0,0:0:0:0:
182,192,162935,128,0,163092:0:0:0:0:
475,192,163092,1,0,0:0:0:70:kick.wav
36,192,163092,1,0,0:0:0:0:
329,192,163171,1,0,0:0:0:0:
182,192,163171,1,0,0:0:0:0:
475,192,163249,1,0,0:0:0:70:kick.wav
36,192,163249,1,0,0:0:0:0:
329,192,163328,1,0,0:0:0:0:
182,192,163328,1,0,0:0:0:0:
256,192,163406,1,0,0:0:0:70:kick.wav
475,192,163406,1,0,0:0:0:70:crash-cymbol.wav
36,192,163406,1,0,0:0:0:60:bell.wav
402,192,163563,1,0,0:0:0:35:hihat.wav
182,192,163563,1,0,0:0:0:0:
36,192,163720,1,0,0:0:0:70:kick.wav
329,192,163720,1,0,0:0:0:70:snare.wav
109,192,163720,1,0,0:0:0:0:
182,192,163877,1,0,0:0:0:35:hihat.wav
402,192,163877,1,0,0:0:0:0:
256,192,164035,1,0,0:0:0:70:kick.wav
475,192,164035,1,0,0:0:0:50:bell.wav
329,192,164192,1,0,0:0:0:35:hihat.wav
109,192,164192,1,0,0:0:0:0:
182,192,164349,1,0,0:0:0:70:kick.wav
402,192,164349,1,0,0:0:0:70:snare.wav
36,192,164349,1,0,0:0:0:0:
256,192,164506,1,0,0:0:0:35:hihat.wav
475,192,164506,1,0,0:0:0:0:
402,192,164663,1,0,0:0:0:70:kick.wav
182,192,164663,128,0,165291:0:0:0:40:bell.wav
329,192,164820,1,0,0:0:0:35:hihat.wav
475,192,164977,1,0,0:0:0:70:kick.wav
36,192,164977,128,0,165291:0:0:0:70:snare.wav
329,192,165134,1,0,0:0:0:35:hihat.wav
256,192,165291,128,0,165919:0:0:0:70:kick.wav
402,192,165291,1,0,0:0:0:30:bell.wav
475,192,165448,1,0,0:0:0:35:hihat.wav
109,192,165605,128,0,165919:0:0:0:70:kick.wav
402,192,165605,1,0,0:0:0:70:snare.wav
329,192,165762,1,0,0:0:0:35:hihat.wav
402,192,165919,1,0,0:0:0:70:kick.wav
36,192,165919,1,0,0:0:0:20:bell.wav
329,192,166076,1,0,0:0:0:35:hihat.wav
109,192,166234,1,0,0:0:0:70:kick.wav
256,192,166234,1,0,0:0:0:70:snare.wav
475,192,166234,1,0,0:0:0:0:
329,192,166391,1,0,0:0:0:35:hihat.wav
402,192,166548,1,0,0:0:0:70:kick.wav
36,192,166548,1,0,0:0:0:10:bell.wav
109,192,166705,128,0,166862:0:0:0:35:hihat.wav
256,192,166705,1,0,0:0:0:0:
182,192,166862,128,0,167019:0:0:0:70:kick.wav
475,192,166862,1,0,0:0:0:0:
329,192,166862,1,0,0:0:0:0:
256,192,167019,128,0,167176:0:0:0:35:hihat.wav
402,192,167019,1,0,0:0:0:0:
36,192,167176,128,0,167333:0:0:0:70:kick.wav
475,192,167176,1,0,0:0:0:0:
182,192,167176,1,0,0:0:0:0:
256,192,167333,1,0,0:0:0:35:hihat.wav
36,192,167490,128,0,167647:0:0:0:70:kick.wav
402,192,167490,1,0,0:0:0:70:snare.wav
329,192,167490,1,0,0:0:0:0:
256,192,167647,1,0,0:0:0:35:hihat.wav
182,192,167804,128,0,167961:0:0:0:70:kick.wav
475,192,167804,1,0,0:0:0:0:
36,192,167804,1,0,0:0:0:0:
256,192,167961,1,0,0:0:0:35:hihat.wav
182,192,168118,128,0,168275:0:0:0:70:kick.wav
402,192,168118,1,0,0:0:0:70:snare.wav
329,192,168118,1,0,0:0:0:0:
36,192,168118,1,0,0:0:0:0:
329,192,168275,1,0,0:0:0:70:snare.wav
402,192,168275,1,0,0:0:0:0:
36,192,168432,1,0,0:0:0:70:kick.wav
256,192,168432,1,0,0:0:0:0:
475,192,168432,1,0,0:0:0:0:
329,192,168590,1,0,0:0:0:35:hihat.wav
109,192,168590,1,0,0:0:0:0:
402,192,168747,1,0,0:0:0:70:snare.wav
182,192,168747,1,0,0:0:0:70:kick.wav
475,192,168747,1,0,0:0:0:0:
109,192,168904,1,0,0:0:0:35:hihat.wav
329,192,168904,1,0,0:0:0:0:
36,192,169061,1,0,0:0:0:70:kick.wav
256,192,169061,1,0,0:0:0:0:
182,192,169218,1,0,0:0:0:35:hihat.wav
402,192,169218,1,0,0:0:0:0:
475,192,169375,1,0,0:0:0:70:kick.wav
329,192,169375,1,0,0:0:0:70:snare.wav
109,192,169375,1,0,0:0:0:0:
36,192,169532,1,0,0:0:0:35:hihat.wav
256,192,169532,1,0,0:0:0:0:
329,192,169689,128,0,170317:0:0:0:70:kick.wav
109,192,169689,1,0,0:0:0:0:
182,192,169846,1,0,0:0:0:35:hihat.wav
475,192,170003,128,0,170317:0:0:0:70:snare.wav
36,192,170003,1,0,0:0:0:70:kick.wav
182,192,170160,1,0,0:0:0:35:hihat.wav
109,192,170317,1,0,0:0:0:70:kick.wav
256,192,170317,128,0,170946:0:0:0:0:
36,192,170474,1,0,0:0:0:35:hihat.wav
109,192,170631,1,0,0:0:0:70:snare.wav
402,192,170631,128,0,170946:0:0:0:70:kick.wav
182,192,170788,1,0,0:0:0:35:hihat.wav
109,192,170946,1,0,0:0:0:70:kick.wav
475,192,170946,1,0,0:0:0:0:
182,192,171103,1,0,0:0:0:35:hihat.wav
256,192,171260,1,0,0:0:0:70:kick.wav
402,192,171260,1,0,0:0:0:70:snare.wav
36,192,171260,1,0,0:0:0:0:
329,192,171417,1,0,0:0:0:35:hihat.wav
402,192,171574,1,0,0:0:0:70:kick.wav
109,192,171574,1,0,0:0:0:0:
182,192,171731,1,0,0:0:0:35:hihat.wav
475,192,171888,1,0,0:0:0:70:kick.wav
256,192,171888,1,0,0:0:0:70:snare.wav
36,192,171888,128,0,172045:0:0:0:0:
109,192,172045,128,0,172202:0:0:0:35:hihat.wav
402,192,172045,1,0,0:0:0:0:
182,192,172202,128,0,172359:0:0:0:70:kick.wav
329,192,172202,1,0,0:0:0:0:
256,192,172359,1,0,0:0:0:35:hihat.wav
475,192,172516,1,0,0:0:0:70:kick.wav
109,192,172516,1,0,0:0:0:70:snare.wav
182,192,172569,1,0,0:0:0:0:
256,192,172621,1,0,0:0:0:0:
329,192,172673,1,0,0:0:0:35:hihat.wav
256,192,172726,1,0,0:0:0:0:
182,192,172778,1,0,0:0:0:0:
109,192,172830,1,0,0:0:0:70:kick.wav
402,192,172830,128,0,172987:0:0:0:0:
256,192,172987,1,0,0:0:0:35:hihat.wav
329,192,172987,128,0,173145:0:0:0:0:
182,192,173145,1,0,0:0:0:70:kick.wav
109,192,173145,1,0,0:0:0:70:snare.wav
402,192,173145,128,0,173459:0:0:0:0:
36,192,173302,1,0,0:0:0:70:kick.wav
182,192,173302,1,0,0:0:0:0:
329,192,173302,128,0,173459:0:0:0:0:
256,192,173459,1,0,0:0:0:70:crash-cymbol.wav
109,192,173459,1,0,0:0:0:70:kick.wav
475,192,173459,1,0,0:0:0:60:bell.wav
36,192,173459,1,0,0:0:0:0:
182,192,173616,1,0,0:0:0:35:hihat.wav
402,192,173616,1,0,0:0:0:0:
36,192,173773,1,0,0:0:0:70:kick.wav
475,192,173773,1,0,0:0:0:70:snare.wav
256,192,173773,128,0,173930:0:0:0:0:
109,192,173930,128,0,174087:0:0:0:35:hihat.wav
329,192,173930,1,0,0:0:0:0:
402,192,174087,1,0,0:0:0:70:kick.wav
182,192,174087,1,0,0:0:0:50:bell.wav
256,192,174244,1,0,0:0:0:35:hihat.wav
475,192,174244,1,0,0:0:0:0:
329,192,174401,1,0,0:0:0:70:kick.wav
36,192,174401,128,0,174558:0:0:0:70:snare.wav
109,192,174401,1,0,0:0:0:0:
182,192,174558,128,0,174715:0:0:0:35:hihat.wav
402,192,174558,1,0,0:0:0:0:
256,192,174715,1,0,0:0:0:70:kick.wav
36,192,174715,1,0,0:0:0:40:bell.wav
475,192,174715,128,0,174872:0:0:0:0:
329,192,174872,1,0,0:0:0:35:hihat.wav
475,192,175029,128,0,175186:0:0:0:70:kick.wav
109,192,175029,1,0,0:0:0:70:snare.wav
182,192,175029,1,0,0:0:0:0:
329,192,175186,1,0,0:0:0:35:hihat.wav
402,192,175343,128,0,175501:0:0:0:70:kick.wav
36,192,175343,1,0,0:0:0:30:bell.wav
256,192,175501,1,0,0:0:0:35:hihat.wav
402,192,175658,128,0,175815:0:0:0:70:kick.wav
109,192,175658,1,0,0:0:0:70:snare.wav
182,192,175658,1,0,0:0:0:0:
36,192,175815,1,0,0:0:0:35:hihat.wav
256,192,175815,1,0,0:0:0:0:
36,192,175972,1,0,0:0:0:70:kick.wav
182,192,175972,1,0,0:0:0:70:crash-cymbol.wav
475,192,175972,1,0,0:0:0:20:bell.wav
329,192,175972,1,0,0:0:0:0:
402,192,176129,1,0,0:0:0:35:hihat.wav
329,192,176286,1,0,0:0:0:70:kick.wav
109,192,176286,128,0,176443:0:0:0:70:snare.wav
182,192,176286,128,0,176443:0:0:0:0:
475,192,176443,1,0,0:0:0:35:hihat.wav
256,192,176600,128,0,176757:0:0:0:70:kick.wav
182,192,176600,128,0,176757:0:0:0:10:bell.wav
402,192,176757,1,0,0:0:0:35:hihat.wav
36,192,176757,1,0,0:0:0:0:
109,192,176914,1,0,0:0:0:70:kick.wav
329,192,176914,1,0,0:0:0:70:snare.wav
475,192,176914,1,0,0:0:0:0:
182,192,177071,1,0,0:0:0:35:hihat.wav
402,192,177071,1,0,0:0:0:0:
256,192,177228,1,0,0:0:0:70:kick.wav
475,192,177228,1,0,0:0:0:0:
36,192,177228,128,0,177385:0:0:0:0:
329,192,177385,1,0,0:0:0:35:hihat.wav
36,192,177542,128,0,177699:0:0:0:70:kick.wav
182,192,177542,128,0,177699:0:0:0:70:snare.wav
402,192,177542,1,0,0:0:0:0:
475,192,177699,1,0,0:0:0:35:hihat.wav
402,192,177857,128,0,178014:0:0:0:70:kick.wav
36,192,177857,1,0,0:0:0:0:
182,192,177857,1,0,0:0:0:0:
109,192,178014,1,0,0:0:0:35:hihat.wav
402,192,178171,128,0,178328:0:0:0:70:kick.wav
256,192,178171,128,0,178328:0:0:0:70:snare.wav
182,192,178171,1,0,0:0:0:0:
36,192,178328,1,0,0:0:0:70:snare.wav
109,192,178328,1,0,0:0:0:0:
36,192,178485,1,0,0:0:0:70:kick.wav
182,192,178485,1,0,0:0:0:70:crash-cymbol.wav
256,192,178485,1,0,0:0:0:70:snare.wav
402,192,178485,1,0,0:0:0:0:
475,192,178642,1,0,0:0:0:35:hihat.wav
109,192,178642,1,0,0:0:0:0:
182,192,178799,1,0,0:0:0:70:snare.wav
402,192,178799,128,0,178956:0:0:0:70:kick.wav
36,192,178799,1,0,0:0:0:0:
256,192,178956,1,0,0:0:0:35:hihat.wav
109,192,178956,128,0,179113:0:0:0:0:
329,192,179113,1,0,0:0:0:70:kick.wav
475,192,179113,1,0,0:0:0:70:snare.wav
182,192,179270,1,0,0:0:0:35:hihat.wav
329,192,179427,128,0,179584:0:0:0:70:kick.wav
109,192,179427,1,0,0:0:0:70:snare.wav
402,192,179427,1,0,0:0:0:0:
182,192,179584,128,0,179741:0:0:0:35:hihat.wav
36,192,179584,1,0,0:0:0:0:
36,192,179741,1,0,0:0:0:70:kick.wav
475,192,179741,1,0,0:0:0:70:crash-cymbol.wav
329,192,179741,1,0,0:0:0:70:snare.wav
256,192,179741,1,0,0:0:0:0:
109,192,179898,1,0,0:0:0:35:hihat.wav
182,192,180055,1,0,0:0:0:70:snare.wav
402,192,180055,128,0,180213:0:0:0:70:kick.wav
329,192,180055,1,0,0:0:0:0:
256,192,180213,1,0,0:0:0:35:hihat.wav
182,192,180370,1,0,0:0:0:70:kick.wav
475,192,180370,128,0,180527:0:0:0:70:snare.wav
109,192,180527,1,0,0:0:0:35:hihat.wav
402,192,180684,128,0,180841:0:0:0:70:snare.wav
36,192,180684,1,0,0:0:0:70:kick.wav
256,192,180684,1,0,0:0:0:0:
109,192,180841,1,0,0:0:0:35:hihat.wav
329,192,180841,128,0,180998:0:0:0:0:
182,192,180998,1,0,0:0:0:70:kick.wav
36,192,180998,1,0,0:0:0:70:crash-cymbol.wav
475,192,180998,1,0,0:0:0:0:
256,192,180998,1,0,0:0:0:0:
36,192,181155,1,0,0:0:0:35:hihat.wav
182,192,181155,1,0,0:0:0:70:kick.wav
475,192,181155,1,0,0:0:0:0:
402,192,181312,1,0,0:0:0:70:kick.wav
256,192,181312,1,0,0:0:0:70:snare.wav
109,192,181312,1,0,0:0:0:0:
109,192,181469,1,0,0:0:0:35:hihat.wav
256,192,181469,1,0,0:0:0:70:kick.wav
402,192,181469,1,0,0:0:0:0:
36,192,181626,1,0,0:0:0:70:kick.wav
182,192,181626,1,0,0:0:0:70:crash-cymbol.wav
329,192,181626,1,0,0:0:0:0:
475,192,181626,1,0,0:0:0:0:
475,192,181783,1,0,0:0:0:35:hihat.wav
329,192,181783,1,0,0:0:0:70:kick.wav
36,192,181783,1,0,0:0:0:0:
256,192,181940,1,0,0:0:0:70:kick.wav
402,192,181940,1,0,0:0:0:70:snare.wav
109,192,181940,128,0,182254:0:0:0:0:
329,192,182097,1,0,0:0:0:35:hihat.wav
475,192,182097,1,0,0:0:0:70:kick.wav
182,192,182097,128,0,182254:0:0:0:0:
402,192,182254,1,0,0:0:0:70:kick.wav
256,192,182254,1,0,0:0:0:70:crash-cymbol.wav
36,192,182254,1,0,0:0:0:0:
475,192,182254,1,0,0:0:0:0:
475,192,182412,1,0,0:0:0:70:kick.wav
109,192,182412,1,0,0:0:0:0:
256,192,182412,1,0,0:0:0:0:
182,192,182569,1,0,0:0:0:70:snare.wav
329,192,182569,1,0,0:0:0:70:kick.wav
36,192,182569,1,0,0:0:0:0:
475,192,182621,1,0,0:0:0:0:
402,192,182673,1,0,0:0:0:0:
329,192,182726,1,0,0:0:0:70:kick.wav
256,192,182778,1,0,0:0:0:0:
182,192,182830,1,0,0:0:0:0:
329,192,182883,1,0,0:0:0:70:kick.wav
475,192,182883,1,0,0:0:0:70:crash-cymbol.wav
36,192,182883,1,0,0:0:0:0:
109,192,182883,1,0,0:0:0:0:
36,192,183040,1,0,0:0:0:70:kick.wav
329,192,183040,1,0,0:0:0:0:
475,192,183040,1,0,0:0:0:0:
109,192,183197,1,0,0:0:0:70:snare.wav
256,192,183197,1,0,0:0:0:70:kick.wav
402,192,183197,1,0,0:0:0:0:
256,192,183354,1,0,0:0:0:70:kick.wav
402,192,183354,1,0,0:0:0:0:
109,192,183354,1,0,0:0:0:0:
475,192,183511,1,0,0:0:0:70:kick.wav
329,192,183511,1,0,0:0:0:0:
36,192,183511,1,0,0:0:0:0:
402,192,183668,1,0,0:0:0:70:kick.wav
256,192,183668,1,0,0:0:0:0:
182,192,183825,1,0,0:0:0:70:kick.wav
36,192,183825,1,0,0:0:0:0:
329,192,183877,1,0,0:0:0:0:
475,192,183930,1,0,0:0:0:0:
36,192,183982,1,0,0:0:0:70:kick.wav
182,192,183982,1,0,0:0:0:0:
329,192,184035,1,0,0:0:0:0:
475,192,184087,1,0,0:0:0:0:
109,192,184139,1,0,0:0:0:70:kick.wav
256,192,184139,1,0,0:0:0:0:
36,192,184218,1,0,0:0:0:70:kick.wav
475,192,184218,1,0,0:0:0:0:
402,192,184296,1,0,0:0:0:70:kick.wav
182,192,184296,1,0,0:0:0:0:
329,192,184375,1,0,0:0:0:70:kick.wav
36,192,184375,1,0,0:0:0:0:
182,192,184453,1,0,0:0:0:70:kick.wav
475,192,184453,1,0,0:0:0:0:
402,192,184493,1,0,0:0:0:0:
329,192,184532,1,0,0:0:0:0:
36,192,184610,1,0,0:0:0:0:
256,192,184610,1,0,0:0:0:0:
109,192,184650,1,0,0:0:0:0:
182,192,184689,1,0,0:0:0:0:
475,192,184768,1,0,0:0:0:0:
329,192,184768,1,0,0:0:0:0:
475,192,184925,1,0,0:0:0:0:
256,192,184925,1,0,0:0:0:0:
329,192,185082,1,0,0:0:0:0:
36,192,185082,1,0,0:0:0:0:
182,192,185082,1,0,0:0:0:0:
109,192,185239,1,0,0:0:0:0:
329,192,185239,1,0,0:0:0:0:
182,192,185396,1,0,0:0:0:0:
402,192,185396,128,0,186024:0:0:0:0:
329,192,185553,5,0,0:0:0:0:
256,192,185553,1,0,0:0:0:0:
36,192,185710,1,0,0:0:0:70:snare.wav
109,192,185710,1,0,0:0:0:70:cymbol.wav
475,192,185710,1,0,0:0:0:0:
182,192,185788,1,0,0:0:0:0:
256,192,185867,1,0,0:0:0:0:
329,192,185946,1,0,0:0:0:0:
475,192,186024,5,0,0:0:0:70:crash-cymbol.wav
256,192,186024,1,0,0:0:0:70:kick.wav
182,192,186024,128,0,187281:0:0:0:0:
36,192,186024,128,0,186652:0:0:0:0:
256,192,186652,128,0,187281:0:0:0:0:
402,192,186652,1,0,0:0:0:0:
475,192,186809,1,0,0:0:0:0:
329,192,186966,1,0,0:0:0:0:
475,192,187124,1,0,0:0:0:0:
109,192,187281,128,0,188537:0:0:0:40:bell.wav
402,192,187281,128,0,187909:0:0:0:0:
256,192,187909,128,0,188537:0:0:0:0:
36,192,188537,128,0,189794:0:0:0:20:bell.wav
475,192,188537,128,0,189165:0:0:0:0:
256,192,189165,128,0,189480:0:0:0:0:
182,192,189323,128,0,189480:0:0:0:0:
109,192,189480,128,0,189794:0:0:0:0:
182,192,189637,128,0,189794:0:0:0:0:
475,192,189794,128,0,191050:0:0:0:0:
329,192,189794,128,0,190422:0:0:0:0:
109,192,190422,128,0,191050:0:0:0:0:
402,192,191050,128,0,192307:0:0:0:0:
256,192,191050,128,0,191679:0:0:0:0:
475,192,191679,128,0,192307:0:0:0:0:
256,192,192307,128,0,193563:0:0:0:0:
36,192,192307,128,0,192935:0:0:0:0:
402,192,192935,128,0,193563:0:0:0:0:
475,192,193563,128,0,194820:0:0:0:0:
36,192,193563,128,0,194192:0:0:0:0:
256,192,194192,128,0,194506:0:0:0:0:
182,192,194349,128,0,194506:0:0:0:0:
109,192,194506,128,0,194820:0:0:0:0:
182,192,194663,128,0,194820:0:0:0:0:
36,192,194820,128,0,196076:0:0:0:0:
402,192,194820,128,0,195448:0:0:0:0:
329,192,195134,128,0,195762:0:0:0:0:
256,192,195448,128,0,196076:0:0:0:0:
182,192,195762,128,0,196076:0:0:0:0:
402,192,196076,128,0,197333:0:0:0:0:
475,192,196076,1,0,0:0:0:0:
109,192,196076,128,0,196705:0:0:0:0:
256,192,196705,128,0,197333:0:0:0:0:
36,192,196705,1,0,0:0:0:0:
182,192,196862,1,0,0:0:0:0:
109,192,197019,1,0,0:0:0:0:
36,192,197176,1,0,0:0:0:0:
182,192,197333,128,0,198590:0:0:0:0:
475,192,197333,128,0,197961:0:0:0:0:
402,192,197961,128,0,198590:0:0:0:0:
329,192,198590,128,0,199846:0:0:0:0:
36,192,198590,128,0,199218:0:0:0:0:
256,192,199218,128,0,199532:0:0:0:0:
109,192,199375,128,0,199532:0:0:0:0:
36,192,199532,128,0,199846:0:0:0:0:
182,192,199689,128,0,199846:0:0:0:0:
475,192,199846,128,0,201103:0:0:0:0:
402,192,199846,128,0,200474:0:0:0:0:
109,192,200474,128,0,201103:0:0:0:0:
329,192,201103,128,0,202359:0:0:0:0:
36,192,201103,128,0,201731:0:0:0:0:
475,192,201731,128,0,202359:0:0:0:0:
109,192,202359,128,0,203616:0:0:0:0:
256,192,202359,128,0,202987:0:0:0:0:
402,192,202987,128,0,203616:0:0:0:0:
256,192,203616,128,0,204872:0:0:0:0:
475,192,203616,128,0,204244:0:0:0:0:
36,192,204244,128,0,204558:0:0:0:0:
182,192,204401,128,0,204558:0:0:0:0:
475,192,204558,128,0,204872:0:0:0:0:
329,192,204715,128,0,204872:0:0:0:0:
36,192,204872,128,0,206129:0:0:0:0:
402,192,204872,128,0,205501:0:0:0:0:
329,192,205186,128,0,205815:0:0:0:0:
256,192,205501,128,0,206129:0:0:0:0:
182,192,205815,128,0,206129:0:0:0:0:
475,192,206129,1,0,0:0:0:70:crash-cymbol.wav
402,192,206129,1,0,0:0:0:70:kick.wav
109,192,206129,1,0,0:0:0:0:
329,192,206286,1,0,0:0:0:0:
475,192,206443,1,0,0:0:0:70:kick.wav
256,192,206443,1,0,0:0:0:0:
109,192,206600,1,0,0:0:0:0:
475,192,206757,1,0,0:0:0:70:kick.wav
182,192,206757,1,0,0:0:0:50:bell.wav
329,192,206914,1,0,0:0:0:0:
475,192,207071,1,0,0:0:0:70:kick.wav
256,192,207071,1,0,0:0:0:0:
109,192,207228,1,0,0:0:0:0:
475,192,207385,1,0,0:0:0:70:kick.wav
36,192,207385,1,0,0:0:0:40:bell.wav
256,192,207385,1,0,0:0:0:0:
402,192,207542,1,0,0:0:0:0:
36,192,207699,1,0,0:0:0:70:kick.wav
329,192,207699,1,0,0:0:0:0:
182,192,207857,1,0,0:0:0:0:
36,192,208014,1,0,0:0:0:70:kick.wav
256,192,208014,1,0,0:0:0:30:bell.wav
402,192,208171,1,0,0:0:0:0:
36,192,208328,1,0,0:0:0:70:kick.wav
329,192,208328,1,0,0:0:0:0:
182,192,208485,1,0,0:0:0:0:
36,192,208642,1,0,0:0:0:70:kick.wav
475,192,208642,1,0,0:0:0:20:bell.wav
256,192,208642,1,0,0:0:0:0:
109,192,208799,1,0,0:0:0:0:
475,192,208956,1,0,0:0:0:70:kick.wav
182,192,208956,1,0,0:0:0:0:
329,192,209113,1,0,0:0:0:0:
475,192,209270,1,0,0:0:0:70:kick.wav
256,192,209270,1,0,0:0:0:10:bell.wav
109,192,209427,1,0,0:0:0:0:
475,192,209584,1,0,0:0:0:70:kick.wav
182,192,209584,1,0,0:0:0:0:
329,192,209741,1,0,0:0:0:0:
475,192,209898,1,0,0:0:0:70:kick.wav
36,192,209898,1,0,0:0:0:0:
256,192,209898,1,0,0:0:0:0:
402,192,210055,1,0,0:0:0:0:
36,192,210213,1,0,0:0:0:70:kick.wav
182,192,210213,1,0,0:0:0:0:
329,192,210370,1,0,0:0:0:0:
36,192,210527,1,0,0:0:0:70:kick.wav
256,192,210527,1,0,0:0:0:0:
402,192,210684,1,0,0:0:0:0:
36,192,210841,1,0,0:0:0:70:kick.wav
182,192,210841,1,0,0:0:0:0:
329,192,210998,1,0,0:0:0:0:
36,192,211155,128,0,212412:0:0:0:70:kick.wav
475,192,211155,1,0,0:0:0:0:
256,192,211312,1,0,0:0:0:0:
475,192,211469,1,0,0:0:0:70:kick.wav
182,192,211469,1,0,0:0:0:0:
329,192,211626,1,0,0:0:0:0:
475,192,211783,1,0,0:0:0:70:kick.wav
329,192,211783,1,0,0:0:0:0:
182,192,211940,1,0,0:0:0:0:
256,192,212097,1,0,0:0:0:70:kick.wav
329,192,212150,1,0,0:0:0:0:
402,192,212202,1,0,0:0:0:0:
475,192,212254,1,0,0:0:0:0:
109,192,212412,128,0,213668:0:0:0:70:kick.wav
402,192,212412,1,0,0:0:0:0:
329,192,212569,1,0,0:0:0:0:
475,192,212726,1,0,0:0:0:70:kick.wav
182,192,212726,1,0,0:0:0:0:
256,192,212883,1,0,0:0:0:0:
256,192,213040,1,0,0:0:0:70:kick.wav
475,192,213040,1,0,0:0:0:0:
329,192,213197,1,0,0:0:0:0:
475,192,213354,1,0,0:0:0:70:kick.wav
402,192,213406,1,0,0:0:0:0:
329,192,213459,1,0,0:0:0:0:
256,192,213511,1,0,0:0:0:0:
182,192,213668,128,0,214925:0:0:0:70:kick.wav
329,192,213668,1,0,0:0:0:0:
475,192,213825,1,0,0:0:0:0:
256,192,213982,1,0,0:0:0:70:kick.wav
402,192,213982,1,0,0:0:0:0:
329,192,214139,1,0,0:0:0:0:
475,192,214296,1,0,0:0:0:70:kick.wav
329,192,214296,1,0,0:0:0:0:
402,192,214453,1,0,0:0:0:0:
256,192,214610,1,0,0:0:0:70:kick.wav
329,192,214663,1,0,0:0:0:0:
402,192,214715,1,0,0:0:0:0:
475,192,214768,1,0,0:0:0:0:
109,192,214925,128,0,216181:0:0:0:70:kick.wav
329,192,214925,1,0,0:0:0:0:
402,192,215082,1,0,0:0:0:0:
329,192,215239,1,0,0:0:0:70:kick.wav
182,192,215239,1,0,0:0:0:0:
475,192,215396,1,0,0:0:0:0:
402,192,215553,1,0,0:0:0:70:kick.wav
256,192,215553,1,0,0:0:0:0:
182,192,215710,1,0,0:0:0:0:
329,192,215867,1,0,0:0:0:70:kick.wav
475,192,215867,1,0,0:0:0:0:
182,192,216024,1,0,0:0:0:0:
256,192,216181,1,0,0:0:0:70:kick.wav
475,192,216181,1,0,0:0:0:70:crash-cymbol.wav
36,192,216181,1,0,0:0:0:60:bell.wav
329,192,216181,1,0,0:0:0:0:
402,192,216338,1,0,0:0:0:70:kick.wav
182,192,216338,1,0,0:0:0:0:
36,192,216495,1,0,0:0:0:70:kick.wav
256,192,216495,1,0,0:0:0:0:
329,192,216652,1,0,0:0:0:70:kick.wav
109,192,216652,1,0,0:0:0:0:
36,192,216809,1,0,0:0:0:70:kick.wav
256,192,216809,1,0,0:0:0:50:bell.wav
402,192,216966,1,0,0:0:0:70:kick.wav
109,192,216966,1,0,0:0:0:0:
36,192,217124,1,0,0:0:0:70:kick.wav
329,192,217124,1,0,0:0:0:0:
475,192,217281,1,0,0:0:0:70:kick.wav
182,192,217281,1,0,0:0:0:0:
36,192,217438,1,0,0:0:0:70:kick.wav
256,192,217438,1,0,0:0:0:40:bell.wav
475,192,217438,1,0,0:0:0:0:
329,192,217595,1,0,0:0:0:70:kick.wav
109,192,217595,1,0,0:0:0:0:
256,192,217752,1,0,0:0:0:70:kick.wav
475,192,217752,1,0,0:0:0:0:
182,192,217909,1,0,0:0:0:70:kick.wav
402,192,217909,1,0,0:0:0:0:
256,192,218066,1,0,0:0:0:70:kick.wav
475,192,218066,1,0,0:0:0:30:bell.wav
402,192,218223,1,0,0:0:0:70:kick.wav
109,192,218223,1,0,0:0:0:0:
475,192,218380,1,0,0:0:0:70:kick.wav
182,192,218380,1,0,0:0:0:0:
329,192,218537,1,0,0:0:0:70:kick.wav
109,192,218537,1,0,0:0:0:0:
475,192,218694,1,0,0:0:0:70:kick.wav
182,192,218694,1,0,0:0:0:70:crash-cymbol.wav
402,192,218694,1,0,0:0:0:20:bell.wav
36,192,218694,1,0,0:0:0:0:
109,192,218851,5,0,0:0:0:70:kick.wav
256,192,218851,1,0,0:0:0:0:
182,192,219008,5,0,0:0:0:70:kick.wav
475,192,219008,1,0,0:0:0:0:
329,192,219008,1,0,0:0:0:0:
256,192,219165,1,0,0:0:0:70:kick.wav
109,192,219165,1,0,0:0:0:0:
402,192,219323,1,0,0:0:0:70:kick.wav
475,192,219323,1,0,0:0:0:10:bell.wav
182,192,219323,1,0,0:0:0:0:
36,192,219480,5,0,0:0:0:70:kick.wav
256,192,219480,1,0,0:0:0:0:
329,192,219637,1,0,0:0:0:70:kick.wav
182,192,219637,1,0,0:0:0:0:
475,192,219637,1,0,0:0:0:0:
36,192,219794,1,0,0:0:0:70:kick.wav
402,192,219794,1,0,0:0:0:0:
402,192,219951,5,0,0:0:0:70:kick.wav
182,192,219951,1,0,0:0:0:0:
36,192,219951,1,0,0:0:0:0:
475,192,220108,5,0,0:0:0:70:kick.wav
256,192,220108,1,0,0:0:0:0:
329,192,220265,5,0,0:0:0:70:kick.wav
36,192,220265,1,0,0:0:0:0:
182,192,220265,1,0,0:0:0:0:
475,192,220422,1,0,0:0:0:70:kick.wav
109,192,220422,1,0,0:0:0:0:
402,192,220579,1,0,0:0:0:70:kick.wav
36,192,220579,1,0,0:0:0:0:
256,192,220579,1,0,0:0:0:0:
475,192,220736,5,0,0:0:0:70:kick.wav
182,192,220736,1,0,0:0:0:0:
402,192,220893,1,0,0:0:0:70:kick.wav
36,192,220893,1,0,0:0:0:0:
256,192,220893,1,0,0:0:0:0:
329,192,221050,1,0,0:0:0:70:kick.wav
109,192,221050,1,0,0:0:0:0:
36,192,221207,5,0,0:0:0:70:kick.wav
182,192,221207,1,0,0:0:0:70:crash-cymbol.wav
402,192,221207,1,0,0:0:0:0:
256,192,221207,1,0,0:0:0:0:
475,192,221207,1,0,0:0:0:0:
329,192,221364,1,0,0:0:0:70:kick.wav
109,192,221364,1,0,0:0:0:0:
182,192,221521,1,0,0:0:0:70:kick.wav
475,192,221521,1,0,0:0:0:0:
256,192,221521,1,0,0:0:0:0:
36,192,221679,1,0,0:0:0:70:kick.wav
329,192,221679,1,0,0:0:0:0:
36,192,221836,1,0,0:0:0:70:crash-cymbol.wav
182,192,221836,1,0,0:0:0:70:kick.wav
329,192,221836,1,0,0:0:0:0:
475,192,221836,1,0,0:0:0:0:
109,192,221993,1,0,0:0:0:70:kick.wav
256,192,221993,1,0,0:0:0:0:
182,192,222150,1,0,0:0:0:70:kick.wav
402,192,222150,1,0,0:0:0:0:
475,192,222150,1,0,0:0:0:0:
109,192,222307,1,0,0:0:0:70:kick.wav
329,192,222307,1,0,0:0:0:0:
36,192,222464,1,0,0:0:0:70:crash-cymbol.wav
475,192,222464,1,0,0:0:0:70:kick.wav
256,192,222464,1,0,0:0:0:0:
182,192,222464,1,0,0:0:0:0:
402,192,222542,1,0,0:0:0:0:
109,192,222621,1,0,0:0:0:70:kick.wav
329,192,222621,1,0,0:0:0:0:
256,192,222699,1,0,0:0:0:0:
402,192,222778,1,0,0:0:0:70:kick.wav
182,192,222778,1,0,0:0:0:0:
36,192,222778,1,0,0:0:0:0:
109,192,222857,1,0,0:0:0:70:kick.wav
475,192,222935,1,0,0:0:0:70:kick.wav
182,192,222935,1,0,0:0:0:0:
256,192,223014,1,0,0:0:0:70:kick.wav
402,192,223092,1,0,0:0:0:70:kick.wav
36,192,223092,1,0,0:0:0:70:crash-cymbol.wav
109,192,223092,1,0,0:0:0:0:
329,192,223092,1,0,0:0:0:0:
256,192,223171,1,0,0:0:0:70:kick.wav
475,192,223249,1,0,0:0:0:70:kick.wav
182,192,223249,1,0,0:0:0:0:
109,192,223328,1,0,0:0:0:70:kick.wav
329,192,223406,1,0,0:0:0:70:kick.wav
475,192,223406,1,0,0:0:0:0:
36,192,223406,1,0,0:0:0:0:
256,192,223459,1,0,0:0:0:0:
182,192,223511,1,0,0:0:0:0:
109,192,223563,1,0,0:0:0:70:kick.wav
402,192,223563,1,0,0:0:0:0:
256,192,223642,1,0,0:0:0:70:kick.wav
36,192,223720,5,0,0:0:0:70:kick.wav
475,192,223720,1,0,0:0:0:70:crash-cymbol.wav
109,192,223799,1,0,0:0:0:70:kick.wav
402,192,223799,1,0,0:0:0:0:
182,192,223877,1,0,0:0:0:70:kick.wav
329,192,223877,1,0,0:0:0:0:
36,192,223956,1,0,0:0:0:70:kick.wav
402,192,223956,1,0,0:0:0:0:
109,192,224035,1,0,0:0:0:70:kick.wav
475,192,224035,1,0,0:0:0:0:
182,192,224113,1,0,0:0:0:70:kick.wav
402,192,224113,1,0,0:0:0:0:
36,192,224192,1,0,0:0:0:70:kick.wav
329,192,224192,1,0,0:0:0:0:
109,192,224270,1,0,0:0:0:70:kick.wav
402,192,224270,1,0,0:0:0:0:
182,192,224349,1,0,0:0:0:70:crash-cymbol.wav
475,192,224349,1,0,0:0:0:70:kick.wav
36,192,224427,1,0,0:0:0:70:kick.wav
329,192,224427,1,0,0:0:0:0:
109,192,224506,1,0,0:0:0:70:kick.wav
475,192,224506,1,0,0:0:0:0:
182,192,224584,1,0,0:0:0:70:kick.wav
329,192,224584,1,0,0:0:0:0:
36,192,224663,1,0,0:0:0:70:kick.wav
475,192,224663,1,0,0:0:0:0:
402,192,224702,1,0,0:0:0:0:
329,192,224741,1,0,0:0:0:0:
109,192,224820,1,0,0:0:0:0:
402,192,224820,1,0,0:0:0:0:
182,192,224859,1,0,0:0:0:0:
256,192,224898,1,0,0:0:0:0:
36,192,224977,1,0,0:0:0:70:kick.wav
329,192,224977,1,0,0:0:0:0:
475,192,224977,1,0,0:0:0:0:
182,192,224977,1,0,0:0:0:0:
109,192,225134,1,0,0:0:0:0:
402,192,225134,1,0,0:0:0:0:
182,192,225291,128,0,225605:0:0:0:0:
329,192,225291,128,0,225605:0:0:0:0:
475,192,225448,1,0,0:0:0:0:
109,192,225605,128,0,225919:0:0:0:0:
256,192,225605,128,0,225919:0:0:0:0:
402,192,225762,1,0,0:0:0:0:
36,192,225919,128,0,226234:0:0:0:70:snare.wav
182,192,225919,128,0,226234:0:0:0:70:cymbol.wav
475,192,225919,1,0,0:0:0:70:drum.wav
329,192,226076,1,0,0:0:0:0:
475,192,226234,1,0,0:0:0:70:crash-cymbol.wav
256,192,226234,1,0,0:0:0:70:kick.wav
109,192,226234,1,0,0:0:0:0:
402,192,226234,1,0,0:0:0:0:
182,192,226391,1,0,0:0:0:35:hihat.wav
329,192,226548,128,0,226705:0:0:0:70:snare.wav
36,192,226548,1,0,0:0:0:70:kick.wav
256,192,226548,1,0,0:0:0:0:
402,192,226705,128,0,227019:0:0:0:35:hihat.wav
109,192,226705,1,0,0:0:0:0:
329,192,226862,128,0,227019:0:0:0:70:kick.wav
182,192,226862,1,0,0:0:0:50:bell.wav
109,192,227019,1,0,0:0:0:35:hihat.wav
36,192,227176,1,0,0:0:0:70:snare.wav
256,192,227176,1,0,0:0:0:70:kick.wav
475,192,227176,1,0,0:0:0:0:
402,192,227333,1,0,0:0:0:35:hihat.wav
329,192,227490,128,0,228118:0:0:0:70:kick.wav
109,192,227490,1,0,0:0:0:40:bell.wav
182,192,227647,1,0,0:0:0:35:hihat.wav
256,192,227804,128,0,228432:0:0:0:70:snare.wav
402,192,227804,1,0,0:0:0:70:kick.wav
36,192,227804,1,0,0:0:0:0:
109,192,227961,1,0,0:0:0:35:hihat.wav
182,192,228118,128,0,228747:0:0:0:70:kick.wav
475,192,228118,1,0,0:0:0:30:bell.wav
402,192,228275,1,0,0:0:0:35:hihat.wav
329,192,228432,128,0,228747:0:0:0:70:snare.wav
36,192,228432,1,0,0:0:0:70:kick.wav
475,192,228432,1,0,0:0:0:0:
402,192,228590,1,0,0:0:0:35:hihat.wav
256,192,228747,1,0,0:0:0:70:kick.wav
109,192,228747,1,0,0:0:0:20:bell.wav
36,192,228747,1,0,0:0:0:0:
329,192,228904,1,0,0:0:0:35:hihat.wav
402,192,229061,1,0,0:0:0:70:snare.wav
109,192,229061,128,0,229218:0:0:0:70:kick.wav
475,192,229061,1,0,0:0:0:0:
182,192,229218,128,0,229375:0:0:0:35:hihat.wav
329,192,229218,1,0,0:0:0:0:
256,192,229375,128,0,229532:0:0:0:70:kick.wav
402,192,229375,1,0,0:0:0:10:bell.wav
475,192,229532,1,0,0:0:0:35:hihat.wav
182,192,229689,128,0,229846:0:0:0:70:snare.wav
256,192,229689,1,0,0:0:0:70:kick.wav
402,192,229689,1,0,0:0:0:0:
109,192,229846,128,0,230003:0:0:0:35:hihat.wav
329,192,229846,1,0,0:0:0:0:
36,192,230003,128,0,230160:0:0:0:70:kick.wav
256,192,230003,1,0,0:0:0:0:
475,192,230003,1,0,0:0:0:0:
329,192,230160,1,0,0:0:0:35:hihat.wav
36,192,230317,128,0,230474:0:0:0:70:snare.wav
402,192,230317,1,0,0:0:0:70:kick.wav
256,192,230317,1,0,0:0:0:0:
182,192,230474,1,0,0:0:0:35:hihat.wav
109,192,230631,128,0,230788:0:0:0:70:kick.wav
329,192,230631,1,0,0:0:0:0:
475,192,230788,1,0,0:0:0:35:hihat.wav
109,192,230946,128,0,231103:0:0:0:70:snare.wav
256,192,230946,1,0,0:0:0:70:kick.wav
402,192,230946,1,0,0:0:0:0:
402,192,231103,1,0,0:0:0:70:snare.wav
256,192,231103,1,0,0:0:0:0:
182,192,231260,1,0,0:0:0:70:kick.wav
402,192,231260,1,0,0:0:0:0:
36,192,231260,128,0,231417:0:0:0:0:
256,192,231417,1,0,0:0:0:35:hihat.wav
402,192,231574,1,0,0:0:0:70:kick.wav
329,192,231574,1,0,0:0:0:70:snare.wav
109,192,231574,128,0,231731:0:0:0:0:
182,192,231731,128,0,231888:0:0:0:35:hihat.wav
36,192,231888,1,0,0:0:0:70:kick.wav
256,192,231888,1,0,0:0:0:0:
402,192,232045,1,0,0:0:0:35:hihat.wav
329,192,232202,1,0,0:0:0:70:snare.wav
475,192,232202,1,0,0:0:0:70:kick.wav
256,192,232254,1,0,0:0:0:0:
182,192,232307,1,0,0:0:0:0:
109,192,232359,1,0,0:0:0:35:hihat.wav
329,192,232516,1,0,0:0:0:70:kick.wav
36,192,232516,1,0,0:0:0:0:
475,192,232516,128,0,232673:0:0:0:0:
256,192,232673,1,0,0:0:0:35:hihat.wav
182,192,232830,1,0,0:0:0:70:kick.wav
109,192,232830,1,0,0:0:0:70:snare.wav
402,192,232830,128,0,232987:0:0:0:0:
329,192,232987,128,0,233145:0:0:0:35:hihat.wav
256,192,233145,1,0,0:0:0:70:kick.wav
475,192,233145,1,0,0:0:0:0:
109,192,233302,1,0,0:0:0:35:hihat.wav
36,192,233459,1,0,0:0:0:70:kick.wav
182,192,233459,1,0,0:0:0:70:snare.wav
256,192,233511,1,0,0:0:0:0:
329,192,233563,1,0,0:0:0:0:
402,192,233616,1,0,0:0:0:35:hihat.wav
182,192,233773,1,0,0:0:0:70:kick.wav
475,192,233773,1,0,0:0:0:0:
36,192,233773,128,0,233930:0:0:0:0:
256,192,233930,1,0,0:0:0:35:hihat.wav
475,192,234087,1,0,0:0:0:70:snare.wav
329,192,234087,1,0,0:0:0:70:kick.wav
109,192,234087,128,0,234244:0:0:0:0:
182,192,234244,128,0,234401:0:0:0:35:hihat.wav
402,192,234401,1,0,0:0:0:70:kick.wav
36,192,234401,1,0,0:0:0:0:
256,192,234558,1,0,0:0:0:35:hihat.wav
109,192,234715,1,0,0:0:0:70:snare.wav
329,192,234715,1,0,0:0:0:70:kick.wav
402,192,234768,1,0,0:0:0:0:
329,192,234820,1,0,0:0:0:0:
256,192,234872,1,0,0:0:0:35:hihat.wav
475,192,235029,1,0,0:0:0:70:kick.wav
36,192,235029,128,0,235186:0:0:0:0:
109,192,235029,128,0,235186:0:0:0:0:
402,192,235186,1,0,0:0:0:35:hihat.wav
109,192,235343,128,0,235501:0:0:0:70:snare.wav
182,192,235343,128,0,235501:0:0:0:70:kick.wav
329,192,235343,1,0,0:0:0:0:
402,192,235501,1,0,0:0:0:35:hihat.wav
182,192,235658,128,0,235815:0:0:0:70:kick.wav
256,192,235658,128,0,235815:0:0:0:0:
475,192,235658,1,0,0:0:0:0:
329,192,235815,1,0,0:0:0:35:hihat.wav
36,192,235972,128,0,236286:0:0:0:70:snare.wav
475,192,235972,1,0,0:0:0:70:kick.wav
109,192,235972,128,0,236286:0:0:0:0:
402,192,236050,1,0,0:0:0:0:
329,192,236129,1,0,0:0:0:70:kick.wav
256,192,236207,1,0,0:0:0:0:
475,192,236286,1,0,0:0:0:70:kick.wav
182,192,236286,1,0,0:0:0:70:crash-cymbol.wav
402,192,236286,1,0,0:0:0:60:bell.wav
329,192,236443,1,0,0:0:0:35:hihat.wav
475,192,236600,1,0,0:0:0:70:snare.wav
182,192,236600,128,0,236757:0:0:0:70:kick.wav
256,192,236600,1,0,0:0:0:0:
109,192,236757,128,0,237071:0:0:0:35:hihat.wav
402,192,236757,1,0,0:0:0:0:
329,192,236914,1,0,0:0:0:70:kick.wav
182,192,236914,128,0,237071:0:0:0:50:bell.wav
402,192,237071,1,0,0:0:0:35:hihat.wav
475,192,237228,1,0,0:0:0:70:snare.wav
36,192,237228,1,0,0:0:0:70:kick.wav
109,192,237385,1,0,0:0:0:35:hihat.wav
182,192,237542,128,0,238171:0:0:0:70:kick.wav
329,192,237542,1,0,0:0:0:40:bell.wav
402,192,237699,1,0,0:0:0:35:hihat.wav
475,192,237857,1,0,0:0:0:70:snare.wav
109,192,237857,1,0,0:0:0:70:kick.wav
256,192,237857,128,0,238485:0:0:0:0:
402,192,238014,1,0,0:0:0:35:hihat.wav
36,192,238171,1,0,0:0:0:70:kick.wav
329,192,238171,128,0,238799:0:0:0:30:bell.wav
109,192,238328,1,0,0:0:0:35:hihat.wav
182,192,238485,128,0,238799:0:0:0:70:snare.wav
475,192,238485,1,0,0:0:0:70:kick.wav
36,192,238485,1,0,0:0:0:0:
109,192,238642,1,0,0:0:0:35:hihat.wav
475,192,238799,1,0,0:0:0:70:kick.wav
402,192,238799,1,0,0:0:0:20:bell.wav
256,192,238799,1,0,0:0:0:0:
182,192,238956,1,0,0:0:0:35:hihat.wav
109,192,239113,1,0,0:0:0:70:snare.wav
402,192,239113,128,0,239270:0:0:0:70:kick.wav
36,192,239113,1,0,0:0:0:0:
329,192,239270,128,0,239427:0:0:0:35:hihat.wav
182,192,239270,1,0,0:0:0:0:
109,192,239427,1,0,0:0:0:70:kick.wav
256,192,239427,128,0,239584:0:0:0:10:bell.wav
36,192,239584,1,0,0:0:0:35:hihat.wav
109,192,239741,1,0,0:0:0:70:snare.wav
256,192,239741,1,0,0:0:0:70:kick.wav
329,192,239741,128,0,239898:0:0:0:0:
402,192,239898,128,0,240055:0:0:0:35:hihat.wav
182,192,239898,1,0,0:0:0:0:
36,192,240055,1,0,0:0:0:70:kick.wav
256,192,240055,1,0,0:0:0:0:
475,192,240055,128,0,240213:0:0:0:0:
182,192,240213,1,0,0:0:0:35:hihat.wav
475,192,240370,128,0,240527:0:0:0:70:snare.wav
109,192,240370,1,0,0:0:0:70:kick.wav
256,192,240370,1,0,0:0:0:0:
329,192,240527,1,0,0:0:0:35:hihat.wav
182,192,240684,1,0,0:0:0:70:kick.wav
402,192,240684,128,0,240841:0:0:0:0:
36,192,240841,1,0,0:0:0:35:hihat.wav
256,192,240998,1,0,0:0:0:70:snare.wav
402,192,240998,128,0,241155:0:0:0:70:kick.wav
109,192,240998,1,0,0:0:0:0:
256,192,241155,1,0,0:0:0:70:snare.wav
109,192,241155,1,0,0:0:0:0:
329,192,241312,1,0,0:0:0:70:crash-cymbol.wav
109,192,241312,1,0,0:0:0:70:kick.wav
475,192,241312,128,0,241469:0:0:0:0:
256,192,241469,1,0,0:0:0:35:hihat.wav
182,192,241626,1,0,0:0:0:70:kick.wav
109,192,241626,1,0,0:0:0:70:snare.wav
402,192,241626,128,0,241783:0:0:0:0:
329,192,241783,128,0,241940:0:0:0:35:hihat.wav
256,192,241940,1,0,0:0:0:70:kick.wav
36,192,241940,1,0,0:0:0:0:
329,192,242097,1,0,0:0:0:35:hihat.wav
402,192,242254,1,0,0:0:0:70:snare.wav
182,192,242254,1,0,0:0:0:70:kick.wav
109,192,242307,1,0,0:0:0:0:
182,192,242359,1,0,0:0:0:0:
256,192,242412,1,0,0:0:0:35:hihat.wav
36,192,242569,128,0,242726:0:0:0:70:kick.wav
475,192,242569,1,0,0:0:0:70:crash-cymbol.wav
329,192,242569,1,0,0:0:0:0:
256,192,242726,1,0,0:0:0:35:hihat.wav
402,192,242883,1,0,0:0:0:70:kick.wav
329,192,242883,1,0,0:0:0:70:snare.wav
109,192,242883,128,0,243040:0:0:0:0:
182,192,243040,128,0,243197:0:0:0:35:hihat.wav
256,192,243197,1,0,0:0:0:70:kick.wav
475,192,243197,1,0,0:0:0:0:
182,192,243354,1,0,0:0:0:35:hihat.wav
109,192,243511,1,0,0:0:0:70:kick.wav
329,192,243511,1,0,0:0:0:70:snare.wav
402,192,243563,1,0,0:0:0:0:
329,192,243616,1,0,0:0:0:0:
256,192,243668,1,0,0:0:0:35:hihat.wav
36,192,243825,1,0,0:0:0:70:kick.wav
182,192,243825,1,0,0:0:0:70:crash-cymbol.wav
475,192,243825,1,0,0:0:0:0:
402,192,243982,1,0,0:0:0:35:hihat.wav
256,192,243982,1,0,0:0:0:0:
329,192,244139,128,0,244296:0:0:0:70:snare.wav
182,192,244139,128,0,244296:0:0:0:70:kick.wav
36,192,244139,1,0,0:0:0:0:
256,192,244296,128,0,244453:0:0:0:35:hihat.wav
109,192,244296,128,0,244453:0:0:0:0:
182,192,244453,128,0,244610:0:0:0:70:kick.wav
36,192,244453,128,0,244610:0:0:0:0:
402,192,244453,1,0,0:0:0:0:
475,192,244610,128,0,244768:0:0:0:35:hihat.wav
329,192,244610,128,0,244768:0:0:0:0:
402,192,244768,128,0,244925:0:0:0:70:snare.wav
256,192,244768,128,0,244925:0:0:0:70:kick.wav
109,192,244768,1,0,0:0:0:0:
182,192,244925,128,0,245082:0:0:0:35:hihat.wav
329,192,244925,128,0,245082:0:0:0:0:
475,192,245082,1,0,0:0:0:70:snare.wav
36,192,245082,128,0,245239:0:0:0:0:
109,192,245082,128,0,245239:0:0:0:0:
256,192,245239,1,0,0:0:0:0:
402,192,245396,1,0,0:0:0:70:snare.wav
36,192,245396,128,0,245553:0:0:0:0:
109,192,245396,128,0,245553:0:0:0:0:
256,192,245553,1,0,0:0:0:0:
109,192,245710,1,0,0:0:0:70:snare.wav
475,192,245710,128,0,245867:0:0:0:0:
402,192,245710,128,0,245867:0:0:0:0:
256,192,245867,5,0,0:0:0:0:
36,192,246024,1,0,0:0:0:70:kick.wav
475,192,246024,128,0,246338:0:0:0:0:
402,192,246024,128,0,246338:0:0:0:0:
109,192,246103,1,0,0:0:0:0:
182,192,246181,1,0,0:0:0:70:kick.wav
256,192,246260,1,0,0:0:0:70:kick.wav
109,192,246338,5,0,0:0:0:70:kick.wav
36,192,246338,1,0,0:0:0:0:
329,192,246338,1,0,0:0:0:0:
402,192,246495,1,0,0:0:0:35:hihat.wav
36,192,246652,1,0,0:0:0:70:kick.wav
109,192,246652,128,0,246809:0:0:0:70:snare.wav
329,192,246652,1,0,0:0:0:0:
475,192,246809,1,0,0:0:0:35:hihat.wav
182,192,246809,128,0,247124:0:0:0:0:
402,192,246966,1,0,0:0:0:70:kick.wav
109,192,246966,128,0,247124:0:0:0:50:bell.wav
256,192,247124,1,0,0:0:0:35:hihat.wav
36,192,247281,1,0,0:0:0:70:kick.wav
475,192,247281,1,0,0:0:0:70:snare.wav
329,192,247281,128,0,247438:0:0:0:0:
402,192,247438,1,0,0:0:0:35:hihat.wav
182,192,247438,128,0,247595:0:0:0:0:
256,192,247595,1,0,0:0:0:70:kick.wav
475,192,247595,128,0,248223:0:0:0:40:bell.wav
109,192,247752,1,0,0:0:0:35:hihat.wav
256,192,247909,1,0,0:0:0:70:kick.wav
402,192,247909,128,0,248537:0:0:0:70:snare.wav
36,192,247909,1,0,0:0:0:0:
182,192,248066,1,0,0:0:0:35:hihat.wav
109,192,248223,1,0,0:0:0:70:kick.wav
329,192,248223,128,0,248851:0:0:0:30:bell.wav
256,192,248380,1,0,0:0:0:35:hihat.wav
182,192,248537,1,0,0:0:0:70:kick.wav
475,192,248537,128,0,248851:0:0:0:70:snare.wav
36,192,248537,1,0,0:0:0:0:
109,192,248694,1,0,0:0:0:35:hihat.wav
402,192,248851,1,0,0:0:0:70:kick.wav
36,192,248851,1,0,0:0:0:20:bell.wav
256,192,248851,1,0,0:0:0:0:
329,192,249008,1,0,0:0:0:35:hihat.wav
402,192,249165,128,0,249323:0:0:0:70:kick.wav
182,192,249165,1,0,0:0:0:70:snare.wav
36,192,249165,1,0,0:0:0:0:
329,192,249323,128,0,249637:0:0:0:35:hihat.wav
256,192,249323,1,0,0:0:0:0:
402,192,249480,128,0,249637:0:0:0:70:kick.wav
109,192,249480,1,0,0:0:0:10:bell.wav
36,192,249637,1,0,0:0:0:35:hihat.wav
402,192,249794,1,0,0:0:0:70:kick.wav
475,192,249794,1,0,0:0:0:70:snare.wav
182,192,249794,128,0,249951:0:0:0:0:
109,192,249951,1,0,0:0:0:35:hihat.wav
329,192,249951,128,0,250108:0:0:0:0:
36,192,250108,128,0,250579:0:0:0:70:kick.wav
256,192,250108,1,0,0:0:0:0:
402,192,250265,1,0,0:0:0:35:hihat.wav
256,192,250422,1,0,0:0:0:70:kick.wav
182,192,250422,128,0,250893:0:0:0:70:snare.wav
475,192,250422,1,0,0:0:0:0:
329,192,250579,1,0,0:0:0:35:hihat.wav
402,192,250736,1,0,0:0:0:70:kick.wav
36,192,250736,128,0,251364:0:0:0:0:
256,192,250893,1,0,0:0:0:35:hihat.wav
182,192,251050,128,0,251364:0:0:0:70:kick.wav
402,192,251050,1,0,0:0:0:70:snare.wav
475,192,251050,1,0,0:0:0:0:
256,192,251207,1,0,0:0:0:70:snare.wav
329,192,251207,1,0,0:0:0:0:
109,192,251364,1,0,0:0:0:70:kick.wav
475,192,251364,1,0,0:0:0:0:
402,192,251364,128,0,251521:0:0:0:0:
256,192,251521,1,0,0:0:0:35:hihat.wav
329,192,251679,128,0,251993:0:0:0:70:snare.wav
475,192,251679,1,0,0:0:0:70:kick.wav
36,192,251679,1,0,0:0:0:0:
182,192,251836,128,0,251993:0:0:0:35:hihat.wav
109,192,251836,1,0,0:0:0:0:
475,192,251993,1,0,0:0:0:70:kick.wav
402,192,251993,1,0,0:0:0:0:
182,192,252150,1,0,0:0:0:35:hihat.wav
329,192,252307,1,0,0:0:0:70:kick.wav
475,192,252307,1,0,0:0:0:70:snare.wav
36,192,252307,1,0,0:0:0:0:
256,192,252359,1,0,0:0:0:0:
182,192,252412,1,0,0:0:0:0:
109,192,252464,1,0,0:0:0:35:hihat.wav
402,192,252621,1,0,0:0:0:70:kick.wav
329,192,252621,128,0,252778:0:0:0:0:
182,192,252778,1,0,0:0:0:35:hihat.wav
256,192,252935,128,0,253249:0:0:0:70:snare.wav
475,192,252935,1,0,0:0:0:70:kick.wav
402,192,252935,1,0,0:0:0:0:
109,192,253092,128,0,253249:0:0:0:35:hihat.wav
36,192,253092,1,0,0:0:0:0:
475,192,253249,1,0,0:0:0:70:kick.wav
329,192,253249,1,0,0:0:0:0:
402,192,253406,1,0,0:0:0:35:hihat.wav
182,192,253563,1,0,0:0:0:70:snare.wav
109,192,253563,1,0,0:0:0:70:kick.wav
36,192,253563,1,0,0:0:0:0:
256,192,253616,1,0,0:0:0:0:
329,192,253668,1,0,0:0:0:0:
402,192,253720,1,0,0:0:0:35:hihat.wav
475,192,253877,1,0,0:0:0:70:kick.wav
256,192,253877,128,0,254035:0:0:0:0:
109,192,254035,1,0,0:0:0:35:hihat.wav
182,192,254192,128,0,254506:0:0:0:70:kick.wav
329,192,254192,1,0,0:0:0:70:snare.wav
475,192,254192,1,0,0:0:0:0:
36,192,254349,128,0,254506:0:0:0:35:hihat.wav
402,192,254349,1,0,0:0:0:0:
256,192,254506,1,0,0:0:0:70:kick.wav
329,192,254506,1,0,0:0:0:0:
182,192,254663,1,0,0:0:0:35:hihat.wav
36,192,254820,1,0,0:0:0:70:kick.wav
329,192,254820,1,0,0:0:0:70:snare.wav
109,192,254820,1,0,0:0:0:0:
402,192,254872,1,0,0:0:0:0:
329,192,254925,1,0,0:0:0:0:
256,192,254977,1,0,0:0:0:35:hihat.wav
475,192,255134,128,0,255762:0:0:0:70:kick.wav
36,192,255134,1,0,0:0:0:0:
109,192,255291,1,0,0:0:0:35:hihat.wav
402,192,255448,128,0,255762:0:0:0:70:kick.wav
182,192,255448,1,0,0:0:0:70:snare.wav
329,192,255448,1,0,0:0:0:0:
256,192,255605,1,0,0:0:0:35:hihat.wav
109,192,255762,1,0,0:0:0:70:kick.wav
36,192,255762,128,0,256391:0:0:0:0:
256,192,255919,1,0,0:0:0:35:hihat.wav
182,192,256076,128,0,256391:0:0:0:70:kick.wav
475,192,256076,1,0,0:0:0:70:snare.wav
402,192,256155,1,0,0:0:0:0:
329,192,256234,1,0,0:0:0:70:kick.wav
256,192,256312,1,0,0:0:0:70:kick.wav
109,192,256391,1,0,0:0:0:70:crash-cymbol.wav
402,192,256391,1,0,0:0:0:70:kick.wav
475,192,256391,1,0,0:0:0:60:bell.wav
182,192,256548,1,0,0:0:0:35:hihat.wav
402,192,256705,128,0,256862:0:0:0:70:kick.wav
475,192,256705,1,0,0:0:0:70:snare.wav
36,192,256705,1,0,0:0:0:0:
256,192,256862,128,0,257176:0:0:0:35:hihat.wav
109,192,256862,1,0,0:0:0:0:
402,192,257019,128,0,257176:0:0:0:70:kick.wav
36,192,257019,1,0,0:0:0:50:bell.wav
182,192,257176,1,0,0:0:0:35:hihat.wav
36,192,257333,1,0,0:0:0:70:kick.wav
109,192,257333,1,0,0:0:0:70:snare.wav
475,192,257333,128,0,257490:0:0:0:0:
256,192,257490,1,0,0:0:0:35:hihat.wav
329,192,257490,128,0,257647:0:0:0:0:
182,192,257647,128,0,258275:0:0:0:70:kick.wav
475,192,257647,1,0,0:0:0:40:bell.wav
402,192,257804,1,0,0:0:0:35:hihat.wav
109,192,257961,128,0,258590:0:0:0:70:kick.wav
475,192,257961,1,0,0:0:0:70:snare.wav
256,192,257961,1,0,0:0:0:0:
329,192,258118,1,0,0:0:0:35:hihat.wav
402,192,258275,1,0,0:0:0:70:kick.wav
36,192,258275,128,0,258904:0:0:0:30:bell.wav
475,192,258432,1,0,0:0:0:35:hihat.wav
182,192,258590,128,0,258904:0:0:0:70:kick.wav
329,192,258590,1,0,0:0:0:70:snare.wav
256,192,258590,1,0,0:0:0:0:
402,192,258747,1,0,0:0:0:35:hihat.wav
329,192,258904,1,0,0:0:0:70:kick.wav
109,192,258904,1,0,0:0:0:20:bell.wav
475,192,258904,1,0,0:0:0:0:
182,192,259061,1,0,0:0:0:35:hihat.wav
402,192,259218,128,0,259375:0:0:0:70:kick.wav
36,192,259218,1,0,0:0:0:70:snare.wav
256,192,259218,1,0,0:0:0:0:
329,192,259375,128,0,259689:0:0:0:35:hihat.wav
109,192,259375,1,0,0:0:0:0:
402,192,259532,128,0,259689:0:0:0:70:kick.wav
182,192,259532,1,0,0:0:0:10:bell.wav
109,192,259689,1,0,0:0:0:35:hihat.wav
475,192,259846,1,0,0:0:0:70:kick.wav
256,192,259846,1,0,0:0:0:70:snare.wav
36,192,259846,128,0,260003:0:0:0:0:
329,192,260003,1,0,0:0:0:35:hihat.wav
182,192,260003,128,0,260160:0:0:0:0:
475,192,260160,128,0,260631:0:0:0:70:kick.wav
36,192,260160,1,0,0:0:0:0:
256,192,260317,1,0,0:0:0:35:hihat.wav
329,192,260474,128,0,260946:0:0:0:70:kick.wav
36,192,260474,1,0,0:0:0:70:snare.wav
182,192,260474,1,0,0:0:0:0:
109,192,260631,1,0,0:0:0:35:hihat.wav
475,192,260788,128,0,261260:0:0:0:70:kick.wav
182,192,260788,1,0,0:0:0:0:
256,192,260946,1,0,0:0:0:35:hihat.wav
329,192,261103,128,0,261417:0:0:0:70:kick.wav
109,192,261103,1,0,0:0:0:70:snare.wav
36,192,261103,1,0,0:0:0:0:
182,192,261260,1,0,0:0:0:70:snare.wav
256,192,261260,1,0,0:0:0:0:
109,192,261417,1,0,0:0:0:70:kick.wav
36,192,261417,1,0,0:0:0:70:crash-cymbol.wav
475,192,261417,128,0,261574:0:0:0:0:
402,192,261574,1,0,0:0:0:35:hihat.wav
329,192,261731,128,0,262045:0:0:0:70:snare.wav
256,192,261731,1,0,0:0:0:70:kick.wav
36,192,261731,1,0,0:0:0:0:
182,192,261888,128,0,262045:0:0:0:35:hihat.wav
109,192,261888,1,0,0:0:0:0:
475,192,262045,1,0,0:0:0:70:kick.wav
36,192,262045,1,0,0:0:0:0:
402,192,262202,1,0,0:0:0:35:hihat.wav
256,192,262359,1,0,0:0:0:70:kick.wav
182,192,262359,1,0,0:0:0:70:snare.wav
36,192,262359,1,0,0:0:0:0:
329,192,262412,1,0,0:0:0:0:
402,192,262464,1,0,0:0:0:0:
475,192,262516,1,0,0:0:0:35:hihat.wav
256,192,262673,1,0,0:0:0:70:kick.wav
329,192,262673,1,0,0:0:0:70:crash-cymbol.wav
36,192,262673,128,0,262830:0:0:0:0:
109,192,262830,1,0,0:0:0:35:hihat.wav
182,192,262987,128,0,263302:0:0:0:70:snare.wav
475,192,262987,1,0,0:0:0:70:kick.wav
256,192,262987,1,0,0:0:0:0:
329,192,263145,128,0,263302:0:0:0:35:hihat.wav
402,192,263145,1,0,0:0:0:0:
36,192,263302,1,0,0:0:0:70:kick.wav
475,192,263302,1,0,0:0:0:0:
256,192,263459,1,0,0:0:0:35:hihat.wav
329,192,263616,1,0,0:0:0:70:snare.wav
182,192,263616,1,0,0:0:0:70:kick.wav
36,192,263616,1,0,0:0:0:0:
402,192,263668,1,0,0:0:0:0:
329,192,263720,1,0,0:0:0:0:
256,192,263773,1,0,0:0:0:35:hihat.wav
182,192,263930,1,0,0:0:0:70:kick.wav
36,192,263930,1,0,0:0:0:70:crash-cymbol.wav
475,192,263930,1,0,0:0:0:0:
256,192,264087,1,0,0:0:0:35:hihat.wav
329,192,264244,128,0,264401:0:0:0:70:kick.wav
475,192,264244,1,0,0:0:0:70:snare.wav
36,192,264244,128,0,264401:0:0:0:0:
256,192,264401,128,0,264558:0:0:0:35:hihat.wav
109,192,264401,128,0,264558:0:0:0:0:
475,192,264558,128,0,264715:0:0:0:70:kick.wav
182,192,264558,128,0,264715:0:0:0:70:crash-cymbol.wav
329,192,264558,1,0,0:0:0:0:
256,192,264715,128,0,264872:0:0:0:35:hihat.wav
402,192,264715,128,0,264872:0:0:0:0:
329,192,264872,128,0,265029:0:0:0:70:kick.wav
36,192,264872,128,0,265029:0:0:0:70:snare.wav
182,192,264872,1,0,0:0:0:0:
256,192,265029,128,0,265186:0:0:0:35:hihat.wav
109,192,265029,128,0,265186:0:0:0:0:
475,192,265186,128,0,265815:0:0:0:70:snare.wav
36,192,265186,1,0,0:0:0:0:
329,192,265186,1,0,0:0:0:0:
256,192,265343,1,0,0:0:0:0:
402,192,265501,128,0,265815:0:0:0:70:snare.wav
182,192,265501,1,0,0:0:0:0:
109,192,265501,1,0,0:0:0:0:
256,192,265658,1,0,0:0:0:0:
329,192,265815,128,0,266443:0:0:0:70:snare.wav
109,192,265815,1,0,0:0:0:0:
36,192,265815,1,0,0:0:0:0:
182,192,265972,1,0,0:0:0:0:
402,192,266129,128,0,266443:0:0:0:70:kick.wav
36,192,266129,1,0,0:0:0:0:
475,192,266129,1,0,0:0:0:0:
109,192,266207,1,0,0:0:0:70:kick.wav
182,192,266286,1,0,0:0:0:70:kick.wav
256,192,266364,1,0,0:0:0:70:kick.wav
109,192,266443,1,0,0:0:0:70:crash-cymbol.wav
475,192,266443,1,0,0:0:0:70:kick.wav
36,192,266443,128,0,266600:0:0:0:0:
329,192,266600,1,0,0:0:0:35:hihat.wav
256,192,266757,128,0,267071:0:0:0:70:snare.wav
475,192,266757,1,0,0:0:0:70:kick.wav
182,192,266757,1,0,0:0:0:0:
402,192,266914,128,0,267228:0:0:0:35:hihat.wav
36,192,266914,1,0,0:0:0:0:
329,192,267071,128,0,267385:0:0:0:70:kick.wav
109,192,267071,1,0,0:0:0:50:bell.wav
475,192,267228,128,0,267542:0:0:0:35:hihat.wav
182,192,267228,1,0,0:0:0:0:
402,192,267385,128,0,267699:0:0:0:70:snare.wav
36,192,267385,1,0,0:0:0:70:kick.wav
109,192,267385,1,0,0:0:0:0:
256,192,267542,128,0,267699:0:0:0:35:hihat.wav
182,192,267542,1,0,0:0:0:0:
36,192,267699,128,0,268328:0:0:0:70:kick.wav
109,192,267699,1,0,0:0:0:40:bell.wav
329,192,267857,1,0,0:0:0:35:hihat.wav
109,192,268014,128,0,268642:0:0:0:70:snare.wav
475,192,268014,1,0,0:0:0:70:kick.wav
402,192,268014,1,0,0:0:0:0:
329,192,268171,1,0,0:0:0:35:hihat.wav
182,192,268328,128,0,268956:0:0:0:70:kick.wav
256,192,268328,1,0,0:0:0:30:bell.wav
402,192,268485,1,0,0:0:0:35:hihat.wav
36,192,268642,128,0,268956:0:0:0:70:snare.wav
475,192,268642,1,0,0:0:0:70:kick.wav
256,192,268642,1,0,0:0:0:0:
329,192,268799,1,0,0:0:0:35:hihat.wav
475,192,268956,128,0,269113:0:0:0:70:kick.wav
109,192,268956,1,0,0:0:0:20:bell.wav
402,192,268956,1,0,0:0:0:0:
182,192,269113,1,0,0:0:0:35:hihat.wav
256,192,269270,128,0,269584:0:0:0:70:snare.wav
36,192,269270,1,0,0:0:0:70:kick.wav
402,192,269270,1,0,0:0:0:0:
109,192,269427,128,0,269741:0:0:0:35:hihat.wav
475,192,269427,1,0,0:0:0:0:
182,192,269584,128,0,269898:0:0:0:70:kick.wav
329,192,269584,1,0,0:0:0:10:bell.wav
36,192,269741,128,0,270055:0:0:0:35:hihat.wav
402,192,269741,1,0,0:0:0:0:
109,192,269898,128,0,270213:0:0:0:70:snare.wav
329,192,269898,1,0,0:0:0:70:kick.wav
475,192,269898,1,0,0:0:0:0:
256,192,270055,128,0,270213:0:0:0:35:hihat.wav
402,192,270055,1,0,0:0:0:0:
475,192,270213,128,0,270684:0:0:0:70:kick.wav
329,192,270213,1,0,0:0:0:0:
182,192,270370,1,0,0:0:0:35:hihat.wav
329,192,270527,128,0,270998:0:0:0:70:snare.wav
36,192,270527,1,0,0:0:0:70:kick.wav
109,192,270527,1,0,0:0:0:0:
256,192,270684,1,0,0:0:0:35:hihat.wav
475,192,270841,128,0,271312:0:0:0:70:kick.wav
109,192,270841,1,0,0:0:0:0:
182,192,270998,1,0,0:0:0:35:hihat.wav
329,192,271155,128,0,271469:0:0:0:70:snare.wav
256,192,271155,1,0,0:0:0:70:kick.wav
36,192,271155,1,0,0:0:0:0:
182,192,271312,1,0,0:0:0:70:snare.wav
109,192,271312,1,0,0:0:0:0:
475,192,271469,1,0,0:0:0:70:kick.wav
256,192,271469,1,0,0:0:0:0:
36,192,271469,128,0,271626:0:0:0:0:
329,192,271626,1,0,0:0:0:35:hihat.wav
182,192,271783,128,0,272097:0:0:0:70:kick.wav
402,192,271783,1,0,0:0:0:70:snare.wav
109,192,271783,1,0,0:0:0:0:
329,192,271940,128,0,272097:0:0:0:35:hihat.wav
36,192,271940,1,0,0:0:0:0:
256,192,272097,1,0,0:0:0:70:kick.wav
475,192,272097,1,0,0:0:0:0:
109,192,272254,1,0,0:0:0:35:hihat.wav
36,192,272412,1,0,0:0:0:70:snare.wav
182,192,272412,1,0,0:0:0:0:
475,192,272412,1,0,0:0:0:0:
402,192,272464,1,0,0:0:0:0:
329,192,272516,1,0,0:0:0:0:
256,192,272569,1,0,0:0:0:35:hihat.wav
475,192,272726,1,0,0:0:0:70:kick.wav
36,192,272726,1,0,0:0:0:0:
109,192,272726,128,0,272883:0:0:0:0:
329,192,272883,1,0,0:0:0:35:hihat.wav
256,192,273040,128,0,273354:0:0:0:70:kick.wav
475,192,273040,1,0,0:0:0:70:snare.wav
36,192,273040,1,0,0:0:0:0:
402,192,273197,128,0,273354:0:0:0:35:hihat.wav
109,192,273197,1,0,0:0:0:0:
475,192,273354,1,0,0:0:0:70:kick.wav
182,192,273354,1,0,0:0:0:0:
329,192,273511,1,0,0:0:0:35:hihat.wav
402,192,273668,1,0,0:0:0:70:kick.wav
36,192,273668,1,0,0:0:0:0:
475,192,273668,1,0,0:0:0:0:
109,192,273720,1,0,0:0:0:0:
182,192,273773,1,0,0:0:0:0:
256,192,273825,1,0,0:0:0:35:hihat.wav
475,192,273982,1,0,0:0:0:70:kick.wav
36,192,273982,1,0,0:0:0:0:
182,192,273982,128,0,274139:0:0:0:0:
402,192,274139,1,0,0:0:0:35:hihat.wav
329,192,274296,128,0,274610:0:0:0:70:snare.wav
109,192,274296,1,0,0:0:0:70:kick.wav
256,192,274296,1,0,0:0:0:0:
475,192,274453,128,0,274610:0:0:0:35:hihat.wav
182,192,274453,1,0,0:0:0:0:
109,192,274610,1,0,0:0:0:70:kick.wav
36,192,274610,1,0,0:0:0:0:
329,192,274768,1,0,0:0:0:35:hihat.wav
182,192,274925,1,0,0:0:0:70:snare.wav
475,192,274925,1,0,0:0:0:0:
402,192,274925,1,0,0:0:0:0:
109,192,274977,1,0,0:0:0:0:
182,192,275029,1,0,0:0:0:0:
256,192,275082,1,0,0:0:0:35:hihat.wav
402,192,275239,128,0,275867:0:0:0:70:kick.wav
36,192,275239,1,0,0:0:0:0:
256,192,275396,1,0,0:0:0:0:
475,192,275553,128,0,275867:0:0:0:70:snare.wav
36,192,275553,1,0,0:0:0:70:kick.wav
182,192,275553,1,0,0:0:0:0:
256,192,275710,1,0,0:0:0:0:
109,192,275867,128,0,276495:0:0:0:70:kick.wav
329,192,275867,1,0,0:0:0:0:
182,192,276024,1,0,0:0:0:0:
36,192,276181,128,0,276495:0:0:0:70:snare.wav
256,192,276181,1,0,0:0:0:70:kick.wav
475,192,276181,1,0,0:0:0:0:
402,192,276260,1,0,0:0:0:0:
329,192,276338,1,0,0:0:0:70:kick.wav
256,192,276417,1,0,0:0:0:0:
182,192,276495,1,0,0:0:0:70:kick.wav
402,192,276495,1,0,0:0:0:70:crash-cymbol.wav
475,192,276495,128,0,276652:0:0:0:60:bell.wav
329,192,276652,1,0,0:0:0:35:hihat.wav
109,192,276809,128,0,277124:0:0:0:70:snare.wav
475,192,276809,1,0,0:0:0:70:kick.wav
36,192,276809,1,0,0:0:0:0:
402,192,276809,1,0,0:0:0:0:
256,192,276966,128,0,277281:0:0:0:35:hihat.wav
329,192,276966,1,0,0:0:0:0:
36,192,277124,128,0,277438:0:0:0:70:kick.wav
475,192,277124,1,0,0:0:0:50:bell.wav
182,192,277281,128,0,277595:0:0:0:35:hihat.wav
402,192,277281,1,0,0:0:0:0:
109,192,277438,128,0,277752:0:0:0:70:snare.wav
475,192,277438,1,0,0:0:0:70:kick.wav
329,192,277438,1,0,0:0:0:0:
256,192,277595,128,0,277752:0:0:0:35:hihat.wav
402,192,277595,1,0,0:0:0:0:
475,192,277752,128,0,278380:0:0:0:70:kick.wav
36,192,277752,1,0,0:0:0:40:bell.wav
109,192,277909,1,0,0:0:0:35:hihat.wav
402,192,278066,128,0,278694:0:0:0:70:snare.wav
256,192,278066,1,0,0:0:0:70:kick.wav
36,192,278066,1,0,0:0:0:0:
182,192,278223,1,0,0:0:0:35:hihat.wav
329,192,278380,128,0,279008:0:0:0:70:kick.wav
109,192,278380,1,0,0:0:0:30:bell.wav
256,192,278537,1,0,0:0:0:35:hihat.wav
475,192,278694,128,0,279008:0:0:0:70:snare.wav
109,192,278694,1,0,0:0:0:70:kick.wav
36,192,278694,1,0,0:0:0:0:
182,192,278851,1,0,0:0:0:35:hihat.wav
109,192,279008,1,0,0:0:0:70:kick.wav
402,192,279008,1,0,0:0:0:70:crash-cymbol.wav
256,192,279008,1,0,0:0:0:20:bell.wav
36,192,279008,128,0,279165:0:0:0:0:
182,192,279165,1,0,0:0:0:35:hihat.wav
402,192,279323,128,0,279637:0:0:0:70:snare.wav
475,192,279323,1,0,0:0:0:70:kick.wav
36,192,279323,1,0,0:0:0:0:
256,192,279480,128,0,279794:0:0:0:35:hihat.wav
109,192,279480,1,0,0:0:0:0:
475,192,279637,128,0,279951:0:0:0:70:kick.wav
182,192,279637,1,0,0:0:0:10:bell.wav
329,192,279794,128,0,280108:0:0:0:35:hihat.wav
109,192,279794,1,0,0:0:0:0:
402,192,279951,128,0,280265:0:0:0:70:snare.wav
182,192,279951,1,0,0:0:0:70:kick.wav
36,192,279951,1,0,0:0:0:0:
256,192,280108,128,0,280265:0:0:0:35:hihat.wav
109,192,280108,1,0,0:0:0:0:
36,192,280265,128,0,280736:0:0:0:70:kick.wav
475,192,280265,1,0,0:0:0:0:
402,192,280422,1,0,0:0:0:35:hihat.wav
182,192,280579,128,0,281050:0:0:0:70:snare.wav
256,192,280579,1,0,0:0:0:70:kick.wav
329,192,280579,1,0,0:0:0:0:
402,192,280736,1,0,0:0:0:35:hihat.wav
36,192,280893,128,0,281364:0:0:0:70:kick.wav
475,192,280893,1,0,0:0:0:0:
329,192,281050,1,0,0:0:0:35:hihat.wav
182,192,281207,128,0,281521:0:0:0:70:snare.wav
256,192,281207,1,0,0:0:0:70:kick.wav
402,192,281207,1,0,0:0:0:0:
475,192,281364,1,0,0:0:0:70:snare.wav
329,192,281364,1,0,0:0:0:0:
109,192,281521,1,0,0:0:0:70:crash-cymbol.wav
256,192,281521,1,0,0:0:0:70:kick.wav
402,192,281521,1,0,0:0:0:70:snare.wav
36,192,281521,128,0,281679:0:0:0:0:
329,192,281679,1,0,0:0:0:35:hihat.wav
109,192,281836,128,0,282150:0:0:0:70:kick.wav
256,192,281836,1,0,0:0:0:70:snare.wav
475,192,281836,1,0,0:0:0:0:
182,192,281993,128,0,282150:0:0:0:35:hihat.wav
402,192,281993,1,0,0:0:0:0:
475,192,282150,1,0,0:0:0:70:kick.wav
329,192,282150,1,0,0:0:0:70:snare.wav
36,192,282150,1,0,0:0:0:0:
182,192,282307,1,0,0:0:0:35:hihat.wav
329,192,282464,1,0,0:0:0:70:snare.wav
109,192,282464,1,0,0:0:0:70:kick.wav
36,192,282464,1,0,0:0:0:0:
402,192,282516,1,0,0:0:0:0:
329,192,282569,1,0,0:0:0:0:
256,192,282621,1,0,0:0:0:35:hihat.wav
182,192,282778,1,0,0:0:0:70:kick.wav
36,192,282778,1,0,0:0:0:70:crash-cymbol.wav
402,192,282778,1,0,0:0:0:70:snare.wav
475,192,282778,128,0,282935:0:0:0:0:
109,192,282935,1,0,0:0:0:35:hihat.wav
182,192,283092,1,0,0:0:0:70:kick.wav
402,192,283092,128,0,283406:0:0:0:70:snare.wav
256,192,283092,1,0,0:0:0:0:
329,192,283249,128,0,283406:0:0:0:35:hihat.wav
109,192,283249,1,0,0:0:0:0:
256,192,283406,1,0,0:0:0:70:kick.wav
36,192,283406,1,0,0:0:0:70:snare.wav
475,192,283406,1,0,0:0:0:0:
109,192,283563,1,0,0:0:0:35:hihat.wav
475,192,283720,1,0,0:0:0:70:kick.wav
36,192,283720,1,0,0:0:0:70:snare.wav
256,192,283720,1,0,0:0:0:0:
329,192,283773,1,0,0:0:0:0:
402,192,283825,1,0,0:0:0:0:
329,192,283877,1,0,0:0:0:35:hihat.wav
109,192,284035,1,0,0:0:0:70:kick.wav
256,192,284035,1,0,0:0:0:70:crash-cymbol.wav
475,192,284035,1,0,0:0:0:70:snare.wav
36,192,284035,1,0,0:0:0:0:
329,192,284192,1,0,0:0:0:35:hihat.wav
109,192,284192,1,0,0:0:0:70:kick.wav
182,192,284192,1,0,0:0:0:0:
402,192,284349,1,0,0:0:0:70:snare.wav
182,192,284349,1,0,0:0:0:70:kick.wav
256,192,284349,1,0,0:0:0:0:
256,192,284506,1,0,0:0:0:35:hihat.wav
329,192,284506,1,0,0:0:0:70:kick.wav
475,192,284506,1,0,0:0:0:0:
36,192,284663,1,0,0:0:0:70:kick.wav
402,192,284663,1,0,0:0:0:70:snare.wav
329,192,284663,1,0,0:0:0:0:
256,192,284741,1,0,0:0:0:70:kick.wav
109,192,284741,1,0,0:0:0:0:
182,192,284820,1,0,0:0:0:35:hihat.wav
475,192,284820,1,0,0:0:0:70:kick.wav
109,192,284898,1,0,0:0:0:70:kick.wav
402,192,284898,1,0,0:0:0:0:
36,192,284977,1,0,0:0:0:70:snare.wav
329,192,284977,1,0,0:0:0:70:kick.wav
256,192,285055,1,0,0:0:0:70:kick.wav
475,192,285055,1,0,0:0:0:0:
182,192,285134,1,0,0:0:0:35:hihat.wav
402,192,285134,1,0,0:0:0:70:kick.wav
329,192,285213,1,0,0:0:0:70:kick.wav
109,192,285213,1,0,0:0:0:0:
36,192,285291,128,0,285605:0:0:0:0:
475,192,285291,128,0,285605:0:0:0:0:
256,192,285291,1,0,0:0:0:0:
109,192,285605,128,0,285919:0:0:0:0:
402,192,285605,128,0,285919:0:0:0:0:
256,192,285605,1,0,0:0:0:0:
256,192,285762,1,0,0:0:0:0:
182,192,285919,128,0,286234:0:0:0:0:
329,192,285919,128,0,286234:0:0:0:0:
402,192,286234,128,0,286548:0:0:0:70:drum.wav
109,192,286234,128,0,286548:0:0:0:70:cymbol.wav
36,192,286234,1,0,0:0:0:0:
475,192,286234,1,0,0:0:0:0:
256,192,286391,1,0,0:0:0:0:
36,192,286548,5,0,0:0:0:70:kick.wav
182,192,286548,1,0,0:0:0:70:crash-cymbol.wav
475,192,286548,1,0,0:0:0:70:snare.wav
329,192,286548,1,0,0:0:0:0:
256,192,286705,1,0,0:0:0:0:
402,192,286705,1,0,0:0:0:0:
36,192,286862,128,0,287176:0:0:0:70:snare.wav
182,192,286862,128,0,287176:0:0:0:70:kick.wav
329,192,286862,1,0,0:0:0:0:
402,192,287019,1,0,0:0:0:0:
475,192,287176,1,0,0:0:0:70:kick.wav
329,192,287176,1,0,0:0:0:70:snare.wav
182,192,287333,1,0,0:0:0:0:
36,192,287333,1,0,0:0:0:0:
329,192,287490,128,0,287804:0:0:0:70:snare.wav
475,192,287490,128,0,287804:0:0:0:70:kick.wav
109,192,287490,1,0,0:0:0:0:
182,192,287647,1,0,0:0:0:0:
109,192,287804,1,0,0:0:0:70:kick.wav
256,192,287804,1,0,0:0:0:70:snare.wav
329,192,287961,1,0,0:0:0:0:
402,192,287961,1,0,0:0:0:0:
109,192,288118,128,0,288432:0:0:0:70:kick.wav
256,192,288118,128,0,288432:0:0:0:70:snare.wav
475,192,288118,1,0,0:0:0:0:
402,192,288275,1,0,0:0:0:0:
475,192,288432,1,0,0:0:0:70:snare.wav
329,192,288432,1,0,0:0:0:70:kick.wav
256,192,288590,1,0,0:0:0:0:
109,192,288590,1,0,0:0:0:0:
329,192,288747,128,0,289061:0:0:0:70:kick.wav
475,192,288747,128,0,289061:0:0:0:70:snare.wav
182,192,288747,1,0,0:0:0:0:
109,192,288904,1,0,0:0:0:0:
36,192,289061,1,0,0:0:0:70:crash-cymbol.wav
182,192,289061,1,0,0:0:0:70:snare.wav
402,192,289218,1,0,0:0:0:0:
256,192,289218,1,0,0:0:0:0:
36,192,289375,128,0,289689:0:0:0:70:snare.wav
182,192,289375,128,0,289689:0:0:0:70:kick.wav
329,192,289375,1,0,0:0:0:0:
402,192,289532,1,0,0:0:0:0:
256,192,289689,1,0,0:0:0:70:kick.wav
475,192,289689,1,0,0:0:0:70:snare.wav
182,192,289846,1,0,0:0:0:0:
36,192,289846,1,0,0:0:0:0:
256,192,290003,128,0,290317:0:0:0:70:snare.wav
475,192,290003,128,0,290317:0:0:0:70:kick.wav
109,192,290003,1,0,0:0:0:0:
36,192,290160,1,0,0:0:0:0:
329,192,290317,1,0,0:0:0:70:kick.wav
109,192,290317,1,0,0:0:0:70:snare.wav
402,192,290474,1,0,0:0:0:0:
182,192,290474,1,0,0:0:0:0:
329,192,290631,128,0,290946:0:0:0:70:kick.wav
109,192,290631,128,0,290946:0:0:0:70:snare.wav
475,192,290631,1,0,0:0:0:0:
402,192,290788,1,0,0:0:0:0:
36,192,290946,1,0,0:0:0:70:snare.wav
182,192,290946,1,0,0:0:0:70:kick.wav
402,192,291103,1,0,0:0:0:0:
256,192,291103,1,0,0:0:0:0:
36,192,291260,128,0,291574:0:0:0:70:kick.wav
182,192,291260,1,0,0:0:0:70:snare.wav
475,192,291260,1,0,0:0:0:0:
402,192,291338,1,0,0:0:0:0:
329,192,291417,1,0,0:0:0:0:
256,192,291495,1,0,0:0:0:0:
475,192,291574,1,0,0:0:0:70:crash-cymbol.wav
329,192,291574,1,0,0:0:0:70:snare.wav
182,192,291574,1,0,0:0:0:0:
109,192,291731,1,0,0:0:0:0:
256,192,291731,1,0,0:0:0:0:
329,192,291888,128,0,292202:0:0:0:70:snare.wav
475,192,291888,128,0,292202:0:0:0:70:kick.wav
36,192,291888,1,0,0:0:0:0:
109,192,292045,1,0,0:0:0:0:
182,192,292202,1,0,0:0:0:70:kick.wav
36,192,292202,1,0,0:0:0:70:snare.wav
256,192,292359,1,0,0:0:0:0:
329,192,292359,1,0,0:0:0:0:
182,192,292516,128,0,292830:0:0:0:70:snare.wav
36,192,292516,128,0,292830:0:0:0:70:kick.wav
402,192,292516,1,0,0:0:0:0:
329,192,292673,1,0,0:0:0:0:
256,192,292830,1,0,0:0:0:70:kick.wav
402,192,292830,1,0,0:0:0:70:snare.wav
182,192,292987,1,0,0:0:0:0:
109,192,292987,1,0,0:0:0:0:
256,192,293145,128,0,293459:0:0:0:70:kick.wav
402,192,293145,128,0,293459:0:0:0:70:snare.wav
36,192,293145,1,0,0:0:0:0:
109,192,293302,1,0,0:0:0:0:
182,192,293459,1,0,0:0:0:70:snare.wav
36,192,293459,1,0,0:0:0:70:kick.wav
256,192,293616,1,0,0:0:0:0:
402,192,293616,1,0,0:0:0:0:
182,192,293773,128,0,294087:0:0:0:70:kick.wav
36,192,293773,128,0,294087:0:0:0:70:snare.wav
329,192,293773,1,0,0:0:0:0:
402,192,293930,1,0,0:0:0:0:
475,192,294087,1,0,0:0:0:70:crash-cymbol.wav
329,192,294087,1,0,0:0:0:70:snare.wav
256,192,294087,1,0,0:0:0:70:kick.wav
182,192,294244,1,0,0:0:0:0:
36,192,294244,1,0,0:0:0:0:
329,192,294401,128,0,294715:0:0:0:70:snare.wav
475,192,294401,128,0,294715:0:0:0:70:kick.wav
109,192,294401,1,0,0:0:0:0:
182,192,294558,1,0,0:0:0:0:
256,192,294715,1,0,0:0:0:70:kick.wav
36,192,294715,1,0,0:0:0:70:snare.wav
402,192,294872,1,0,0:0:0:0:
329,192,294872,1,0,0:0:0:0:
36,192,295029,128,0,295343:0:0:0:70:snare.wav
256,192,295029,128,0,295343:0:0:0:70:kick.wav
475,192,295029,1,0,0:0:0:0:
402,192,295186,1,0,0:0:0:0:
109,192,295343,1,0,0:0:0:70:kick.wav
329,192,295343,1,0,0:0:0:70:snare.wav
256,192,295501,1,0,0:0:0:0:
402,192,295501,1,0,0:0:0:0:
109,192,295658,128,0,295972:0:0:0:70:kick.wav
329,192,295658,128,0,295972:0:0:0:70:snare.wav
475,192,295658,1,0,0:0:0:0:
402,192,295972,1,0,0:0:0:70:snare.wav
182,192,295972,1,0,0:0:0:70:kick.wav
329,192,296129,1,0,0:0:0:0:
475,192,296129,1,0,0:0:0:0:
109,192,296286,1,0,0:0:0:70:kick.wav
256,192,296286,1,0,0:0:0:70:snare.wav
402,192,296286,128,0,296600:0:0:0:0:
109,192,296443,1,0,0:0:0:70:kick.wav
182,192,296443,1,0,0:0:0:0:
36,192,296600,1,0,0:0:0:70:crash-cymbol.wav
329,192,296600,1,0,0:0:0:70:snare.wav
475,192,296600,1,0,0:0:0:70:kick.wav
182,192,296600,1,0,0:0:0:0:
329,192,296757,1,0,0:0:0:70:kick.wav
475,192,296757,1,0,0:0:0:0:
182,192,296836,1,0,0:0:0:0:
109,192,296914,1,0,0:0:0:70:snare.wav
256,192,296914,1,0,0:0:0:70:kick.wav
402,192,296914,1,0,0:0:0:0:
402,192,297071,1,0,0:0:0:70:kick.wav
256,192,297071,1,0,0:0:0:0:
182,192,297150,1,0,0:0:0:0:
475,192,297228,1,0,0:0:0:70:kick.wav
329,192,297228,1,0,0:0:0:70:snare.wav
36,192,297228,1,0,0:0:0:50:bell.wav
109,192,297307,1,0,0:0:0:0:
475,192,297385,1,0,0:0:0:70:kick.wav
329,192,297385,1,0,0:0:0:0:
182,192,297464,1,0,0:0:0:0:
402,192,297542,1,0,0:0:0:70:snare.wav
256,192,297542,1,0,0:0:0:70:kick.wav
109,192,297542,1,0,0:0:0:0:
36,192,297621,1,0,0:0:0:0:
402,192,297699,1,0,0:0:0:70:kick.wav
256,192,297699,1,0,0:0:0:0:
109,192,297778,1,0,0:0:0:0:
36,192,297857,1,0,0:0:0:70:crash-cymbol.wav
182,192,297857,1,0,0:0:0:70:kick.wav
329,192,297857,1,0,0:0:0:70:snare.wav
475,192,297857,1,0,0:0:0:0:
182,192,298014,1,0,0:0:0:70:kick.wav
36,192,298014,1,0,0:0:0:0:
329,192,298092,1,0,0:0:0:0:
109,192,298171,1,0,0:0:0:70:kick.wav
256,192,298171,1,0,0:0:0:70:snare.wav
402,192,298171,1,0,0:0:0:0:
256,192,298328,1,0,0:0:0:70:kick.wav
109,192,298328,1,0,0:0:0:0:
329,192,298406,1,0,0:0:0:0:
36,192,298485,1,0,0:0:0:70:snare.wav
182,192,298485,1,0,0:0:0:70:kick.wav
475,192,298485,1,0,0:0:0:30:bell.wav
402,192,298563,1,0,0:0:0:0:
36,192,298642,1,0,0:0:0:70:kick.wav
182,192,298642,1,0,0:0:0:0:
329,192,298720,1,0,0:0:0:0:
402,192,298799,1,0,0:0:0:70:kick.wav
256,192,298799,1,0,0:0:0:70:snare.wav
109,192,298799,1,0,0:0:0:0:
475,192,298877,1,0,0:0:0:0:
109,192,298956,1,0,0:0:0:70:kick.wav
256,192,298956,1,0,0:0:0:0:
402,192,299035,1,0,0:0:0:0:
36,192,299113,1,0,0:0:0:70:crash-cymbol.wav
182,192,299113,1,0,0:0:0:70:snare.wav
475,192,299113,1,0,0:0:0:70:kick.wav
329,192,299113,1,0,0:0:0:0:
329,192,299270,1,0,0:0:0:70:kick.wav
182,192,299270,1,0,0:0:0:0:
475,192,299349,1,0,0:0:0:0:
109,192,299427,1,0,0:0:0:70:snare.wav
256,192,299427,1,0,0:0:0:70:kick.wav
402,192,299427,1,0,0:0:0:0:
256,192,299584,1,0,0:0:0:70:kick.wav
402,192,299584,1,0,0:0:0:0:
329,192,299663,1,0,0:0:0:0:
475,192,299741,1,0,0:0:0:70:kick.wav
182,192,299741,1,0,0:0:0:70:snare.wav
36,192,299741,1,0,0:0:0:10:bell.wav
402,192,299820,1,0,0:0:0:0:
36,192,299898,1,0,0:0:0:70:kick.wav
182,192,299898,1,0,0:0:0:0:
329,192,299977,1,0,0:0:0:0:
402,192,300055,1,0,0:0:0:70:snare.wav
256,192,300055,1,0,0:0:0:70:kick.wav
109,192,300055,1,0,0:0:0:0:
256,192,300213,1,0,0:0:0:70:kick.wav
402,192,300213,1,0,0:0:0:0:
36,192,300370,1,0,0:0:0:70:crash-cymbol.wav
329,192,300370,1,0,0:0:0:70:kick.wav
475,192,300370,1,0,0:0:0:70:snare.wav
182,192,300370,1,0,0:0:0:0:
329,192,300527,1,0,0:0:0:70:kick.wav
182,192,300527,1,0,0:0:0:0:
36,192,300605,1,0,0:0:0:0:
109,192,300684,1,0,0:0:0:70:kick.wav
256,192,300684,1,0,0:0:0:70:snare.wav
402,192,300684,1,0,0:0:0:0:
256,192,300841,1,0,0:0:0:70:kick.wav
109,192,300841,1,0,0:0:0:0:
402,192,300919,1,0,0:0:0:0:
329,192,300998,1,0,0:0:0:70:snare.wav
36,192,300998,1,0,0:0:0:70:kick.wav
182,192,300998,1,0,0:0:0:0:
475,192,301076,1,0,0:0:0:0:
36,192,301155,1,0,0:0:0:70:kick.wav
182,192,301155,1,0,0:0:0:0:
329,192,301234,1,0,0:0:0:0:
256,192,301312,1,0,0:0:0:70:kick.wav
402,192,301312,1,0,0:0:0:70:snare.wav
109,192,301312,1,0,0:0:0:0:
256,192,301469,1,0,0:0:0:70:kick.wav
402,192,301469,1,0,0:0:0:0:
36,192,301626,5,0,0:0:0:70:kick.wav
182,192,301626,1,0,0:0:0:70:snare.wav
475,192,301626,1,0,0:0:0:0:
329,192,301626,1,0,0:0:0:0:
256,192,301705,1,0,0:0:0:70:kick.wav
329,192,301783,1,0,0:0:0:70:kick.wav
109,192,301783,1,0,0:0:0:0:
402,192,301862,1,0,0:0:0:70:kick.wav
36,192,301940,1,0,0:0:0:70:kick.wav
182,192,301940,1,0,0:0:0:0:
256,192,302019,1,0,0:0:0:70:kick.wav
329,192,302097,1,0,0:0:0:70:kick.wav
109,192,302097,1,0,0:0:0:0:
402,192,302176,1,0,0:0:0:70:kick.wav
329,192,302254,1,0,0:0:0:70:crash-cymbol.wav
475,192,302254,1,0,0:0:0:70:kick.wav
36,192,302254,1,0,0:0:0:0:
182,192,302254,1,0,0:0:0:0:
256,192,302333,1,0,0:0:0:70:kick.wav
182,192,302412,1,0,0:0:0:70:kick.wav
402,192,302412,1,0,0:0:0:0:
109,192,302490,1,0,0:0:0:70:kick.wav
475,192,302569,1,0,0:0:0:70:kick.wav
329,192,302569,1,0,0:0:0:0:
256,192,302647,1,0,0:0:0:70:kick.wav
182,192,302726,1,0,0:0:0:70:kick.wav
402,192,302726,1,0,0:0:0:0:
109,192,302804,1,0,0:0:0:70:kick.wav
36,192,302883,1,0,0:0:0:70:crash-cymbol.wav
329,192,302883,1,0,0:0:0:70:kick.wav
475,192,302883,1,0,0:0:0:0:
182,192,302883,1,0,0:0:0:0:
256,192,302961,1,0,0:0:0:70:kick.wav
182,192,303040,1,0,0:0:0:70:kick.wav
402,192,303040,1,0,0:0:0:0:
109,192,303118,1,0,0:0:0:70:kick.wav
475,192,303197,1,0,0:0:0:70:kick.wav
36,192,303197,1,0,0:0:0:0:
402,192,303275,1,0,0:0:0:70:kick.wav
182,192,303275,1,0,0:0:0:0:
329,192,303354,1,0,0:0:0:70:kick.wav
109,192,303354,1,0,0:0:0:0:
36,192,303432,1,0,0:0:0:70:kick.wav
402,192,303432,1,0,0:0:0:0:
475,192,303511,1,0,0:0:0:70:crash-cymbol.wav
182,192,303511,1,0,0:0:0:70:kick.wav
256,192,303511,1,0,0:0:0:0:
402,192,303590,1,0,0:0:0:70:kick.wav
109,192,303590,1,0,0:0:0:0:
329,192,303668,1,0,0:0:0:70:kick.wav
36,192,303668,1,0,0:0:0:0:
182,192,303747,1,0,0:0:0:70:kick.wav
402,192,303747,1,0,0:0:0:0:
109,192,303825,1,0,0:0:0:70:kick.wav
475,192,303825,1,0,0:0:0:0:
36,192,303904,1,0,0:0:0:70:kick.wav
402,192,303904,1,0,0:0:0:0:
329,192,303982,1,0,0:0:0:70:kick.wav
182,192,303982,1,0,0:0:0:0:
402,192,304061,1,0,0:0:0:70:kick.wav
109,192,304061,1,0,0:0:0:0:
475,192,304139,1,0,0:0:0:70:crash-cymbol.wav
36,192,304139,1,0,0:0:0:70:kick.wav
256,192,304139,1,0,0:0:0:0:
402,192,304218,1,0,0:0:0:70:kick.wav
182,192,304218,1,0,0:0:0:0:
329,192,304296,1,0,0:0:0:70:kick.wav
109,192,304296,1,0,0:0:0:0:
402,192,304375,1,0,0:0:0:70:kick.wav
36,192,304375,1,0,0:0:0:0:
256,192,304453,1,0,0:0:0:70:kick.wav
182,192,304453,1,0,0:0:0:0:
475,192,304453,1,0,0:0:0:0:
402,192,304532,1,0,0:0:0:70:kick.wav
109,192,304532,1,0,0:0:0:0:
36,192,304610,1,0,0:0:0:70:kick.wav
329,192,304610,1,0,0:0:0:0:
402,192,304689,1,0,0:0:0:70:kick.wav
182,192,304689,1,0,0:0:0:0:
256,192,304768,1,0,0:0:0:70:crash-cymbol.wav
475,192,304768,1,0,0:0:0:70:kick.wav
109,192,304768,1,0,0:0:0:0:
402,192,304846,1,0,0:0:0:70:kick.wav
36,192,304846,1,0,0:0:0:0:
182,192,304925,1,0,0:0:0:70:kick.wav
329,192,304925,1,0,0:0:0:0:
109,192,305003,1,0,0:0:0:70:kick.wav
402,192,305003,1,0,0:0:0:0:
36,192,305082,1,0,0:0:0:70:kick.wav
475,192,305082,1,0,0:0:0:0:
182,192,305121,1,0,0:0:0:0:
329,192,305160,1,0,0:0:0:0:
36,192,305239,1,0,0:0:0:0:
402,192,305239,1,0,0:0:0:0:
109,192,305278,1,0,0:0:0:0:
256,192,305317,1,0,0:0:0:0:
475,192,305396,1,0,0:0:0:0:
329,192,305396,1,0,0:0:0:0:
182,192,305474,1,0,0:0:0:0:
402,192,305553,1,0,0:0:0:0:
36,192,305553,1,0,0:0:0:0:
182,192,305631,1,0,0:0:0:0:
36,192,305710,1,0,0:0:0:0:
256,192,305710,1,0,0:0:0:0:
475,192,305710,1,0,0:0:0:0:
109,192,305867,1,0,0:0:0:0:
402,192,305867,128,0,306024:0:0:0:0:
329,192,305867,128,0,306024:0:0:0:0:
182,192,305946,1,0,0:0:0:0:
256,192,306024,1,0,0:0:0:0:
36,192,306024,1,0,0:0:0:0:
329,192,306181,128,0,306338:0:0:0:0:
36,192,306181,128,0,306338:0:0:0:0:
182,192,306338,1,0,0:0:0:70:snare.wav
475,192,306338,1,0,0:0:0:70:cymbol.wav
329,192,306417,1,0,0:0:0:0:
182,192,306495,128,0,306652:0:0:0:0:
36,192,306495,1,0,0:0:0:0:
402,192,306495,1,0,0:0:0:0:
256,192,306574,1,0,0:0:0:0:
109,192,306652,5,0,0:0:0:70:crash-cymbol.wav
475,192,306652,1,0,0:0:0:0:
36,192,306652,1,0,0:0:0:0:
329,192,306652,1,0,0:0:0:0:
402,192,306652,1,0,0:0:0:0:
182,192,306731,1,0,0:0:0:0:
256,192,306809,1,0,0:0:0:35:hihat.wav
329,192,306888,1,0,0:0:0:0:
402,192,306966,1,0,0:0:0:70:snare.wav
475,192,306966,1,0,0:0:0:70:kick.wav
36,192,306966,1,0,0:0:0:0:
329,192,307045,1,0,0:0:0:0:
256,192,307124,1,0,0:0:0:35:hihat.wav
182,192,307202,1,0,0:0:0:0:
36,192,307281,1,0,0:0:0:70:kick.wav
109,192,307281,1,0,0:0:0:50:bell.wav
475,192,307281,1,0,0:0:0:0:
182,192,307359,1,0,0:0:0:0:
256,192,307438,1,0,0:0:0:35:hihat.wav
329,192,307516,1,0,0:0:0:0:
402,192,307595,1,0,0:0:0:70:snare.wav
475,192,307595,1,0,0:0:0:70:kick.wav
36,192,307595,1,0,0:0:0:0:
329,192,307673,1,0,0:0:0:0:
256,192,307752,1,0,0:0:0:35:hihat.wav
182,192,307830,1,0,0:0:0:0:
109,192,307909,1,0,0:0:0:70:kick.wav
36,192,307909,1,0,0:0:0:40:bell.wav
475,192,307909,1,0,0:0:0:0:
182,192,307987,1,0,0:0:0:0:
256,192,308066,1,0,0:0:0:35:hihat.wav
329,192,308145,1,0,0:0:0:0:
402,192,308223,1,0,0:0:0:70:snare.wav
36,192,308223,1,0,0:0:0:70:kick.wav
475,192,308223,1,0,0:0:0:0:
329,192,308302,1,0,0:0:0:0:
256,192,308380,1,0,0:0:0:35:hihat.wav
182,192,308459,1,0,0:0:0:0:
475,192,308537,1,0,0:0:0:70:kick.wav
36,192,308537,1,0,0:0:0:30:bell.wav
109,192,308537,1,0,0:0:0:0:
182,192,308616,1,0,0:0:0:0:
256,192,308694,1,0,0:0:0:35:hihat.wav
329,192,308773,1,0,0:0:0:0:
36,192,308851,1,0,0:0:0:70:snare.wav
475,192,308851,1,0,0:0:0:70:kick.wav
402,192,308851,1,0,0:0:0:0:
329,192,308930,1,0,0:0:0:0:
256,192,309008,1,0,0:0:0:35:hihat.wav
182,192,309087,1,0,0:0:0:0:
36,192,309165,1,0,0:0:0:70:kick.wav
475,192,309165,1,0,0:0:0:20:bell.wav
109,192,309165,1,0,0:0:0:0:
402,192,309244,1,0,0:0:0:0:
329,192,309323,1,0,0:0:0:35:hihat.wav
256,192,309401,1,0,0:0:0:0:
475,192,309480,1,0,0:0:0:70:snare.wav
36,192,309480,1,0,0:0:0:70:kick.wav
182,192,309480,1,0,0:0:0:0:
109,192,309558,1,0,0:0:0:0:
182,192,309637,1,0,0:0:0:35:hihat.wav
256,192,309715,1,0,0:0:0:0:
475,192,309794,1,0,0:0:0:70:kick.wav
36,192,309794,1,0,0:0:0:10:bell.wav
329,192,309794,1,0,0:0:0:0:
402,192,309872,1,0,0:0:0:0:
329,192,309951,1,0,0:0:0:35:hihat.wav
256,192,310029,1,0,0:0:0:0:
36,192,310108,1,0,0:0:0:70:snare.wav
182,192,310108,1,0,0:0:0:70:kick.wav
475,192,310108,1,0,0:0:0:0:
109,192,310186,1,0,0:0:0:0:
182,192,310265,1,0,0:0:0:35:hihat.wav
256,192,310343,1,0,0:0:0:0:
36,192,310422,1,0,0:0:0:70:kick.wav
329,192,310422,1,0,0:0:0:0:
475,192,310422,1,0,0:0:0:0:
402,192,310501,1,0,0:0:0:0:
329,192,310579,1,0,0:0:0:35:hihat.wav
256,192,310658,1,0,0:0:0:0:
36,192,310736,1,0,0:0:0:70:snare.wav
182,192,310736,1,0,0:0:0:70:kick.wav
475,192,310736,1,0,0:0:0:0:
109,192,310815,1,0,0:0:0:0:
182,192,310893,1,0,0:0:0:35:hihat.wav
256,192,310972,1,0,0:0:0:0:
475,192,311050,1,0,0:0:0:70:kick.wav
36,192,311050,1,0,0:0:0:0:
329,192,311050,1,0,0:0:0:0:
402,192,311129,1,0,0:0:0:0:
329,192,311207,1,0,0:0:0:35:hihat.wav
256,192,311286,1,0,0:0:0:0:
36,192,311364,1,0,0:0:0:70:snare.wav
182,192,311364,1,0,0:0:0:70:kick.wav
475,192,311364,1,0,0:0:0:0:
109,192,311443,1,0,0:0:0:0:
182,192,311521,1,0,0:0:0:70:snare.wav
402,192,311521,1,0,0:0:0:0:
256,192,311600,1,0,0:0:0:0:
329,192,311679,1,0,0:0:0:70:kick.wav
475,192,311679,1,0,0:0:0:0:
36,192,311679,1,0,0:0:0:0:
182,192,311757,1,0,0:0:0:0:
402,192,311836,1,0,0:0:0:35:hihat.wav
256,192,311914,1,0,0:0:0:0:
36,192,311993,1,0,0:0:0:70:kick.wav
182,192,311993,1,0,0:0:0:70:snare.wav
475,192,311993,1,0,0:0:0:0:
329,192,312071,1,0,0:0:0:0:
109,192,312150,1,0,0:0:0:35:hihat.wav
256,192,312228,1,0,0:0:0:0:
329,192,312307,1,0,0:0:0:70:kick.wav
475,192,312307,1,0,0:0:0:0:
36,192,312307,1,0,0:0:0:0:
182,192,312385,1,0,0:0:0:0:
402,192,312464,1,0,0:0:0:35:hihat.wav
256,192,312542,1,0,0:0:0:0:
475,192,312621,1,0,0:0:0:70:snare.wav
36,192,312621,1,0,0:0:0:70:kick.wav
182,192,312621,1,0,0:0:0:0:
329,192,312699,1,0,0:0:0:0:
109,192,312778,1,0,0:0:0:35:hihat.wav
256,192,312857,1,0,0:0:0:0:
36,192,312935,1,0,0:0:0:70:kick.wav
475,192,312935,1,0,0:0:0:0:
329,192,312935,1,0,0:0:0:0:
109,192,313014,1,0,0:0:0:0:
182,192,313092,1,0,0:0:0:35:hihat.wav
256,192,313171,1,0,0:0:0:0:
36,192,313249,1,0,0:0:0:70:kick.wav
475,192,313249,1,0,0:0:0:70:snare.wav
109,192,313249,1,0,0:0:0:0:
402,192,313328,1,0,0:0:0:0:
329,192,313406,1,0,0:0:0:35:hihat.wav
256,192,313485,1,0,0:0:0:0:
475,192,313563,1,0,0:0:0:70:kick.wav
402,192,313563,1,0,0:0:0:0:
36,192,313563,1,0,0:0:0:0:
109,192,313642,1,0,0:0:0:0:
182,192,313720,1,0,0:0:0:35:hihat.wav
256,192,313799,1,0,0:0:0:0:
36,192,313877,1,0,0:0:0:70:kick.wav
109,192,313877,1,0,0:0:0:70:snare.wav
475,192,313877,1,0,0:0:0:0:
402,192,313956,1,0,0:0:0:0:
329,192,314035,1,0,0:0:0:35:hihat.wav
256,192,314113,1,0,0:0:0:0:
36,192,314192,1,0,0:0:0:70:kick.wav
475,192,314192,1,0,0:0:0:0:
402,192,314192,1,0,0:0:0:0:
109,192,314270,1,0,0:0:0:0:
182,192,314349,1,0,0:0:0:35:hihat.wav
256,192,314427,1,0,0:0:0:0:
329,192,314506,1,0,0:0:0:70:snare.wav
475,192,314506,1,0,0:0:0:70:kick.wav
109,192,314506,1,0,0:0:0:0:
182,192,314584,1,0,0:0:0:0:
256,192,314663,1,0,0:0:0:35:hihat.wav
329,192,314741,1,0,0:0:0:0:
402,192,314820,1,0,0:0:0:70:kick.wav
36,192,314820,1,0,0:0:0:0:
109,192,314820,1,0,0:0:0:0:
329,192,314898,1,0,0:0:0:0:
256,192,314977,1,0,0:0:0:35:hihat.wav
182,192,315055,1,0,0:0:0:0:
109,192,315134,1,0,0:0:0:70:snare.wav
36,192,315134,1,0,0:0:0:70:kick.wav
475,192,315134,1,0,0:0:0:0:
402,192,315213,1,0,0:0:0:0:
329,192,315291,1,0,0:0:0:35:hihat.wav
256,192,315370,1,0,0:0:0:0:
36,192,315448,1,0,0:0:0:70:kick.wav
182,192,315448,1,0,0:0:0:0:
475,192,315448,1,0,0:0:0:0:
182,192,315605,128,0,315762:0:0:0:0:
475,192,315605,128,0,315762:0:0:0:0:
475,192,315919,128,0,316076:0:0:0:0:
256,192,315919,128,0,316076:0:0:0:0:
182,192,316076,128,0,316234:0:0:0:0:
402,192,316076,128,0,316234:0:0:0:0:
36,192,316076,1,0,0:0:0:0:
109,192,316234,128,0,316391:0:0:0:0:
329,192,316234,128,0,316391:0:0:0:0:
402,192,316391,1,0,0:0:0:70:snare.wav
475,192,316391,1,0,0:0:0:70:kick.wav
36,192,316391,1,0,0:0:0:0:
256,192,316391,1,0,0:0:0:0:
109,192,316469,1,0,0:0:0:70:kick.wav
182,192,316548,1,0,0:0:0:70:kick.wav
256,192,316626,1,0,0:0:0:70:kick.wav
109,192,316705,1,0,0:0:0:70:kick.wav
329,192,316705,1,0,0:0:0:70:crash-cymbol.wav
36,192,316705,1,0,0:0:0:60:bell.wav
475,192,316705,1,0,0:0:0:0:
182,192,316783,1,0,0:0:0:0:
256,192,316862,1,0,0:0:0:35:hihat.wav
329,192,316940,1,0,0:0:0:0:
36,192,317019,1,0,0:0:0:70:snare.wav
182,192,317019,1,0,0:0:0:70:kick.wav
402,192,317019,1,0,0:0:0:0:
256,192,317097,1,0,0:0:0:0:
329,192,317176,1,0,0:0:0:35:hihat.wav
402,192,317254,1,0,0:0:0:0:
36,192,317333,1,0,0:0:0:70:kick.wav
475,192,317333,1,0,0:0:0:50:bell.wav
109,192,317333,1,0,0:0:0:0:
402,192,317412,1,0,0:0:0:0:
329,192,317490,1,0,0:0:0:35:hihat.wav
256,192,317569,1,0,0:0:0:0:
36,192,317647,1,0,0:0:0:70:snare.wav
182,192,317647,1,0,0:0:0:70:kick.wav
402,192,317647,1,0,0:0:0:0:
329,192,317726,1,0,0:0:0:0:
256,192,317804,1,0,0:0:0:35:hihat.wav
182,192,317883,1,0,0:0:0:0:
109,192,317961,1,0,0:0:0:70:kick.wav
329,192,317961,1,0,0:0:0:40:bell.wav
475,192,317961,1,0,0:0:0:0:
256,192,318040,1,0,0:0:0:0:
182,192,318118,1,0,0:0:0:35:hihat.wav
109,192,318197,1,0,0:0:0:0:
402,192,318275,1,0,0:0:0:70:snare.wav
475,192,318275,1,0,0:0:0:70:kick.wav
36,192,318275,1,0,0:0:0:0:
109,192,318354,1,0,0:0:0:0:
182,192,318432,1,0,0:0:0:35:hihat.wav
256,192,318511,1,0,0:0:0:0:
329,192,318590,1,0,0:0:0:70:kick.wav
109,192,318590,1,0,0:0:0:30:bell.wav
475,192,318590,1,0,0:0:0:0:
182,192,318668,1,0,0:0:0:0:
256,192,318747,1,0,0:0:0:35:hihat.wav
329,192,318825,1,0,0:0:0:0:
182,192,318904,1,0,0:0:0:70:snare.wav
402,192,318904,1,0,0:0:0:70:kick.wav
475,192,318904,1,0,0:0:0:0:
256,192,318982,1,0,0:0:0:0:
329,192,319061,1,0,0:0:0:35:hihat.wav
402,192,319139,1,0,0:0:0:0:
256,192,319218,1,0,0:0:0:70:kick.wav
36,192,319218,1,0,0:0:0:20:bell.wav
475,192,319218,1,0,0:0:0:0:
109,192,319296,1,0,0:0:0:0:
182,192,319375,1,0,0:0:0:35:hihat.wav
109,192,319453,1,0,0:0:0:0:
475,192,319532,1,0,0:0:0:70:snare.wav
256,192,319532,1,0,0:0:0:70:kick.wav
36,192,319532,1,0,0:0:0:0:
402,192,319610,1,0,0:0:0:0:
329,192,319689,1,0,0:0:0:35:hihat.wav
402,192,319768,1,0,0:0:0:0:
256,192,319846,1,0,0:0:0:70:kick.wav
475,192,319846,1,0,0:0:0:10:bell.wav
36,192,319846,1,0,0:0:0:0:
109,192,319925,1,0,0:0:0:0:
182,192,320003,1,0,0:0:0:35:hihat.wav
109,192,320082,1,0,0:0:0:0:
36,192,320160,1,0,0:0:0:70:snare.wav
256,192,320160,1,0,0:0:0:70:kick.wav
475,192,320160,1,0,0:0:0:0:
402,192,320239,1,0,0:0:0:0:
329,192,320317,1,0,0:0:0:35:hihat.wav
402,192,320396,1,0,0:0:0:0:
36,192,320474,1,0,0:0:0:70:kick.wav
475,192,320474,1,0,0:0:0:0:
256,192,320474,1,0,0:0:0:0:
109,192,320553,1,0,0:0:0:0:
182,192,320631,1,0,0:0:0:35:hihat.wav
329,192,320710,1,0,0:0:0:0:
36,192,320788,1,0,0:0:0:70:snare.wav
475,192,320788,1,0,0:0:0:70:kick.wav
109,192,320788,1,0,0:0:0:0:
402,192,320867,1,0,0:0:0:0:
329,192,320946,1,0,0:0:0:35:hihat.wav
182,192,321024,1,0,0:0:0:0:
36,192,321103,1,0,0:0:0:70:kick.wav
475,192,321103,1,0,0:0:0:0:
402,192,321103,1,0,0:0:0:0:
109,192,321181,1,0,0:0:0:0:
182,192,321260,1,0,0:0:0:35:hihat.wav
329,192,321338,1,0,0:0:0:0:
36,192,321417,1,0,0:0:0:70:snare.wav
109,192,321417,1,0,0:0:0:70:kick.wav
475,192,321417,1,0,0:0:0:0:
402,192,321495,1,0,0:0:0:0:
182,192,321574,1,0,0:0:0:70:snare.wav
329,192,321574,1,0,0:0:0:0:
109,192,321652,1,0,0:0:0:0:
36,192,321731,1,0,0:0:0:70:crash-cymbol.wav
402,192,321731,1,0,0:0:0:70:kick.wav
475,192,321731,1,0,0:0:0:0:
256,192,321809,1,0,0:0:0:0:
329,192,321888,1,0,0:0:0:35:hihat.wav
402,192,321966,1,0,0:0:0:0:
475,192,322045,1,0,0:0:0:70:kick.wav
109,192,322045,1,0,0:0:0:70:snare.wav
36,192,322045,1,0,0:0:0:0:
256,192,322124,1,0,0:0:0:0:
182,192,322202,1,0,0:0:0:35:hihat.wav
109,192,322281,1,0,0:0:0:0:
402,192,322359,1,0,0:0:0:70:kick.wav
475,192,322359,1,0,0:0:0:0:
36,192,322359,1,0,0:0:0:0:
256,192,322438,1,0,0:0:0:0:
329,192,322516,1,0,0:0:0:35:hihat.wav
402,192,322595,1,0,0:0:0:0:
109,192,322673,1,0,0:0:0:70:snare.wav
475,192,322673,1,0,0:0:0:70:kick.wav
36,192,322673,1,0,0:0:0:0:
256,192,322752,1,0,0:0:0:0:
182,192,322830,1,0,0:0:0:35:hihat.wav
109,192,322909,1,0,0:0:0:0:
402,192,322987,1,0,0:0:0:70:kick.wav
475,192,322987,1,0,0:0:0:0:
36,192,322987,1,0,0:0:0:0:
329,192,323066,1,0,0:0:0:0:
256,192,323145,1,0,0:0:0:35:hihat.wav
182,192,323223,1,0,0:0:0:0:
475,192,323302,1,0,0:0:0:70:kick.wav
109,192,323302,1,0,0:0:0:70:snare.wav
36,192,323302,1,0,0:0:0:0:
182,192,323380,1,0,0:0:0:0:
256,192,323459,1,0,0:0:0:35:hihat.wav
329,192,323537,1,0,0:0:0:0:
36,192,323616,1,0,0:0:0:70:kick.wav
402,192,323616,1,0,0:0:0:0:
475,192,323616,1,0,0:0:0:0:
329,192,323694,1,0,0:0:0:0:
256,192,323773,1,0,0:0:0:35:hihat.wav
182,192,323851,1,0,0:0:0:0:
109,192,323930,1,0,0:0:0:70:kick.wav
475,192,323930,1,0,0:0:0:70:snare.wav
36,192,323930,1,0,0:0:0:0:
182,192,324008,1,0,0:0:0:0:
256,192,324087,1,0,0:0:0:35:hihat.wav
329,192,324165,1,0,0:0:0:0:
475,192,324244,1,0,0:0:0:70:kick.wav
402,192,324244,1,0,0:0:0:0:
36,192,324244,1,0,0:0:0:0:
109,192,324323,1,0,0:0:0:0:
256,192,324401,1,0,0:0:0:35:hihat.wav
329,192,324480,1,0,0:0:0:0:
475,192,324558,1,0,0:0:0:70:snare.wav
109,192,324558,1,0,0:0:0:70:kick.wav
36,192,324558,1,0,0:0:0:0:
402,192,324637,1,0,0:0:0:0:
256,192,324715,1,0,0:0:0:35:hihat.wav
182,192,324794,1,0,0:0:0:0:
475,192,324872,1,0,0:0:0:70:kick.wav
402,192,324872,1,0,0:0:0:0:
36,192,324872,1,0,0:0:0:0:
109,192,324951,1,0,0:0:0:0:
256,192,325029,1,0,0:0:0:35:hihat.wav
329,192,325108,1,0,0:0:0:0:
109,192,325186,1,0,0:0:0:70:snare.wav
475,192,325186,1,0,0:0:0:70:kick.wav
36,192,325186,1,0,0:0:0:0:
402,192,325265,1,0,0:0:0:0:
256,192,325343,1,0,0:0:0:35:hihat.wav
182,192,325422,1,0,0:0:0:0:
36,192,325501,1,0,0:0:0:70:snare.wav
109,192,325501,1,0,0:0:0:0:
402,192,325501,1,0,0:0:0:0:
475,192,325501,1,0,0:0:0:0:
182,192,325815,1,0,0:0:0:70:snare.wav
402,192,325815,1,0,0:0:0:0:
109,192,325815,1,0,0:0:0:0:
329,192,325815,1,0,0:0:0:0:
329,192,326129,1,0,0:0:0:70:snare.wav
475,192,326129,1,0,0:0:0:0:
182,192,326129,1,0,0:0:0:0:
36,192,326129,1,0,0:0:0:0:
109,192,326364,1,0,0:0:0:70:kick.wav
182,192,326364,1,0,0:0:0:0:
329,192,326443,1,0,0:0:0:70:kick.wav
402,192,326443,1,0,0:0:0:0:
109,192,326521,1,0,0:0:0:70:kick.wav
182,192,326521,1,0,0:0:0:0:
329,192,326600,1,0,0:0:0:70:kick.wav
402,192,326600,1,0,0:0:0:0:
109,192,326679,1,0,0:0:0:70:kick.wav
182,192,326679,1,0,0:0:0:0:
329,192,326757,1,0,0:0:0:70:crash-cymbol.wav
402,192,326757,1,0,0:0:0:70:kick.wav
36,192,326757,1,0,0:0:0:0:
475,192,326757,128,0,327071:0:0:0:0:
36,192,326914,1,0,0:0:0:35:hihat.wav
402,192,327071,1,0,0:0:0:70:snare.wav
329,192,327071,1,0,0:0:0:0:
182,192,327071,128,0,327385:0:0:0:0:
402,192,327228,1,0,0:0:0:35:hihat.wav
256,192,327385,1,0,0:0:0:70:kick.wav
475,192,327385,128,0,327699:0:0:0:50:bell.wav
256,192,327542,1,0,0:0:0:35:hihat.wav
402,192,327699,1,0,0:0:0:70:snare.wav
36,192,327699,1,0,0:0:0:0:
182,192,327699,128,0,328014:0:0:0:0:
402,192,327857,1,0,0:0:0:35:hihat.wav
329,192,328014,1,0,0:0:0:70:kick.wav
36,192,328014,128,0,328328:0:0:0:40:bell.wav
109,192,328014,1,0,0:0:0:0:
109,192,328171,1,0,0:0:0:35:hihat.wav
475,192,328328,1,0,0:0:0:70:snare.wav
329,192,328328,128,0,328642:0:0:0:0:
256,192,328328,1,0,0:0:0:0:
256,192,328485,1,0,0:0:0:35:hihat.wav
475,192,328642,1,0,0:0:0:70:kick.wav
182,192,328642,1,0,0:0:0:30:bell.wav
36,192,328642,128,0,328956:0:0:0:0:
182,192,328799,1,0,0:0:0:35:hihat.wav
475,192,328956,1,0,0:0:0:70:snare.wav
109,192,328956,1,0,0:0:0:0:
329,192,328956,128,0,329270:0:0:0:0:
475,192,329113,1,0,0:0:0:35:hihat.wav
182,192,329270,1,0,0:0:0:70:kick.wav
256,192,329270,128,0,329584:0:0:0:20:bell.wav
182,192,329427,1,0,0:0:0:35:hihat.wav
475,192,329584,1,0,0:0:0:70:snare.wav
402,192,329584,1,0,0:0:0:0:
109,192,329584,128,0,329898:0:0:0:0:
475,192,329741,1,0,0:0:0:35:hihat.wav
329,192,329898,1,0,0:0:0:70:kick.wav
256,192,329898,128,0,330213:0:0:0:10:bell.wav
329,192,330055,1,0,0:0:0:35:hihat.wav
36,192,330213,1,0,0:0:0:70:snare.wav
475,192,330213,1,0,0:0:0:0:
109,192,330213,128,0,330527:0:0:0:0:
36,192,330370,1,0,0:0:0:35:hihat.wav
475,192,330527,1,0,0:0:0:70:kick.wav
256,192,330527,128,0,330841:0:0:0:0:
475,192,330684,1,0,0:0:0:35:hihat.wav
109,192,330841,1,0,0:0:0:70:snare.wav
329,192,330841,1,0,0:0:0:0:
36,192,330841,1,0,0:0:0:0:
402,192,330841,128,0,331155:0:0:0:0:
109,192,330998,1,0,0:0:0:35:hihat.wav
36,192,331155,1,0,0:0:0:70:kick.wav
475,192,331155,1,0,0:0:0:0:
256,192,331155,128,0,331469:0:0:0:0:
475,192,331312,1,0,0:0:0:35:hihat.wav
36,192,331469,1,0,0:0:0:70:snare.wav
182,192,331469,1,0,0:0:0:0:
475,192,331469,1,0,0:0:0:0:
402,192,331469,128,0,331783:0:0:0:0:
182,192,331626,1,0,0:0:0:70:snare.wav
36,192,331626,1,0,0:0:0:0:
109,192,331783,1,0,0:0:0:70:kick.wav
475,192,331783,1,0,0:0:0:0:
329,192,331783,128,0,332097:0:0:0:0:
109,192,331940,1,0,0:0:0:35:hihat.wav
475,192,332097,1,0,0:0:0:70:snare.wav
182,192,332097,1,0,0:0:0:0:
36,192,332097,128,0,332412:0:0:0:0:
475,192,332254,1,0,0:0:0:35:hihat.wav
256,192,332412,1,0,0:0:0:70:kick.wav
329,192,332412,128,0,332726:0:0:0:0:
256,192,332569,1,0,0:0:0:35:hihat.wav
402,192,332726,1,0,0:0:0:70:snare.wav
109,192,332726,1,0,0:0:0:0:
36,192,332726,128,0,333040:0:0:0:0:
109,192,332883,1,0,0:0:0:35:hihat.wav
329,192,333040,1,0,0:0:0:70:kick.wav
475,192,333040,128,0,333354:0:0:0:0:
329,192,333197,1,0,0:0:0:35:hihat.wav
402,192,333354,1,0,0:0:0:70:snare.wav
256,192,333354,1,0,0:0:0:0:
182,192,333354,128,0,333668:0:0:0:0:
402,192,333511,1,0,0:0:0:35:hihat.wav
36,192,333668,1,0,0:0:0:70:kick.wav
109,192,333668,1,0,0:0:0:0:
475,192,333668,128,0,333982:0:0:0:0:
109,192,333825,1,0,0:0:0:35:hihat.wav
329,192,333982,1,0,0:0:0:70:snare.wav
402,192,333982,1,0,0:0:0:0:
182,192,333982,128,0,334296:0:0:0:0:
329,192,334139,1,0,0:0:0:35:hihat.wav
109,192,334296,1,0,0:0:0:70:kick.wav
475,192,334296,128,0,334610:0:0:0:0:
109,192,334453,1,0,0:0:0:35:hihat.wav
329,192,334610,1,0,0:0:0:70:snare.wav
256,192,334610,1,0,0:0:0:0:
36,192,334610,128,0,334925:0:0:0:0:
329,192,334768,1,0,0:0:0:35:hihat.wav
182,192,334925,1,0,0:0:0:70:kick.wav
475,192,334925,128,0,335239:0:0:0:0:
182,192,335082,1,0,0:0:0:35:hihat.wav
329,192,335239,1,0,0:0:0:70:snare.wav
256,192,335239,1,0,0:0:0:0:
36,192,335239,128,0,335553:0:0:0:0:
329,192,335396,1,0,0:0:0:35:hihat.wav
182,192,335553,1,0,0:0:0:70:kick.wav
402,192,335553,128,0,335867:0:0:0:0:
182,192,335710,1,0,0:0:0:35:hihat.wav
329,192,335867,1,0,0:0:0:70:snare.wav
475,192,335867,1,0,0:0:0:0:
109,192,335867,128,0,336181:0:0:0:0:
475,192,336024,1,0,0:0:0:35:hihat.wav
182,192,336181,1,0,0:0:0:70:kick.wav
402,192,336181,128,0,336495:0:0:0:0:
182,192,336338,1,0,0:0:0:35:hihat.wav
36,192,336495,1,0,0:0:0:70:kick.wav
109,192,336495,1,0,0:0:0:70:snare.wav
256,192,336574,1,0,0:0:0:70:kick.wav
329,192,336574,1,0,0:0:0:0:
182,192,336652,1,0,0:0:0:70:kick.wav
109,192,336652,1,0,0:0:0:0:
329,192,336731,1,0,0:0:0:70:kick.wav
402,192,336731,1,0,0:0:0:0:
256,192,336809,1,0,0:0:0:70:crash-cymbol.wav
475,192,336809,1,0,0:0:0:70:kick.wav
182,192,336809,1,0,0:0:0:0:
36,192,336809,128,0,337124:0:0:0:0:
329,192,336966,1,0,0:0:0:35:hihat.wav
402,192,337124,1,0,0:0:0:70:snare.wav
475,192,337124,1,0,0:0:0:0:
256,192,337124,128,0,337438:0:0:0:0:
109,192,337281,1,0,0:0:0:35:hihat.wav
402,192,337438,1,0,0:0:0:70:kick.wav
36,192,337438,1,0,0:0:0:50:bell.wav
475,192,337438,128,0,337752:0:0:0:0:
182,192,337595,1,0,0:0:0:35:hihat.wav
402,192,337752,1,0,0:0:0:70:snare.wav
109,192,337752,1,0,0:0:0:0:
256,192,337752,128,0,338066:0:0:0:0:
329,192,337909,1,0,0:0:0:35:hihat.wav
109,192,338066,1,0,0:0:0:70:kick.wav
475,192,338066,1,0,0:0:0:40:bell.wav
36,192,338066,128,0,338380:0:0:0:0:
182,192,338223,1,0,0:0:0:35:hihat.wav
475,192,338380,1,0,0:0:0:70:snare.wav
402,192,338380,1,0,0:0:0:0:
256,192,338380,128,0,338694:0:0:0:0:
109,192,338537,1,0,0:0:0:35:hihat.wav
36,192,338694,1,0,0:0:0:70:kick.wav
329,192,338694,1,0,0:0:0:30:bell.wav
475,192,338694,128,0,339008:0:0:0:0:
182,192,338851,1,0,0:0:0:35:hihat.wav
402,192,339008,1,0,0:0:0:70:snare.wav
109,192,339008,1,0,0:0:0:0:
256,192,339008,128,0,339323:0:0:0:0:
329,192,339165,1,0,0:0:0:35:hihat.wav
402,192,339323,1,0,0:0:0:70:kick.wav
109,192,339323,1,0,0:0:0:20:bell.wav
475,192,339323,1,0,0:0:0:0:
36,192,339323,128,0,339637:0:0:0:0:
182,192,339480,1,0,0:0:0:35:hihat.wav
475,192,339637,1,0,0:0:0:70:snare.wav
329,192,339637,1,0,0:0:0:0:
256,192,339637,128,0,339951:0:0:0:0:
402,192,339794,1,0,0:0:0:35:hihat.wav
36,192,339951,1,0,0:0:0:70:kick.wav
329,192,339951,1,0,0:0:0:10:bell.wav
109,192,339951,128,0,340265:0:0:0:0:
402,192,340108,1,0,0:0:0:35:hihat.wav
182,192,340265,1,0,0:0:0:70:snare.wav
475,192,340265,1,0,0:0:0:0:
329,192,340265,128,0,340579:0:0:0:0:
36,192,340422,1,0,0:0:0:35:hihat.wav
109,192,340579,1,0,0:0:0:70:kick.wav
475,192,340579,1,0,0:0:0:0:
182,192,340579,128,0,340893:0:0:0:0:
256,192,340736,1,0,0:0:0:35:hihat.wav
329,192,340893,1,0,0:0:0:70:snare.wav
36,192,340893,1,0,0:0:0:0:
402,192,340893,128,0,341207:0:0:0:0:
109,192,341050,1,0,0:0:0:35:hihat.wav
475,192,341207,1,0,0:0:0:70:kick.wav
182,192,341207,1,0,0:0:0:0:
256,192,341207,128,0,341521:0:0:0:0:
109,192,341364,1,0,0:0:0:35:hihat.wav
36,192,341521,1,0,0:0:0:70:snare.wav
402,192,341521,1,0,0:0:0:0:
475,192,341521,128,0,341836:0:0:0:0:
329,192,341679,1,0,0:0:0:0:
402,192,341836,1,0,0:0:0:70:kick.wav
256,192,341836,1,0,0:0:0:70:crash-cymbol.wav
36,192,341836,1,0,0:0:0:0:
182,192,341836,1,0,0:0:0:0:
402,192,341993,1,0,0:0:0:70:kick.wav
182,192,341993,1,0,0:0:0:0:
256,192,341993,1,0,0:0:0:0:
36,192,341993,1,0,0:0:0:0:
36,192,342150,1,0,0:0:0:70:kick.wav
109,192,342150,1,0,0:0:0:0:
256,192,342150,1,0,0:0:0:0:
329,192,342150,1,0,0:0:0:0:
36,192,342307,1,0,0:0:0:70:kick.wav
109,192,342307,1,0,0:0:0:0:
256,192,342307,1,0,0:0:0:0:
329,192,342307,1,0,0:0:0:0:
182,192,342464,1,0,0:0:0:70:kick.wav
475,192,342464,1,0,0:0:0:0:
402,192,342464,1,0,0:0:0:0:
109,192,342464,1,0,0:0:0:0:
475,192,342621,1,0,0:0:0:70:kick.wav
402,192,342621,1,0,0:0:0:0:
182,192,342621,1,0,0:0:0:0:
109,192,342621,1,0,0:0:0:0:
182,192,342778,1,0,0:0:0:70:kick.wav
36,192,342778,1,0,0:0:0:0:
256,192,342778,1,0,0:0:0:0:
329,192,342778,1,0,0:0:0:0:
256,192,342935,1,0,0:0:0:70:kick.wav
36,192,342935,1,0,0:0:0:0:
182,192,342935,1,0,0:0:0:0:
329,192,342935,1,0,0:0:0:0:
256,192,343092,1,0,0:0:0:70:crash-cymbol.wav
402,192,343092,1,0,0:0:0:70:kick.wav
475,192,343092,1,0,0:0:0:0:
109,192,343092,1,0,0:0:0:0:
475,192,343249,1,0,0:0:0:70:kick.wav
109,192,343249,1,0,0:0:0:0:
256,192,343249,1,0,0:0:0:0:
402,192,343249,1,0,0:0:0:0:
36,192,343406,1,0,0:0:0:70:kick.wav
182,192,343406,1,0,0:0:0:0:
329,192,343406,1,0,0:0:0:0:
402,192,343406,1,0,0:0:0:0:
182,192,343563,1,0,0:0:0:70:kick.wav
36,192,343563,1,0,0:0:0:0:
329,192,343563,1,0,0:0:0:0:
402,192,343563,1,0,0:0:0:0:
329,192,343720,1,0,0:0:0:70:kick.wav
256,192,343720,1,0,0:0:0:0:
109,192,343720,1,0,0:0:0:0:
475,192,343720,1,0,0:0:0:0:
109,192,343877,1,0,0:0:0:70:kick.wav
329,192,343877,1,0,0:0:0:0:
256,192,343877,1,0,0:0:0:0:
475,192,343877,1,0,0:0:0:0:
402,192,344035,1,0,0:0:0:70:kick.wav
36,192,344035,1,0,0:0:0:0:
182,192,344035,1,0,0:0:0:0:
256,192,344035,1,0,0:0:0:0:
182,192,344192,1,0,0:0:0:70:kick.wav
36,192,344192,1,0,0:0:0:0:
402,192,344192,1,0,0:0:0:0:
256,192,344192,1,0,0:0:0:0:
36,192,344349,1,0,0:0:0:70:crash-cymbol.wav
475,192,344349,1,0,0:0:0:70:kick.wav
109,192,344349,1,0,0:0:0:0:
402,192,344349,1,0,0:0:0:0:
182,192,344427,1,0,0:0:0:70:kick.wav
329,192,344427,1,0,0:0:0:0:
256,192,344506,1,0,0:0:0:70:kick.wav
36,192,344506,1,0,0:0:0:0:
329,192,344584,1,0,0:0:0:70:kick.wav
109,192,344584,1,0,0:0:0:0:
402,192,344663,1,0,0:0:0:70:kick.wav
475,192,344663,1,0,0:0:0:0:
182,192,344663,1,0,0:0:0:0:
256,192,344741,1,0,0:0:0:70:kick.wav
36,192,344741,1,0,0:0:0:0:
329,192,344820,1,0,0:0:0:70:kick.wav
109,192,344820,1,0,0:0:0:0:
182,192,344898,1,0,0:0:0:70:kick.wav
402,192,344898,1,0,0:0:0:0:
36,192,344977,1,0,0:0:0:70:kick.wav
475,192,344977,1,0,0:0:0:70:crash-cymbol.wav
256,192,344977,1,0,0:0:0:0:
109,192,345055,1,0,0:0:0:70:kick.wav
329,192,345055,1,0,0:0:0:0:
402,192,345134,1,0,0:0:0:70:kick.wav
182,192,345134,1,0,0:0:0:0:
329,192,345213,1,0,0:0:0:70:kick.wav
109,192,345213,1,0,0:0:0:0:
36,192,345291,1,0,0:0:0:70:kick.wav
256,192,345291,1,0,0:0:0:0:
475,192,345291,1,0,0:0:0:0:
402,192,345370,1,0,0:0:0:70:kick.wav
182,192,345370,1,0,0:0:0:0:
329,192,345448,1,0,0:0:0:70:kick.wav
109,192,345448,1,0,0:0:0:0:
36,192,345527,1,0,0:0:0:70:kick.wav
256,192,345527,1,0,0:0:0:0:
256,192,346548,1,0,0:0:0:70:snare.wav
475,192,346548,128,0,346783:0:0:0:70:cymbol.wav
36,192,346548,128,0,346783:0:0:0:70:drum.wav
109,192,346548,128,0,346783:0:0:0:70:crash-cymbol.wav
402,192,346548,128,0,346783:0:0:0:0:
402,192,346862,1,0,0:0:0:70:snare.wav
109,192,346862,1,0,0:0:0:0:
36,192,346862,128,0,351888:0:0:0:0:
475,192,346862,128,0,351888:0:0:0:0:
256,192,346862,1,0,0:0:0:0:
256,192,347490,1,0,0:0:0:40:bell.wav
256,192,348118,1,0,0:0:0:30:bell.wav
256,192,348747,1,0,0:0:0:50:bell.wav
256,192,349375,1,0,0:0:0:0:
256,192,350003,1,0,0:0:0:0:
256,192,350631,1,0,0:0:0:0:
256,192,351260,1,0,0:0:0:0:
256,192,351888,1,0,0:0:0:0:
