osu file format v14

[General]
AudioFilename: 08 MariannE.mp3
AudioLeadIn: 2000
PreviewTime: 153354
Countdown: 0
SampleSet: Soft
StackLeniency: 0.5
Mode: 3
LetterboxInBreaks: 0
EpilepsyWarning: 1
SpecialStyle: 0
WidescreenStoryboard: 1

[Editor]
Bookmarks: 48,20153,40257,60362,80467,103085,123189,143294,153346,163399,173451,186017,206121,226226,236278,246331,256383,266435,276488,286540,296592,306645,316697,326749,336802
DistanceSpacing: 0.5
BeatDivisor: 1
GridSize: 4
TimelineZoom: 2.5

[Metadata]
Title:MariannE
TitleUnicode:MariannE
Artist:Yooh
ArtistUnicode:Yooh
Creator:neonat
Version:Mania 4K Collab
Source:
Tags:handsome Jerry Fullerene- mingmichael CLSW Nardoxyribonucleic Guy Xinely Tidek Ichigaki Fort Sayaka- pishifat Irreversible aabc271 _Gezo_ qoot8123 Kuo Kyoka DE-CADE Spectator kakattekoyeah c.h.s gothic themed c87 Raymond Minato Yukina Neppu CiiyusMiapah Nardo Unmei Muma
BeatmapID:660528
BeatmapSetID:285577

[Difficulty]
HPDrainRate:8
CircleSize:4
OverallDifficulty:8
ApproachRate:9.3
SliderMultiplier:2
SliderTickRate:1

[Events]
//Background and Video events
0,0,"SO57p38.jpg",0,0
//Break Periods
//Storyboard Layer 0 (Background)
//Storyboard Layer 1 (Fail)
//Storyboard Layer 2 (Pass)
//Storyboard Layer 3 (Foreground)
Sprite,Foreground,Centre,"SB\Marianne.png",320,240 F,0,40265,40765,0,1 F,0,44663,44863,1,0 M,2,44663,45163,475,240,475,140 M,2,44663,45163,475,240,475,140
Sprite,Foreground,Centre,"SB\collabmania4.png",320,240 F,0,45291,45491,0,1 M,1,45291,45791,475,280,475,240 F,0,48747,48947,1,0 M,2,48747,49247,475,240,475,180
Sprite,Foreground,Centre,"SB\sb.png",320,240 F,0,49218,49418,0,1 M,1,49218,49718,475,280,475,240 F,0,50003,50203,1,0 M,2,50003,50503,475,240,475,180
Sprite,Foreground,Centre,"SB\whitenamebar.png",320,240 F,0,-300,0,0,0.9 C,0,0,20003,255,176,195 M,0,0,350000,475,400 S,0,0,350000,0.75 C,0,20003,20160,255,176,195,228,176,255 C,0,40108,40265,228,176,255,135,255,120 C,0,60213,60370,135,255,120,140,205,255 C,0,80317,80474,140,205,255,255,176,195 C,0,102935,103092,255,176,195,255,255,140 C,0,123040,123197,255,255,140,228,176,255 C,0,143145,143302,228,176,255,140,205,255 C,0,153197,153354,140,205,255,255,255,140 C,0,163249,163406,255,255,140,228,176,255 C,0,173302,173459,228,176,255,135,255,120 C,0,185867,186024,135,255,120,140,205,255 C,0,205972,206129,140,205,255,228,176,255 C,0,226076,226233,228,176,255,255,255,140 C,0,236129,236286,255,255,140,140,205,255 C,0,246181,246338,140,205,255,255,176,195 C,0,256234,256391,255,176,195,135,255,120 C,0,266286,266443,135,255,120,228,176,255 C,0,276338,276495,228,176,255,135,255,120 C,0,286391,286548,135,255,120,255,176,195 C,0,296443,296600,255,176,195,255,255,140 C,0,306495,306652,255,255,140,255,176,195 C,0,316548,316705,255,176,195,135,255,120 C,0,326600,326757,135,255,120,140,205,255 C,0,336652,336809,140,205,255,255,255,140 F,0,348118,348418,1,0
Sprite,Foreground,Centre,"SB\Names\Gezo.png",320,240 M,0,0,300000,470,400 S,0,0,300000,0.75 F,0,20160,20460,0,1 F,0,40108,40408,1,0 F,0,123197,123497,0,1 F,0,143145,143445,1,0 F,0,163406,163706,0,1 F,0,173302,173602,1,0 F,0,206129,206429,0,1 F,0,226076,226376,1,0 F,0,266443,266743,0,1 F,0,276338,276638,1,0
Sprite,Foreground,Centre,"SB\Names\Tidek.png",320,240 M,0,0,300000,470,400 S,0,0,300000,0.75 F,0,40265,40565,0,1 F,0,60213,60513,1,0 F,0,173459,173759,0,1 F,0,185867,186167,1,0 F,0,256391,256691,0,1 F,0,266286,266586,1,0 F,0,276495,276795,0,1 F,0,286391,286691,1,0 F,0,316705,317005,0,1 F,0,326600,326900,1,0
Sprite,Foreground,Centre,"SB\Names\Kuo.png",320,240 M,0,0,300000,470,400 S,0,0,300000,0.75 F,0,103092,103392,0,1 F,0,123040,123340,1,0 F,0,153354,153654,0,1 F,0,163249,163549,1,0 F,0,226233,226533,0,1 F,0,236129,236429,1,0 F,0,296600,296900,0,1 F,0,306495,306795,1,0 F,0,336809,337109,0,1 F,0,348118,348418,1,0
Sprite,Foreground,Centre,"SB\Names\Sayaka-.png",320,240 M,0,0,300000,470,400 S,0,0,300000,0.75 F,0,60370,60670,0,1 F,0,80317,80617,1,0 F,0,143302,143602,0,1 F,0,153197,153497,1,0 F,0,186024,186324,0,1 F,0,205972,206272,1,0 F,0,236286,236586,0,1 F,0,246181,246481,1,0 F,0,326757,327057,0,1 F,0,336652,336952,1,0
Sprite,Foreground,Centre,"SB\Names\Fullerene-.png",320,240 F,0,0,300,0,1 M,0,0,300000,470,400 S,0,0,300000,0.75 F,0,20003,20303,1,0 F,0,80474,80774,0,1 F,0,102935,103235,1,0 F,0,246338,246638,0,1 F,0,256234,256534,1,0 F,0,286548,286848,0,1 F,0,296443,296743,1,0 F,0,306652,306952,0,1 F,0,316548,316848,1,0
//Storyboard Sound Samples
Sample,56,0,"bell.wav",60
Sample,684,0,"bell.wav",50
Sample,1312,0,"bell.wav",40
Sample,1941,0,"bell.wav",30
Sample,2569,0,"bell.wav",20
Sample,3197,0,"bell.wav",10
Sample,10265,0,"hihat.wav",35
Sample,10422,0,"hihat.wav",35
Sample,10579,0,"hihat.wav",35
Sample,10736,0,"bell.wav",50
Sample,10736,0,"drum.wav",70
Sample,10893,0,"hihat.wav",35
Sample,11207,0,"hihat.wav",35
Sample,11365,0,"bell.wav",40
Sample,11521,0,"hihat.wav",35
Sample,11679,0,"hihat.wav",35
Sample,11836,0,"hihat.wav",35
Sample,11993,0,"drum.wav",70
Sample,11993,0,"bell.wav",30
Sample,12150,0,"hihat.wav",35
Sample,12307,0,"hihat.wav",35
Sample,12464,0,"hihat.wav",35
Sample,12621,0,"bell.wav",20
Sample,12778,0,"hihat.wav",35
Sample,12935,0,"hihat.wav",35
Sample,13092,0,"hihat.wav",35
Sample,13249,0,"drum.wav",70
Sample,13249,0,"bell.wav",10
Sample,13406,0,"hihat.wav",35
Sample,13720,0,"hihat.wav",35
Sample,14035,0,"hihat.wav",35
Sample,14349,0,"hihat.wav",35
Sample,14506,0,"drum.wav",70
Sample,14663,0,"hihat.wav",35
Sample,14820,0,"hihat.wav",35
Sample,14977,0,"hihat.wav",35
Sample,15291,0,"hihat.wav",35
Sample,15448,0,"hihat.wav",35
Sample,15605,0,"hihat.wav",35
Sample,15919,0,"hihat.wav",35
Sample,16234,0,"hihat.wav",35
Sample,16548,0,"hihat.wav",35
Sample,16705,0,"hihat.wav",35
Sample,16862,0,"hihat.wav",35
Sample,17019,0,"snare.wav",70
Sample,17176,0,"hihat.wav",35
Sample,17333,0,"hihat.wav",35
Sample,17490,0,"hihat.wav",35
Sample,17804,0,"hihat.wav",35
Sample,17961,0,"hihat.wav",35
Sample,18118,0,"hihat.wav",35
Sample,18275,0,"drum.wav",70
Sample,18432,0,"hihat.wav",35
Sample,18747,0,"hihat.wav",35
Sample,19061,0,"hihat.wav",35
Sample,19375,0,"hihat.wav",35
Sample,19532,0,"drum.wav",70
Sample,20789,0,"bell.wav",50
Sample,21417,0,"bell.wav",40
Sample,22045,0,"bell.wav",30
Sample,22673,0,"bell.wav",20
Sample,23302,0,"bell.wav",10
Sample,23616,0,"kick.wav",70
Sample,24244,0,"kick.wav",70
Sample,28642,0,"kick.wav",70
Sample,29742,0,"kick.wav",70
Sample,30056,0,"kick.wav",70
Sample,30213,0,"kick.wav",70
Sample,30213,0,"bell.wav",60
Sample,30841,0,"bell.wav",50
Sample,31470,0,"bell.wav",40
Sample,31784,0,"kick.wav",70
Sample,32098,0,"bell.wav",30
Sample,32726,0,"bell.wav",20
Sample,33354,0,"bell.wav",10
Sample,35553,0,"kick.wav",70
Sample,36182,0,"kick.wav",70
Sample,37831,0,"kick.wav",70
Sample,37909,0,"kick.wav",70
Sample,37988,0,"kick.wav",70
Sample,38066,0,"kick.wav",70
Sample,38223,0,"kick.wav",70
Sample,38538,0,"kick.wav",70
Sample,38694,0,"kick.wav",70
Sample,40265,0,"bell.wav",60
Sample,50003,0,"cymbol.wav",70
Sample,60370,0,"bell.wav",60
Sample,70187,0,"kick.wav",70
Sample,70422,0,"bell.wav",60
Sample,80474,0,"bell.wav",60
Sample,81103,0,"bell.wav",50
Sample,81731,0,"bell.wav",40
Sample,82360,0,"bell.wav",30
Sample,82988,0,"bell.wav",20
Sample,83616,0,"bell.wav",10
Sample,90527,0,"bell.wav",60
Sample,90684,0,"hihat.wav",35
Sample,90998,0,"hihat.wav",35
Sample,91155,0,"bell.wav",50
Sample,91155,0,"snare.wav",70
Sample,91312,0,"hihat.wav",35
Sample,91469,0,"kick.wav",70
Sample,91626,0,"kick.wav",70
Sample,91626,0,"hihat.wav",35
Sample,91783,0,"kick.wav",70
Sample,91784,0,"bell.wav",40
Sample,91940,0,"hihat.wav",35
Sample,92097,0,"hihat.wav",35
Sample,92097,0,"kick.wav",70
Sample,92254,0,"hihat.wav",35
Sample,92255,0,"kick.wav",70
Sample,92412,0,"bell.wav",30
Sample,92412,0,"drum.wav",70
Sample,93040,0,"bell.wav",20
Sample,93040,0,"kick.wav",70
Sample,93197,0,"hihat.wav",35
Sample,93511,0,"hihat.wav",35
Sample,93668,0,"drum.wav",70
Sample,93668,0,"bell.wav",10
Sample,93982,0,"kick.wav",70
Sample,94139,0,"kick.wav",70
Sample,94296,0,"kick.wav",70
Sample,94453,0,"hihat.wav",35
Sample,94610,0,"kick.wav",70
Sample,94768,0,"hihat.wav",35
Sample,94925,0,"drum.wav",70
Sample,95082,0,"hihat.wav",35
Sample,95239,0,"kick.wav",70
Sample,95396,0,"hihat.wav",35
Sample,95553,0,"kick.wav",70
Sample,95710,0,"kick.wav",70
Sample,95710,0,"hihat.wav",35
Sample,95867,0,"kick.wav",70
Sample,96024,0,"kick.wav",70
Sample,96024,0,"hihat.wav",35
Sample,96181,0,"drum.wav",70
Sample,96338,0,"hihat.wav",35
Sample,96495,0,"kick.wav",70
Sample,96652,0,"kick.wav",70
Sample,96652,0,"hihat.wav",35
Sample,96809,0,"kick.wav",70
Sample,96966,0,"hihat.wav",35
Sample,97124,0,"kick.wav",70
Sample,97124,0,"hihat.wav",35
Sample,97281,0,"kick.wav",70
Sample,97281,0,"hihat.wav",35
Sample,97438,0,"drum.wav",70
Sample,98066,0,"kick.wav",70
Sample,98223,0,"hihat.wav",35
Sample,98223,0,"kick.wav",70
Sample,98380,0,"kick.wav",70
Sample,98537,0,"hihat.wav",35
Sample,98538,0,"kick.wav",70
Sample,98694,0,"drum.wav",70
Sample,98851,0,"hihat.wav",35
Sample,99008,0,"kick.wav",70
Sample,99165,0,"kick.wav",70
Sample,99323,0,"kick.wav",70
Sample,99480,0,"hihat.wav",35
Sample,99637,0,"hihat.wav",35
Sample,99637,0,"kick.wav",70
Sample,99794,0,"kick.wav",70
Sample,99951,0,"drum.wav",70
Sample,100579,0,"kick.wav",70
Sample,100736,0,"hihat.wav",35
Sample,101207,0,"drum.wav",70
Sample,102150,0,"hihat.wav",35
Sample,103721,0,"bell.wav",50
Sample,104349,0,"bell.wav",40
Sample,104977,0,"bell.wav",30
Sample,113145,0,"bell.wav",60
Sample,114401,0,"bell.wav",40
Sample,115658,0,"bell.wav",20
Sample,123825,0,"bell.wav",50
Sample,139532,0,"kick.wav",70
Sample,140160,0,"kick.wav",70
Sample,140788,0,"snare.wav",70
Sample,141417,0,"snare.wav",70
Sample,142987,0,"drum.wav",70
Sample,143223,0,"kick.wav",70
Sample,153119,0,"kick.wav",70
Sample,153275,0,"kick.wav",70
Sample,153354,0,"bell.wav",60
Sample,163171,0,"kick.wav",70
Sample,163328,0,"kick.wav",70
Sample,166862,0,"snare.wav",70
Sample,173223,0,"kick.wav",70
Sample,173381,0,"kick.wav",70
Sample,183904,0,"kick.wav",70
Sample,184061,0,"kick.wav",70
Sample,185710,0,"drum.wav",70
Sample,186024,0,"bell.wav",60
Sample,186652,0,"bell.wav",50
Sample,187909,0,"bell.wav",30
Sample,189166,0,"bell.wav",10
Sample,206129,0,"bell.wav",60
Sample,221286,0,"kick.wav",70
Sample,221443,0,"kick.wav",70
Sample,221600,0,"kick.wav",70
Sample,221757,0,"kick.wav",70
Sample,221915,0,"kick.wav",70
Sample,222072,0,"kick.wav",70
Sample,222229,0,"kick.wav",70
Sample,222386,0,"kick.wav",70
Sample,222543,0,"kick.wav",70
Sample,222700,0,"kick.wav",70
Sample,223485,0,"kick.wav",70
Sample,226234,0,"bell.wav",60
Sample,236051,0,"kick.wav",70
Sample,236207,0,"kick.wav",70
Sample,246103,0,"kick.wav",70
Sample,246338,0,"crash-cymbol.wav",70
Sample,246338,0,"bell.wav",60
Sample,256155,0,"kick.wav",70
Sample,266443,0,"bell.wav",60
Sample,272412,0,"kick.wav",70
Sample,273668,0,"snare.wav",70
Sample,274925,0,"kick.wav",70
Sample,275396,0,"hihat.wav",35
Sample,275710,0,"hihat.wav",35
Sample,276024,0,"hihat.wav",35
Sample,276260,0,"kick.wav",70
Sample,276417,0,"kick.wav",70
Sample,284114,0,"kick.wav",70
Sample,284271,0,"kick.wav",70
Sample,284428,0,"kick.wav",70
Sample,284585,0,"kick.wav",70
Sample,286234,0,"snare.wav",70
Sample,286548,0,"bell.wav",60
Sample,287176,0,"bell.wav",50
Sample,287805,0,"bell.wav",40
Sample,288433,0,"bell.wav",30
Sample,289061,0,"bell.wav",20
Sample,289061,0,"kick.wav",70
Sample,289689,0,"bell.wav",10
Sample,291574,0,"kick.wav",70
Sample,296600,0,"bell.wav",60
Sample,297857,0,"bell.wav",40
Sample,299113,0,"bell.wav",20
Sample,301626,0,"crash-cymbol.wav",70
Sample,306338,0,"drum.wav",70
Sample,306652,0,"bell.wav",60
Sample,306652,0,"kick.wav",70
Sample,326286,0,"kick.wav",70
Sample,326757,0,"bell.wav",60
Sample,336809,0,"bell.wav",60
Sample,346862,0,"crash-cymbol.wav",70
Sample,346862,0,"bell.wav",50
Sample,346862,0,"kick.wav",70
Sample,349375,0,"bell.wav",40
Sample,350003,0,"bell.wav",30
Sample,350631,0,"bell.wav",20
Sample,351260,0,"bell.wav",10
Sample,351888,0,"bell.wav",10

[TimingPoints]
56,314.13612565445,4,2,0,75,1,0
19689,-90.9090909090909,4,2,0,75,0,0
19768,-111.111111111111,4,2,0,75,0,0
19846,-83.3333333333333,4,2,0,75,0,0
19925,-125,4,2,0,75,0,0
20003,-76.9230769230769,4,2,0,75,0,0
20082,-142.857142857143,4,2,0,75,0,0
20160,-100,4,2,0,75,0,0
80475,-62.5,4,2,0,75,0,0
80514,-100,4,2,0,75,0,0
101521,-102.040816326531,4,2,0,75,0,0
101836,-104.166666666667,4,2,0,75,0,0
102150,-106.382978723404,4,2,0,75,0,0
102464,-108.695652173913,4,2,0,75,0,0
102778,-79.9999999999999,4,2,0,75,0,0
102857,-133.333333333333,4,2,0,75,0,0
102935,-79.9999999999999,4,2,0,75,0,0
103014,-133.333333333333,4,2,0,75,0,0
103092,-100,4,2,0,75,0,0
143302,-100,4,2,0,75,0,1
186024,-100,4,2,0,75,0,0
226234,-100,4,2,0,75,0,1
285291,-100,4,2,0,75,0,0
286548,-100,4,2,0,75,0,1
306652,-100,4,2,0,75,0,0
316391,-76.9230769230769,4,2,0,75,0,0
316430,-100,4,2,0,75,0,0

[Colours]
Combo1 : 209,147,16
Combo2 : 185,91,198
Combo3 : 45,139,255
Combo4 : 250,160,174

[HitObjects]
320,192,56,5,0,0:0:0:35:hihat.wav
192,192,56,128,0,134:0:0:0:70:crash-cymbol.wav
448,192,213,1,0,0:0:0:35:hihat.wav
64,192,370,128,0,448:0:0:0:35:hihat.wav
448,192,527,1,0,0:0:0:35:hihat.wav
320,192,684,1,0,0:0:0:35:hihat.wav
192,192,841,1,0,0:0:0:35:hihat.wav
320,192,998,1,0,0:0:0:35:hihat.wav
64,192,1155,1,0,0:0:0:35:hihat.wav
192,192,1312,1,0,0:0:0:35:hihat.wav
448,192,1469,1,0,0:0:0:35:hihat.wav
320,192,1626,1,0,0:0:0:35:hihat.wav
448,192,1783,1,0,0:0:0:35:hihat.wav
192,192,1940,1,0,0:0:0:35:hihat.wav
448,192,2097,1,0,0:0:0:35:hihat.wav
64,192,2254,1,0,0:0:0:35:hihat.wav
320,192,2412,1,0,0:0:0:35:hihat.wav
64,192,2569,1,0,0:0:0:35:hihat.wav
192,192,2569,1,0,0:0:0:70:kick.wav
320,192,2726,1,0,0:0:0:35:hihat.wav
448,192,2883,1,0,0:0:0:35:hihat.wav
320,192,3040,1,0,0:0:0:35:hihat.wav
192,192,3197,1,0,0:0:0:35:hihat.wav
64,192,3354,1,0,0:0:0:35:hihat.wav
448,192,3511,1,0,0:0:0:35:hihat.wav
320,192,3668,1,0,0:0:0:35:hihat.wav
64,192,3825,1,0,0:0:0:70:kick.wav
448,192,3825,1,0,0:0:0:35:hihat.wav
192,192,3982,1,0,0:0:0:35:hihat.wav
64,192,4139,1,0,0:0:0:35:hihat.wav
448,192,4296,1,0,0:0:0:35:hihat.wav
320,192,4453,1,0,0:0:0:35:hihat.wav
192,192,4610,1,0,0:0:0:35:hihat.wav
320,192,4768,1,0,0:0:0:35:hihat.wav
64,192,4925,1,0,0:0:0:35:hihat.wav
320,192,5082,1,0,0:0:0:35:hihat.wav
192,192,5082,128,0,5160:0:0:0:70:kick.wav
448,192,5239,1,0,0:0:0:35:hihat.wav
64,192,5396,128,0,5474:0:0:0:35:hihat.wav
448,192,5553,1,0,0:0:0:35:hihat.wav
320,192,5710,1,0,0:0:0:35:hihat.wav
192,192,5867,1,0,0:0:0:35:hihat.wav
448,192,6024,1,0,0:0:0:35:hihat.wav
64,192,6181,1,0,0:0:0:35:hihat.wav
192,192,6338,1,0,0:0:0:35:hihat.wav
448,192,6495,1,0,0:0:0:35:hihat.wav
64,192,6652,1,0,0:0:0:35:hihat.wav
448,192,6809,1,0,0:0:0:35:hihat.wav
320,192,6966,1,0,0:0:0:35:hihat.wav
192,192,7124,1,0,0:0:0:35:hihat.wav
320,192,7281,1,0,0:0:0:35:hihat.wav
64,192,7438,1,0,0:0:0:35:hihat.wav
192,192,7595,1,0,0:0:0:35:hihat.wav
320,192,7595,1,0,0:0:0:70:kick.wav
64,192,7752,1,0,0:0:0:35:hihat.wav
192,192,7909,1,0,0:0:0:35:hihat.wav
320,192,8066,1,0,0:0:0:35:hihat.wav
448,192,8223,1,0,0:0:0:35:hihat.wav
192,192,8223,1,0,0:0:0:70:kick.wav
64,192,8380,1,0,0:0:0:35:hihat.wav
192,192,8537,1,0,0:0:0:35:hihat.wav
320,192,8694,1,0,0:0:0:35:hihat.wav
64,192,8851,1,0,0:0:0:35:hihat.wav
448,192,8851,1,0,0:0:0:70:kick.wav
192,192,9008,1,0,0:0:0:35:hihat.wav
448,192,9165,1,0,0:0:0:35:hihat.wav
320,192,9323,1,0,0:0:0:35:hihat.wav
64,192,9480,1,0,0:0:0:35:hihat.wav
192,192,9480,1,0,0:0:0:70:kick.wav
320,192,9637,1,0,0:0:0:35:hihat.wav
192,192,9794,1,0,0:0:0:35:hihat.wav
64,192,9951,1,0,0:0:0:35:hihat.wav
192,192,10108,1,0,0:0:0:35:hihat.wav
320,192,10108,1,0,0:0:0:70:kick.wav
448,192,10108,1,0,0:0:0:60:bell.wav
448,192,10736,1,0,0:0:0:35:hihat.wav
64,192,11050,1,0,0:0:0:35:hihat.wav
192,192,11050,1,0,0:0:0:70:kick.wav
192,192,11364,1,0,0:0:0:35:hihat.wav
64,192,11364,1,0,0:0:0:70:kick.wav
320,192,11993,1,0,0:0:0:35:hihat.wav
448,192,12621,1,0,0:0:0:35:hihat.wav
64,192,12621,1,0,0:0:0:70:kick.wav
192,192,13249,1,0,0:0:0:35:hihat.wav
320,192,13563,1,0,0:0:0:35:hihat.wav
448,192,13563,1,0,0:0:0:70:kick.wav
320,192,13877,1,0,0:0:0:35:hihat.wav
448,192,13877,1,0,0:0:0:70:kick.wav
320,192,14192,1,0,0:0:0:35:hihat.wav
448,192,14192,1,0,0:0:0:70:kick.wav
64,192,14506,1,0,0:0:0:35:hihat.wav
320,192,15134,1,0,0:0:0:35:hihat.wav
192,192,15134,1,0,0:0:0:70:kick.wav
448,192,15134,1,0,0:0:0:0:
64,192,15762,1,0,0:0:0:70:drum.wav
192,192,15762,1,0,0:0:0:35:hihat.wav
448,192,16076,1,0,0:0:0:35:hihat.wav
320,192,16076,1,0,0:0:0:70:kick.wav
64,192,16076,1,0,0:0:0:0:
320,192,16391,1,0,0:0:0:35:hihat.wav
448,192,16391,1,0,0:0:0:70:kick.wav
64,192,16391,1,0,0:0:0:0:
192,192,17019,1,0,0:0:0:35:hihat.wav
448,192,17019,1,0,0:0:0:70:drum.wav
320,192,17647,1,0,0:0:0:35:hihat.wav
64,192,17647,1,0,0:0:0:70:kick.wav
448,192,17647,1,0,0:0:0:0:
448,192,18275,1,0,0:0:0:35:hihat.wav
192,192,18275,1,0,0:0:0:70:snare.wav
192,192,18590,1,0,0:0:0:35:hihat.wav
64,192,18590,1,0,0:0:0:70:kick.wav
320,192,18590,1,0,0:0:0:0:
192,192,18904,1,0,0:0:0:35:hihat.wav
64,192,18904,1,0,0:0:0:70:kick.wav
320,192,18904,1,0,0:0:0:0:
192,192,19218,1,0,0:0:0:35:hihat.wav
64,192,19218,1,0,0:0:0:70:kick.wav
320,192,19218,1,0,0:0:0:0:
64,192,19532,1,0,0:0:0:35:hihat.wav
448,192,19532,1,0,0:0:0:70:snare.wav
64,192,19689,128,0,19768:0:0:0:35:hihat.wav
448,192,19689,128,0,19768:0:0:0:70:kick.wav
320,192,19846,128,0,19925:0:0:0:35:hihat.wav
64,192,19846,128,0,19925:0:0:0:70:kick.wav
192,192,20003,128,0,20082:0:0:0:35:hihat.wav
64,192,20003,128,0,20082:0:0:0:70:kick.wav
64,192,20160,5,0,0:0:0:70:crash-cymbol.wav
448,192,20160,1,0,0:0:0:70:kick.wav
192,192,20160,1,0,0:0:0:35:hihat.wav
320,192,20160,1,0,0:0:0:60:bell.wav
192,192,20317,1,0,0:0:0:35:hihat.wav
320,192,20474,1,0,0:0:0:35:hihat.wav
64,192,20474,1,0,0:0:0:0:
448,192,20631,1,0,0:0:0:35:hihat.wav
64,192,20788,1,0,0:0:0:70:drum.wav
448,192,20788,1,0,0:0:0:70:snare.wav
320,192,20788,1,0,0:0:0:35:hihat.wav
320,192,20946,1,0,0:0:0:35:hihat.wav
192,192,21103,1,0,0:0:0:35:hihat.wav
448,192,21103,1,0,0:0:0:70:kick.wav
64,192,21260,1,0,0:0:0:35:hihat.wav
448,192,21417,1,0,0:0:0:35:hihat.wav
64,192,21417,1,0,0:0:0:70:kick.wav
320,192,21574,1,0,0:0:0:35:hihat.wav
192,192,21731,1,0,0:0:0:35:hihat.wav
64,192,21731,1,0,0:0:0:0:
448,192,21888,1,0,0:0:0:35:hihat.wav
192,192,22045,1,0,0:0:0:35:hihat.wav
64,192,22045,1,0,0:0:0:70:snare.wav
320,192,22045,1,0,0:0:0:70:drum.wav
64,192,22202,1,0,0:0:0:35:hihat.wav
192,192,22359,1,0,0:0:0:35:hihat.wav
448,192,22359,1,0,0:0:0:0:
320,192,22516,1,0,0:0:0:35:hihat.wav
448,192,22673,1,0,0:0:0:35:hihat.wav
64,192,22673,1,0,0:0:0:70:kick.wav
192,192,22830,1,0,0:0:0:35:hihat.wav
64,192,22909,1,0,0:0:0:0:
320,192,22987,1,0,0:0:0:35:hihat.wav
448,192,22987,1,0,0:0:0:0:
64,192,23145,1,0,0:0:0:35:hihat.wav
448,192,23302,1,0,0:0:0:35:hihat.wav
192,192,23302,1,0,0:0:0:70:snare.wav
320,192,23302,1,0,0:0:0:70:drum.wav
320,192,23459,1,0,0:0:0:35:hihat.wav
64,192,23616,1,0,0:0:0:35:hihat.wav
448,192,23773,1,0,0:0:0:35:hihat.wav
64,192,23930,1,0,0:0:0:35:hihat.wav
320,192,23930,1,0,0:0:0:70:kick.wav
192,192,24087,1,0,0:0:0:35:hihat.wav
64,192,24244,1,0,0:0:0:35:hihat.wav
320,192,24323,1,0,0:0:0:0:
448,192,24401,1,0,0:0:0:35:hihat.wav
192,192,24401,1,0,0:0:0:0:
320,192,24558,1,0,0:0:0:35:hihat.wav
64,192,24558,1,0,0:0:0:70:snare.wav
448,192,24558,1,0,0:0:0:70:drum.wav
64,192,24715,1,0,0:0:0:35:hihat.wav
192,192,24715,1,0,0:0:0:0:
448,192,24872,1,0,0:0:0:35:hihat.wav
320,192,24872,1,0,0:0:0:0:
320,192,25029,1,0,0:0:0:35:hihat.wav
192,192,25029,1,0,0:0:0:0:
448,192,25186,1,0,0:0:0:35:hihat.wav
64,192,25186,1,0,0:0:0:70:kick.wav
192,192,25343,1,0,0:0:0:35:hihat.wav
64,192,25501,1,0,0:0:0:35:hihat.wav
448,192,25501,1,0,0:0:0:0:
320,192,25658,1,0,0:0:0:35:hihat.wav
192,192,25815,1,0,0:0:0:35:hihat.wav
64,192,25815,1,0,0:0:0:70:snare.wav
320,192,25815,1,0,0:0:0:70:drum.wav
64,192,25972,1,0,0:0:0:35:hihat.wav
320,192,26129,1,0,0:0:0:35:hihat.wav
448,192,26129,1,0,0:0:0:70:kick.wav
64,192,26286,1,0,0:0:0:35:hihat.wav
192,192,26443,1,0,0:0:0:35:hihat.wav
448,192,26443,1,0,0:0:0:70:kick.wav
448,192,26600,1,0,0:0:0:35:hihat.wav
320,192,26757,1,0,0:0:0:35:hihat.wav
64,192,26757,1,0,0:0:0:0:
320,192,26914,1,0,0:0:0:35:hihat.wav
448,192,27071,1,0,0:0:0:35:hihat.wav
64,192,27071,1,0,0:0:0:70:snare.wav
192,192,27071,1,0,0:0:0:70:drum.wav
320,192,27228,1,0,0:0:0:35:hihat.wav
448,192,27385,1,0,0:0:0:35:hihat.wav
192,192,27385,1,0,0:0:0:0:
64,192,27542,1,0,0:0:0:35:hihat.wav
320,192,27699,1,0,0:0:0:35:hihat.wav
448,192,27699,1,0,0:0:0:70:kick.wav
64,192,27857,1,0,0:0:0:35:hihat.wav
320,192,27935,1,0,0:0:0:0:
192,192,28014,1,0,0:0:0:35:hihat.wav
448,192,28171,1,0,0:0:0:35:hihat.wav
320,192,28328,1,0,0:0:0:35:hihat.wav
64,192,28328,1,0,0:0:0:70:snare.wav
448,192,28328,1,0,0:0:0:70:drum.wav
320,192,28485,1,0,0:0:0:35:hihat.wav
192,192,28642,1,0,0:0:0:35:hihat.wav
448,192,28799,1,0,0:0:0:35:hihat.wav
64,192,28956,1,0,0:0:0:35:hihat.wav
320,192,28956,1,0,0:0:0:70:kick.wav
448,192,29113,1,0,0:0:0:35:hihat.wav
320,192,29192,1,0,0:0:0:0:
192,192,29270,1,0,0:0:0:35:hihat.wav
64,192,29270,1,0,0:0:0:70:kick.wav
320,192,29427,1,0,0:0:0:35:hihat.wav
448,192,29427,1,0,0:0:0:0:
64,192,29584,1,0,0:0:0:35:hihat.wav
448,192,29584,1,0,0:0:0:70:snare.wav
192,192,29584,1,0,0:0:0:70:drum.wav
192,192,29741,1,0,0:0:0:35:hihat.wav
320,192,29741,1,0,0:0:0:0:
448,192,29820,1,0,0:0:0:0:
320,192,29898,1,0,0:0:0:35:hihat.wav
64,192,29898,1,0,0:0:0:70:kick.wav
64,192,30055,1,0,0:0:0:35:hihat.wav
448,192,30055,1,0,0:0:0:0:
192,192,30213,1,0,0:0:0:35:hihat.wav
448,192,30213,1,0,0:0:0:70:crash-cymbol.wav
320,192,30370,1,0,0:0:0:35:hihat.wav
64,192,30527,1,0,0:0:0:35:hihat.wav
448,192,30527,1,0,0:0:0:70:kick.wav
192,192,30684,1,0,0:0:0:35:hihat.wav
448,192,30841,1,0,0:0:0:35:hihat.wav
320,192,30841,1,0,0:0:0:70:kick.wav
64,192,30841,1,0,0:0:0:70:snare.wav
448,192,30998,1,0,0:0:0:35:hihat.wav
192,192,31155,1,0,0:0:0:35:hihat.wav
64,192,31155,1,0,0:0:0:70:kick.wav
320,192,31312,1,0,0:0:0:35:hihat.wav
448,192,31469,1,0,0:0:0:35:hihat.wav
64,192,31469,1,0,0:0:0:70:kick.wav
192,192,31626,1,0,0:0:0:35:hihat.wav
320,192,31783,1,0,0:0:0:35:hihat.wav
448,192,31783,1,0,0:0:0:0:
192,192,31940,1,0,0:0:0:35:hihat.wav
320,192,32097,1,0,0:0:0:35:hihat.wav
64,192,32097,1,0,0:0:0:70:kick.wav
448,192,32097,1,0,0:0:0:70:snare.wav
448,192,32254,1,0,0:0:0:35:hihat.wav
64,192,32412,1,0,0:0:0:35:hihat.wav
192,192,32412,1,0,0:0:0:70:kick.wav
448,192,32569,1,0,0:0:0:35:hihat.wav
320,192,32726,1,0,0:0:0:35:hihat.wav
192,192,32726,1,0,0:0:0:70:kick.wav
64,192,32883,1,0,0:0:0:35:hihat.wav
448,192,33040,1,0,0:0:0:35:hihat.wav
64,192,33040,1,0,0:0:0:70:kick.wav
192,192,33197,1,0,0:0:0:35:hihat.wav
320,192,33354,1,0,0:0:0:35:hihat.wav
448,192,33354,1,0,0:0:0:70:kick.wav
64,192,33354,1,0,0:0:0:70:snare.wav
448,192,33511,1,0,0:0:0:35:hihat.wav
320,192,33668,1,0,0:0:0:35:hihat.wav
64,192,33668,1,0,0:0:0:70:kick.wav
192,192,33825,1,0,0:0:0:35:hihat.wav
64,192,33982,1,0,0:0:0:35:hihat.wav
448,192,33982,1,0,0:0:0:70:kick.wav
192,192,34139,1,0,0:0:0:35:hihat.wav
64,192,34218,1,0,0:0:0:0:
320,192,34296,1,0,0:0:0:35:hihat.wav
448,192,34296,1,0,0:0:0:70:kick.wav
192,192,34453,1,0,0:0:0:35:hihat.wav
448,192,34453,1,0,0:0:0:0:
64,192,34610,1,0,0:0:0:35:hihat.wav
320,192,34610,1,0,0:0:0:70:kick.wav
192,192,34610,1,0,0:0:0:70:snare.wav
64,192,34768,1,0,0:0:0:35:hihat.wav
448,192,34768,1,0,0:0:0:0:
192,192,34925,1,0,0:0:0:35:hihat.wav
448,192,34925,1,0,0:0:0:70:kick.wav
320,192,35082,1,0,0:0:0:35:hihat.wav
448,192,35082,1,0,0:0:0:0:
320,192,35239,1,0,0:0:0:35:hihat.wav
64,192,35239,1,0,0:0:0:70:kick.wav
192,192,35396,1,0,0:0:0:35:hihat.wav
448,192,35396,1,0,0:0:0:70:kick.wav
64,192,35553,1,0,0:0:0:35:hihat.wav
448,192,35553,1,0,0:0:0:0:
320,192,35710,1,0,0:0:0:35:hihat.wav
192,192,35710,1,0,0:0:0:70:kick.wav
192,192,35867,1,0,0:0:0:35:hihat.wav
448,192,35867,1,0,0:0:0:70:kick.wav
320,192,35867,1,0,0:0:0:70:snare.wav
448,192,36024,1,0,0:0:0:35:hihat.wav
64,192,36024,1,0,0:0:0:70:kick.wav
192,192,36181,1,0,0:0:0:35:hihat.wav
64,192,36181,1,0,0:0:0:0:
320,192,36338,1,0,0:0:0:35:hihat.wav
448,192,36338,1,0,0:0:0:70:kick.wav
448,192,36495,1,0,0:0:0:35:hihat.wav
192,192,36495,1,0,0:0:0:70:kick.wav
64,192,36652,1,0,0:0:0:35:hihat.wav
192,192,36652,1,0,0:0:0:70:kick.wav
64,192,36809,1,0,0:0:0:35:hihat.wav
320,192,36809,1,0,0:0:0:70:kick.wav
192,192,36966,1,0,0:0:0:35:hihat.wav
448,192,36966,1,0,0:0:0:70:kick.wav
448,192,37124,1,0,0:0:0:35:hihat.wav
64,192,37124,1,0,0:0:0:70:kick.wav
192,192,37124,1,0,0:0:0:70:snare.wav
192,192,37281,1,0,0:0:0:35:hihat.wav
320,192,37281,1,0,0:0:0:70:kick.wav
320,192,37438,1,0,0:0:0:35:hihat.wav
448,192,37438,1,0,0:0:0:70:kick.wav
192,192,37595,1,0,0:0:0:35:hihat.wav
64,192,37595,1,0,0:0:0:70:kick.wav
320,192,37752,1,0,0:0:0:35:hihat.wav
448,192,37752,1,0,0:0:0:70:kick.wav
192,192,37830,1,0,0:0:0:0:
64,192,37909,1,0,0:0:0:35:hihat.wav
320,192,37987,1,0,0:0:0:0:
448,192,38066,1,0,0:0:0:35:hihat.wav
64,192,38145,1,0,0:0:0:70:kick.wav
192,192,38223,1,0,0:0:0:35:hihat.wav
448,192,38302,1,0,0:0:0:70:kick.wav
320,192,38380,1,0,0:0:0:35:hihat.wav
64,192,38380,1,0,0:0:0:70:kick.wav
192,192,38459,1,0,0:0:0:70:kick.wav
448,192,38537,1,0,0:0:0:35:hihat.wav
64,192,38616,1,0,0:0:0:70:kick.wav
320,192,38694,1,0,0:0:0:35:hihat.wav
192,192,38734,1,0,0:0:0:0:
64,192,38773,1,0,0:0:0:0:
448,192,38851,1,0,0:0:0:35:hihat.wav
320,192,38891,1,0,0:0:0:0:
192,192,38930,1,0,0:0:0:0:
64,192,39008,1,0,0:0:0:35:hihat.wav
448,192,39008,1,0,0:0:0:0:
192,192,39165,1,0,0:0:0:35:hihat.wav
448,192,39323,1,0,0:0:0:35:hihat.wav
320,192,39480,1,0,0:0:0:35:hihat.wav
448,192,39637,1,0,0:0:0:35:hihat.wav
320,192,39794,1,0,0:0:0:35:hihat.wav
192,192,39951,1,0,0:0:0:35:hihat.wav
64,192,40108,1,0,0:0:0:35:hihat.wav
320,192,40265,1,0,0:0:0:70:crash-cymbol.wav
448,192,40265,1,0,0:0:0:70:kick.wav
0,0,40265,1,0,0:0:0:70:cymbol.wav
192,192,40422,1,0,0:0:0:35:hihat.wav
64,192,40579,1,0,0:0:0:70:kick.wav
320,192,40579,1,0,0:0:0:0:
448,192,40736,1,0,0:0:0:35:hihat.wav
192,192,40893,1,0,0:0:0:70:kick.wav
320,192,40893,1,0,0:0:0:50:bell.wav
64,192,40972,1,0,0:0:0:0:
448,192,41050,1,0,0:0:0:35:hihat.wav
320,192,41129,1,0,0:0:0:0:
64,192,41207,1,0,0:0:0:70:kick.wav
192,192,41207,1,0,0:0:0:0:
320,192,41364,1,0,0:0:0:35:hihat.wav
192,192,41521,1,0,0:0:0:70:kick.wav
448,192,41521,1,0,0:0:0:40:bell.wav
320,192,41600,1,0,0:0:0:0:
192,192,41679,1,0,0:0:0:35:hihat.wav
64,192,41757,1,0,0:0:0:0:
320,192,41836,1,0,0:0:0:70:kick.wav
448,192,41836,1,0,0:0:0:0:
192,192,41993,1,0,0:0:0:35:hihat.wav
64,192,42150,1,0,0:0:0:70:kick.wav
448,192,42150,1,0,0:0:0:30:bell.wav
320,192,42228,1,0,0:0:0:0:
192,192,42307,1,0,0:0:0:35:hihat.wav
64,192,42385,1,0,0:0:0:0:
320,192,42464,1,0,0:0:0:70:kick.wav
448,192,42464,1,0,0:0:0:0:
64,192,42621,1,0,0:0:0:35:hihat.wav
192,192,42778,1,0,0:0:0:70:kick.wav
320,192,42778,1,0,0:0:0:20:bell.wav
448,192,42857,1,0,0:0:0:0:
64,192,42935,1,0,0:0:0:35:hihat.wav
192,192,43014,1,0,0:0:0:0:
320,192,43092,1,0,0:0:0:70:kick.wav
448,192,43092,1,0,0:0:0:0:
192,192,43249,1,0,0:0:0:35:hihat.wav
64,192,43406,1,0,0:0:0:70:kick.wav
320,192,43406,1,0,0:0:0:10:bell.wav
192,192,43485,1,0,0:0:0:0:
320,192,43563,1,0,0:0:0:35:hihat.wav
448,192,43642,1,0,0:0:0:0:
64,192,43720,1,0,0:0:0:70:kick.wav
192,192,43720,1,0,0:0:0:0:
320,192,43877,1,0,0:0:0:35:hihat.wav
64,192,44035,1,0,0:0:0:70:kick.wav
448,192,44035,1,0,0:0:0:0:
192,192,44113,1,0,0:0:0:0:
320,192,44192,1,0,0:0:0:35:hihat.wav
448,192,44270,1,0,0:0:0:0:
64,192,44349,1,0,0:0:0:70:kick.wav
192,192,44349,1,0,0:0:0:0:
448,192,44506,1,0,0:0:0:35:hihat.wav
192,192,44663,1,0,0:0:0:70:kick.wav
320,192,44663,1,0,0:0:0:0:
64,192,44741,1,0,0:0:0:0:
448,192,44820,1,0,0:0:0:35:hihat.wav
320,192,44898,1,0,0:0:0:0:
64,192,44977,1,0,0:0:0:70:kick.wav
192,192,44977,1,0,0:0:0:0:
320,192,45134,1,0,0:0:0:70:kick.wav
448,192,45134,1,0,0:0:0:0:
64,192,45291,1,0,0:0:0:70:kick.wav
192,192,45291,1,0,0:0:0:0:
320,192,45370,1,0,0:0:0:0:
448,192,45448,1,0,0:0:0:35:hihat.wav
64,192,45527,1,0,0:0:0:0:
192,192,45605,1,0,0:0:0:70:kick.wav
320,192,45605,1,0,0:0:0:0:
64,192,45762,1,0,0:0:0:35:hihat.wav
320,192,45919,1,0,0:0:0:70:kick.wav
448,192,45919,1,0,0:0:0:0:
192,192,45998,1,0,0:0:0:0:
320,192,46076,1,0,0:0:0:35:hihat.wav
448,192,46155,1,0,0:0:0:0:
64,192,46234,1,0,0:0:0:70:kick.wav
320,192,46234,1,0,0:0:0:0:
192,192,46391,1,0,0:0:0:35:hihat.wav
320,192,46548,1,0,0:0:0:70:kick.wav
448,192,46548,1,0,0:0:0:0:
64,192,46626,1,0,0:0:0:0:
192,192,46705,1,0,0:0:0:35:hihat.wav
320,192,46783,1,0,0:0:0:0:
64,192,46862,1,0,0:0:0:70:kick.wav
448,192,46862,1,0,0:0:0:0:
192,192,47019,1,0,0:0:0:35:hihat.wav
320,192,47176,1,0,0:0:0:70:kick.wav
448,192,47176,1,0,0:0:0:0:
192,192,47254,1,0,0:0:0:0:
64,192,47333,1,0,0:0:0:35:hihat.wav
448,192,47412,1,0,0:0:0:0:
64,192,47490,1,0,0:0:0:70:kick.wav
192,192,47490,1,0,0:0:0:0:
448,192,47647,1,0,0:0:0:35:hihat.wav
64,192,47804,1,0,0:0:0:70:kick.wav
192,192,47804,1,0,0:0:0:0:
320,192,47883,1,0,0:0:0:0:
448,192,47961,1,0,0:0:0:35:hihat.wav
64,192,48040,1,0,0:0:0:0:
320,192,48118,1,0,0:0:0:70:kick.wav
192,192,48118,1,0,0:0:0:0:
64,192,48275,1,0,0:0:0:35:hihat.wav
448,192,48432,1,0,0:0:0:70:kick.wav
320,192,48432,1,0,0:0:0:0:
192,192,48511,1,0,0:0:0:0:
64,192,48590,1,0,0:0:0:35:hihat.wav
448,192,48668,1,0,0:0:0:0:
192,192,48747,1,0,0:0:0:70:kick.wav
320,192,48747,1,0,0:0:0:0:
448,192,48904,1,0,0:0:0:35:hihat.wav
64,192,49061,1,0,0:0:0:70:kick.wav
320,192,49061,1,0,0:0:0:0:
192,192,49218,1,0,0:0:0:0:
192,192,49532,1,0,0:0:0:0:
64,192,49689,1,0,0:0:0:0:
448,192,49846,1,0,0:0:0:0:
320,192,50003,1,0,0:0:0:70:snare.wav
448,192,50003,1,0,0:0:0:70:drum.wav
192,192,50082,1,0,0:0:0:0:
64,192,50160,1,0,0:0:0:0:
448,192,50239,1,0,0:0:0:0:
64,192,50317,1,0,0:0:0:70:kick.wav
192,192,50317,1,0,0:0:0:70:crash-cymbol.wav
320,192,50317,1,0,0:0:0:60:bell.wav
448,192,50396,1,0,0:0:0:0:
320,192,50474,1,0,0:0:0:35:hihat.wav
192,192,50553,1,0,0:0:0:0:
320,192,50631,1,0,0:0:0:70:snare.wav
448,192,50631,1,0,0:0:0:0:
64,192,50710,1,0,0:0:0:0:
192,192,50788,1,0,0:0:0:35:hihat.wav
320,192,50867,1,0,0:0:0:0:
64,192,50946,1,0,0:0:0:70:kick.wav
192,192,50946,1,0,0:0:0:50:bell.wav
448,192,51024,1,0,0:0:0:0:
320,192,51103,1,0,0:0:0:35:hihat.wav
192,192,51181,1,0,0:0:0:0:
320,192,51260,1,0,0:0:0:70:snare.wav
448,192,51260,1,0,0:0:0:0:
64,192,51338,1,0,0:0:0:0:
192,192,51417,1,0,0:0:0:35:hihat.wav
320,192,51495,1,0,0:0:0:0:
64,192,51574,1,0,0:0:0:70:kick.wav
448,192,51574,1,0,0:0:0:40:bell.wav
320,192,51652,1,0,0:0:0:0:
192,192,51731,1,0,0:0:0:35:hihat.wav
64,192,51809,1,0,0:0:0:0:
320,192,51888,1,0,0:0:0:70:snare.wav
448,192,51888,1,0,0:0:0:0:
192,192,51966,1,0,0:0:0:0:
320,192,52045,1,0,0:0:0:35:hihat.wav
448,192,52124,1,0,0:0:0:0:
64,192,52202,1,0,0:0:0:70:kick.wav
192,192,52202,1,0,0:0:0:30:bell.wav
320,192,52281,1,0,0:0:0:0:
192,192,52359,1,0,0:0:0:35:hihat.wav
64,192,52438,1,0,0:0:0:0:
320,192,52516,1,0,0:0:0:70:snare.wav
448,192,52516,1,0,0:0:0:0:
192,192,52595,1,0,0:0:0:0:
320,192,52673,1,0,0:0:0:35:hihat.wav
448,192,52752,1,0,0:0:0:0:
64,192,52830,1,0,0:0:0:70:kick.wav
192,192,52830,1,0,0:0:0:20:bell.wav
320,192,52909,1,0,0:0:0:0:
192,192,52987,1,0,0:0:0:35:hihat.wav
320,192,53066,1,0,0:0:0:0:
64,192,53145,1,0,0:0:0:70:snare.wav
192,192,53145,1,0,0:0:0:0:
448,192,53223,1,0,0:0:0:0:
320,192,53302,1,0,0:0:0:35:hihat.wav
192,192,53380,1,0,0:0:0:0:
320,192,53459,1,0,0:0:0:70:kick.wav
448,192,53459,1,0,0:0:0:10:bell.wav
64,192,53537,1,0,0:0:0:0:
448,192,53616,1,0,0:0:0:35:hihat.wav
64,192,53694,1,0,0:0:0:0:
320,192,53773,1,0,0:0:0:70:snare.wav
448,192,53773,1,0,0:0:0:0:
192,192,53851,1,0,0:0:0:0:
320,192,53930,1,0,0:0:0:35:hihat.wav
448,192,54008,1,0,0:0:0:0:
64,192,54087,1,0,0:0:0:70:kick.wav
192,192,54087,1,0,0:0:0:0:
320,192,54165,1,0,0:0:0:0:
192,192,54244,1,0,0:0:0:35:hihat.wav
320,192,54323,1,0,0:0:0:0:
64,192,54401,1,0,0:0:0:70:snare.wav
192,192,54401,1,0,0:0:0:0:
448,192,54480,1,0,0:0:0:0:
320,192,54558,1,0,0:0:0:35:hihat.wav
192,192,54637,1,0,0:0:0:0:
320,192,54715,1,0,0:0:0:70:kick.wav
448,192,54715,1,0,0:0:0:0:
64,192,54794,1,0,0:0:0:0:
448,192,54872,1,0,0:0:0:35:hihat.wav
64,192,54951,1,0,0:0:0:0:
320,192,55029,1,0,0:0:0:70:snare.wav
448,192,55029,1,0,0:0:0:0:
192,192,55108,1,0,0:0:0:0:
64,192,55186,1,0,0:0:0:70:kick.wav
448,192,55186,1,0,0:0:0:0:
320,192,55265,1,0,0:0:0:0:
64,192,55343,1,0,0:0:0:70:kick.wav
192,192,55343,1,0,0:0:0:0:
320,192,55422,1,0,0:0:0:0:
448,192,55501,1,0,0:0:0:35:hihat.wav
192,192,55579,1,0,0:0:0:0:
448,192,55658,1,0,0:0:0:70:snare.wav
320,192,55658,1,0,0:0:0:0:
64,192,55736,1,0,0:0:0:0:
320,192,55815,1,0,0:0:0:35:hihat.wav
64,192,55893,1,0,0:0:0:0:
320,192,55972,1,0,0:0:0:70:kick.wav
448,192,55972,1,0,0:0:0:0:
192,192,56050,1,0,0:0:0:0:
64,192,56129,1,0,0:0:0:35:hihat.wav
320,192,56207,1,0,0:0:0:0:
192,192,56286,1,0,0:0:0:70:snare.wav
64,192,56286,1,0,0:0:0:0:
448,192,56364,1,0,0:0:0:0:
192,192,56443,1,0,0:0:0:35:hihat.wav
448,192,56521,1,0,0:0:0:0:
64,192,56600,1,0,0:0:0:70:kick.wav
192,192,56600,1,0,0:0:0:0:
320,192,56679,1,0,0:0:0:0:
448,192,56757,1,0,0:0:0:35:hihat.wav
192,192,56836,1,0,0:0:0:0:
448,192,56914,1,0,0:0:0:70:snare.wav
320,192,56914,1,0,0:0:0:0:
64,192,56993,1,0,0:0:0:0:
320,192,57071,1,0,0:0:0:35:hihat.wav
64,192,57150,1,0,0:0:0:0:
320,192,57228,1,0,0:0:0:70:kick.wav
448,192,57228,1,0,0:0:0:0:
192,192,57307,1,0,0:0:0:0:
64,192,57385,1,0,0:0:0:35:hihat.wav
320,192,57464,1,0,0:0:0:0:
192,192,57542,1,0,0:0:0:70:snare.wav
64,192,57542,1,0,0:0:0:0:
448,192,57621,1,0,0:0:0:0:
192,192,57699,1,0,0:0:0:35:hihat.wav
448,192,57778,1,0,0:0:0:0:
64,192,57857,1,0,0:0:0:70:kick.wav
192,192,57857,1,0,0:0:0:0:
320,192,57935,1,0,0:0:0:0:
448,192,58014,1,0,0:0:0:35:hihat.wav
192,192,58092,1,0,0:0:0:0:
320,192,58171,1,0,0:0:0:70:snare.wav
448,192,58171,1,0,0:0:0:0:
64,192,58249,1,0,0:0:0:0:
320,192,58328,1,0,0:0:0:35:hihat.wav
64,192,58406,1,0,0:0:0:0:
320,192,58485,1,0,0:0:0:70:kick.wav
448,192,58485,1,0,0:0:0:0:
192,192,58563,1,0,0:0:0:0:
64,192,58642,1,0,0:0:0:35:hihat.wav
320,192,58720,1,0,0:0:0:0:
64,192,58799,1,0,0:0:0:70:snare.wav
192,192,58799,1,0,0:0:0:0:
448,192,58877,1,0,0:0:0:0:
192,192,58956,1,0,0:0:0:0:
448,192,59035,1,0,0:0:0:0:
64,192,59113,1,0,0:0:0:70:snare.wav
192,192,59113,1,0,0:0:0:0:
320,192,59270,1,0,0:0:0:0:
64,192,59427,1,0,0:0:0:70:snare.wav
192,192,59427,1,0,0:0:0:0:
448,192,59584,1,0,0:0:0:0:
64,192,59741,1,0,0:0:0:70:snare.wav
192,192,59741,1,0,0:0:0:0:
320,192,59898,5,0,0:0:0:70:kick.wav
64,192,59977,1,0,0:0:0:70:kick.wav
320,192,60055,1,0,0:0:0:70:kick.wav
448,192,60055,1,0,0:0:0:0:
192,192,60134,1,0,0:0:0:70:kick.wav
64,192,60213,1,0,0:0:0:70:kick.wav
448,192,60213,1,0,0:0:0:0:
320,192,60291,1,0,0:0:0:70:kick.wav
64,192,60370,5,0,0:0:0:70:crash-cymbol.wav
192,192,60370,1,0,0:0:0:70:cymbol.wav
448,192,60370,1,0,0:0:0:70:kick.wav
320,192,60527,1,0,0:0:0:35:hihat.wav
64,192,60684,1,0,0:0:0:70:kick.wav
448,192,60684,1,0,0:0:0:70:snare.wav
192,192,60841,1,0,0:0:0:35:hihat.wav
320,192,60998,1,0,0:0:0:70:kick.wav
448,192,60998,1,0,0:0:0:50:bell.wav
192,192,61155,1,0,0:0:0:35:hihat.wav
64,192,61312,1,0,0:0:0:70:kick.wav
448,192,61312,1,0,0:0:0:70:snare.wav
320,192,61469,1,0,0:0:0:35:hihat.wav
192,192,61626,1,0,0:0:0:70:kick.wav
64,192,61626,1,0,0:0:0:40:bell.wav
320,192,61783,1,0,0:0:0:35:hihat.wav
448,192,61940,1,0,0:0:0:70:kick.wav
320,192,61940,1,0,0:0:0:70:snare.wav
192,192,62097,1,0,0:0:0:35:hihat.wav
192,192,62254,1,0,0:0:0:70:kick.wav
64,192,62254,1,0,0:0:0:30:bell.wav
320,192,62412,1,0,0:0:0:35:hihat.wav
448,192,62569,1,0,0:0:0:70:kick.wav
64,192,62569,1,0,0:0:0:70:snare.wav
320,192,62726,1,0,0:0:0:35:hihat.wav
192,192,62883,1,0,0:0:0:70:kick.wav
448,192,62883,1,0,0:0:0:20:bell.wav
320,192,63040,1,0,0:0:0:35:hihat.wav
64,192,63197,1,0,0:0:0:70:kick.wav
192,192,63197,1,0,0:0:0:70:snare.wav
448,192,63354,1,0,0:0:0:35:hihat.wav
64,192,63511,1,0,0:0:0:70:kick.wav
320,192,63511,1,0,0:0:0:10:bell.wav
192,192,63668,1,0,0:0:0:35:hihat.wav
448,192,63825,1,0,0:0:0:70:kick.wav
320,192,63825,1,0,0:0:0:70:snare.wav
192,192,63982,1,0,0:0:0:35:hihat.wav
64,192,64139,1,0,0:0:0:70:kick.wav
448,192,64139,1,0,0:0:0:0:
320,192,64296,1,0,0:0:0:35:hihat.wav
64,192,64453,1,0,0:0:0:70:kick.wav
448,192,64453,1,0,0:0:0:70:snare.wav
192,192,64610,1,0,0:0:0:35:hihat.wav
64,192,64768,1,0,0:0:0:70:kick.wav
448,192,64768,1,0,0:0:0:0:
320,192,64925,1,0,0:0:0:35:hihat.wav
448,192,65082,1,0,0:0:0:70:kick.wav
192,192,65082,1,0,0:0:0:70:snare.wav
64,192,65160,1,0,0:0:0:0:
320,192,65239,1,0,0:0:0:70:snare.wav
448,192,65239,1,0,0:0:0:0:
192,192,65317,1,0,0:0:0:0:
64,192,65396,1,0,0:0:0:70:kick.wav
448,192,65396,1,0,0:0:0:0:
192,192,65553,1,0,0:0:0:35:hihat.wav
64,192,65710,1,0,0:0:0:70:snare.wav
320,192,65710,1,0,0:0:0:70:kick.wav
448,192,65867,1,0,0:0:0:35:hihat.wav
64,192,66024,1,0,0:0:0:70:kick.wav
192,192,66024,1,0,0:0:0:0:
320,192,66181,1,0,0:0:0:35:hihat.wav
448,192,66338,1,0,0:0:0:70:kick.wav
192,192,66338,1,0,0:0:0:70:snare.wav
64,192,66495,1,0,0:0:0:35:hihat.wav
192,192,66652,1,0,0:0:0:70:kick.wav
448,192,66652,1,0,0:0:0:0:
320,192,66809,1,0,0:0:0:35:hihat.wav
192,192,66966,1,0,0:0:0:70:snare.wav
64,192,66966,1,0,0:0:0:70:kick.wav
448,192,67124,1,0,0:0:0:35:hihat.wav
320,192,67281,1,0,0:0:0:70:kick.wav
64,192,67281,1,0,0:0:0:0:
192,192,67438,1,0,0:0:0:35:hihat.wav
448,192,67595,1,0,0:0:0:70:snare.wav
64,192,67595,1,0,0:0:0:70:kick.wav
192,192,67752,1,0,0:0:0:35:hihat.wav
320,192,67909,1,0,0:0:0:70:kick.wav
448,192,67909,1,0,0:0:0:0:
64,192,68066,1,0,0:0:0:35:hihat.wav
192,192,68223,1,0,0:0:0:70:kick.wav
448,192,68223,1,0,0:0:0:70:snare.wav
320,192,68380,1,0,0:0:0:35:hihat.wav
64,192,68537,1,0,0:0:0:70:kick.wav
448,192,68537,1,0,0:0:0:0:
192,192,68694,1,0,0:0:0:35:hihat.wav
64,192,68851,1,0,0:0:0:70:kick.wav
320,192,68851,1,0,0:0:0:70:snare.wav
448,192,69008,1,0,0:0:0:35:hihat.wav
64,192,69165,1,0,0:0:0:70:kick.wav
320,192,69165,1,0,0:0:0:0:
192,192,69323,1,0,0:0:0:35:hihat.wav
448,192,69480,1,0,0:0:0:70:snare.wav
320,192,69480,1,0,0:0:0:70:kick.wav
192,192,69637,1,0,0:0:0:35:hihat.wav
64,192,69794,1,0,0:0:0:70:kick.wav
448,192,69794,1,0,0:0:0:0:
320,192,69951,1,0,0:0:0:35:hihat.wav
64,192,70108,1,0,0:0:0:70:kick.wav
192,192,70108,1,0,0:0:0:0:
320,192,70186,1,0,0:0:0:0:
448,192,70186,1,0,0:0:0:0:
64,192,70265,1,0,0:0:0:70:kick.wav
192,192,70265,1,0,0:0:0:0:
320,192,70343,1,0,0:0:0:70:kick.wav
448,192,70343,1,0,0:0:0:0:
448,192,70422,1,0,0:0:0:70:crash-cymbol.wav
192,192,70422,1,0,0:0:0:70:cymbol.wav
64,192,70422,1,0,0:0:0:70:kick.wav
320,192,70579,1,0,0:0:0:35:hihat.wav
192,192,70579,1,0,0:0:0:0:
448,192,70736,1,0,0:0:0:70:snare.wav
64,192,70736,1,0,0:0:0:70:kick.wav
192,192,70893,1,0,0:0:0:35:hihat.wav
320,192,70893,1,0,0:0:0:0:
320,192,71050,1,0,0:0:0:70:kick.wav
448,192,71050,1,0,0:0:0:50:bell.wav
64,192,71207,1,0,0:0:0:35:hihat.wav
192,192,71207,1,0,0:0:0:0:
192,192,71364,1,0,0:0:0:70:snare.wav
448,192,71364,1,0,0:0:0:70:kick.wav
320,192,71521,1,0,0:0:0:35:hihat.wav
64,192,71521,1,0,0:0:0:0:
64,192,71679,1,0,0:0:0:70:kick.wav
192,192,71679,1,0,0:0:0:40:bell.wav
448,192,71836,1,0,0:0:0:35:hihat.wav
320,192,71836,1,0,0:0:0:0:
64,192,71993,1,0,0:0:0:70:snare.wav
320,192,71993,1,0,0:0:0:70:kick.wav
448,192,72150,1,0,0:0:0:35:hihat.wav
192,192,72150,1,0,0:0:0:0:
448,192,72307,1,0,0:0:0:70:kick.wav
64,192,72307,1,0,0:0:0:30:bell.wav
320,192,72464,1,0,0:0:0:35:hihat.wav
192,192,72464,1,0,0:0:0:0:
320,192,72621,1,0,0:0:0:70:snare.wav
64,192,72621,1,0,0:0:0:70:kick.wav
192,192,72778,1,0,0:0:0:35:hihat.wav
320,192,72778,1,0,0:0:0:0:
64,192,72935,1,0,0:0:0:70:kick.wav
448,192,72935,1,0,0:0:0:20:bell.wav
192,192,73014,1,0,0:0:0:0:
320,192,73092,1,0,0:0:0:35:hihat.wav
448,192,73171,1,0,0:0:0:0:
64,192,73249,1,0,0:0:0:70:snare.wav
192,192,73249,1,0,0:0:0:70:kick.wav
320,192,73406,1,0,0:0:0:35:hihat.wav
448,192,73563,1,0,0:0:0:70:kick.wav
64,192,73563,1,0,0:0:0:10:bell.wav
320,192,73642,1,0,0:0:0:0:
192,192,73720,1,0,0:0:0:35:hihat.wav
64,192,73799,1,0,0:0:0:0:
320,192,73877,1,0,0:0:0:70:snare.wav
448,192,73877,1,0,0:0:0:70:kick.wav
192,192,74035,1,0,0:0:0:35:hihat.wav
64,192,74192,1,0,0:0:0:70:kick.wav
448,192,74192,1,0,0:0:0:0:
320,192,74270,1,0,0:0:0:0:
192,192,74349,1,0,0:0:0:35:hihat.wav
320,192,74427,1,0,0:0:0:0:
64,192,74506,1,0,0:0:0:70:snare.wav
192,192,74506,1,0,0:0:0:70:kick.wav
320,192,74663,1,0,0:0:0:35:hihat.wav
448,192,74820,1,0,0:0:0:70:kick.wav
64,192,74820,1,0,0:0:0:0:
192,192,74898,1,0,0:0:0:0:
320,192,74977,1,0,0:0:0:35:hihat.wav
192,192,75055,1,0,0:0:0:0:
320,192,75134,1,0,0:0:0:70:snare.wav
448,192,75134,1,0,0:0:0:70:kick.wav
192,192,75213,1,0,0:0:0:0:
64,192,75291,1,0,0:0:0:70:snare.wav
448,192,75291,1,0,0:0:0:0:
320,192,75370,1,0,0:0:0:0:
64,192,75448,1,0,0:0:0:70:kick.wav
448,192,75448,1,0,0:0:0:70:snare.wav
192,192,75448,1,0,0:0:0:70:crash-cymbol.wav
192,192,75605,1,0,0:0:0:35:hihat.wav
320,192,75605,1,0,0:0:0:0:
64,192,75762,1,0,0:0:0:70:snare.wav
320,192,75762,1,0,0:0:0:70:kick.wav
192,192,75919,1,0,0:0:0:35:hihat.wav
448,192,75919,1,0,0:0:0:0:
192,192,76076,1,0,0:0:0:70:kick.wav
320,192,76076,1,0,0:0:0:70:snare.wav
64,192,76234,1,0,0:0:0:35:hihat.wav
320,192,76234,1,0,0:0:0:0:
320,192,76391,1,0,0:0:0:70:snare.wav
448,192,76391,1,0,0:0:0:70:kick.wav
192,192,76548,1,0,0:0:0:35:hihat.wav
320,192,76548,1,0,0:0:0:0:
64,192,76705,1,0,0:0:0:70:crash-cymbol.wav
192,192,76705,1,0,0:0:0:70:kick.wav
448,192,76705,1,0,0:0:0:70:snare.wav
192,192,76862,1,0,0:0:0:35:hihat.wav
448,192,76862,1,0,0:0:0:0:
64,192,77019,1,0,0:0:0:70:snare.wav
320,192,77019,1,0,0:0:0:70:kick.wav
192,192,77176,1,0,0:0:0:35:hihat.wav
448,192,77176,1,0,0:0:0:0:
320,192,77333,1,0,0:0:0:70:kick.wav
448,192,77333,1,0,0:0:0:70:snare.wav
192,192,77490,1,0,0:0:0:35:hihat.wav
320,192,77490,1,0,0:0:0:0:
64,192,77647,1,0,0:0:0:70:kick.wav
448,192,77647,1,0,0:0:0:70:snare.wav
192,192,77804,1,0,0:0:0:35:hihat.wav
320,192,77804,1,0,0:0:0:0:
64,192,77961,1,0,0:0:0:70:kick.wav
320,192,77961,1,0,0:0:0:0:
448,192,77961,1,0,0:0:0:0:
192,192,78040,1,0,0:0:0:0:
320,192,78118,1,0,0:0:0:35:hihat.wav
448,192,78118,1,0,0:0:0:70:kick.wav
64,192,78197,1,0,0:0:0:0:
448,192,78275,1,0,0:0:0:70:kick.wav
192,192,78275,1,0,0:0:0:0:
320,192,78354,1,0,0:0:0:0:
192,192,78432,1,0,0:0:0:35:hihat.wav
64,192,78432,1,0,0:0:0:70:kick.wav
320,192,78511,1,0,0:0:0:0:
448,192,78590,1,0,0:0:0:70:kick.wav
192,192,78590,1,0,0:0:0:0:
64,192,78590,1,0,0:0:0:0:
320,192,78668,1,0,0:0:0:70:kick.wav
64,192,78747,1,0,0:0:0:70:kick.wav
448,192,78747,1,0,0:0:0:0:
192,192,78825,1,0,0:0:0:70:kick.wav
320,192,78904,1,0,0:0:0:70:kick.wav
448,192,78904,1,0,0:0:0:0:
192,192,78982,1,0,0:0:0:70:kick.wav
448,192,79061,1,0,0:0:0:70:kick.wav
64,192,79061,1,0,0:0:0:0:
320,192,79139,1,0,0:0:0:70:kick.wav
64,192,79218,128,0,79532:0:0:0:70:kick.wav
192,192,79218,1,0,0:0:0:0:
448,192,79218,1,0,0:0:0:0:
320,192,79375,1,0,0:0:0:35:hihat.wav
192,192,79532,1,0,0:0:0:0:
448,192,79532,1,0,0:0:0:0:
320,192,79689,1,0,0:0:0:35:hihat.wav
448,192,79768,1,0,0:0:0:0:
64,192,79846,128,0,80160:0:0:0:0:
192,192,79846,1,0,0:0:0:0:
448,192,80003,1,0,0:0:0:35:hihat.wav
320,192,80160,128,0,80474:0:0:0:0:
192,192,80160,1,0,0:0:0:0:
448,192,80160,1,0,0:0:0:0:
448,192,80317,1,0,0:0:0:35:hihat.wav
64,192,80317,1,0,0:0:0:0:
64,192,80474,5,0,0:0:0:70:kick.wav
448,192,80474,1,0,0:0:0:70:crash-cymbol.wav
192,192,80474,1,0,0:0:0:35:hihat.wav
320,192,80631,1,0,0:0:0:35:hihat.wav
192,192,80788,1,0,0:0:0:35:hihat.wav
320,192,80946,1,0,0:0:0:35:hihat.wav
448,192,81103,1,0,0:0:0:35:hihat.wav
192,192,81103,1,0,0:0:0:70:kick.wav
64,192,81260,1,0,0:0:0:35:hihat.wav
192,192,81417,1,0,0:0:0:35:hihat.wav
320,192,81574,1,0,0:0:0:35:hihat.wav
448,192,81731,1,0,0:0:0:35:hihat.wav
64,192,81731,1,0,0:0:0:70:kick.wav
192,192,81888,1,0,0:0:0:35:hihat.wav
448,192,82045,1,0,0:0:0:35:hihat.wav
192,192,82202,1,0,0:0:0:35:hihat.wav
64,192,82359,1,0,0:0:0:35:hihat.wav
320,192,82359,1,0,0:0:0:70:kick.wav
192,192,82516,1,0,0:0:0:35:hihat.wav
448,192,82673,1,0,0:0:0:35:hihat.wav
192,192,82830,1,0,0:0:0:35:hihat.wav
320,192,82987,1,0,0:0:0:35:hihat.wav
448,192,82987,1,0,0:0:0:70:kick.wav
64,192,83145,1,0,0:0:0:35:hihat.wav
320,192,83302,1,0,0:0:0:35:hihat.wav
64,192,83459,1,0,0:0:0:35:hihat.wav
320,192,83616,1,0,0:0:0:35:hihat.wav
192,192,83616,1,0,0:0:0:70:kick.wav
448,192,83773,1,0,0:0:0:35:hihat.wav
192,192,83930,1,0,0:0:0:35:hihat.wav
320,192,84087,1,0,0:0:0:35:hihat.wav
64,192,84244,1,0,0:0:0:35:hihat.wav
192,192,84244,1,0,0:0:0:70:kick.wav
448,192,84401,1,0,0:0:0:35:hihat.wav
320,192,84558,1,0,0:0:0:35:hihat.wav
448,192,84715,1,0,0:0:0:35:hihat.wav
64,192,84872,1,0,0:0:0:35:hihat.wav
192,192,84872,1,0,0:0:0:0:
448,192,85029,1,0,0:0:0:35:hihat.wav
192,192,85186,1,0,0:0:0:35:hihat.wav
320,192,85186,1,0,0:0:0:0:
448,192,85343,1,0,0:0:0:35:hihat.wav
64,192,85501,1,0,0:0:0:35:hihat.wav
320,192,85501,1,0,0:0:0:70:kick.wav
192,192,85658,1,0,0:0:0:35:hihat.wav
64,192,85815,1,0,0:0:0:35:hihat.wav
192,192,85972,1,0,0:0:0:35:hihat.wav
320,192,86129,1,0,0:0:0:35:hihat.wav
448,192,86129,1,0,0:0:0:0:
64,192,86286,1,0,0:0:0:35:hihat.wav
192,192,86443,1,0,0:0:0:35:hihat.wav
320,192,86600,1,0,0:0:0:35:hihat.wav
448,192,86757,1,0,0:0:0:35:hihat.wav
64,192,86757,1,0,0:0:0:70:kick.wav
192,192,86914,1,0,0:0:0:35:hihat.wav
320,192,87071,1,0,0:0:0:35:hihat.wav
192,192,87228,1,0,0:0:0:35:hihat.wav
64,192,87385,1,0,0:0:0:35:hihat.wav
448,192,87385,1,0,0:0:0:70:kick.wav
192,192,87542,1,0,0:0:0:35:hihat.wav
320,192,87699,1,0,0:0:0:35:hihat.wav
192,192,87857,1,0,0:0:0:35:hihat.wav
320,192,88014,1,0,0:0:0:35:hihat.wav
448,192,88014,1,0,0:0:0:70:kick.wav
64,192,88171,1,0,0:0:0:35:hihat.wav
192,192,88328,1,0,0:0:0:35:hihat.wav
64,192,88485,1,0,0:0:0:35:hihat.wav
320,192,88642,1,0,0:0:0:35:hihat.wav
448,192,88642,1,0,0:0:0:70:kick.wav
64,192,88799,1,0,0:0:0:35:hihat.wav
448,192,88956,1,0,0:0:0:35:hihat.wav
320,192,89113,1,0,0:0:0:35:hihat.wav
320,192,89270,1,0,0:0:0:35:hihat.wav
192,192,89270,1,0,0:0:0:70:kick.wav
64,192,89427,5,0,0:0:0:35:hihat.wav
192,192,89584,1,0,0:0:0:35:hihat.wav
320,192,89637,1,0,0:0:0:0:
64,192,89689,1,0,0:0:0:0:
448,192,89741,1,0,0:0:0:35:hihat.wav
192,192,89794,1,0,0:0:0:0:
320,192,89846,1,0,0:0:0:0:
448,192,89898,1,0,0:0:0:35:hihat.wav
64,192,89898,1,0,0:0:0:0:
192,192,90055,1,0,0:0:0:35:hihat.wav
320,192,90213,1,0,0:0:0:35:hihat.wav
448,192,90370,1,0,0:0:0:35:hihat.wav
64,192,90527,1,0,0:0:0:35:hihat.wav
320,192,90527,1,0,0:0:0:70:kick.wav
192,192,90527,1,0,0:0:0:70:crash-cymbol.wav
192,192,90841,1,0,0:0:0:35:hihat.wav
320,192,91155,1,0,0:0:0:35:hihat.wav
64,192,91155,1,0,0:0:0:70:drum.wav
448,192,91469,1,0,0:0:0:35:hihat.wav
192,192,91783,1,0,0:0:0:35:hihat.wav
320,192,92412,1,0,0:0:0:35:hihat.wav
448,192,92412,1,0,0:0:0:70:snare.wav
64,192,92569,1,0,0:0:0:35:hihat.wav
192,192,92726,1,0,0:0:0:35:hihat.wav
320,192,92883,1,0,0:0:0:35:hihat.wav
448,192,93040,1,0,0:0:0:35:hihat.wav
64,192,93354,1,0,0:0:0:35:hihat.wav
192,192,93668,1,0,0:0:0:35:hihat.wav
320,192,93668,1,0,0:0:0:70:snare.wav
448,192,93825,1,0,0:0:0:35:hihat.wav
320,192,93982,1,0,0:0:0:35:hihat.wav
192,192,94139,1,0,0:0:0:35:hihat.wav
448,192,94296,1,0,0:0:0:35:hihat.wav
320,192,94610,1,0,0:0:0:35:hihat.wav
192,192,94925,1,0,0:0:0:35:hihat.wav
448,192,94925,1,0,0:0:0:70:snare.wav
64,192,95239,1,0,0:0:0:35:hihat.wav
320,192,95553,1,0,0:0:0:35:hihat.wav
192,192,95867,1,0,0:0:0:35:hihat.wav
320,192,96181,1,0,0:0:0:35:hihat.wav
64,192,96181,1,0,0:0:0:70:snare.wav
448,192,96495,1,0,0:0:0:35:hihat.wav
192,192,96809,1,0,0:0:0:35:hihat.wav
320,192,97438,1,0,0:0:0:35:hihat.wav
448,192,97438,1,0,0:0:0:70:snare.wav
64,192,97595,1,0,0:0:0:35:hihat.wav
192,192,97752,1,0,0:0:0:35:hihat.wav
320,192,97909,1,0,0:0:0:35:hihat.wav
192,192,98066,1,0,0:0:0:35:hihat.wav
64,192,98380,1,0,0:0:0:35:hihat.wav
192,192,98694,1,0,0:0:0:35:hihat.wav
320,192,98694,1,0,0:0:0:70:snare.wav
448,192,99008,1,0,0:0:0:35:hihat.wav
320,192,99165,1,0,0:0:0:35:hihat.wav
320,192,99323,1,0,0:0:0:35:hihat.wav
64,192,99794,1,0,0:0:0:35:hihat.wav
320,192,99872,1,0,0:0:0:0:
64,192,99951,1,0,0:0:0:35:hihat.wav
192,192,99951,1,0,0:0:0:70:snare.wav
320,192,100108,1,0,0:0:0:35:hihat.wav
192,192,100265,1,0,0:0:0:35:hihat.wav
448,192,100422,1,0,0:0:0:35:hihat.wav
192,192,100579,1,0,0:0:0:35:hihat.wav
192,192,100893,1,0,0:0:0:35:hihat.wav
320,192,100946,1,0,0:0:0:0:
64,192,100998,1,0,0:0:0:0:
448,192,101050,1,0,0:0:0:35:hihat.wav
192,192,101103,1,0,0:0:0:0:
320,192,101155,1,0,0:0:0:0:
64,192,101207,1,0,0:0:0:35:hihat.wav
448,192,101207,1,0,0:0:0:70:snare.wav
192,192,101364,1,0,0:0:0:35:hihat.wav
320,192,101521,1,0,0:0:0:35:hihat.wav
192,192,101679,1,0,0:0:0:35:hihat.wav
448,192,101836,1,0,0:0:0:35:hihat.wav
320,192,101914,1,0,0:0:0:0:
448,192,101993,1,0,0:0:0:35:hihat.wav
320,192,102071,1,0,0:0:0:0:
192,192,102150,1,0,0:0:0:70:kick.wav
64,192,102307,1,0,0:0:0:35:hihat.wav
192,192,102385,1,0,0:0:0:0:
320,192,102464,1,0,0:0:0:70:snare.wav
448,192,102464,1,0,0:0:0:70:drum.wav
192,192,102621,1,0,0:0:0:0:
64,192,102778,128,0,102857:0:0:0:70:kick.wav
448,192,102778,128,0,102857:0:0:0:0:
448,192,102935,128,0,103014:0:0:0:70:kick.wav
64,192,102935,128,0,103014:0:0:0:0:
192,192,103092,5,0,0:0:0:70:crash-cymbol.wav
64,192,103092,1,0,0:0:0:70:kick.wav
448,192,103092,128,0,103249:0:0:0:60:bell.wav
320,192,103249,1,0,0:0:0:0:
64,192,103406,128,0,103563:0:0:0:35:hihat.wav
192,192,103406,1,0,0:0:0:0:
320,192,103563,1,0,0:0:0:0:
448,192,103720,128,0,103877:0:0:0:70:kick.wav
192,192,103720,1,0,0:0:0:0:
320,192,103877,1,0,0:0:0:0:
64,192,104035,128,0,104192:0:0:0:35:hihat.wav
192,192,104035,1,0,0:0:0:0:
320,192,104192,1,0,0:0:0:0:
448,192,104349,128,0,104506:0:0:0:70:kick.wav
192,192,104349,1,0,0:0:0:0:
320,192,104506,1,0,0:0:0:0:
64,192,104663,128,0,104820:0:0:0:35:hihat.wav
192,192,104663,1,0,0:0:0:0:
320,192,104820,1,0,0:0:0:0:
448,192,104977,128,0,105134:0:0:0:70:kick.wav
192,192,104977,1,0,0:0:0:0:
320,192,105134,1,0,0:0:0:0:
64,192,105291,128,0,105448:0:0:0:35:hihat.wav
192,192,105291,1,0,0:0:0:0:
320,192,105448,1,0,0:0:0:0:
320,192,105605,128,0,105762:0:0:0:70:kick.wav
448,192,105605,1,0,0:0:0:20:bell.wav
64,192,105762,1,0,0:0:0:0:
192,192,105919,128,0,106076:0:0:0:35:hihat.wav
448,192,105919,1,0,0:0:0:0:
64,192,106076,1,0,0:0:0:0:
320,192,106234,128,0,106391:0:0:0:70:kick.wav
448,192,106234,1,0,0:0:0:10:bell.wav
64,192,106391,1,0,0:0:0:0:
192,192,106548,128,0,106705:0:0:0:35:hihat.wav
448,192,106548,1,0,0:0:0:0:
64,192,106705,1,0,0:0:0:0:
320,192,106862,128,0,107019:0:0:0:70:kick.wav
448,192,106862,1,0,0:0:0:0:
64,192,107019,1,0,0:0:0:0:
192,192,107176,128,0,107333:0:0:0:35:hihat.wav
448,192,107176,1,0,0:0:0:0:
64,192,107333,1,0,0:0:0:0:
320,192,107490,128,0,107647:0:0:0:70:kick.wav
448,192,107490,1,0,0:0:0:0:
64,192,107647,1,0,0:0:0:0:
192,192,107804,128,0,107961:0:0:0:35:hihat.wav
448,192,107804,1,0,0:0:0:0:
64,192,107961,1,0,0:0:0:0:
448,192,108118,128,0,108275:0:0:0:70:kick.wav
192,192,108118,1,0,0:0:0:0:
320,192,108275,1,0,0:0:0:0:
64,192,108432,128,0,108590:0:0:0:35:hihat.wav
192,192,108432,1,0,0:0:0:0:
320,192,108590,1,0,0:0:0:0:
448,192,108747,128,0,108904:0:0:0:70:kick.wav
192,192,108747,1,0,0:0:0:0:
320,192,108904,1,0,0:0:0:0:
64,192,109061,128,0,109218:0:0:0:35:hihat.wav
192,192,109061,1,0,0:0:0:0:
320,192,109218,1,0,0:0:0:0:
448,192,109375,128,0,109532:0:0:0:70:kick.wav
192,192,109375,1,0,0:0:0:0:
320,192,109532,1,0,0:0:0:0:
64,192,109689,128,0,109846:0:0:0:35:hihat.wav
192,192,109689,1,0,0:0:0:0:
320,192,109846,1,0,0:0:0:0:
448,192,110003,128,0,110160:0:0:0:70:kick.wav
192,192,110003,1,0,0:0:0:0:
320,192,110160,1,0,0:0:0:0:
64,192,110317,128,0,110474:0:0:0:35:hihat.wav
192,192,110317,1,0,0:0:0:0:
320,192,110474,1,0,0:0:0:0:
320,192,110631,128,0,110788:0:0:0:70:kick.wav
448,192,110631,1,0,0:0:0:0:
64,192,110788,1,0,0:0:0:0:
192,192,110946,128,0,111103:0:0:0:35:hihat.wav
448,192,110946,1,0,0:0:0:0:
64,192,111103,1,0,0:0:0:0:
320,192,111260,128,0,111417:0:0:0:70:kick.wav
448,192,111260,1,0,0:0:0:0:
64,192,111417,1,0,0:0:0:0:
192,192,111574,128,0,111731:0:0:0:35:hihat.wav
448,192,111574,1,0,0:0:0:0:
64,192,111731,1,0,0:0:0:0:
320,192,111888,128,0,112045:0:0:0:70:kick.wav
448,192,111888,1,0,0:0:0:0:
64,192,112045,1,0,0:0:0:0:
192,192,112202,128,0,112359:0:0:0:35:hihat.wav
448,192,112202,1,0,0:0:0:0:
64,192,112359,1,0,0:0:0:0:
320,192,112516,128,0,112673:0:0:0:70:kick.wav
448,192,112516,1,0,0:0:0:0:
64,192,112673,1,0,0:0:0:0:
192,192,112830,128,0,112987:0:0:0:35:hihat.wav
448,192,112830,1,0,0:0:0:0:
64,192,112987,1,0,0:0:0:0:
448,192,113145,1,0,0:0:0:70:kick.wav
192,192,113145,1,0,0:0:0:70:crash-cymbol.wav
320,192,113302,1,0,0:0:0:0:
64,192,113459,1,0,0:0:0:35:hihat.wav
448,192,113459,1,0,0:0:0:0:
320,192,113616,1,0,0:0:0:0:
192,192,113694,1,0,0:0:0:0:
448,192,113773,1,0,0:0:0:70:kick.wav
64,192,113773,1,0,0:0:0:50:bell.wav
192,192,113851,1,0,0:0:0:0:
320,192,113930,1,0,0:0:0:0:
64,192,114087,1,0,0:0:0:35:hihat.wav
448,192,114087,1,0,0:0:0:0:
64,192,114244,1,0,0:0:0:0:
192,192,114323,1,0,0:0:0:0:
320,192,114401,1,0,0:0:0:70:kick.wav
448,192,114401,1,0,0:0:0:0:
192,192,114480,1,0,0:0:0:0:
64,192,114558,1,0,0:0:0:0:
320,192,114715,1,0,0:0:0:35:hihat.wav
64,192,114715,1,0,0:0:0:0:
320,192,114872,1,0,0:0:0:0:
192,192,114951,1,0,0:0:0:0:
448,192,115029,1,0,0:0:0:70:kick.wav
64,192,115029,1,0,0:0:0:30:bell.wav
320,192,115108,1,0,0:0:0:0:
192,192,115186,1,0,0:0:0:0:
192,192,115343,1,0,0:0:0:35:hihat.wav
448,192,115343,1,0,0:0:0:0:
448,192,115501,1,0,0:0:0:0:
320,192,115579,1,0,0:0:0:0:
192,192,115658,1,0,0:0:0:70:kick.wav
64,192,115658,1,0,0:0:0:0:
320,192,115736,1,0,0:0:0:0:
448,192,115815,1,0,0:0:0:0:
320,192,115972,1,0,0:0:0:35:hihat.wav
64,192,115972,1,0,0:0:0:0:
192,192,116129,1,0,0:0:0:0:
320,192,116207,1,0,0:0:0:0:
448,192,116286,1,0,0:0:0:70:kick.wav
64,192,116286,1,0,0:0:0:10:bell.wav
320,192,116364,1,0,0:0:0:0:
192,192,116443,1,0,0:0:0:0:
320,192,116600,1,0,0:0:0:35:hihat.wav
64,192,116600,1,0,0:0:0:0:
64,192,116757,1,0,0:0:0:0:
192,192,116836,1,0,0:0:0:0:
448,192,116914,1,0,0:0:0:70:kick.wav
320,192,116914,1,0,0:0:0:0:
192,192,116993,1,0,0:0:0:0:
64,192,117071,1,0,0:0:0:0:
448,192,117228,1,0,0:0:0:35:hihat.wav
192,192,117228,1,0,0:0:0:0:
320,192,117385,1,0,0:0:0:0:
192,192,117464,1,0,0:0:0:0:
448,192,117542,1,0,0:0:0:70:kick.wav
64,192,117542,1,0,0:0:0:0:
320,192,117621,1,0,0:0:0:0:
192,192,117699,1,0,0:0:0:0:
320,192,117857,1,0,0:0:0:35:hihat.wav
448,192,117857,1,0,0:0:0:0:
320,192,118014,1,0,0:0:0:0:
192,192,118092,1,0,0:0:0:0:
448,192,118171,1,0,0:0:0:70:kick.wav
64,192,118171,1,0,0:0:0:0:
320,192,118249,1,0,0:0:0:0:
192,192,118328,1,0,0:0:0:0:
192,192,118485,1,0,0:0:0:35:hihat.wav
448,192,118485,1,0,0:0:0:0:
320,192,118642,1,0,0:0:0:0:
192,192,118720,1,0,0:0:0:0:
448,192,118799,1,0,0:0:0:70:kick.wav
64,192,118799,1,0,0:0:0:0:
192,192,118877,1,0,0:0:0:0:
320,192,118956,1,0,0:0:0:0:
448,192,119113,1,0,0:0:0:35:hihat.wav
64,192,119113,1,0,0:0:0:0:
64,192,119270,1,0,0:0:0:0:
192,192,119349,1,0,0:0:0:0:
320,192,119427,1,0,0:0:0:70:kick.wav
448,192,119427,1,0,0:0:0:0:
192,192,119506,1,0,0:0:0:0:
64,192,119584,1,0,0:0:0:0:
192,192,119741,1,0,0:0:0:35:hihat.wav
448,192,119741,1,0,0:0:0:0:
320,192,119898,1,0,0:0:0:0:
192,192,119977,1,0,0:0:0:0:
64,192,120055,1,0,0:0:0:70:kick.wav
448,192,120055,1,0,0:0:0:0:
320,192,120134,1,0,0:0:0:0:
192,192,120213,1,0,0:0:0:0:
192,192,120370,1,0,0:0:0:35:hihat.wav
448,192,120370,1,0,0:0:0:0:
448,192,120527,1,0,0:0:0:0:
320,192,120605,1,0,0:0:0:0:
64,192,120684,1,0,0:0:0:70:kick.wav
192,192,120684,1,0,0:0:0:0:
320,192,120762,1,0,0:0:0:0:
448,192,120841,1,0,0:0:0:0:
64,192,120998,1,0,0:0:0:35:hihat.wav
448,192,120998,1,0,0:0:0:0:
64,192,121155,1,0,0:0:0:0:
192,192,121234,1,0,0:0:0:0:
448,192,121312,1,0,0:0:0:70:kick.wav
320,192,121312,1,0,0:0:0:0:
192,192,121391,1,0,0:0:0:0:
64,192,121469,1,0,0:0:0:0:
448,192,121626,1,0,0:0:0:35:hihat.wav
64,192,121626,1,0,0:0:0:0:
448,192,121783,1,0,0:0:0:0:
320,192,121862,1,0,0:0:0:0:
64,192,121940,1,0,0:0:0:70:kick.wav
192,192,121940,1,0,0:0:0:0:
320,192,122019,1,0,0:0:0:0:
448,192,122097,1,0,0:0:0:0:
64,192,122254,1,0,0:0:0:35:hihat.wav
448,192,122254,1,0,0:0:0:0:
192,192,122412,1,0,0:0:0:0:
320,192,122490,1,0,0:0:0:0:
64,192,122569,1,0,0:0:0:70:kick.wav
448,192,122569,1,0,0:0:0:0:
192,192,122647,5,0,0:0:0:0:
64,192,122726,1,0,0:0:0:0:
192,192,122804,1,0,0:0:0:0:
320,192,122883,128,0,123197:0:0:0:35:hihat.wav
64,192,122883,1,0,0:0:0:0:
64,192,123197,5,0,0:0:0:70:kick.wav
448,192,123197,1,0,0:0:0:70:crash-cymbol.wav
192,192,123197,1,0,0:0:0:60:bell.wav
320,192,123354,1,0,0:0:0:0:
64,192,123511,1,0,0:0:0:70:kick.wav
192,192,123668,1,0,0:0:0:0:
320,192,123825,1,0,0:0:0:70:kick.wav
192,192,123982,1,0,0:0:0:0:
320,192,124139,1,0,0:0:0:70:kick.wav
448,192,124296,1,0,0:0:0:0:
320,192,124453,1,0,0:0:0:70:kick.wav
192,192,124453,1,0,0:0:0:40:bell.wav
64,192,124453,128,0,124610:0:0:0:0:
64,192,124768,1,0,0:0:0:70:kick.wav
192,192,124768,1,0,0:0:0:0:
448,192,124768,128,0,124925:0:0:0:0:
448,192,125082,1,0,0:0:0:70:kick.wav
64,192,125082,1,0,0:0:0:30:bell.wav
320,192,125082,128,0,125239:0:0:0:0:
448,192,125396,1,0,0:0:0:70:kick.wav
320,192,125396,1,0,0:0:0:0:
192,192,125396,128,0,125553:0:0:0:0:
320,192,125710,1,0,0:0:0:70:kick.wav
448,192,125710,1,0,0:0:0:20:bell.wav
192,192,126024,1,0,0:0:0:70:kick.wav
64,192,126024,1,0,0:0:0:0:
448,192,126338,1,0,0:0:0:70:kick.wav
192,192,126338,1,0,0:0:0:10:bell.wav
64,192,126652,1,0,0:0:0:70:kick.wav
192,192,126652,1,0,0:0:0:0:
448,192,126966,1,0,0:0:0:70:kick.wav
192,192,126966,1,0,0:0:0:0:
64,192,127124,1,0,0:0:0:0:
192,192,127281,1,0,0:0:0:70:kick.wav
320,192,127438,1,0,0:0:0:0:
64,192,127595,1,0,0:0:0:70:kick.wav
448,192,127595,1,0,0:0:0:0:
320,192,127752,1,0,0:0:0:0:
192,192,127909,1,0,0:0:0:70:kick.wav
448,192,127909,1,0,0:0:0:0:
64,192,128066,1,0,0:0:0:0:
320,192,128066,1,0,0:0:0:0:
64,192,128223,1,0,0:0:0:70:kick.wav
192,192,128223,1,0,0:0:0:0:
320,192,128380,1,0,0:0:0:0:
192,192,128537,1,0,0:0:0:70:kick.wav
64,192,128537,1,0,0:0:0:0:
320,192,128694,1,0,0:0:0:0:
448,192,128851,1,0,0:0:0:70:kick.wav
192,192,128851,1,0,0:0:0:0:
320,192,129008,1,0,0:0:0:0:
64,192,129165,1,0,0:0:0:70:kick.wav
448,192,129165,1,0,0:0:0:0:
192,192,129323,1,0,0:0:0:0:
320,192,129480,1,0,0:0:0:70:kick.wav
448,192,129480,1,0,0:0:0:0:
64,192,129480,128,0,129637:0:0:0:0:
192,192,129637,1,0,0:0:0:0:
192,192,129794,1,0,0:0:0:70:kick.wav
64,192,129794,1,0,0:0:0:0:
320,192,129794,128,0,129951:0:0:0:0:
448,192,129951,1,0,0:0:0:0:
448,192,130108,1,0,0:0:0:70:kick.wav
64,192,130108,1,0,0:0:0:0:
192,192,130108,128,0,130265:0:0:0:0:
320,192,130265,1,0,0:0:0:0:
320,192,130422,1,0,0:0:0:70:kick.wav
192,192,130422,1,0,0:0:0:0:
448,192,130422,128,0,130579:0:0:0:0:
64,192,130579,1,0,0:0:0:0:
448,192,130736,1,0,0:0:0:70:kick.wav
64,192,130736,1,0,0:0:0:0:
320,192,130893,1,0,0:0:0:0:
192,192,131050,1,0,0:0:0:70:kick.wav
64,192,131050,1,0,0:0:0:0:
448,192,131207,1,0,0:0:0:0:
320,192,131364,1,0,0:0:0:70:kick.wav
64,192,131364,1,0,0:0:0:0:
192,192,131521,1,0,0:0:0:0:
320,192,131679,1,0,0:0:0:70:kick.wav
448,192,131679,1,0,0:0:0:0:
192,192,131836,1,0,0:0:0:0:
448,192,131993,1,0,0:0:0:70:kick.wav
64,192,131993,1,0,0:0:0:0:
64,192,132150,1,0,0:0:0:0:
192,192,132307,1,0,0:0:0:70:kick.wav
320,192,132307,1,0,0:0:0:0:
320,192,132464,1,0,0:0:0:0:
448,192,132621,1,0,0:0:0:70:kick.wav
64,192,132621,1,0,0:0:0:0:
320,192,132778,1,0,0:0:0:0:
64,192,132935,1,0,0:0:0:70:kick.wav
192,192,132935,1,0,0:0:0:0:
320,192,133092,1,0,0:0:0:0:
448,192,133092,1,0,0:0:0:0:
64,192,133249,1,0,0:0:0:70:kick.wav
448,192,133249,1,0,0:0:0:70:crash-cymbol.wav
192,192,133249,1,0,0:0:0:0:
320,192,133406,1,0,0:0:0:70:kick.wav
448,192,133406,1,0,0:0:0:0:
192,192,133563,1,0,0:0:0:70:kick.wav
64,192,133563,1,0,0:0:0:0:
320,192,133720,1,0,0:0:0:70:kick.wav
192,192,133720,1,0,0:0:0:0:
448,192,133877,1,0,0:0:0:70:kick.wav
320,192,133877,1,0,0:0:0:0:
192,192,134035,1,0,0:0:0:70:kick.wav
64,192,134035,1,0,0:0:0:0:
320,192,134192,1,0,0:0:0:70:kick.wav
64,192,134192,1,0,0:0:0:0:
448,192,134349,1,0,0:0:0:70:kick.wav
192,192,134349,1,0,0:0:0:0:
64,192,134506,1,0,0:0:0:70:kick.wav
448,192,134506,1,0,0:0:0:0:
192,192,134506,1,0,0:0:0:0:
320,192,134663,1,0,0:0:0:70:kick.wav
448,192,134663,1,0,0:0:0:0:
320,192,134820,1,0,0:0:0:70:kick.wav
64,192,134820,1,0,0:0:0:0:
448,192,134977,1,0,0:0:0:70:kick.wav
192,192,134977,1,0,0:0:0:0:
64,192,135134,1,0,0:0:0:70:kick.wav
192,192,135134,1,0,0:0:0:0:
320,192,135291,1,0,0:0:0:70:kick.wav
448,192,135291,1,0,0:0:0:0:
192,192,135448,1,0,0:0:0:70:kick.wav
64,192,135448,1,0,0:0:0:0:
192,192,135605,1,0,0:0:0:70:kick.wav
320,192,135605,1,0,0:0:0:0:
64,192,135762,1,0,0:0:0:70:kick.wav
320,192,135762,1,0,0:0:0:70:crash-cymbol.wav
448,192,135762,1,0,0:0:0:0:
320,192,135919,1,0,0:0:0:70:kick.wav
64,192,135919,1,0,0:0:0:0:
192,192,136076,1,0,0:0:0:70:kick.wav
448,192,136076,1,0,0:0:0:0:
320,192,136234,1,0,0:0:0:70:kick.wav
192,192,136234,1,0,0:0:0:0:
64,192,136391,1,0,0:0:0:70:kick.wav
448,192,136391,1,0,0:0:0:0:
192,192,136548,1,0,0:0:0:70:kick.wav
64,192,136548,1,0,0:0:0:0:
320,192,136705,1,0,0:0:0:70:kick.wav
64,192,136705,1,0,0:0:0:0:
448,192,136862,1,0,0:0:0:70:kick.wav
320,192,136862,1,0,0:0:0:0:
192,192,137019,1,0,0:0:0:70:kick.wav
64,192,137019,1,0,0:0:0:0:
448,192,137019,1,0,0:0:0:0:
320,192,137176,1,0,0:0:0:70:kick.wav
192,192,137176,1,0,0:0:0:0:
64,192,137333,1,0,0:0:0:70:kick.wav
448,192,137333,1,0,0:0:0:0:
448,192,137490,1,0,0:0:0:70:kick.wav
192,192,137490,1,0,0:0:0:0:
192,192,137647,1,0,0:0:0:70:kick.wav
320,192,137647,1,0,0:0:0:0:
320,192,137804,1,0,0:0:0:70:kick.wav
64,192,137804,1,0,0:0:0:0:
64,192,137961,1,0,0:0:0:70:kick.wav
448,192,137961,1,0,0:0:0:0:
320,192,138118,1,0,0:0:0:70:kick.wav
448,192,138118,1,0,0:0:0:0:
64,192,138275,1,0,0:0:0:70:snare.wav
320,192,138275,1,0,0:0:0:0:
448,192,138275,1,0,0:0:0:0:
192,192,138354,1,0,0:0:0:0:
320,192,138432,1,0,0:0:0:0:
64,192,138511,1,0,0:0:0:0:
192,192,138590,1,0,0:0:0:70:kick.wav
320,192,138668,1,0,0:0:0:0:
448,192,138747,1,0,0:0:0:0:
64,192,138825,1,0,0:0:0:0:
320,192,138904,1,0,0:0:0:70:snare.wav
192,192,138982,1,0,0:0:0:0:
320,192,139061,1,0,0:0:0:0:
64,192,139139,1,0,0:0:0:0:
448,192,139218,1,0,0:0:0:70:kick.wav
320,192,139296,1,0,0:0:0:0:
192,192,139375,1,0,0:0:0:0:
448,192,139453,1,0,0:0:0:0:
320,192,139532,1,0,0:0:0:70:snare.wav
192,192,139610,1,0,0:0:0:70:kick.wav
320,192,139689,1,0,0:0:0:70:kick.wav
64,192,139768,1,0,0:0:0:70:kick.wav
192,192,139846,1,0,0:0:0:70:kick.wav
320,192,139925,1,0,0:0:0:70:kick.wav
192,192,140003,1,0,0:0:0:70:kick.wav
448,192,140082,1,0,0:0:0:70:kick.wav
320,192,140160,1,0,0:0:0:70:snare.wav
192,192,140239,1,0,0:0:0:70:kick.wav
320,192,140317,1,0,0:0:0:70:kick.wav
64,192,140396,1,0,0:0:0:70:kick.wav
192,192,140474,1,0,0:0:0:70:kick.wav
320,192,140553,1,0,0:0:0:70:kick.wav
192,192,140631,1,0,0:0:0:70:kick.wav
448,192,140710,1,0,0:0:0:70:kick.wav
320,192,140788,1,0,0:0:0:70:kick.wav
192,192,140867,1,0,0:0:0:70:kick.wav
320,192,140946,1,0,0:0:0:70:kick.wav
192,192,141024,1,0,0:0:0:70:kick.wav
320,192,141103,1,0,0:0:0:70:kick.wav
192,192,141181,1,0,0:0:0:70:kick.wav
320,192,141260,1,0,0:0:0:70:kick.wav
192,192,141338,1,0,0:0:0:70:kick.wav
320,192,141417,1,0,0:0:0:70:kick.wav
192,192,141495,1,0,0:0:0:70:kick.wav
320,192,141574,1,0,0:0:0:70:kick.wav
192,192,141652,1,0,0:0:0:70:kick.wav
64,192,141731,1,0,0:0:0:70:kick.wav
192,192,141770,1,0,0:0:0:0:
320,192,141809,1,0,0:0:0:0:
192,192,141888,1,0,0:0:0:0:
320,192,141927,1,0,0:0:0:0:
448,192,141966,1,0,0:0:0:0:
192,192,142045,1,0,0:0:0:0:
320,192,142202,1,0,0:0:0:0:
64,192,142359,1,0,0:0:0:0:
192,192,142516,1,0,0:0:0:0:
320,192,142673,1,0,0:0:0:0:
192,192,142830,1,0,0:0:0:0:
64,192,142987,1,0,0:0:0:70:snare.wav
448,192,142987,1,0,0:0:0:70:cymbol.wav
320,192,143145,1,0,0:0:0:70:kick.wav
320,192,143223,1,0,0:0:0:0:
64,192,143302,1,0,0:0:0:70:kick.wav
192,192,143302,1,0,0:0:0:70:crash-cymbol.wav
448,192,143302,1,0,0:0:0:60:bell.wav
320,192,143459,1,0,0:0:0:35:hihat.wav
192,192,143459,1,0,0:0:0:0:
64,192,143616,1,0,0:0:0:70:kick.wav
448,192,143616,1,0,0:0:0:70:snare.wav
192,192,143773,1,0,0:0:0:35:hihat.wav
320,192,143773,1,0,0:0:0:0:
192,192,143930,1,0,0:0:0:70:kick.wav
448,192,143930,1,0,0:0:0:50:bell.wav
64,192,144087,1,0,0:0:0:35:hihat.wav
192,192,144087,1,0,0:0:0:0:
320,192,144244,1,0,0:0:0:70:kick.wav
448,192,144244,1,0,0:0:0:70:snare.wav
192,192,144401,1,0,0:0:0:35:hihat.wav
320,192,144401,1,0,0:0:0:0:
64,192,144558,128,0,144715:0:0:0:70:kick.wav
448,192,144558,1,0,0:0:0:40:bell.wav
320,192,144715,1,0,0:0:0:35:hihat.wav
448,192,144872,128,0,145029:0:0:0:70:kick.wav
64,192,144872,1,0,0:0:0:70:snare.wav
192,192,145029,1,0,0:0:0:35:hihat.wav
320,192,145186,128,0,145343:0:0:0:70:kick.wav
64,192,145186,1,0,0:0:0:30:bell.wav
448,192,145343,1,0,0:0:0:35:hihat.wav
64,192,145501,128,0,145658:0:0:0:70:kick.wav
448,192,145501,1,0,0:0:0:70:snare.wav
320,192,145658,1,0,0:0:0:35:hihat.wav
448,192,145815,1,0,0:0:0:70:kick.wav
192,192,145815,1,0,0:0:0:20:bell.wav
320,192,145972,1,0,0:0:0:35:hihat.wav
64,192,145972,1,0,0:0:0:0:
192,192,146129,1,0,0:0:0:70:kick.wav
448,192,146129,1,0,0:0:0:70:snare.wav
320,192,146286,1,0,0:0:0:35:hihat.wav
192,192,146286,1,0,0:0:0:0:
64,192,146443,1,0,0:0:0:70:kick.wav
320,192,146443,1,0,0:0:0:10:bell.wav
192,192,146600,1,0,0:0:0:35:hihat.wav
448,192,146600,1,0,0:0:0:0:
320,192,146757,1,0,0:0:0:70:kick.wav
64,192,146757,1,0,0:0:0:70:snare.wav
192,192,146914,1,0,0:0:0:35:hihat.wav
320,192,146914,1,0,0:0:0:0:
448,192,147071,128,0,147228:0:0:0:70:kick.wav
64,192,147071,1,0,0:0:0:0:
320,192,147228,128,0,147385:0:0:0:35:hihat.wav
192,192,147228,1,0,0:0:0:0:
64,192,147385,128,0,147542:0:0:0:70:kick.wav
448,192,147385,1,0,0:0:0:70:snare.wav
192,192,147542,128,0,147699:0:0:0:35:hihat.wav
320,192,147542,1,0,0:0:0:0:
448,192,147699,128,0,147857:0:0:0:70:kick.wav
64,192,147699,1,0,0:0:0:0:
320,192,147857,128,0,148014:0:0:0:35:hihat.wav
192,192,147857,1,0,0:0:0:0:
192,192,148014,128,0,148171:0:0:0:70:kick.wav
448,192,148014,1,0,0:0:0:70:snare.wav
64,192,148171,128,0,148328:0:0:0:70:snare.wav
320,192,148171,1,0,0:0:0:0:
320,192,148328,1,0,0:0:0:70:kick.wav
448,192,148328,1,0,0:0:0:0:
192,192,148485,1,0,0:0:0:35:hihat.wav
320,192,148485,1,0,0:0:0:0:
192,192,148642,1,0,0:0:0:70:snare.wav
448,192,148642,1,0,0:0:0:70:kick.wav
320,192,148799,1,0,0:0:0:35:hihat.wav
192,192,148799,1,0,0:0:0:0:
64,192,148956,1,0,0:0:0:70:kick.wav
448,192,148956,1,0,0:0:0:0:
320,192,149113,1,0,0:0:0:35:hihat.wav
192,192,149113,1,0,0:0:0:0:
64,192,149270,1,0,0:0:0:70:kick.wav
320,192,149270,1,0,0:0:0:70:snare.wav
192,192,149427,1,0,0:0:0:35:hihat.wav
448,192,149427,1,0,0:0:0:0:
448,192,149584,128,0,149741:0:0:0:70:kick.wav
64,192,149584,1,0,0:0:0:0:
192,192,149741,1,0,0:0:0:35:hihat.wav
320,192,149898,128,0,150055:0:0:0:70:snare.wav
64,192,149898,1,0,0:0:0:70:kick.wav
192,192,150055,1,0,0:0:0:35:hihat.wav
192,192,150213,128,0,150370:0:0:0:70:kick.wav
448,192,150213,1,0,0:0:0:0:
320,192,150370,1,0,0:0:0:35:hihat.wav
64,192,150527,128,0,150684:0:0:0:70:snare.wav
448,192,150527,1,0,0:0:0:70:kick.wav
320,192,150684,1,0,0:0:0:35:hihat.wav
192,192,150841,1,0,0:0:0:70:kick.wav
448,192,150841,1,0,0:0:0:0:
64,192,150998,1,0,0:0:0:35:hihat.wav
192,192,150998,1,0,0:0:0:0:
320,192,151155,1,0,0:0:0:70:kick.wav
448,192,151155,1,0,0:0:0:70:snare.wav
192,192,151312,1,0,0:0:0:35:hihat.wav
320,192,151312,1,0,0:0:0:0:
64,192,151469,1,0,0:0:0:70:kick.wav
448,192,151469,1,0,0:0:0:0:
192,192,151626,1,0,0:0:0:35:hihat.wav
64,192,151626,1,0,0:0:0:0:
320,192,151783,1,0,0:0:0:70:kick.wav
448,192,151783,1,0,0:0:0:70:snare.wav
192,192,151940,1,0,0:0:0:35:hihat.wav
320,192,151940,1,0,0:0:0:0:
448,192,152097,128,0,152254:0:0:0:70:kick.wav
64,192,152097,1,0,0:0:0:0:
64,192,152254,128,0,152412:0:0:0:35:hihat.wav
320,192,152254,1,0,0:0:0:0:
192,192,152412,128,0,152569:0:0:0:70:kick.wav
448,192,152412,1,0,0:0:0:70:snare.wav
320,192,152569,128,0,152726:0:0:0:35:hihat.wav
64,192,152569,1,0,0:0:0:0:
448,192,152726,128,0,152883:0:0:0:70:kick.wav
192,192,152726,1,0,0:0:0:0:
320,192,152883,128,0,153040:0:0:0:35:hihat.wav
64,192,152883,1,0,0:0:0:0:
192,192,153040,128,0,153197:0:0:0:70:kick.wav
448,192,153040,1,0,0:0:0:70:snare.wav
64,192,153040,1,0,0:0:0:0:
320,192,153197,1,0,0:0:0:70:kick.wav
448,192,153197,1,0,0:0:0:0:
64,192,153197,128,0,153354:0:0:0:0:
192,192,153354,5,0,0:0:0:70:crash-cymbol.wav
448,192,153354,1,0,0:0:0:70:kick.wav
320,192,153511,1,0,0:0:0:35:hihat.wav
64,192,153668,1,0,0:0:0:70:kick.wav
448,192,153668,1,0,0:0:0:70:snare.wav
192,192,153747,1,0,0:0:0:0:
320,192,153825,1,0,0:0:0:35:hihat.wav
64,192,153982,1,0,0:0:0:70:kick.wav
448,192,153982,1,0,0:0:0:50:bell.wav
192,192,154139,1,0,0:0:0:35:hihat.wav
64,192,154296,1,0,0:0:0:70:kick.wav
448,192,154296,1,0,0:0:0:70:snare.wav
320,192,154375,1,0,0:0:0:0:
192,192,154453,1,0,0:0:0:35:hihat.wav
448,192,154610,1,0,0:0:0:70:kick.wav
64,192,154610,128,0,154768:0:0:0:40:bell.wav
320,192,154768,1,0,0:0:0:35:hihat.wav
192,192,154925,128,0,155082:0:0:0:70:kick.wav
448,192,154925,1,0,0:0:0:70:snare.wav
320,192,155082,1,0,0:0:0:35:hihat.wav
320,192,155239,128,0,155396:0:0:0:70:kick.wav
448,192,155239,1,0,0:0:0:30:bell.wav
64,192,155239,1,0,0:0:0:0:
192,192,155396,1,0,0:0:0:35:hihat.wav
64,192,155553,1,0,0:0:0:70:kick.wav
448,192,155553,128,0,155710:0:0:0:70:snare.wav
192,192,155710,1,0,0:0:0:35:hihat.wav
64,192,155867,128,0,156024:0:0:0:70:kick.wav
448,192,155867,1,0,0:0:0:20:bell.wav
448,192,156024,1,0,0:0:0:35:hihat.wav
320,192,156181,128,0,156338:0:0:0:70:kick.wav
64,192,156181,1,0,0:0:0:70:snare.wav
64,192,156338,1,0,0:0:0:35:hihat.wav
192,192,156495,128,0,156652:0:0:0:70:kick.wav
448,192,156495,1,0,0:0:0:10:bell.wav
448,192,156652,1,0,0:0:0:35:hihat.wav
448,192,156809,128,0,156966:0:0:0:70:kick.wav
64,192,156809,1,0,0:0:0:70:snare.wav
64,192,156966,1,0,0:0:0:35:hihat.wav
448,192,157124,1,0,0:0:0:70:kick.wav
320,192,157124,1,0,0:0:0:0:
320,192,157281,1,0,0:0:0:35:hihat.wav
64,192,157281,1,0,0:0:0:0:
192,192,157438,1,0,0:0:0:70:snare.wav
448,192,157438,1,0,0:0:0:70:kick.wav
192,192,157595,1,0,0:0:0:35:hihat.wav
64,192,157595,1,0,0:0:0:0:
448,192,157752,1,0,0:0:0:0:
320,192,157752,1,0,0:0:0:70:kick.wav
64,192,157909,1,0,0:0:0:35:hihat.wav
320,192,157909,1,0,0:0:0:0:
192,192,158066,1,0,0:0:0:70:snare.wav
448,192,158066,1,0,0:0:0:70:kick.wav
192,192,158223,1,0,0:0:0:0:
64,192,158223,1,0,0:0:0:70:snare.wav
448,192,158380,1,0,0:0:0:70:kick.wav
320,192,158380,1,0,0:0:0:70:crash-cymbol.wav
64,192,158380,1,0,0:0:0:0:
192,192,158537,1,0,0:0:0:35:hihat.wav
64,192,158694,1,0,0:0:0:70:snare.wav
448,192,158694,1,0,0:0:0:70:kick.wav
320,192,158773,1,0,0:0:0:0:
192,192,158851,1,0,0:0:0:35:hihat.wav
64,192,159008,1,0,0:0:0:70:kick.wav
448,192,159008,1,0,0:0:0:0:
320,192,159165,1,0,0:0:0:35:hihat.wav
64,192,159323,1,0,0:0:0:70:kick.wav
448,192,159323,1,0,0:0:0:70:snare.wav
192,192,159401,1,0,0:0:0:0:
320,192,159480,1,0,0:0:0:35:hihat.wav
64,192,159637,128,0,159794:0:0:0:70:kick.wav
448,192,159637,1,0,0:0:0:70:crash-cymbol.wav
320,192,159794,1,0,0:0:0:35:hihat.wav
448,192,159951,1,0,0:0:0:70:snare.wav
192,192,159951,128,0,160108:0:0:0:70:kick.wav
320,192,160108,1,0,0:0:0:35:hihat.wav
64,192,160265,1,0,0:0:0:70:kick.wav
320,192,160265,128,0,160422:0:0:0:0:
448,192,160265,1,0,0:0:0:0:
192,192,160422,1,0,0:0:0:35:hihat.wav
448,192,160579,128,0,160736:0:0:0:70:snare.wav
64,192,160579,1,0,0:0:0:70:kick.wav
192,192,160736,1,0,0:0:0:35:hihat.wav
64,192,160893,1,0,0:0:0:70:kick.wav
448,192,160893,128,0,161050:0:0:0:70:crash-cymbol.wav
64,192,161050,1,0,0:0:0:35:hihat.wav
448,192,161207,1,0,0:0:0:70:kick.wav
192,192,161207,128,0,161364:0:0:0:70:snare.wav
448,192,161364,1,0,0:0:0:35:hihat.wav
64,192,161521,1,0,0:0:0:70:kick.wav
320,192,161521,128,0,161679:0:0:0:70:crash-cymbol.wav
64,192,161679,1,0,0:0:0:35:hihat.wav
448,192,161836,1,0,0:0:0:70:kick.wav
64,192,161836,128,0,161993:0:0:0:70:snare.wav
448,192,161993,1,0,0:0:0:35:hihat.wav
448,192,162150,1,0,0:0:0:0:
64,192,162150,1,0,0:0:0:70:snare.wav
64,192,162307,128,0,162464:0:0:0:0:
448,192,162464,1,0,0:0:0:70:snare.wav
320,192,162464,1,0,0:0:0:0:
448,192,162621,128,0,162778:0:0:0:0:
192,192,162778,1,0,0:0:0:70:snare.wav
64,192,162778,1,0,0:0:0:0:
64,192,162935,128,0,163092:0:0:0:0:
320,192,163092,1,0,0:0:0:70:kick.wav
448,192,163092,1,0,0:0:0:0:
64,192,163171,1,0,0:0:0:0:
192,192,163171,1,0,0:0:0:0:
448,192,163249,1,0,0:0:0:70:kick.wav
320,192,163249,1,0,0:0:0:0:
192,192,163328,1,0,0:0:0:0:
64,192,163328,1,0,0:0:0:0:
64,192,163406,1,0,0:0:0:70:kick.wav
448,192,163406,1,0,0:0:0:70:crash-cymbol.wav
320,192,163406,1,0,0:0:0:60:bell.wav
192,192,163563,1,0,0:0:0:70:hihat.wav
320,192,163563,1,0,0:0:0:0:
192,192,163720,1,0,0:0:0:70:kick.wav
64,192,163720,1,0,0:0:0:70:snare.wav
320,192,163799,1,0,0:0:0:0:
192,192,163877,1,0,0:0:0:70:hihat.wav
448,192,163877,1,0,0:0:0:0:
320,192,164035,1,0,0:0:0:70:kick.wav
448,192,164035,1,0,0:0:0:50:bell.wav
320,192,164192,1,0,0:0:0:70:hihat.wav
64,192,164192,1,0,0:0:0:0:
320,192,164349,1,0,0:0:0:70:kick.wav
192,192,164349,1,0,0:0:0:0:
64,192,164427,1,0,0:0:0:0:
192,192,164506,1,0,0:0:0:70:hihat.wav
448,192,164506,1,0,0:0:0:0:
64,192,164663,1,0,0:0:0:70:kick.wav
320,192,164663,1,0,0:0:0:0:
448,192,164663,128,0,164820:0:0:0:0:
192,192,164820,1,0,0:0:0:70:hihat.wav
192,192,164977,1,0,0:0:0:0:
64,192,164977,1,0,0:0:0:70:snare.wav
320,192,164977,128,0,165134:0:0:0:0:
448,192,165134,1,0,0:0:0:70:hihat.wav
192,192,165291,1,0,0:0:0:30:bell.wav
448,192,165291,1,0,0:0:0:0:
64,192,165291,128,0,165448:0:0:0:0:
320,192,165448,1,0,0:0:0:70:hihat.wav
448,192,165605,1,0,0:0:0:70:snare.wav
320,192,165605,1,0,0:0:0:0:
192,192,165605,128,0,165762:0:0:0:0:
64,192,165762,1,0,0:0:0:70:hihat.wav
320,192,165919,1,0,0:0:0:70:kick.wav
64,192,165919,1,0,0:0:0:20:bell.wav
448,192,165919,1,0,0:0:0:0:
192,192,166076,1,0,0:0:0:70:hihat.wav
320,192,166076,1,0,0:0:0:0:
64,192,166234,1,0,0:0:0:70:kick.wav
192,192,166234,1,0,0:0:0:70:snare.wav
448,192,166312,1,0,0:0:0:0:
320,192,166391,1,0,0:0:0:70:hihat.wav
64,192,166391,1,0,0:0:0:0:
192,192,166548,1,0,0:0:0:70:kick.wav
448,192,166548,1,0,0:0:0:10:bell.wav
320,192,166705,1,0,0:0:0:70:hihat.wav
448,192,166705,1,0,0:0:0:0:
192,192,166862,1,0,0:0:0:70:kick.wav
448,192,166862,1,0,0:0:0:0:
64,192,166940,1,0,0:0:0:0:
192,192,167019,1,0,0:0:0:70:hihat.wav
320,192,167019,1,0,0:0:0:0:
320,192,167176,1,0,0:0:0:70:kick.wav
64,192,167176,1,0,0:0:0:0:
448,192,167176,128,0,167333:0:0:0:0:
320,192,167333,1,0,0:0:0:0:
64,192,167490,1,0,0:0:0:70:kick.wav
192,192,167490,1,0,0:0:0:0:
320,192,167490,128,0,167647:0:0:0:0:
192,192,167647,1,0,0:0:0:70:hihat.wav
448,192,167804,1,0,0:0:0:70:kick.wav
64,192,167804,1,0,0:0:0:0:
192,192,167804,128,0,167961:0:0:0:0:
64,192,167961,1,0,0:0:0:0:
320,192,168118,1,0,0:0:0:70:snare.wav
192,192,168118,1,0,0:0:0:0:
64,192,168118,128,0,168275:0:0:0:0:
448,192,168275,1,0,0:0:0:0:
448,192,168432,1,0,0:0:0:70:kick.wav
64,192,168432,1,0,0:0:0:0:
320,192,168432,1,0,0:0:0:0:
192,192,168590,1,0,0:0:0:70:hihat.wav
64,192,168590,1,0,0:0:0:0:
64,192,168747,1,0,0:0:0:70:snare.wav
320,192,168747,1,0,0:0:0:70:kick.wav
192,192,168825,1,0,0:0:0:0:
64,192,168904,1,0,0:0:0:70:hihat.wav
448,192,168904,1,0,0:0:0:0:
192,192,169061,1,0,0:0:0:70:kick.wav
448,192,169061,1,0,0:0:0:0:
64,192,169218,1,0,0:0:0:70:hihat.wav
192,192,169218,1,0,0:0:0:0:
320,192,169375,1,0,0:0:0:70:kick.wav
192,192,169375,1,0,0:0:0:70:snare.wav
64,192,169453,1,0,0:0:0:0:
448,192,169532,1,0,0:0:0:70:hihat.wav
192,192,169532,1,0,0:0:0:0:
64,192,169689,1,0,0:0:0:70:kick.wav
320,192,169689,1,0,0:0:0:0:
448,192,169689,128,0,169846:0:0:0:0:
192,192,169846,1,0,0:0:0:0:
64,192,170003,1,0,0:0:0:70:snare.wav
192,192,170003,1,0,0:0:0:0:
320,192,170003,128,0,170160:0:0:0:0:
448,192,170160,1,0,0:0:0:0:
192,192,170317,1,0,0:0:0:70:kick.wav
448,192,170317,1,0,0:0:0:0:
64,192,170317,128,0,170474:0:0:0:0:
320,192,170474,1,0,0:0:0:0:
192,192,170631,128,0,170788:0:0:0:0:
448,192,170631,1,0,0:0:0:70:snare.wav
320,192,170631,1,0,0:0:0:70:kick.wav
64,192,170788,1,0,0:0:0:70:hihat.wav
320,192,170946,1,0,0:0:0:70:kick.wav
64,192,170946,1,0,0:0:0:0:
448,192,170946,1,0,0:0:0:0:
64,192,171103,1,0,0:0:0:70:hihat.wav
192,192,171103,1,0,0:0:0:0:
64,192,171260,1,0,0:0:0:70:kick.wav
320,192,171260,1,0,0:0:0:70:snare.wav
192,192,171260,1,0,0:0:0:0:
448,192,171417,1,0,0:0:0:70:hihat.wav
192,192,171417,1,0,0:0:0:0:
320,192,171574,1,0,0:0:0:70:kick.wav
448,192,171574,1,0,0:0:0:0:
64,192,171574,1,0,0:0:0:0:
192,192,171731,1,0,0:0:0:70:hihat.wav
64,192,171731,1,0,0:0:0:0:
64,192,171888,1,0,0:0:0:70:kick.wav
448,192,171888,1,0,0:0:0:70:snare.wav
320,192,171888,1,0,0:0:0:0:
320,192,172045,1,0,0:0:0:70:hihat.wav
192,192,172045,1,0,0:0:0:0:
320,192,172202,1,0,0:0:0:70:kick.wav
192,192,172202,1,0,0:0:0:0:
448,192,172359,1,0,0:0:0:70:hihat.wav
64,192,172359,1,0,0:0:0:0:
192,192,172516,1,0,0:0:0:70:kick.wav
64,192,172516,1,0,0:0:0:70:snare.wav
448,192,172569,1,0,0:0:0:0:
320,192,172621,1,0,0:0:0:0:
64,192,172673,1,0,0:0:0:70:hihat.wav
192,192,172726,1,0,0:0:0:0:
448,192,172778,1,0,0:0:0:0:
64,192,172830,1,0,0:0:0:70:kick.wav
192,192,172830,1,0,0:0:0:0:
320,192,172987,1,0,0:0:0:70:hihat.wav
64,192,172987,1,0,0:0:0:0:
64,192,173145,1,0,0:0:0:70:snare.wav
192,192,173145,1,0,0:0:0:0:
448,192,173223,1,0,0:0:0:70:kick.wav
320,192,173223,1,0,0:0:0:0:
192,192,173302,1,0,0:0:0:70:kick.wav
0,0,173302,1,0,0:0:0:0:
320,192,173380,1,0,0:0:0:0:
448,192,173380,1,0,0:0:0:70:kick.wav
64,192,173459,1,0,0:0:0:70:crash-cymbol.wav
192,192,173459,1,0,0:0:0:60:bell.wav
192,192,173616,1,0,0:0:0:35:hihat.wav
64,192,173773,1,0,0:0:0:70:kick.wav
320,192,173773,1,0,0:0:0:70:snare.wav
448,192,173773,1,0,0:0:0:0:
192,192,173851,1,0,0:0:0:0:
320,192,173930,1,0,0:0:0:35:hihat.wav
64,192,174087,1,0,0:0:0:70:kick.wav
192,192,174087,1,0,0:0:0:50:bell.wav
320,192,174244,1,0,0:0:0:35:hihat.wav
64,192,174401,1,0,0:0:0:70:kick.wav
192,192,174401,1,0,0:0:0:70:snare.wav
448,192,174401,1,0,0:0:0:0:
320,192,174480,1,0,0:0:0:0:
192,192,174558,1,0,0:0:0:35:hihat.wav
320,192,174715,1,0,0:0:0:70:kick.wav
448,192,174715,1,0,0:0:0:40:bell.wav
64,192,174872,1,0,0:0:0:35:hihat.wav
192,192,175029,1,0,0:0:0:70:kick.wav
320,192,175029,1,0,0:0:0:70:snare.wav
448,192,175029,1,0,0:0:0:0:
64,192,175108,1,0,0:0:0:0:
448,192,175186,1,0,0:0:0:35:hihat.wav
64,192,175343,1,0,0:0:0:70:kick.wav
192,192,175343,1,0,0:0:0:30:bell.wav
448,192,175501,1,0,0:0:0:35:hihat.wav
64,192,175658,1,0,0:0:0:70:kick.wav
320,192,175658,1,0,0:0:0:70:snare.wav
192,192,175658,1,0,0:0:0:0:
448,192,175736,1,0,0:0:0:0:
64,192,175815,1,0,0:0:0:35:hihat.wav
64,192,175972,1,0,0:0:0:70:kick.wav
192,192,175972,1,0,0:0:0:70:crash-cymbol.wav
320,192,175972,1,0,0:0:0:20:bell.wav
448,192,175972,1,0,0:0:0:0:
320,192,176129,1,0,0:0:0:35:hihat.wav
64,192,176286,1,0,0:0:0:70:kick.wav
192,192,176286,1,0,0:0:0:70:snare.wav
448,192,176286,1,0,0:0:0:0:
320,192,176364,1,0,0:0:0:0:
192,192,176443,1,0,0:0:0:35:hihat.wav
64,192,176521,1,0,0:0:0:0:
320,192,176600,1,0,0:0:0:70:kick.wav
448,192,176600,1,0,0:0:0:10:bell.wav
192,192,176757,1,0,0:0:0:35:hihat.wav
64,192,176914,1,0,0:0:0:70:kick.wav
320,192,176914,1,0,0:0:0:70:snare.wav
448,192,176914,1,0,0:0:0:0:
192,192,176993,1,0,0:0:0:0:
320,192,177071,1,0,0:0:0:35:hihat.wav
448,192,177150,1,0,0:0:0:0:
64,192,177228,1,0,0:0:0:70:kick.wav
192,192,177228,1,0,0:0:0:0:
320,192,177385,1,0,0:0:0:35:hihat.wav
64,192,177542,1,0,0:0:0:70:kick.wav
192,192,177542,1,0,0:0:0:70:snare.wav
448,192,177542,1,0,0:0:0:0:
320,192,177621,1,0,0:0:0:0:
448,192,177699,1,0,0:0:0:35:hihat.wav
64,192,177778,1,0,0:0:0:0:
320,192,177857,1,0,0:0:0:70:kick.wav
448,192,177857,1,0,0:0:0:0:
192,192,178014,1,0,0:0:0:35:hihat.wav
64,192,178171,1,0,0:0:0:70:kick.wav
320,192,178171,1,0,0:0:0:70:snare.wav
448,192,178171,1,0,0:0:0:0:
192,192,178249,1,0,0:0:0:0:
64,192,178328,1,0,0:0:0:70:snare.wav
448,192,178328,1,0,0:0:0:0:
0,0,178485,5,0,0:0:0:70:kick.wav
320,192,178485,1,0,0:0:0:70:crash-cymbol.wav
448,192,178485,1,0,0:0:0:70:snare.wav
192,192,178485,1,0,0:0:0:0:
320,192,178642,1,0,0:0:0:35:hihat.wav
64,192,178799,1,0,0:0:0:70:snare.wav
192,192,178799,1,0,0:0:0:70:kick.wav
320,192,178799,1,0,0:0:0:0:
448,192,178877,1,0,0:0:0:0:
192,192,178956,1,0,0:0:0:35:hihat.wav
320,192,179035,1,0,0:0:0:0:
64,192,179113,1,0,0:0:0:70:kick.wav
448,192,179113,1,0,0:0:0:70:snare.wav
192,192,179113,1,0,0:0:0:0:
320,192,179270,1,0,0:0:0:35:hihat.wav
192,192,179427,1,0,0:0:0:70:kick.wav
320,192,179427,1,0,0:0:0:70:snare.wav
64,192,179427,1,0,0:0:0:0:
448,192,179506,1,0,0:0:0:0:
64,192,179584,1,0,0:0:0:35:hihat.wav
64,192,179741,1,0,0:0:0:70:kick.wav
192,192,179741,1,0,0:0:0:70:crash-cymbol.wav
320,192,179741,1,0,0:0:0:70:snare.wav
448,192,179741,1,0,0:0:0:0:
192,192,179898,1,0,0:0:0:35:hihat.wav
192,192,180055,1,0,0:0:0:70:snare.wav
320,192,180055,1,0,0:0:0:70:kick.wav
448,192,180055,1,0,0:0:0:0:
64,192,180134,1,0,0:0:0:0:
320,192,180213,1,0,0:0:0:35:hihat.wav
192,192,180291,1,0,0:0:0:0:
64,192,180370,1,0,0:0:0:70:kick.wav
320,192,180370,1,0,0:0:0:70:snare.wav
448,192,180370,1,0,0:0:0:0:
192,192,180527,1,0,0:0:0:35:hihat.wav
192,192,180684,1,0,0:0:0:70:snare.wav
320,192,180684,1,0,0:0:0:70:kick.wav
448,192,180684,1,0,0:0:0:0:
64,192,180762,1,0,0:0:0:0:
448,192,180841,1,0,0:0:0:35:hihat.wav
64,192,180998,1,0,0:0:0:70:kick.wav
192,192,180998,1,0,0:0:0:70:crash-cymbol.wav
320,192,180998,1,0,0:0:0:0:
448,192,180998,1,0,0:0:0:0:
192,192,181155,1,0,0:0:0:35:hihat.wav
320,192,181155,1,0,0:0:0:70:kick.wav
64,192,181312,1,0,0:0:0:70:kick.wav
320,192,181312,1,0,0:0:0:70:snare.wav
192,192,181469,1,0,0:0:0:35:hihat.wav
448,192,181469,1,0,0:0:0:70:kick.wav
64,192,181626,1,0,0:0:0:70:kick.wav
192,192,181626,1,0,0:0:0:70:crash-cymbol.wav
320,192,181626,1,0,0:0:0:0:
448,192,181626,1,0,0:0:0:0:
64,192,181783,1,0,0:0:0:35:hihat.wav
320,192,181783,1,0,0:0:0:70:kick.wav
192,192,181940,1,0,0:0:0:70:kick.wav
448,192,181940,1,0,0:0:0:70:snare.wav
64,192,182097,1,0,0:0:0:35:hihat.wav
448,192,182097,1,0,0:0:0:70:kick.wav
64,192,182254,1,0,0:0:0:70:kick.wav
192,192,182254,1,0,0:0:0:70:crash-cymbol.wav
320,192,182254,1,0,0:0:0:0:
448,192,182254,1,0,0:0:0:0:
192,192,182412,1,0,0:0:0:70:kick.wav
320,192,182412,1,0,0:0:0:0:
64,192,182569,1,0,0:0:0:70:snare.wav
448,192,182569,1,0,0:0:0:70:kick.wav
320,192,182621,1,0,0:0:0:0:
192,192,182673,1,0,0:0:0:0:
320,192,182726,1,0,0:0:0:70:kick.wav
64,192,182726,1,0,0:0:0:0:
448,192,182778,1,0,0:0:0:0:
320,192,182830,1,0,0:0:0:0:
64,192,182883,1,0,0:0:0:70:kick.wav
192,192,182883,1,0,0:0:0:70:crash-cymbol.wav
320,192,183040,1,0,0:0:0:70:kick.wav
448,192,183040,1,0,0:0:0:0:
64,192,183197,1,0,0:0:0:70:snare.wav
192,192,183197,1,0,0:0:0:70:kick.wav
192,192,183354,1,0,0:0:0:70:kick.wav
320,192,183354,1,0,0:0:0:0:
64,192,183511,1,0,0:0:0:70:kick.wav
448,192,183511,1,0,0:0:0:0:
320,192,183590,1,0,0:0:0:0:
192,192,183668,1,0,0:0:0:70:kick.wav
64,192,183747,1,0,0:0:0:0:
320,192,183825,1,0,0:0:0:70:kick.wav
448,192,183825,1,0,0:0:0:0:
192,192,183877,1,0,0:0:0:0:
64,192,183930,1,0,0:0:0:0:
320,192,183982,1,0,0:0:0:70:kick.wav
448,192,183982,1,0,0:0:0:0:
192,192,184035,1,0,0:0:0:0:
64,192,184087,1,0,0:0:0:0:
320,192,184139,1,0,0:0:0:70:kick.wav
448,192,184139,1,0,0:0:0:0:
192,192,184218,1,0,0:0:0:70:kick.wav
64,192,184296,1,0,0:0:0:70:kick.wav
448,192,184296,1,0,0:0:0:0:
320,192,184375,1,0,0:0:0:70:kick.wav
64,192,184453,1,0,0:0:0:70:kick.wav
192,192,184453,1,0,0:0:0:0:
320,192,184493,1,0,0:0:0:0:
448,192,184532,1,0,0:0:0:0:
64,192,184610,1,0,0:0:0:0:
192,192,184650,1,0,0:0:0:0:
320,192,184689,1,0,0:0:0:0:
448,192,184768,1,0,0:0:0:0:
192,192,184846,1,0,0:0:0:0:
320,192,184925,1,0,0:0:0:0:
64,192,185003,1,0,0:0:0:0:
448,192,185082,1,0,0:0:0:0:
320,192,185239,1,0,0:0:0:0:
192,192,185396,1,0,0:0:0:0:
64,192,185553,5,0,0:0:0:0:
320,192,185710,1,0,0:0:0:70:snare.wav
448,192,185710,1,0,0:0:0:70:cymbol.wav
192,192,185788,1,0,0:0:0:0:
320,192,185867,1,0,0:0:0:0:
192,192,185946,1,0,0:0:0:0:
320,192,186024,128,0,187281:0:0:0:70:crash-cymbol.wav
64,192,186024,128,0,188537:0:0:0:70:kick.wav
192,192,187124,1,0,0:0:0:0:
448,192,187281,128,0,187909:0:0:0:40:bell.wav
320,192,187909,128,0,188537:0:0:0:0:
192,192,188537,128,0,189794:0:0:0:20:bell.wav
448,192,188537,128,0,189480:0:0:0:0:
320,192,189480,128,0,189637:0:0:0:0:
64,192,189637,128,0,189794:0:0:0:0:
320,192,189794,128,0,190422:0:0:0:0:
448,192,189794,128,0,191050:0:0:0:0:
192,192,190422,128,0,191050:0:0:0:0:
64,192,191050,128,0,192307:0:0:0:0:
320,192,191050,128,0,191679:0:0:0:0:
448,192,191679,128,0,192307:0:0:0:0:
192,192,192307,128,0,193563:0:0:0:0:
320,192,192307,128,0,192935:0:0:0:0:
448,192,192935,128,0,193563:0:0:0:0:
64,192,193563,128,0,194820:0:0:0:0:
320,192,193563,128,0,194349:0:0:0:0:
192,192,194349,128,0,194506:0:0:0:0:
448,192,194506,128,0,194663:0:0:0:0:
320,192,194663,128,0,194820:0:0:0:0:
192,192,194820,128,0,195134:0:0:0:0:
448,192,194820,128,0,196076:0:0:0:0:
64,192,195134,128,0,195448:0:0:0:0:
320,192,195448,128,0,195762:0:0:0:0:
64,192,195762,128,0,195998:0:0:0:0:
192,192,196076,128,0,196705:0:0:0:0:
320,192,196076,128,0,197333:0:0:0:0:
64,192,196076,1,0,0:0:0:0:
64,192,196705,128,0,196862:0:0:0:0:
448,192,196862,128,0,197019:0:0:0:0:
192,192,197019,128,0,197176:0:0:0:0:
448,192,197176,128,0,197333:0:0:0:0:
64,192,197333,128,0,198590:0:0:0:0:
192,192,197333,128,0,197961:0:0:0:0:
320,192,197961,128,0,198590:0:0:0:0:
192,192,198590,128,0,199375:0:0:0:0:
448,192,198590,128,0,199846:0:0:0:0:
320,192,199218,1,0,0:0:0:0:
64,192,199375,128,0,199532:0:0:0:0:
320,192,199532,128,0,199689:0:0:0:0:
192,192,199689,128,0,199846:0:0:0:0:
64,192,199846,128,0,201103:0:0:0:0:
320,192,199846,128,0,200474:0:0:0:0:
192,192,200474,128,0,201103:0:0:0:0:
320,192,201103,128,0,201731:0:0:0:0:
448,192,201103,128,0,202359:0:0:0:0:
64,192,201731,128,0,202359:0:0:0:0:
192,192,202359,128,0,203616:0:0:0:0:
320,192,202359,128,0,202987:0:0:0:0:
448,192,202987,128,0,203616:0:0:0:0:
64,192,203616,128,0,204872:0:0:0:0:
320,192,203616,128,0,204401:0:0:0:0:
192,192,204244,1,0,0:0:0:0:
448,192,204401,128,0,204558:0:0:0:0:
192,192,204558,128,0,204715:0:0:0:0:
320,192,204715,128,0,204872:0:0:0:0:
448,192,204872,128,0,206050:0:0:0:0:
192,192,204872,128,0,205186:0:0:0:0:
320,192,205186,128,0,205501:0:0:0:0:
192,192,205501,128,0,206050:0:0:0:0:
64,192,205501,128,0,205815:0:0:0:0:
320,192,205815,128,0,206129:0:0:0:0:
192,192,206129,5,0,0:0:0:70:crash-cymbol.wav
448,192,206129,1,0,0:0:0:70:kick.wav
192,192,206286,1,0,0:0:0:0:
192,192,206443,1,0,0:0:0:70:kick.wav
320,192,206443,1,0,0:0:0:0:
320,192,206600,1,0,0:0:0:0:
448,192,206757,1,0,0:0:0:70:kick.wav
320,192,206757,1,0,0:0:0:50:bell.wav
448,192,206914,1,0,0:0:0:0:
64,192,207071,1,0,0:0:0:70:kick.wav
448,192,207071,1,0,0:0:0:0:
64,192,207228,1,0,0:0:0:0:
448,192,207385,128,0,207542:0:0:0:70:kick.wav
192,192,207385,128,0,207542:0:0:0:40:bell.wav
320,192,207699,128,0,207857:0:0:0:70:kick.wav
64,192,207699,128,0,207857:0:0:0:0:
64,192,208014,128,0,208171:0:0:0:70:kick.wav
448,192,208014,128,0,208171:0:0:0:30:bell.wav
64,192,208328,128,0,208485:0:0:0:70:kick.wav
192,192,208328,128,0,208485:0:0:0:0:
448,192,208642,1,0,0:0:0:70:kick.wav
320,192,208642,1,0,0:0:0:20:bell.wav
320,192,208799,1,0,0:0:0:0:
320,192,208956,1,0,0:0:0:70:kick.wav
192,192,208956,1,0,0:0:0:0:
192,192,209113,1,0,0:0:0:0:
64,192,209270,1,0,0:0:0:70:kick.wav
192,192,209270,1,0,0:0:0:10:bell.wav
64,192,209427,1,0,0:0:0:0:
64,192,209584,1,0,0:0:0:70:kick.wav
448,192,209584,1,0,0:0:0:0:
448,192,209741,1,0,0:0:0:0:
448,192,209898,128,0,210055:0:0:0:70:kick.wav
192,192,209898,128,0,210055:0:0:0:0:
192,192,210213,128,0,210370:0:0:0:70:kick.wav
320,192,210213,128,0,210370:0:0:0:0:
64,192,210527,128,0,210684:0:0:0:70:kick.wav
320,192,210527,128,0,210684:0:0:0:0:
192,192,210841,128,0,210998:0:0:0:70:kick.wav
64,192,210841,128,0,210998:0:0:0:0:
64,192,211155,1,0,0:0:0:70:kick.wav
192,192,211155,1,0,0:0:0:0:
448,192,211312,1,0,0:0:0:0:
192,192,211469,1,0,0:0:0:70:kick.wav
320,192,211469,1,0,0:0:0:0:
320,192,211626,1,0,0:0:0:0:
64,192,211626,1,0,0:0:0:0:
64,192,211783,1,0,0:0:0:70:kick.wav
448,192,211783,1,0,0:0:0:0:
192,192,211940,1,0,0:0:0:0:
192,192,212097,1,0,0:0:0:70:kick.wav
320,192,212150,1,0,0:0:0:0:
64,192,212202,1,0,0:0:0:0:
448,192,212254,1,0,0:0:0:0:
64,192,212412,1,0,0:0:0:70:kick.wav
448,192,212412,1,0,0:0:0:0:
192,192,212569,1,0,0:0:0:0:
320,192,212726,1,0,0:0:0:70:kick.wav
448,192,212726,1,0,0:0:0:0:
64,192,212883,1,0,0:0:0:0:
192,192,212883,1,0,0:0:0:0:
448,192,213040,1,0,0:0:0:70:kick.wav
320,192,213040,1,0,0:0:0:0:
192,192,213197,1,0,0:0:0:0:
448,192,213354,1,0,0:0:0:70:kick.wav
192,192,213406,1,0,0:0:0:0:
320,192,213459,1,0,0:0:0:0:
64,192,213511,1,0,0:0:0:0:
320,192,213668,1,0,0:0:0:70:kick.wav
448,192,213668,1,0,0:0:0:0:
192,192,213825,1,0,0:0:0:0:
320,192,213982,1,0,0:0:0:70:kick.wav
64,192,213982,1,0,0:0:0:0:
192,192,214139,1,0,0:0:0:0:
448,192,214139,1,0,0:0:0:0:
448,192,214296,1,0,0:0:0:70:kick.wav
320,192,214296,1,0,0:0:0:0:
320,192,214453,1,0,0:0:0:0:
64,192,214610,1,0,0:0:0:70:kick.wav
448,192,214663,1,0,0:0:0:0:
192,192,214715,1,0,0:0:0:0:
320,192,214768,1,0,0:0:0:0:
64,192,214925,1,0,0:0:0:70:kick.wav
320,192,214925,1,0,0:0:0:0:
320,192,215082,1,0,0:0:0:0:
192,192,215239,1,0,0:0:0:70:kick.wav
448,192,215239,1,0,0:0:0:0:
448,192,215396,1,0,0:0:0:0:
320,192,215553,1,0,0:0:0:70:kick.wav
448,192,215553,1,0,0:0:0:0:
320,192,215710,1,0,0:0:0:0:
320,192,215867,1,0,0:0:0:70:kick.wav
64,192,215867,1,0,0:0:0:0:
64,192,216024,1,0,0:0:0:0:
64,192,216181,1,0,0:0:0:70:kick.wav
320,192,216181,1,0,0:0:0:70:crash-cymbol.wav
448,192,216181,1,0,0:0:0:60:bell.wav
320,192,216338,1,0,0:0:0:70:kick.wav
448,192,216338,1,0,0:0:0:0:
192,192,216495,1,0,0:0:0:70:kick.wav
448,192,216495,1,0,0:0:0:0:
320,192,216652,1,0,0:0:0:70:kick.wav
64,192,216652,1,0,0:0:0:0:
192,192,216809,1,0,0:0:0:70:kick.wav
448,192,216809,1,0,0:0:0:50:bell.wav
320,192,216966,1,0,0:0:0:70:kick.wav
448,192,216966,1,0,0:0:0:0:
320,192,217124,1,0,0:0:0:70:kick.wav
64,192,217124,1,0,0:0:0:0:
320,192,217281,1,0,0:0:0:70:kick.wav
192,192,217281,1,0,0:0:0:0:
448,192,217438,1,0,0:0:0:70:kick.wav
64,192,217438,1,0,0:0:0:40:bell.wav
448,192,217595,1,0,0:0:0:70:kick.wav
192,192,217595,1,0,0:0:0:0:
320,192,217752,1,0,0:0:0:70:kick.wav
192,192,217752,1,0,0:0:0:0:
192,192,217909,1,0,0:0:0:70:kick.wav
448,192,217909,1,0,0:0:0:0:
64,192,218066,1,0,0:0:0:70:kick.wav
320,192,218066,1,0,0:0:0:30:bell.wav
192,192,218223,1,0,0:0:0:70:kick.wav
64,192,218223,1,0,0:0:0:0:
320,192,218380,1,0,0:0:0:70:kick.wav
448,192,218380,1,0,0:0:0:0:
192,192,218537,1,0,0:0:0:70:kick.wav
320,192,218537,1,0,0:0:0:0:
64,192,218694,1,0,0:0:0:70:kick.wav
320,192,218694,1,0,0:0:0:70:crash-cymbol.wav
448,192,218694,1,0,0:0:0:20:bell.wav
64,192,218851,1,0,0:0:0:70:kick.wav
448,192,218851,1,0,0:0:0:0:
192,192,219008,1,0,0:0:0:70:kick.wav
320,192,219008,1,0,0:0:0:0:
64,192,219165,1,0,0:0:0:70:kick.wav
320,192,219165,1,0,0:0:0:0:
64,192,219323,1,0,0:0:0:70:kick.wav
448,192,219323,1,0,0:0:0:10:bell.wav
320,192,219480,1,0,0:0:0:70:kick.wav
448,192,219480,1,0,0:0:0:0:
320,192,219637,1,0,0:0:0:70:kick.wav
192,192,219637,1,0,0:0:0:0:
320,192,219794,1,0,0:0:0:70:kick.wav
64,192,219794,1,0,0:0:0:0:
64,192,219951,1,0,0:0:0:70:kick.wav
448,192,219951,1,0,0:0:0:0:
192,192,220108,1,0,0:0:0:70:kick.wav
320,192,220108,1,0,0:0:0:0:
64,192,220265,1,0,0:0:0:70:kick.wav
320,192,220265,1,0,0:0:0:0:
64,192,220422,1,0,0:0:0:70:kick.wav
448,192,220422,1,0,0:0:0:0:
192,192,220579,1,0,0:0:0:70:kick.wav
448,192,220579,1,0,0:0:0:0:
64,192,220736,1,0,0:0:0:70:kick.wav
320,192,220736,1,0,0:0:0:0:
64,192,220893,1,0,0:0:0:70:kick.wav
320,192,220893,1,0,0:0:0:0:
192,192,221050,1,0,0:0:0:70:kick.wav
448,192,221050,1,0,0:0:0:0:
320,192,221207,1,0,0:0:0:70:kick.wav
192,192,221207,1,0,0:0:0:70:crash-cymbol.wav
448,192,221207,1,0,0:0:0:0:
64,192,221286,1,0,0:0:0:0:
192,192,221364,1,0,0:0:0:70:kick.wav
320,192,221443,1,0,0:0:0:0:
448,192,221521,1,0,0:0:0:70:kick.wav
64,192,221521,1,0,0:0:0:0:
192,192,221600,1,0,0:0:0:0:
64,192,221679,1,0,0:0:0:70:kick.wav
320,192,221757,1,0,0:0:0:0:
192,192,221836,1,0,0:0:0:70:crash-cymbol.wav
64,192,221836,1,0,0:0:0:70:kick.wav
448,192,221914,1,0,0:0:0:0:
320,192,221993,1,0,0:0:0:70:kick.wav
192,192,222071,1,0,0:0:0:0:
448,192,222150,1,0,0:0:0:70:kick.wav
64,192,222150,1,0,0:0:0:0:
320,192,222228,1,0,0:0:0:0:
64,192,222307,1,0,0:0:0:70:kick.wav
192,192,222385,1,0,0:0:0:0:
320,192,222464,1,0,0:0:0:70:crash-cymbol.wav
64,192,222464,1,0,0:0:0:70:kick.wav
448,192,222542,1,0,0:0:0:0:
64,192,222621,1,0,0:0:0:70:kick.wav
192,192,222699,1,0,0:0:0:0:
448,192,222778,1,0,0:0:0:70:kick.wav
64,192,222778,1,0,0:0:0:0:
320,192,222857,1,0,0:0:0:70:kick.wav
192,192,222935,1,0,0:0:0:70:kick.wav
64,192,223014,1,0,0:0:0:70:kick.wav
320,192,223092,1,0,0:0:0:70:kick.wav
448,192,223092,1,0,0:0:0:70:crash-cymbol.wav
192,192,223171,1,0,0:0:0:70:kick.wav
64,192,223249,1,0,0:0:0:70:kick.wav
192,192,223328,1,0,0:0:0:70:kick.wav
448,192,223406,1,0,0:0:0:70:kick.wav
64,192,223406,1,0,0:0:0:0:
320,192,223485,1,0,0:0:0:0:
192,192,223563,1,0,0:0:0:70:kick.wav
320,192,223642,1,0,0:0:0:70:kick.wav
448,192,223720,1,0,0:0:0:70:kick.wav
192,192,223720,1,0,0:0:0:70:crash-cymbol.wav
320,192,223799,1,0,0:0:0:70:kick.wav
64,192,223877,1,0,0:0:0:70:kick.wav
192,192,223956,1,0,0:0:0:70:kick.wav
320,192,224035,1,0,0:0:0:70:kick.wav
448,192,224035,1,0,0:0:0:0:
192,192,224113,1,0,0:0:0:70:kick.wav
320,192,224192,1,0,0:0:0:70:kick.wav
64,192,224270,1,0,0:0:0:70:kick.wav
448,192,224349,1,0,0:0:0:70:crash-cymbol.wav
192,192,224349,1,0,0:0:0:70:kick.wav
320,192,224427,1,0,0:0:0:70:kick.wav
448,192,224506,1,0,0:0:0:70:kick.wav
64,192,224584,1,0,0:0:0:70:kick.wav
192,192,224663,1,0,0:0:0:70:kick.wav
320,192,224702,1,0,0:0:0:0:
448,192,224741,1,0,0:0:0:0:
64,192,224820,1,0,0:0:0:0:
192,192,224859,1,0,0:0:0:0:
320,192,224898,1,0,0:0:0:0:
64,192,224977,1,0,0:0:0:70:kick.wav
192,192,224977,1,0,0:0:0:0:
448,192,224977,128,0,225134:0:0:0:0:
64,192,225291,1,0,0:0:0:0:
320,192,225291,128,0,225448:0:0:0:0:
192,192,225291,1,0,0:0:0:0:
320,192,225605,1,0,0:0:0:0:
192,192,225605,128,0,225762:0:0:0:0:
64,192,225605,1,0,0:0:0:0:
320,192,225919,1,0,0:0:0:70:snare.wav
448,192,225919,1,0,0:0:0:70:cymbol.wav
64,192,225919,128,0,226076:0:0:0:70:drum.wav
448,192,226234,128,0,226391:0:0:0:70:crash-cymbol.wav
64,192,226234,1,0,0:0:0:70:kick.wav
64,192,226391,1,0,0:0:0:35:hihat.wav
448,192,226548,128,0,226705:0:0:0:70:snare.wav
192,192,226548,1,0,0:0:0:70:kick.wav
320,192,226705,128,0,226862:0:0:0:35:hihat.wav
192,192,226862,128,0,227019:0:0:0:70:kick.wav
64,192,226862,1,0,0:0:0:50:bell.wav
448,192,227019,1,0,0:0:0:35:hihat.wav
320,192,227176,128,0,227333:0:0:0:70:snare.wav
64,192,227176,1,0,0:0:0:70:kick.wav
192,192,227333,128,0,227490:0:0:0:35:hihat.wav
64,192,227490,128,0,227647:0:0:0:70:kick.wav
448,192,227490,1,0,0:0:0:40:bell.wav
448,192,227647,1,0,0:0:0:35:hihat.wav
192,192,227804,128,0,227961:0:0:0:70:snare.wav
64,192,227804,1,0,0:0:0:70:kick.wav
448,192,227961,1,0,0:0:0:35:hihat.wav
320,192,228118,128,0,228275:0:0:0:70:kick.wav
64,192,228118,1,0,0:0:0:30:bell.wav
192,192,228275,1,0,0:0:0:35:hihat.wav
448,192,228432,128,0,228590:0:0:0:70:snare.wav
320,192,228432,1,0,0:0:0:70:kick.wav
192,192,228590,1,0,0:0:0:35:hihat.wav
64,192,228747,128,0,228904:0:0:0:70:kick.wav
448,192,228747,1,0,0:0:0:20:bell.wav
448,192,228904,1,0,0:0:0:35:hihat.wav
64,192,229061,128,0,229218:0:0:0:70:snare.wav
320,192,229061,1,0,0:0:0:70:kick.wav
192,192,229218,128,0,229375:0:0:0:35:hihat.wav
320,192,229375,128,0,229532:0:0:0:70:kick.wav
448,192,229375,1,0,0:0:0:10:bell.wav
64,192,229532,1,0,0:0:0:35:hihat.wav
192,192,229689,128,0,229846:0:0:0:70:snare.wav
448,192,229689,1,0,0:0:0:70:kick.wav
320,192,229846,128,0,230003:0:0:0:35:hihat.wav
448,192,230003,128,0,230160:0:0:0:70:kick.wav
64,192,230003,1,0,0:0:0:0:
64,192,230160,1,0,0:0:0:35:hihat.wav
320,192,230317,128,0,230474:0:0:0:70:snare.wav
448,192,230317,1,0,0:0:0:70:kick.wav
64,192,230474,1,0,0:0:0:35:hihat.wav
192,192,230631,128,0,230788:0:0:0:70:kick.wav
448,192,230631,1,0,0:0:0:0:
320,192,230788,1,0,0:0:0:35:hihat.wav
64,192,230946,128,0,231103:0:0:0:70:snare.wav
192,192,230946,1,0,0:0:0:70:kick.wav
320,192,231103,1,0,0:0:0:70:snare.wav
448,192,231260,1,0,0:0:0:70:kick.wav
64,192,231260,1,0,0:0:0:0:
192,192,231417,1,0,0:0:0:35:hihat.wav
320,192,231574,1,0,0:0:0:70:kick.wav
448,192,231574,128,0,231731:0:0:0:70:snare.wav
64,192,231731,128,0,231888:0:0:0:35:hihat.wav
448,192,231888,128,0,232045:0:0:0:70:kick.wav
192,192,231888,1,0,0:0:0:0:
320,192,232045,1,0,0:0:0:35:hihat.wav
448,192,232202,1,0,0:0:0:70:snare.wav
64,192,232202,1,0,0:0:0:70:kick.wav
320,192,232254,1,0,0:0:0:0:
192,192,232307,1,0,0:0:0:0:
64,192,232359,1,0,0:0:0:35:hihat.wav
64,192,232516,1,0,0:0:0:70:kick.wav
448,192,232516,1,0,0:0:0:0:
192,192,232673,1,0,0:0:0:35:hihat.wav
320,192,232830,1,0,0:0:0:70:kick.wav
448,192,232830,128,0,232987:0:0:0:70:snare.wav
64,192,232987,128,0,233145:0:0:0:35:hihat.wav
448,192,233145,128,0,233302:0:0:0:70:kick.wav
192,192,233145,1,0,0:0:0:0:
320,192,233302,1,0,0:0:0:35:hihat.wav
448,192,233459,1,0,0:0:0:70:kick.wav
64,192,233459,1,0,0:0:0:70:snare.wav
320,192,233511,1,0,0:0:0:0:
192,192,233563,1,0,0:0:0:0:
64,192,233616,1,0,0:0:0:35:hihat.wav
64,192,233773,1,0,0:0:0:70:kick.wav
448,192,233773,1,0,0:0:0:0:
192,192,233930,1,0,0:0:0:35:hihat.wav
448,192,234087,128,0,234244:0:0:0:70:snare.wav
320,192,234087,1,0,0:0:0:70:kick.wav
64,192,234244,128,0,234401:0:0:0:35:hihat.wav
192,192,234401,1,0,0:0:0:70:kick.wav
448,192,234401,128,0,234558:0:0:0:0:
320,192,234558,1,0,0:0:0:35:hihat.wav
64,192,234715,1,0,0:0:0:70:snare.wav
448,192,234715,1,0,0:0:0:70:kick.wav
320,192,234768,1,0,0:0:0:0:
192,192,234820,1,0,0:0:0:0:
64,192,234872,1,0,0:0:0:35:hihat.wav
448,192,235029,1,0,0:0:0:70:kick.wav
64,192,235029,128,0,235186:0:0:0:0:
448,192,235186,1,0,0:0:0:35:hihat.wav
192,192,235343,128,0,235501:0:0:0:70:snare.wav
64,192,235343,1,0,0:0:0:70:kick.wav
448,192,235501,1,0,0:0:0:35:hihat.wav
320,192,235658,128,0,235815:0:0:0:70:kick.wav
64,192,235658,1,0,0:0:0:0:
192,192,235815,1,0,0:0:0:35:hihat.wav
448,192,235972,128,0,236129:0:0:0:70:snare.wav
320,192,235972,1,0,0:0:0:70:kick.wav
192,192,236129,1,0,0:0:0:70:kick.wav
64,192,236286,5,0,0:0:0:70:kick.wav
448,192,236286,1,0,0:0:0:70:crash-cymbol.wav
320,192,236286,1,0,0:0:0:60:bell.wav
192,192,236443,1,0,0:0:0:35:hihat.wav
448,192,236443,1,0,0:0:0:0:
320,192,236521,1,0,0:0:0:0:
64,192,236600,1,0,0:0:0:70:snare.wav
448,192,236600,1,0,0:0:0:70:kick.wav
192,192,236757,1,0,0:0:0:35:hihat.wav
320,192,236757,1,0,0:0:0:0:
64,192,236914,1,0,0:0:0:70:kick.wav
320,192,236914,1,0,0:0:0:50:bell.wav
192,192,237071,1,0,0:0:0:35:hihat.wav
320,192,237071,1,0,0:0:0:0:
448,192,237228,1,0,0:0:0:70:snare.wav
64,192,237228,1,0,0:0:0:70:kick.wav
192,192,237307,1,0,0:0:0:0:
320,192,237385,1,0,0:0:0:35:hihat.wav
448,192,237385,1,0,0:0:0:0:
448,192,237542,128,0,237699:0:0:0:70:kick.wav
64,192,237542,1,0,0:0:0:40:bell.wav
192,192,237542,1,0,0:0:0:0:
320,192,237699,1,0,0:0:0:35:hihat.wav
320,192,237857,128,0,238014:0:0:0:70:snare.wav
64,192,237857,1,0,0:0:0:70:kick.wav
448,192,237857,1,0,0:0:0:0:
192,192,238014,1,0,0:0:0:35:hihat.wav
64,192,238171,128,0,238328:0:0:0:70:kick.wav
320,192,238171,1,0,0:0:0:30:bell.wav
448,192,238171,1,0,0:0:0:0:
192,192,238328,1,0,0:0:0:35:hihat.wav
192,192,238485,128,0,238642:0:0:0:70:snare.wav
448,192,238485,1,0,0:0:0:70:kick.wav
64,192,238485,1,0,0:0:0:0:
320,192,238642,1,0,0:0:0:35:hihat.wav
64,192,238799,1,0,0:0:0:70:kick.wav
448,192,238799,1,0,0:0:0:20:bell.wav
192,192,238956,1,0,0:0:0:35:hihat.wav
448,192,238956,1,0,0:0:0:0:
320,192,239035,1,0,0:0:0:0:
64,192,239113,1,0,0:0:0:70:snare.wav
192,192,239113,1,0,0:0:0:70:kick.wav
192,192,239270,1,0,0:0:0:35:hihat.wav
320,192,239270,1,0,0:0:0:0:
320,192,239427,1,0,0:0:0:70:kick.wav
448,192,239427,1,0,0:0:0:10:bell.wav
64,192,239584,1,0,0:0:0:35:hihat.wav
448,192,239584,1,0,0:0:0:0:
192,192,239663,1,0,0:0:0:0:
64,192,239741,1,0,0:0:0:70:snare.wav
320,192,239741,1,0,0:0:0:70:kick.wav
192,192,239898,1,0,0:0:0:35:hihat.wav
320,192,239898,1,0,0:0:0:0:
448,192,240055,128,0,240213:0:0:0:70:kick.wav
64,192,240055,1,0,0:0:0:0:
192,192,240055,1,0,0:0:0:0:
320,192,240213,1,0,0:0:0:35:hihat.wav
320,192,240370,128,0,240527:0:0:0:70:snare.wav
64,192,240370,1,0,0:0:0:70:kick.wav
448,192,240370,1,0,0:0:0:0:
192,192,240527,1,0,0:0:0:35:hihat.wav
192,192,240684,128,0,240841:0:0:0:70:kick.wav
448,192,240684,1,0,0:0:0:0:
64,192,240684,1,0,0:0:0:0:
320,192,240841,1,0,0:0:0:35:hihat.wav
64,192,240998,128,0,241155:0:0:0:70:snare.wav
320,192,240998,1,0,0:0:0:70:kick.wav
448,192,240998,1,0,0:0:0:0:
192,192,241155,1,0,0:0:0:70:snare.wav
448,192,241155,1,0,0:0:0:0:
320,192,241234,1,0,0:0:0:0:
64,192,241312,1,0,0:0:0:70:crash-cymbol.wav
448,192,241312,1,0,0:0:0:70:kick.wav
192,192,241469,1,0,0:0:0:35:hihat.wav
320,192,241469,1,0,0:0:0:0:
448,192,241548,1,0,0:0:0:0:
64,192,241626,1,0,0:0:0:70:kick.wav
320,192,241626,1,0,0:0:0:70:snare.wav
192,192,241783,1,0,0:0:0:35:hihat.wav
448,192,241783,1,0,0:0:0:0:
64,192,241940,1,0,0:0:0:70:kick.wav
448,192,241940,1,0,0:0:0:0:
192,192,242097,1,0,0:0:0:35:hihat.wav
448,192,242097,1,0,0:0:0:0:
320,192,242176,1,0,0:0:0:0:
448,192,242254,1,0,0:0:0:70:snare.wav
64,192,242254,1,0,0:0:0:70:kick.wav
192,192,242307,1,0,0:0:0:0:
320,192,242359,1,0,0:0:0:0:
448,192,242412,1,0,0:0:0:35:hihat.wav
64,192,242412,1,0,0:0:0:0:
192,192,242569,1,0,0:0:0:70:kick.wav
448,192,242569,1,0,0:0:0:70:crash-cymbol.wav
320,192,242726,1,0,0:0:0:35:hihat.wav
64,192,242726,1,0,0:0:0:0:
192,192,242804,1,0,0:0:0:0:
64,192,242883,1,0,0:0:0:70:kick.wav
448,192,242883,1,0,0:0:0:70:snare.wav
192,192,243040,1,0,0:0:0:35:hihat.wav
320,192,243040,1,0,0:0:0:0:
448,192,243197,1,0,0:0:0:70:kick.wav
192,192,243197,1,0,0:0:0:0:
448,192,243354,1,0,0:0:0:35:hihat.wav
64,192,243354,1,0,0:0:0:0:
320,192,243432,1,0,0:0:0:0:
0,0,243511,5,0,0:0:0:70:kick.wav
192,192,243511,1,0,0:0:0:70:snare.wav
320,192,243563,1,0,0:0:0:0:
192,192,243616,1,0,0:0:0:0:
320,192,243668,1,0,0:0:0:35:hihat.wav
448,192,243668,1,0,0:0:0:0:
64,192,243825,1,0,0:0:0:70:kick.wav
448,192,243825,1,0,0:0:0:70:crash-cymbol.wav
192,192,243982,1,0,0:0:0:35:hihat.wav
320,192,243982,1,0,0:0:0:0:
64,192,244139,128,0,244296:0:0:0:70:snare.wav
448,192,244139,1,0,0:0:0:70:kick.wav
192,192,244296,128,0,244453:0:0:0:35:hihat.wav
320,192,244296,1,0,0:0:0:0:
320,192,244453,128,0,244610:0:0:0:70:kick.wav
448,192,244453,1,0,0:0:0:0:
192,192,244610,128,0,244768:0:0:0:35:hihat.wav
64,192,244610,1,0,0:0:0:0:
320,192,244768,128,0,244925:0:0:0:70:snare.wav
448,192,244768,1,0,0:0:0:70:kick.wav
448,192,244925,128,0,245082:0:0:0:35:hihat.wav
64,192,244925,1,0,0:0:0:0:
320,192,245082,128,0,245396:0:0:0:70:snare.wav
64,192,245082,1,0,0:0:0:0:
192,192,245239,1,0,0:0:0:0:
192,192,245396,128,0,245710:0:0:0:70:snare.wav
448,192,245396,1,0,0:0:0:0:
320,192,245553,1,0,0:0:0:0:
64,192,245710,128,0,246024:0:0:0:70:snare.wav
448,192,245710,1,0,0:0:0:0:
320,192,245867,128,0,246181:0:0:0:0:
192,192,245867,1,0,0:0:0:0:
448,192,246024,128,0,246338:0:0:0:70:kick.wav
192,192,246024,1,0,0:0:0:0:
192,192,246181,1,0,0:0:0:70:kick.wav
64,192,246260,1,0,0:0:0:70:kick.wav
64,192,246338,5,0,0:0:0:70:kick.wav
320,192,246338,1,0,0:0:0:0:
192,192,246495,1,0,0:0:0:35:hihat.wav
320,192,246495,1,0,0:0:0:0:
64,192,246652,1,0,0:0:0:70:kick.wav
192,192,246652,1,0,0:0:0:70:snare.wav
448,192,246652,1,0,0:0:0:0:
64,192,246809,1,0,0:0:0:35:hihat.wav
320,192,246809,1,0,0:0:0:0:
192,192,246966,1,0,0:0:0:70:kick.wav
320,192,246966,1,0,0:0:0:50:bell.wav
192,192,247124,1,0,0:0:0:35:hihat.wav
448,192,247124,1,0,0:0:0:0:
64,192,247281,1,0,0:0:0:70:kick.wav
320,192,247281,1,0,0:0:0:70:snare.wav
448,192,247281,1,0,0:0:0:0:
192,192,247438,1,0,0:0:0:35:hihat.wav
320,192,247438,1,0,0:0:0:0:
64,192,247595,1,0,0:0:0:70:kick.wav
448,192,247595,1,0,0:0:0:40:bell.wav
192,192,247595,1,0,0:0:0:0:
192,192,247752,1,0,0:0:0:35:hihat.wav
320,192,247752,1,0,0:0:0:0:
192,192,247909,1,0,0:0:0:70:kick.wav
64,192,247909,1,0,0:0:0:70:snare.wav
448,192,247909,1,0,0:0:0:0:
192,192,248066,1,0,0:0:0:35:hihat.wav
320,192,248066,1,0,0:0:0:0:
64,192,248223,1,0,0:0:0:70:kick.wav
192,192,248223,1,0,0:0:0:30:bell.wav
448,192,248223,1,0,0:0:0:0:
320,192,248380,1,0,0:0:0:35:hihat.wav
192,192,248380,1,0,0:0:0:0:
64,192,248537,1,0,0:0:0:70:kick.wav
192,192,248537,1,0,0:0:0:70:snare.wav
448,192,248537,1,0,0:0:0:0:
192,192,248694,1,0,0:0:0:35:hihat.wav
320,192,248694,1,0,0:0:0:0:
448,192,248851,5,0,0:0:0:70:kick.wav
320,192,248851,1,0,0:0:0:20:bell.wav
64,192,248851,1,0,0:0:0:0:
448,192,249008,1,0,0:0:0:35:hihat.wav
192,192,249008,1,0,0:0:0:0:
320,192,249165,1,0,0:0:0:70:kick.wav
64,192,249165,1,0,0:0:0:70:snare.wav
192,192,249165,1,0,0:0:0:0:
448,192,249323,1,0,0:0:0:35:hihat.wav
64,192,249323,1,0,0:0:0:0:
320,192,249480,1,0,0:0:0:70:kick.wav
192,192,249480,1,0,0:0:0:10:bell.wav
320,192,249637,1,0,0:0:0:35:hihat.wav
64,192,249637,1,0,0:0:0:0:
192,192,249794,1,0,0:0:0:70:kick.wav
64,192,249794,1,0,0:0:0:70:snare.wav
448,192,249794,1,0,0:0:0:0:
192,192,249951,1,0,0:0:0:35:hihat.wav
320,192,249951,1,0,0:0:0:0:
320,192,250108,1,0,0:0:0:70:kick.wav
64,192,250108,1,0,0:0:0:0:
448,192,250108,1,0,0:0:0:0:
320,192,250265,1,0,0:0:0:35:hihat.wav
192,192,250265,1,0,0:0:0:0:
64,192,250422,1,0,0:0:0:70:kick.wav
320,192,250422,1,0,0:0:0:70:snare.wav
448,192,250422,1,0,0:0:0:0:
192,192,250579,1,0,0:0:0:35:hihat.wav
320,192,250579,1,0,0:0:0:0:
448,192,250736,1,0,0:0:0:70:kick.wav
64,192,250736,1,0,0:0:0:0:
320,192,250736,1,0,0:0:0:0:
192,192,250893,1,0,0:0:0:35:hihat.wav
320,192,250893,1,0,0:0:0:0:
320,192,251050,1,0,0:0:0:70:kick.wav
64,192,251050,1,0,0:0:0:70:snare.wav
448,192,251050,1,0,0:0:0:0:
192,192,251207,1,0,0:0:0:70:snare.wav
320,192,251207,1,0,0:0:0:0:
448,192,251207,1,0,0:0:0:0:
64,192,251364,1,0,0:0:0:70:kick.wav
320,192,251364,1,0,0:0:0:0:
448,192,251364,1,0,0:0:0:0:
64,192,251521,1,0,0:0:0:35:hihat.wav
192,192,251521,1,0,0:0:0:0:
192,192,251679,1,0,0:0:0:70:snare.wav
320,192,251679,1,0,0:0:0:70:kick.wav
448,192,251679,1,0,0:0:0:0:
320,192,251836,1,0,0:0:0:35:hihat.wav
64,192,251836,1,0,0:0:0:0:
320,192,251993,1,0,0:0:0:70:kick.wav
64,192,251993,1,0,0:0:0:0:
448,192,251993,1,0,0:0:0:0:
192,192,252150,1,0,0:0:0:35:hihat.wav
64,192,252150,1,0,0:0:0:0:
320,192,252307,1,0,0:0:0:70:kick.wav
448,192,252307,1,0,0:0:0:70:snare.wav
192,192,252359,1,0,0:0:0:0:
64,192,252359,1,0,0:0:0:0:
320,192,252412,1,0,0:0:0:0:
448,192,252412,1,0,0:0:0:0:
192,192,252464,1,0,0:0:0:35:hihat.wav
64,192,252464,1,0,0:0:0:0:
320,192,252621,1,0,0:0:0:70:kick.wav
448,192,252621,1,0,0:0:0:0:
192,192,252621,1,0,0:0:0:0:
320,192,252778,1,0,0:0:0:35:hihat.wav
64,192,252778,1,0,0:0:0:0:
64,192,252935,1,0,0:0:0:70:snare.wav
192,192,252935,1,0,0:0:0:70:kick.wav
448,192,252935,1,0,0:0:0:0:
320,192,253092,1,0,0:0:0:35:hihat.wav
192,192,253092,1,0,0:0:0:0:
320,192,253249,1,0,0:0:0:70:kick.wav
192,192,253249,1,0,0:0:0:0:
448,192,253249,1,0,0:0:0:0:
64,192,253406,1,0,0:0:0:35:hihat.wav
448,192,253406,1,0,0:0:0:0:
64,192,253563,1,0,0:0:0:70:snare.wav
192,192,253563,1,0,0:0:0:70:kick.wav
320,192,253616,1,0,0:0:0:0:
448,192,253616,1,0,0:0:0:0:
192,192,253668,1,0,0:0:0:0:
64,192,253668,1,0,0:0:0:0:
320,192,253720,1,0,0:0:0:35:hihat.wav
448,192,253720,1,0,0:0:0:0:
64,192,253877,1,0,0:0:0:70:kick.wav
192,192,253877,1,0,0:0:0:0:
448,192,253877,1,0,0:0:0:0:
192,192,254035,1,0,0:0:0:35:hihat.wav
320,192,254035,1,0,0:0:0:0:
64,192,254192,1,0,0:0:0:70:kick.wav
320,192,254192,1,0,0:0:0:70:snare.wav
448,192,254192,1,0,0:0:0:0:
192,192,254349,1,0,0:0:0:35:hihat.wav
448,192,254349,1,0,0:0:0:0:
64,192,254506,1,0,0:0:0:70:kick.wav
192,192,254506,1,0,0:0:0:0:
320,192,254506,1,0,0:0:0:0:
320,192,254663,1,0,0:0:0:35:hihat.wav
448,192,254663,1,0,0:0:0:0:
64,192,254820,1,0,0:0:0:70:kick.wav
448,192,254820,1,0,0:0:0:70:snare.wav
192,192,254872,1,0,0:0:0:0:
320,192,254872,1,0,0:0:0:0:
64,192,254925,1,0,0:0:0:0:
448,192,254925,1,0,0:0:0:0:
192,192,254977,1,0,0:0:0:35:hihat.wav
320,192,254977,1,0,0:0:0:0:
64,192,255134,1,0,0:0:0:70:kick.wav
192,192,255134,1,0,0:0:0:0:
448,192,255134,1,0,0:0:0:0:
192,192,255291,1,0,0:0:0:35:hihat.wav
320,192,255291,1,0,0:0:0:0:
64,192,255448,1,0,0:0:0:70:kick.wav
320,192,255448,1,0,0:0:0:70:snare.wav
448,192,255448,1,0,0:0:0:0:
192,192,255605,1,0,0:0:0:35:hihat.wav
320,192,255605,1,0,0:0:0:0:
64,192,255762,1,0,0:0:0:70:kick.wav
192,192,255762,1,0,0:0:0:0:
448,192,255762,1,0,0:0:0:0:
192,192,255919,1,0,0:0:0:35:hihat.wav
320,192,255919,1,0,0:0:0:0:
320,192,256076,1,0,0:0:0:70:kick.wav
448,192,256076,1,0,0:0:0:70:snare.wav
64,192,256155,1,0,0:0:0:0:
192,192,256155,1,0,0:0:0:0:
320,192,256234,1,0,0:0:0:70:kick.wav
448,192,256234,1,0,0:0:0:0:
64,192,256312,1,0,0:0:0:70:kick.wav
192,192,256312,1,0,0:0:0:0:
320,192,256391,1,0,0:0:0:70:crash-cymbol.wav
448,192,256391,1,0,0:0:0:70:kick.wav
64,192,256391,1,0,0:0:0:60:bell.wav
192,192,256548,1,0,0:0:0:35:hihat.wav
320,192,256548,1,0,0:0:0:0:
64,192,256705,1,0,0:0:0:70:kick.wav
192,192,256705,1,0,0:0:0:70:snare.wav
448,192,256705,1,0,0:0:0:0:
320,192,256783,1,0,0:0:0:0:
64,192,256862,1,0,0:0:0:35:hihat.wav
192,192,256862,1,0,0:0:0:0:
192,192,257019,1,0,0:0:0:70:kick.wav
320,192,257019,1,0,0:0:0:50:bell.wav
192,192,257176,1,0,0:0:0:35:hihat.wav
448,192,257176,1,0,0:0:0:0:
64,192,257333,1,0,0:0:0:70:kick.wav
320,192,257333,1,0,0:0:0:70:snare.wav
448,192,257333,1,0,0:0:0:0:
192,192,257412,1,0,0:0:0:0:
320,192,257490,1,0,0:0:0:35:hihat.wav
448,192,257490,1,0,0:0:0:0:
192,192,257647,1,0,0:0:0:70:kick.wav
320,192,257647,1,0,0:0:0:40:bell.wav
192,192,257804,1,0,0:0:0:35:hihat.wav
64,192,257804,1,0,0:0:0:0:
448,192,257961,1,0,0:0:0:70:kick.wav
320,192,257961,1,0,0:0:0:70:snare.wav
192,192,257961,1,0,0:0:0:0:
64,192,258040,1,0,0:0:0:0:
448,192,258118,1,0,0:0:0:35:hihat.wav
320,192,258118,1,0,0:0:0:0:
192,192,258275,1,0,0:0:0:70:kick.wav
448,192,258275,1,0,0:0:0:30:bell.wav
448,192,258432,1,0,0:0:0:35:hihat.wav
320,192,258432,1,0,0:0:0:0:
320,192,258590,1,0,0:0:0:70:kick.wav
192,192,258590,1,0,0:0:0:70:snare.wav
64,192,258590,1,0,0:0:0:0:
448,192,258668,1,0,0:0:0:0:
192,192,258747,1,0,0:0:0:35:hihat.wav
64,192,258747,1,0,0:0:0:0:
448,192,258904,1,0,0:0:0:70:kick.wav
320,192,258904,1,0,0:0:0:20:bell.wav
320,192,259061,1,0,0:0:0:35:hihat.wav
192,192,259061,1,0,0:0:0:0:
448,192,259218,1,0,0:0:0:70:kick.wav
320,192,259218,1,0,0:0:0:70:snare.wav
64,192,259218,1,0,0:0:0:0:
192,192,259296,1,0,0:0:0:0:
448,192,259375,1,0,0:0:0:35:hihat.wav
320,192,259375,1,0,0:0:0:0:
320,192,259532,1,0,0:0:0:70:kick.wav
192,192,259532,1,0,0:0:0:10:bell.wav
320,192,259689,1,0,0:0:0:35:hihat.wav
64,192,259689,1,0,0:0:0:0:
448,192,259846,1,0,0:0:0:70:kick.wav
192,192,259846,1,0,0:0:0:70:snare.wav
64,192,259846,1,0,0:0:0:0:
320,192,259925,1,0,0:0:0:0:
192,192,260003,1,0,0:0:0:35:hihat.wav
64,192,260003,1,0,0:0:0:0:
320,192,260160,1,0,0:0:0:70:kick.wav
192,192,260160,1,0,0:0:0:0:
320,192,260317,1,0,0:0:0:35:hihat.wav
448,192,260317,1,0,0:0:0:0:
64,192,260474,1,0,0:0:0:70:kick.wav
320,192,260474,1,0,0:0:0:70:snare.wav
192,192,260474,1,0,0:0:0:0:
448,192,260553,1,0,0:0:0:0:
64,192,260631,1,0,0:0:0:35:hihat.wav
192,192,260631,1,0,0:0:0:0:
320,192,260788,1,0,0:0:0:70:kick.wav
64,192,260788,1,0,0:0:0:0:
64,192,260946,1,0,0:0:0:35:hihat.wav
192,192,260946,1,0,0:0:0:0:
192,192,261103,1,0,0:0:0:70:kick.wav
320,192,261103,1,0,0:0:0:70:snare.wav
448,192,261103,1,0,0:0:0:0:
64,192,261181,1,0,0:0:0:0:
320,192,261260,1,0,0:0:0:70:snare.wav
448,192,261260,1,0,0:0:0:0:
448,192,261417,1,0,0:0:0:70:kick.wav
320,192,261417,1,0,0:0:0:70:crash-cymbol.wav
192,192,261417,1,0,0:0:0:0:
64,192,261417,1,0,0:0:0:0:
192,192,261574,1,0,0:0:0:35:hihat.wav
320,192,261574,1,0,0:0:0:0:
64,192,261731,1,0,0:0:0:70:snare.wav
192,192,261731,1,0,0:0:0:70:kick.wav
448,192,261731,1,0,0:0:0:0:
320,192,261809,1,0,0:0:0:0:
192,192,261888,1,0,0:0:0:35:hihat.wav
64,192,262045,1,0,0:0:0:70:kick.wav
448,192,262045,1,0,0:0:0:0:
320,192,262202,1,0,0:0:0:35:hihat.wav
192,192,262202,1,0,0:0:0:0:
448,192,262359,1,0,0:0:0:70:kick.wav
64,192,262359,1,0,0:0:0:70:snare.wav
320,192,262412,1,0,0:0:0:0:
192,192,262464,1,0,0:0:0:0:
320,192,262516,1,0,0:0:0:35:hihat.wav
448,192,262516,1,0,0:0:0:0:
64,192,262673,1,0,0:0:0:70:kick.wav
320,192,262673,1,0,0:0:0:70:crash-cymbol.wav
448,192,262673,1,0,0:0:0:0:
192,192,262673,1,0,0:0:0:0:
320,192,262830,1,0,0:0:0:35:hihat.wav
192,192,262830,1,0,0:0:0:0:
64,192,262987,1,0,0:0:0:70:snare.wav
320,192,262987,1,0,0:0:0:70:kick.wav
448,192,262987,1,0,0:0:0:0:
192,192,263066,1,0,0:0:0:0:
320,192,263145,1,0,0:0:0:35:hihat.wav
64,192,263302,1,0,0:0:0:70:kick.wav
448,192,263302,1,0,0:0:0:0:
320,192,263459,1,0,0:0:0:35:hihat.wav
192,192,263459,1,0,0:0:0:0:
64,192,263616,1,0,0:0:0:70:snare.wav
448,192,263616,1,0,0:0:0:70:kick.wav
192,192,263668,1,0,0:0:0:0:
320,192,263720,1,0,0:0:0:0:
64,192,263773,1,0,0:0:0:35:hihat.wav
192,192,263773,1,0,0:0:0:0:
64,192,263930,1,0,0:0:0:70:kick.wav
192,192,263930,1,0,0:0:0:70:crash-cymbol.wav
320,192,263930,1,0,0:0:0:0:
448,192,263930,1,0,0:0:0:0:
192,192,264087,1,0,0:0:0:35:hihat.wav
320,192,264087,1,0,0:0:0:0:
64,192,264244,1,0,0:0:0:70:kick.wav
192,192,264244,1,0,0:0:0:70:snare.wav
448,192,264244,1,0,0:0:0:0:
320,192,264323,1,0,0:0:0:0:
192,192,264401,1,0,0:0:0:35:hihat.wav
64,192,264558,1,0,0:0:0:70:kick.wav
192,192,264558,1,0,0:0:0:70:crash-cymbol.wav
320,192,264558,1,0,0:0:0:0:
448,192,264558,1,0,0:0:0:0:
192,192,264715,1,0,0:0:0:35:hihat.wav
320,192,264715,1,0,0:0:0:0:
64,192,264872,1,0,0:0:0:70:kick.wav
320,192,264872,1,0,0:0:0:70:snare.wav
448,192,264872,1,0,0:0:0:0:
192,192,264951,1,0,0:0:0:0:
320,192,265029,1,0,0:0:0:35:hihat.wav
64,192,265186,1,0,0:0:0:70:snare.wav
192,192,265186,1,0,0:0:0:0:
320,192,265265,1,0,0:0:0:0:
448,192,265343,1,0,0:0:0:0:
320,192,265501,1,0,0:0:0:70:snare.wav
448,192,265501,1,0,0:0:0:0:
192,192,265579,1,0,0:0:0:0:
64,192,265658,1,0,0:0:0:0:
64,192,265815,1,0,0:0:0:70:snare.wav
192,192,265815,1,0,0:0:0:0:
320,192,265893,5,0,0:0:0:0:
448,192,265972,1,0,0:0:0:0:
192,192,266050,1,0,0:0:0:0:
320,192,266129,1,0,0:0:0:70:kick.wav
448,192,266129,1,0,0:0:0:0:
64,192,266207,1,0,0:0:0:70:kick.wav
192,192,266207,1,0,0:0:0:0:
320,192,266286,1,0,0:0:0:70:kick.wav
448,192,266286,1,0,0:0:0:0:
64,192,266364,1,0,0:0:0:70:kick.wav
192,192,266364,1,0,0:0:0:0:
320,192,266443,1,0,0:0:0:70:crash-cymbol.wav
448,192,266443,1,0,0:0:0:70:kick.wav
320,192,266600,1,0,0:0:0:35:hihat.wav
192,192,266600,1,0,0:0:0:0:
320,192,266757,1,0,0:0:0:70:snare.wav
64,192,266757,1,0,0:0:0:70:kick.wav
448,192,266757,1,0,0:0:0:0:
64,192,266914,1,0,0:0:0:35:hihat.wav
192,192,266914,1,0,0:0:0:0:
320,192,267071,1,0,0:0:0:70:kick.wav
448,192,267071,1,0,0:0:0:50:bell.wav
192,192,267228,1,0,0:0:0:35:hihat.wav
64,192,267228,1,0,0:0:0:0:
192,192,267385,1,0,0:0:0:70:snare.wav
320,192,267385,1,0,0:0:0:70:kick.wav
448,192,267385,1,0,0:0:0:0:
448,192,267542,1,0,0:0:0:35:hihat.wav
64,192,267542,1,0,0:0:0:0:
64,192,267699,1,0,0:0:0:70:kick.wav
448,192,267699,1,0,0:0:0:40:bell.wav
320,192,267699,128,0,267857:0:0:0:0:
64,192,267857,1,0,0:0:0:35:hihat.wav
192,192,267857,1,0,0:0:0:0:
448,192,268014,1,0,0:0:0:70:snare.wav
64,192,268014,1,0,0:0:0:70:kick.wav
192,192,268014,128,0,268171:0:0:0:0:
448,192,268171,1,0,0:0:0:35:hihat.wav
320,192,268171,1,0,0:0:0:0:
448,192,268328,1,0,0:0:0:70:kick.wav
320,192,268328,1,0,0:0:0:30:bell.wav
64,192,268328,128,0,268485:0:0:0:0:
192,192,268485,1,0,0:0:0:35:hihat.wav
320,192,268485,1,0,0:0:0:0:
64,192,268642,1,0,0:0:0:70:snare.wav
192,192,268642,1,0,0:0:0:70:kick.wav
448,192,268642,128,0,268799:0:0:0:0:
320,192,268799,1,0,0:0:0:35:hihat.wav
192,192,268799,1,0,0:0:0:0:
448,192,268956,1,0,0:0:0:70:kick.wav
64,192,268956,1,0,0:0:0:20:bell.wav
192,192,268956,1,0,0:0:0:0:
320,192,268956,1,0,0:0:0:0:
320,192,269113,1,0,0:0:0:35:hihat.wav
192,192,269113,1,0,0:0:0:0:
64,192,269270,1,0,0:0:0:70:snare.wav
192,192,269270,1,0,0:0:0:70:kick.wav
448,192,269270,1,0,0:0:0:0:
320,192,269427,1,0,0:0:0:35:hihat.wav
448,192,269427,1,0,0:0:0:0:
320,192,269584,1,0,0:0:0:70:kick.wav
64,192,269584,1,0,0:0:0:10:bell.wav
448,192,269741,1,0,0:0:0:35:hihat.wav
320,192,269741,1,0,0:0:0:0:
192,192,269898,1,0,0:0:0:70:snare.wav
320,192,269898,1,0,0:0:0:70:kick.wav
64,192,269898,1,0,0:0:0:0:
192,192,270055,1,0,0:0:0:35:hihat.wav
320,192,270055,1,0,0:0:0:0:
448,192,270213,1,0,0:0:0:70:kick.wav
64,192,270213,128,0,270370:0:0:0:0:
320,192,270213,1,0,0:0:0:0:
448,192,270370,1,0,0:0:0:35:hihat.wav
192,192,270370,1,0,0:0:0:0:
64,192,270527,1,0,0:0:0:70:snare.wav
192,192,270527,128,0,270684:0:0:0:70:kick.wav
448,192,270527,1,0,0:0:0:0:
64,192,270684,1,0,0:0:0:35:hihat.wav
320,192,270684,1,0,0:0:0:0:
448,192,270841,1,0,0:0:0:70:kick.wav
320,192,270841,128,0,270998:0:0:0:0:
192,192,270841,1,0,0:0:0:0:
448,192,270998,1,0,0:0:0:35:hihat.wav
64,192,270998,1,0,0:0:0:0:
64,192,271155,1,0,0:0:0:70:snare.wav
448,192,271155,128,0,271312:0:0:0:70:kick.wav
320,192,271155,1,0,0:0:0:0:
64,192,271312,1,0,0:0:0:70:snare.wav
192,192,271312,1,0,0:0:0:0:
64,192,271469,1,0,0:0:0:70:kick.wav
448,192,271469,128,0,271626:0:0:0:0:
320,192,271469,1,0,0:0:0:0:
64,192,271626,128,0,271783:0:0:0:35:hihat.wav
192,192,271783,128,0,271940:0:0:0:70:kick.wav
448,192,271783,1,0,0:0:0:70:snare.wav
320,192,271940,128,0,272097:0:0:0:35:hihat.wav
448,192,272097,128,0,272254:0:0:0:70:kick.wav
64,192,272097,1,0,0:0:0:0:
192,192,272254,1,0,0:0:0:35:hihat.wav
64,192,272254,128,0,272412:0:0:0:0:
448,192,272412,1,0,0:0:0:70:snare.wav
320,192,272464,1,0,0:0:0:0:
448,192,272516,1,0,0:0:0:0:
320,192,272569,128,0,272726:0:0:0:35:hihat.wav
64,192,272726,128,0,272883:0:0:0:70:kick.wav
192,192,272726,1,0,0:0:0:0:
448,192,272726,1,0,0:0:0:0:
320,192,272883,128,0,273040:0:0:0:35:hihat.wav
192,192,273040,128,0,273197:0:0:0:70:kick.wav
448,192,273040,1,0,0:0:0:70:snare.wav
320,192,273197,128,0,273354:0:0:0:35:hihat.wav
448,192,273354,128,0,273511:0:0:0:70:kick.wav
192,192,273354,1,0,0:0:0:0:
64,192,273511,128,0,273668:0:0:0:35:hihat.wav
448,192,273668,1,0,0:0:0:70:kick.wav
192,192,273720,1,0,0:0:0:0:
448,192,273773,1,0,0:0:0:0:
192,192,273825,128,0,273982:0:0:0:35:hihat.wav
64,192,273982,128,0,274139:0:0:0:70:kick.wav
320,192,273982,1,0,0:0:0:0:
448,192,273982,1,0,0:0:0:0:
320,192,274139,128,0,274296:0:0:0:35:hihat.wav
64,192,274296,128,0,274453:0:0:0:70:snare.wav
448,192,274296,1,0,0:0:0:70:kick.wav
320,192,274453,128,0,274610:0:0:0:35:hihat.wav
448,192,274610,1,0,0:0:0:70:kick.wav
192,192,274610,128,0,274768:0:0:0:0:
64,192,274768,1,0,0:0:0:35:hihat.wav
320,192,274768,128,0,274925:0:0:0:0:
448,192,274925,1,0,0:0:0:70:snare.wav
64,192,274977,1,0,0:0:0:0:
448,192,275029,1,0,0:0:0:0:
64,192,275082,128,0,275239:0:0:0:35:hihat.wav
448,192,275239,128,0,275553:0:0:0:70:kick.wav
320,192,275239,1,0,0:0:0:0:
192,192,275239,128,0,275396:0:0:0:0:
320,192,275553,128,0,275867:0:0:0:70:snare.wav
64,192,275553,128,0,275710:0:0:0:70:kick.wav
192,192,275553,1,0,0:0:0:0:
448,192,275867,1,0,0:0:0:70:kick.wav
192,192,275867,128,0,276181:0:0:0:0:
64,192,275867,128,0,276024:0:0:0:0:
448,192,276181,128,0,276495:0:0:0:70:snare.wav
320,192,276181,128,0,276338:0:0:0:70:kick.wav
64,192,276338,1,0,0:0:0:70:kick.wav
192,192,276338,1,0,0:0:0:0:
320,192,276495,1,0,0:0:0:70:kick.wav
192,192,276495,1,0,0:0:0:70:crash-cymbol.wav
64,192,276495,128,0,277438:0:0:0:60:bell.wav
320,192,276652,1,0,0:0:0:35:hihat.wav
448,192,276652,1,0,0:0:0:0:
192,192,276809,1,0,0:0:0:70:snare.wav
320,192,276809,1,0,0:0:0:70:kick.wav
448,192,276888,1,0,0:0:0:0:
192,192,276966,1,0,0:0:0:35:hihat.wav
320,192,276966,1,0,0:0:0:0:
192,192,277124,1,0,0:0:0:70:kick.wav
448,192,277124,1,0,0:0:0:50:bell.wav
320,192,277281,1,0,0:0:0:35:hihat.wav
448,192,277281,1,0,0:0:0:0:
192,192,277438,1,0,0:0:0:70:snare.wav
448,192,277438,1,0,0:0:0:70:kick.wav
320,192,277516,1,0,0:0:0:0:
64,192,277595,1,0,0:0:0:35:hihat.wav
192,192,277595,1,0,0:0:0:0:
448,192,277752,128,0,278694:0:0:0:70:kick.wav
320,192,277752,1,0,0:0:0:40:bell.wav
192,192,277752,1,0,0:0:0:0:
64,192,277909,1,0,0:0:0:35:hihat.wav
192,192,277909,1,0,0:0:0:0:
192,192,278066,1,0,0:0:0:70:snare.wav
320,192,278066,1,0,0:0:0:70:kick.wav
64,192,278145,1,0,0:0:0:0:
192,192,278223,1,0,0:0:0:35:hihat.wav
320,192,278223,1,0,0:0:0:0:
64,192,278380,1,0,0:0:0:70:kick.wav
320,192,278380,1,0,0:0:0:30:bell.wav
64,192,278537,1,0,0:0:0:35:hihat.wav
192,192,278537,1,0,0:0:0:0:
64,192,278694,1,0,0:0:0:70:snare.wav
320,192,278694,1,0,0:0:0:70:kick.wav
192,192,278773,1,0,0:0:0:0:
320,192,278851,1,0,0:0:0:35:hihat.wav
448,192,278851,1,0,0:0:0:0:
448,192,279008,1,0,0:0:0:70:kick.wav
320,192,279008,1,0,0:0:0:70:crash-cymbol.wav
192,192,279008,1,0,0:0:0:20:bell.wav
64,192,279008,128,0,279951:0:0:0:0:
192,192,279165,1,0,0:0:0:35:hihat.wav
320,192,279165,1,0,0:0:0:0:
320,192,279323,1,0,0:0:0:70:snare.wav
448,192,279323,1,0,0:0:0:70:kick.wav
192,192,279401,1,0,0:0:0:0:
320,192,279480,1,0,0:0:0:35:hihat.wav
448,192,279480,1,0,0:0:0:0:
192,192,279637,1,0,0:0:0:70:kick.wav
320,192,279637,1,0,0:0:0:10:bell.wav
448,192,279794,1,0,0:0:0:35:hihat.wav
192,192,279794,1,0,0:0:0:0:
448,192,279951,1,0,0:0:0:70:snare.wav
320,192,279951,1,0,0:0:0:70:kick.wav
192,192,280029,1,0,0:0:0:0:
64,192,280108,1,0,0:0:0:35:hihat.wav
320,192,280108,1,0,0:0:0:0:
192,192,280265,1,0,0:0:0:70:kick.wav
64,192,280265,1,0,0:0:0:0:
448,192,280265,128,0,281207:0:0:0:0:
192,192,280422,1,0,0:0:0:35:hihat.wav
320,192,280422,1,0,0:0:0:0:
64,192,280579,1,0,0:0:0:70:snare.wav
192,192,280579,1,0,0:0:0:70:kick.wav
320,192,280658,1,0,0:0:0:0:
64,192,280736,1,0,0:0:0:35:hihat.wav
192,192,280736,1,0,0:0:0:0:
320,192,280893,1,0,0:0:0:70:kick.wav
192,192,280893,1,0,0:0:0:0:
320,192,281050,1,0,0:0:0:35:hihat.wav
64,192,281050,1,0,0:0:0:0:
64,192,281207,1,0,0:0:0:70:snare.wav
192,192,281207,1,0,0:0:0:70:kick.wav
320,192,281286,1,0,0:0:0:0:
192,192,281364,1,0,0:0:0:70:snare.wav
448,192,281364,1,0,0:0:0:0:
64,192,281521,1,0,0:0:0:70:crash-cymbol.wav
192,192,281521,1,0,0:0:0:70:kick.wav
320,192,281521,1,0,0:0:0:70:snare.wav
448,192,281521,1,0,0:0:0:0:
192,192,281679,1,0,0:0:0:35:hihat.wav
320,192,281679,1,0,0:0:0:0:
64,192,281836,1,0,0:0:0:70:kick.wav
192,192,281836,1,0,0:0:0:70:snare.wav
448,192,281836,1,0,0:0:0:0:
320,192,281914,1,0,0:0:0:0:
192,192,281993,1,0,0:0:0:35:hihat.wav
64,192,282150,1,0,0:0:0:70:kick.wav
320,192,282150,1,0,0:0:0:70:snare.wav
448,192,282150,1,0,0:0:0:0:
64,192,282307,1,0,0:0:0:35:hihat.wav
192,192,282307,1,0,0:0:0:0:
64,192,282464,1,0,0:0:0:70:snare.wav
448,192,282464,1,0,0:0:0:70:kick.wav
320,192,282516,1,0,0:0:0:0:
192,192,282569,1,0,0:0:0:0:
320,192,282621,1,0,0:0:0:35:hihat.wav
448,192,282621,1,0,0:0:0:0:
64,192,282778,1,0,0:0:0:70:kick.wav
192,192,282778,1,0,0:0:0:70:crash-cymbol.wav
320,192,282778,1,0,0:0:0:70:snare.wav
448,192,282778,1,0,0:0:0:0:
192,192,282935,1,0,0:0:0:35:hihat.wav
320,192,282935,1,0,0:0:0:0:
64,192,283092,1,0,0:0:0:70:kick.wav
320,192,283092,1,0,0:0:0:70:snare.wav
448,192,283092,1,0,0:0:0:0:
192,192,283171,1,0,0:0:0:0:
320,192,283249,1,0,0:0:0:35:hihat.wav
64,192,283406,1,0,0:0:0:70:kick.wav
192,192,283406,1,0,0:0:0:70:snare.wav
448,192,283406,1,0,0:0:0:0:
320,192,283563,1,0,0:0:0:35:hihat.wav
448,192,283563,1,0,0:0:0:0:
64,192,283720,1,0,0:0:0:70:kick.wav
448,192,283720,1,0,0:0:0:70:snare.wav
192,192,283773,1,0,0:0:0:0:
320,192,283825,1,0,0:0:0:0:
64,192,283877,1,0,0:0:0:35:hihat.wav
192,192,283877,1,0,0:0:0:0:
64,192,284035,1,0,0:0:0:70:kick.wav
192,192,284035,1,0,0:0:0:70:crash-cymbol.wav
320,192,284035,1,0,0:0:0:70:snare.wav
448,192,284035,1,0,0:0:0:0:
192,192,284192,1,0,0:0:0:35:hihat.wav
320,192,284192,1,0,0:0:0:70:kick.wav
64,192,284349,1,0,0:0:0:70:snare.wav
320,192,284349,1,0,0:0:0:70:kick.wav
448,192,284349,1,0,0:0:0:0:
192,192,284506,1,0,0:0:0:35:hihat.wav
320,192,284506,1,0,0:0:0:70:kick.wav
192,192,284663,1,0,0:0:0:70:kick.wav
64,192,284663,1,0,0:0:0:70:snare.wav
448,192,284663,1,0,0:0:0:0:
320,192,284741,1,0,0:0:0:70:kick.wav
64,192,284820,1,0,0:0:0:35:hihat.wav
448,192,284820,1,0,0:0:0:70:kick.wav
192,192,284898,1,0,0:0:0:70:kick.wav
64,192,284977,1,0,0:0:0:70:snare.wav
320,192,284977,1,0,0:0:0:70:kick.wav
448,192,284977,1,0,0:0:0:0:
192,192,285055,1,0,0:0:0:70:kick.wav
64,192,285134,1,0,0:0:0:35:hihat.wav
448,192,285134,1,0,0:0:0:70:kick.wav
320,192,285213,1,0,0:0:0:70:kick.wav
64,192,285291,1,0,0:0:0:0:
192,192,285291,1,0,0:0:0:0:
448,192,285370,1,0,0:0:0:0:
320,192,285448,1,0,0:0:0:0:
192,192,285527,1,0,0:0:0:0:
64,192,285605,1,0,0:0:0:0:
448,192,285605,1,0,0:0:0:0:
320,192,285762,1,0,0:0:0:0:
64,192,285919,1,0,0:0:0:0:
192,192,285919,1,0,0:0:0:0:
320,192,286076,5,0,0:0:0:0:
64,192,286234,1,0,0:0:0:70:drum.wav
448,192,286234,1,0,0:0:0:70:cymbol.wav
192,192,286312,1,0,0:0:0:0:
320,192,286391,1,0,0:0:0:0:
192,192,286469,1,0,0:0:0:0:
64,192,286548,5,0,0:0:0:70:kick.wav
320,192,286548,1,0,0:0:0:70:crash-cymbol.wav
448,192,286548,1,0,0:0:0:70:snare.wav
192,192,286626,1,0,0:0:0:0:
320,192,286705,1,0,0:0:0:0:
448,192,286783,1,0,0:0:0:0:
64,192,286862,1,0,0:0:0:70:snare.wav
192,192,286862,1,0,0:0:0:70:kick.wav
320,192,286862,1,0,0:0:0:0:
448,192,286940,1,0,0:0:0:0:
64,192,287019,1,0,0:0:0:0:
192,192,287097,1,0,0:0:0:0:
64,192,287176,1,0,0:0:0:70:kick.wav
320,192,287176,1,0,0:0:0:70:snare.wav
448,192,287176,1,0,0:0:0:0:
192,192,287254,1,0,0:0:0:0:
448,192,287333,1,0,0:0:0:0:
320,192,287412,1,0,0:0:0:0:
64,192,287490,1,0,0:0:0:70:snare.wav
192,192,287490,1,0,0:0:0:70:kick.wav
448,192,287490,1,0,0:0:0:0:
320,192,287569,1,0,0:0:0:0:
64,192,287647,1,0,0:0:0:0:
448,192,287726,1,0,0:0:0:0:
64,192,287804,1,0,0:0:0:70:kick.wav
192,192,287804,1,0,0:0:0:70:snare.wav
320,192,287804,1,0,0:0:0:0:
448,192,287883,1,0,0:0:0:0:
192,192,287961,1,0,0:0:0:0:
320,192,288040,1,0,0:0:0:0:
64,192,288118,1,0,0:0:0:70:kick.wav
192,192,288118,1,0,0:0:0:70:snare.wav
448,192,288118,1,0,0:0:0:0:
320,192,288197,1,0,0:0:0:0:
64,192,288275,1,0,0:0:0:0:
192,192,288354,1,0,0:0:0:0:
64,192,288432,1,0,0:0:0:70:snare.wav
320,192,288432,1,0,0:0:0:70:kick.wav
448,192,288432,1,0,0:0:0:0:
192,192,288511,1,0,0:0:0:0:
448,192,288590,1,0,0:0:0:0:
64,192,288668,1,0,0:0:0:0:
192,192,288747,1,0,0:0:0:70:kick.wav
320,192,288747,1,0,0:0:0:70:snare.wav
448,192,288747,1,0,0:0:0:0:
64,192,288825,1,0,0:0:0:0:
320,192,288904,1,0,0:0:0:0:
192,192,288982,1,0,0:0:0:0:
320,192,289061,1,0,0:0:0:70:crash-cymbol.wav
64,192,289061,1,0,0:0:0:70:snare.wav
448,192,289061,1,0,0:0:0:0:
192,192,289139,1,0,0:0:0:0:
448,192,289218,1,0,0:0:0:0:
320,192,289296,1,0,0:0:0:0:
64,192,289375,1,0,0:0:0:70:snare.wav
192,192,289375,1,0,0:0:0:70:kick.wav
448,192,289375,1,0,0:0:0:0:
320,192,289453,1,0,0:0:0:0:
192,192,289532,1,0,0:0:0:0:
64,192,289610,1,0,0:0:0:0:
192,192,289689,1,0,0:0:0:70:kick.wav
320,192,289689,1,0,0:0:0:70:snare.wav
448,192,289689,1,0,0:0:0:0:
64,192,289768,1,0,0:0:0:0:
320,192,289846,1,0,0:0:0:0:
448,192,289925,1,0,0:0:0:0:
320,192,290003,1,0,0:0:0:70:snare.wav
192,192,290003,1,0,0:0:0:70:kick.wav
64,192,290003,1,0,0:0:0:0:
448,192,290082,1,0,0:0:0:0:
192,192,290160,1,0,0:0:0:0:
64,192,290239,1,0,0:0:0:0:
192,192,290317,1,0,0:0:0:70:kick.wav
320,192,290317,1,0,0:0:0:70:snare.wav
448,192,290317,1,0,0:0:0:0:
64,192,290396,1,0,0:0:0:0:
448,192,290474,1,0,0:0:0:0:
320,192,290553,1,0,0:0:0:0:
448,192,290631,1,0,0:0:0:70:kick.wav
192,192,290631,1,0,0:0:0:70:snare.wav
64,192,290631,1,0,0:0:0:0:
320,192,290710,1,0,0:0:0:0:
64,192,290788,1,0,0:0:0:0:
192,192,290867,1,0,0:0:0:0:
64,192,290946,1,0,0:0:0:70:snare.wav
320,192,290946,1,0,0:0:0:70:kick.wav
448,192,290946,1,0,0:0:0:0:
192,192,291024,1,0,0:0:0:0:
320,192,291103,1,0,0:0:0:0:
448,192,291181,1,0,0:0:0:0:
64,192,291260,1,0,0:0:0:70:kick.wav
192,192,291260,1,0,0:0:0:70:snare.wav
320,192,291338,1,0,0:0:0:0:
448,192,291338,1,0,0:0:0:0:
192,192,291417,1,0,0:0:0:0:
64,192,291417,1,0,0:0:0:0:
320,192,291495,1,0,0:0:0:0:
448,192,291495,1,0,0:0:0:0:
64,192,291574,1,0,0:0:0:70:crash-cymbol.wav
192,192,291574,1,0,0:0:0:70:snare.wav
320,192,291652,1,0,0:0:0:0:
448,192,291731,1,0,0:0:0:0:
192,192,291809,1,0,0:0:0:0:
64,192,291888,1,0,0:0:0:70:snare.wav
320,192,291888,1,0,0:0:0:70:kick.wav
448,192,291888,1,0,0:0:0:0:
192,192,291966,1,0,0:0:0:0:
320,192,292045,1,0,0:0:0:0:
64,192,292124,1,0,0:0:0:0:
192,192,292202,1,0,0:0:0:70:kick.wav
320,192,292202,1,0,0:0:0:70:snare.wav
448,192,292202,1,0,0:0:0:0:
64,192,292281,1,0,0:0:0:0:
448,192,292359,1,0,0:0:0:0:
320,192,292438,1,0,0:0:0:0:
64,192,292516,1,0,0:0:0:70:snare.wav
192,192,292516,1,0,0:0:0:70:kick.wav
448,192,292516,1,0,0:0:0:0:
320,192,292595,1,0,0:0:0:0:
64,192,292673,1,0,0:0:0:0:
192,192,292752,1,0,0:0:0:0:
64,192,292830,1,0,0:0:0:70:kick.wav
320,192,292830,1,0,0:0:0:70:snare.wav
448,192,292830,1,0,0:0:0:0:
192,192,292909,1,0,0:0:0:0:
320,192,292987,1,0,0:0:0:0:
64,192,293066,1,0,0:0:0:0:
192,192,293145,1,0,0:0:0:70:kick.wav
320,192,293145,1,0,0:0:0:70:snare.wav
448,192,293145,1,0,0:0:0:0:
64,192,293223,1,0,0:0:0:0:
448,192,293302,1,0,0:0:0:0:
192,192,293380,1,0,0:0:0:0:
320,192,293459,1,0,0:0:0:70:snare.wav
448,192,293459,1,0,0:0:0:70:kick.wav
64,192,293459,1,0,0:0:0:0:
192,192,293537,1,0,0:0:0:0:
320,192,293616,1,0,0:0:0:0:
448,192,293694,1,0,0:0:0:0:
64,192,293773,1,0,0:0:0:70:kick.wav
192,192,293773,1,0,0:0:0:70:snare.wav
320,192,293773,1,0,0:0:0:0:
448,192,293851,1,0,0:0:0:0:
64,192,293930,1,0,0:0:0:0:
192,192,294008,1,0,0:0:0:0:
320,192,294087,1,0,0:0:0:70:crash-cymbol.wav
64,192,294087,1,0,0:0:0:70:snare.wav
448,192,294087,1,0,0:0:0:70:kick.wav
192,192,294165,1,0,0:0:0:0:
448,192,294244,1,0,0:0:0:0:
320,192,294323,1,0,0:0:0:0:
64,192,294401,1,0,0:0:0:70:snare.wav
192,192,294401,1,0,0:0:0:70:kick.wav
448,192,294401,1,0,0:0:0:0:
320,192,294480,1,0,0:0:0:0:
192,192,294558,1,0,0:0:0:0:
64,192,294637,1,0,0:0:0:0:
192,192,294715,1,0,0:0:0:70:kick.wav
320,192,294715,1,0,0:0:0:70:snare.wav
448,192,294715,1,0,0:0:0:0:
64,192,294794,1,0,0:0:0:0:
448,192,294872,1,0,0:0:0:0:
192,192,294951,1,0,0:0:0:0:
64,192,295029,1,0,0:0:0:70:snare.wav
320,192,295029,1,0,0:0:0:70:kick.wav
448,192,295029,1,0,0:0:0:0:
192,192,295108,1,0,0:0:0:0:
320,192,295186,1,0,0:0:0:0:
448,192,295265,1,0,0:0:0:0:
64,192,295343,1,0,0:0:0:70:kick.wav
192,192,295343,1,0,0:0:0:70:snare.wav
320,192,295343,1,0,0:0:0:0:
448,192,295422,1,0,0:0:0:0:
192,192,295501,1,0,0:0:0:0:
64,192,295579,1,0,0:0:0:0:
320,192,295658,1,0,0:0:0:70:kick.wav
448,192,295658,1,0,0:0:0:70:snare.wav
192,192,295658,1,0,0:0:0:0:
64,192,295736,1,0,0:0:0:0:
448,192,295815,1,0,0:0:0:0:
320,192,295893,1,0,0:0:0:0:
64,192,295972,1,0,0:0:0:70:snare.wav
448,192,295972,1,0,0:0:0:70:kick.wav
192,192,295972,1,0,0:0:0:0:
320,192,296050,1,0,0:0:0:0:
64,192,296129,1,0,0:0:0:0:
192,192,296207,1,0,0:0:0:0:
320,192,296286,1,0,0:0:0:70:kick.wav
448,192,296286,1,0,0:0:0:70:snare.wav
192,192,296364,1,0,0:0:0:0:
64,192,296364,1,0,0:0:0:0:
320,192,296443,1,0,0:0:0:70:kick.wav
448,192,296443,1,0,0:0:0:0:
192,192,296521,1,0,0:0:0:0:
64,192,296521,1,0,0:0:0:0:
64,192,296600,5,0,0:0:0:70:crash-cymbol.wav
320,192,296600,1,0,0:0:0:70:snare.wav
448,192,296600,1,0,0:0:0:70:kick.wav
192,192,296757,1,0,0:0:0:70:kick.wav
320,192,296757,1,0,0:0:0:0:
192,192,296914,1,0,0:0:0:70:snare.wav
448,192,296914,1,0,0:0:0:70:kick.wav
64,192,296914,1,0,0:0:0:0:
320,192,297071,1,0,0:0:0:70:kick.wav
192,192,297071,1,0,0:0:0:0:
320,192,297228,1,0,0:0:0:70:kick.wav
448,192,297228,1,0,0:0:0:70:snare.wav
64,192,297228,1,0,0:0:0:50:bell.wav
64,192,297385,1,0,0:0:0:70:kick.wav
192,192,297385,1,0,0:0:0:0:
64,192,297542,1,0,0:0:0:70:snare.wav
448,192,297542,1,0,0:0:0:70:kick.wav
320,192,297542,1,0,0:0:0:0:
192,192,297699,1,0,0:0:0:70:kick.wav
64,192,297699,1,0,0:0:0:0:
64,192,297857,1,0,0:0:0:70:crash-cymbol.wav
320,192,297857,1,0,0:0:0:70:kick.wav
448,192,297857,1,0,0:0:0:70:snare.wav
320,192,298014,1,0,0:0:0:70:kick.wav
448,192,298014,1,0,0:0:0:0:
192,192,298171,1,0,0:0:0:70:kick.wav
64,192,298171,1,0,0:0:0:70:snare.wav
448,192,298171,1,0,0:0:0:0:
64,192,298328,1,0,0:0:0:70:kick.wav
192,192,298328,1,0,0:0:0:0:
320,192,298485,1,0,0:0:0:70:snare.wav
64,192,298485,1,0,0:0:0:70:kick.wav
448,192,298485,1,0,0:0:0:30:bell.wav
320,192,298642,1,0,0:0:0:70:kick.wav
448,192,298642,1,0,0:0:0:0:
192,192,298799,1,0,0:0:0:70:kick.wav
448,192,298799,1,0,0:0:0:70:snare.wav
64,192,298799,1,0,0:0:0:0:
192,192,298956,1,0,0:0:0:70:kick.wav
64,192,298956,1,0,0:0:0:0:
64,192,299113,1,0,0:0:0:70:crash-cymbol.wav
320,192,299113,1,0,0:0:0:70:snare.wav
448,192,299113,1,0,0:0:0:70:kick.wav
192,192,299270,1,0,0:0:0:70:kick.wav
320,192,299270,1,0,0:0:0:0:
448,192,299427,1,0,0:0:0:70:snare.wav
192,192,299427,1,0,0:0:0:70:kick.wav
64,192,299427,1,0,0:0:0:0:
320,192,299584,1,0,0:0:0:70:kick.wav
192,192,299584,1,0,0:0:0:0:
320,192,299741,1,0,0:0:0:70:kick.wav
448,192,299741,1,0,0:0:0:70:snare.wav
64,192,299741,1,0,0:0:0:10:bell.wav
64,192,299898,1,0,0:0:0:70:kick.wav
192,192,299898,1,0,0:0:0:0:
320,192,300055,1,0,0:0:0:70:snare.wav
448,192,300055,1,0,0:0:0:70:kick.wav
64,192,300055,1,0,0:0:0:0:
64,192,300213,1,0,0:0:0:70:kick.wav
192,192,300213,1,0,0:0:0:0:
64,192,300370,1,0,0:0:0:70:crash-cymbol.wav
320,192,300370,1,0,0:0:0:70:kick.wav
448,192,300370,1,0,0:0:0:70:snare.wav
320,192,300527,1,0,0:0:0:70:kick.wav
448,192,300527,1,0,0:0:0:0:
192,192,300684,1,0,0:0:0:70:kick.wav
64,192,300684,1,0,0:0:0:70:snare.wav
448,192,300684,1,0,0:0:0:0:
192,192,300841,1,0,0:0:0:70:kick.wav
64,192,300841,1,0,0:0:0:0:
320,192,300998,1,0,0:0:0:70:snare.wav
64,192,300998,1,0,0:0:0:70:kick.wav
448,192,300998,1,0,0:0:0:0:
448,192,301155,1,0,0:0:0:70:kick.wav
320,192,301155,1,0,0:0:0:0:
64,192,301312,1,0,0:0:0:70:kick.wav
192,192,301312,1,0,0:0:0:70:snare.wav
448,192,301312,1,0,0:0:0:0:
192,192,301469,1,0,0:0:0:70:kick.wav
64,192,301469,1,0,0:0:0:0:
64,192,301626,1,0,0:0:0:70:kick.wav
448,192,301626,1,0,0:0:0:70:snare.wav
192,192,301705,1,0,0:0:0:70:kick.wav
448,192,301783,1,0,0:0:0:70:kick.wav
320,192,301783,1,0,0:0:0:0:
64,192,301862,1,0,0:0:0:70:kick.wav
192,192,301940,1,0,0:0:0:70:kick.wav
448,192,301940,1,0,0:0:0:0:
320,192,302019,1,0,0:0:0:70:kick.wav
448,192,302097,1,0,0:0:0:70:kick.wav
64,192,302097,1,0,0:0:0:0:
192,192,302176,1,0,0:0:0:70:kick.wav
320,192,302254,1,0,0:0:0:70:crash-cymbol.wav
448,192,302254,1,0,0:0:0:70:kick.wav
64,192,302333,1,0,0:0:0:70:kick.wav
192,192,302412,1,0,0:0:0:70:kick.wav
448,192,302412,1,0,0:0:0:0:
320,192,302490,1,0,0:0:0:70:kick.wav
448,192,302569,1,0,0:0:0:70:kick.wav
64,192,302569,1,0,0:0:0:0:
192,192,302647,1,0,0:0:0:70:kick.wav
448,192,302726,1,0,0:0:0:70:kick.wav
320,192,302726,1,0,0:0:0:0:
192,192,302804,1,0,0:0:0:70:kick.wav
64,192,302883,1,0,0:0:0:70:crash-cymbol.wav
448,192,302883,1,0,0:0:0:70:kick.wav
320,192,302961,1,0,0:0:0:70:kick.wav
64,192,303040,1,0,0:0:0:70:kick.wav
192,192,303040,1,0,0:0:0:0:
448,192,303118,1,0,0:0:0:70:kick.wav
320,192,303197,1,0,0:0:0:70:kick.wav
64,192,303197,1,0,0:0:0:0:
192,192,303275,1,0,0:0:0:70:kick.wav
448,192,303354,1,0,0:0:0:70:kick.wav
64,192,303354,1,0,0:0:0:0:
320,192,303432,1,0,0:0:0:70:kick.wav
192,192,303511,1,0,0:0:0:70:crash-cymbol.wav
64,192,303511,1,0,0:0:0:70:kick.wav
448,192,303590,1,0,0:0:0:70:kick.wav
64,192,303668,1,0,0:0:0:70:kick.wav
320,192,303668,1,0,0:0:0:0:
192,192,303747,1,0,0:0:0:70:kick.wav
448,192,303825,1,0,0:0:0:70:kick.wav
64,192,303825,1,0,0:0:0:0:
320,192,303904,1,0,0:0:0:70:kick.wav
192,192,303982,1,0,0:0:0:70:kick.wav
448,192,303982,1,0,0:0:0:0:
64,192,304061,1,0,0:0:0:70:kick.wav
320,192,304139,1,0,0:0:0:70:crash-cymbol.wav
448,192,304139,1,0,0:0:0:70:kick.wav
192,192,304218,1,0,0:0:0:70:kick.wav
64,192,304218,1,0,0:0:0:0:
320,192,304296,1,0,0:0:0:70:kick.wav
448,192,304296,1,0,0:0:0:0:
64,192,304375,1,0,0:0:0:70:kick.wav
192,192,304375,1,0,0:0:0:0:
320,192,304453,1,0,0:0:0:70:kick.wav
448,192,304453,1,0,0:0:0:0:
192,192,304532,1,0,0:0:0:70:kick.wav
64,192,304532,1,0,0:0:0:0:
320,192,304610,1,0,0:0:0:70:kick.wav
448,192,304610,1,0,0:0:0:0:
192,192,304689,1,0,0:0:0:70:kick.wav
64,192,304689,1,0,0:0:0:0:
320,192,304768,1,0,0:0:0:70:crash-cymbol.wav
448,192,304768,1,0,0:0:0:70:kick.wav
192,192,304846,1,0,0:0:0:70:kick.wav
64,192,304846,1,0,0:0:0:0:
320,192,304925,1,0,0:0:0:70:kick.wav
448,192,304925,1,0,0:0:0:0:
192,192,305003,1,0,0:0:0:70:kick.wav
64,192,305003,1,0,0:0:0:0:
448,192,305082,1,0,0:0:0:70:kick.wav
320,192,305121,1,0,0:0:0:0:
192,192,305160,1,0,0:0:0:0:
320,192,305239,1,0,0:0:0:0:
192,192,305278,1,0,0:0:0:0:
64,192,305317,1,0,0:0:0:0:
448,192,305396,1,0,0:0:0:0:
64,192,305396,1,0,0:0:0:0:
192,192,305553,1,0,0:0:0:0:
320,192,305710,1,0,0:0:0:0:
448,192,305867,1,0,0:0:0:0:
64,192,306024,1,0,0:0:0:0:
192,192,306181,1,0,0:0:0:0:
320,192,306338,1,0,0:0:0:70:snare.wav
448,192,306338,1,0,0:0:0:70:cymbol.wav
192,192,306495,1,0,0:0:0:0:
448,192,306652,1,0,0:0:0:70:crash-cymbol.wav
64,192,306652,1,0,0:0:0:0:
320,192,306731,1,0,0:0:0:0:
192,192,306809,1,0,0:0:0:35:hihat.wav
64,192,306888,1,0,0:0:0:0:
448,192,306966,1,0,0:0:0:70:snare.wav
320,192,306966,1,0,0:0:0:70:kick.wav
64,192,307045,1,0,0:0:0:0:
192,192,307124,1,0,0:0:0:35:hihat.wav
320,192,307202,1,0,0:0:0:0:
448,192,307281,1,0,0:0:0:70:kick.wav
64,192,307281,1,0,0:0:0:50:bell.wav
192,192,307359,1,0,0:0:0:0:
320,192,307438,1,0,0:0:0:35:hihat.wav
448,192,307516,1,0,0:0:0:0:
64,192,307595,1,0,0:0:0:70:snare.wav
192,192,307595,1,0,0:0:0:70:kick.wav
448,192,307673,1,0,0:0:0:0:
320,192,307752,1,0,0:0:0:35:hihat.wav
192,192,307830,1,0,0:0:0:0:
64,192,307909,1,0,0:0:0:70:kick.wav
448,192,307909,1,0,0:0:0:40:bell.wav
320,192,307987,1,0,0:0:0:0:
192,192,308066,1,0,0:0:0:35:hihat.wav
64,192,308145,1,0,0:0:0:0:
448,192,308223,1,0,0:0:0:70:snare.wav
320,192,308223,1,0,0:0:0:70:kick.wav
64,192,308302,1,0,0:0:0:0:
192,192,308380,1,0,0:0:0:35:hihat.wav
320,192,308459,1,0,0:0:0:0:
64,192,308537,1,0,0:0:0:70:kick.wav
448,192,308537,1,0,0:0:0:30:bell.wav
192,192,308616,1,0,0:0:0:0:
320,192,308694,1,0,0:0:0:35:hihat.wav
448,192,308773,1,0,0:0:0:0:
64,192,308851,1,0,0:0:0:70:snare.wav
192,192,308851,1,0,0:0:0:70:kick.wav
448,192,308930,1,0,0:0:0:0:
320,192,309008,1,0,0:0:0:35:hihat.wav
192,192,309087,1,0,0:0:0:0:
64,192,309165,1,0,0:0:0:70:kick.wav
448,192,309165,1,0,0:0:0:20:bell.wav
320,192,309244,1,0,0:0:0:0:
64,192,309323,1,0,0:0:0:35:hihat.wav
320,192,309401,1,0,0:0:0:0:
64,192,309480,1,0,0:0:0:70:snare.wav
192,192,309480,1,0,0:0:0:70:kick.wav
448,192,309558,1,0,0:0:0:0:
320,192,309637,1,0,0:0:0:35:hihat.wav
192,192,309715,1,0,0:0:0:0:
448,192,309794,1,0,0:0:0:70:kick.wav
64,192,309794,1,0,0:0:0:10:bell.wav
192,192,309872,1,0,0:0:0:0:
448,192,309951,1,0,0:0:0:35:hihat.wav
192,192,310029,1,0,0:0:0:0:
320,192,310108,1,0,0:0:0:70:snare.wav
448,192,310108,1,0,0:0:0:70:kick.wav
64,192,310186,1,0,0:0:0:0:
192,192,310265,1,0,0:0:0:35:hihat.wav
320,192,310343,1,0,0:0:0:0:
64,192,310422,1,0,0:0:0:70:kick.wav
448,192,310422,1,0,0:0:0:0:
320,192,310501,1,0,0:0:0:0:
64,192,310579,1,0,0:0:0:35:hihat.wav
320,192,310658,1,0,0:0:0:0:
64,192,310736,1,0,0:0:0:70:snare.wav
192,192,310736,1,0,0:0:0:70:kick.wav
448,192,310815,1,0,0:0:0:0:
320,192,310893,1,0,0:0:0:35:hihat.wav
192,192,310972,1,0,0:0:0:0:
64,192,311050,1,0,0:0:0:70:kick.wav
448,192,311050,1,0,0:0:0:0:
192,192,311129,1,0,0:0:0:0:
448,192,311207,1,0,0:0:0:35:hihat.wav
192,192,311286,1,0,0:0:0:0:
320,192,311364,1,0,0:0:0:70:snare.wav
448,192,311364,1,0,0:0:0:70:kick.wav
64,192,311443,1,0,0:0:0:0:
192,192,311521,1,0,0:0:0:70:snare.wav
448,192,311521,1,0,0:0:0:0:
320,192,311600,1,0,0:0:0:0:
64,192,311679,1,0,0:0:0:70:kick.wav
192,192,311679,1,0,0:0:0:0:
448,192,311757,1,0,0:0:0:0:
320,192,311836,1,0,0:0:0:35:hihat.wav
192,192,311914,1,0,0:0:0:0:
320,192,311993,1,0,0:0:0:70:kick.wav
448,192,311993,1,0,0:0:0:70:snare.wav
64,192,312071,1,0,0:0:0:0:
192,192,312150,1,0,0:0:0:35:hihat.wav
320,192,312228,1,0,0:0:0:0:
64,192,312307,1,0,0:0:0:70:kick.wav
192,192,312307,1,0,0:0:0:0:
448,192,312385,1,0,0:0:0:0:
320,192,312464,1,0,0:0:0:35:hihat.wav
192,192,312542,1,0,0:0:0:0:
448,192,312621,1,0,0:0:0:70:snare.wav
320,192,312621,1,0,0:0:0:70:kick.wav
64,192,312699,1,0,0:0:0:0:
192,192,312778,1,0,0:0:0:35:hihat.wav
320,192,312857,1,0,0:0:0:0:
192,192,312935,1,0,0:0:0:70:kick.wav
64,192,312935,1,0,0:0:0:0:
448,192,313014,1,0,0:0:0:0:
320,192,313092,1,0,0:0:0:35:hihat.wav
192,192,313171,1,0,0:0:0:0:
320,192,313249,1,0,0:0:0:70:kick.wav
448,192,313249,1,0,0:0:0:70:snare.wav
64,192,313328,1,0,0:0:0:0:
192,192,313406,1,0,0:0:0:35:hihat.wav
320,192,313485,1,0,0:0:0:0:
64,192,313563,1,0,0:0:0:70:kick.wav
192,192,313563,1,0,0:0:0:0:
448,192,313642,1,0,0:0:0:0:
320,192,313720,1,0,0:0:0:35:hihat.wav
192,192,313799,1,0,0:0:0:0:
448,192,313877,1,0,0:0:0:70:kick.wav
320,192,313877,1,0,0:0:0:70:snare.wav
64,192,313956,1,0,0:0:0:0:
192,192,314035,1,0,0:0:0:35:hihat.wav
320,192,314113,1,0,0:0:0:0:
64,192,314192,1,0,0:0:0:70:kick.wav
192,192,314192,1,0,0:0:0:0:
448,192,314270,1,0,0:0:0:0:
320,192,314349,1,0,0:0:0:35:hihat.wav
192,192,314427,1,0,0:0:0:0:
448,192,314506,1,0,0:0:0:70:snare.wav
64,192,314506,1,0,0:0:0:70:kick.wav
320,192,314584,1,0,0:0:0:0:
448,192,314663,1,0,0:0:0:35:hihat.wav
320,192,314741,1,0,0:0:0:0:
64,192,314820,1,0,0:0:0:70:kick.wav
192,192,314820,1,0,0:0:0:0:
448,192,314898,1,0,0:0:0:0:
320,192,314977,1,0,0:0:0:35:hihat.wav
192,192,315055,1,0,0:0:0:0:
448,192,315134,1,0,0:0:0:70:snare.wav
64,192,315134,1,0,0:0:0:70:kick.wav
320,192,315213,1,0,0:0:0:0:
448,192,315291,1,0,0:0:0:35:hihat.wav
320,192,315370,1,0,0:0:0:0:
64,192,315448,1,0,0:0:0:70:kick.wav
192,192,315448,1,0,0:0:0:0:
320,192,315605,128,0,315762:0:0:0:0:
320,192,315919,128,0,316076:0:0:0:0:
64,192,316076,128,0,316234:0:0:0:0:
192,192,316234,128,0,316391:0:0:0:0:
64,192,316391,1,0,0:0:0:70:snare.wav
448,192,316391,1,0,0:0:0:70:kick.wav
320,192,316469,1,0,0:0:0:70:kick.wav
448,192,316548,1,0,0:0:0:70:kick.wav
320,192,316626,1,0,0:0:0:70:kick.wav
64,192,316705,1,0,0:0:0:70:kick.wav
192,192,316705,1,0,0:0:0:70:crash-cymbol.wav
448,192,316705,1,0,0:0:0:60:bell.wav
320,192,316862,1,0,0:0:0:35:hihat.wav
64,192,317019,1,0,0:0:0:70:snare.wav
192,192,317019,1,0,0:0:0:70:kick.wav
320,192,317097,1,0,0:0:0:0:
448,192,317176,1,0,0:0:0:35:hihat.wav
64,192,317333,1,0,0:0:0:70:kick.wav
320,192,317333,1,0,0:0:0:50:bell.wav
192,192,317490,1,0,0:0:0:35:hihat.wav
320,192,317647,1,0,0:0:0:70:snare.wav
448,192,317647,1,0,0:0:0:70:kick.wav
192,192,317726,1,0,0:0:0:0:
64,192,317804,1,0,0:0:0:35:hihat.wav
192,192,317961,1,0,0:0:0:70:kick.wav
448,192,317961,1,0,0:0:0:40:bell.wav
320,192,318118,1,0,0:0:0:35:hihat.wav
64,192,318275,1,0,0:0:0:70:snare.wav
192,192,318275,1,0,0:0:0:70:kick.wav
448,192,318354,1,0,0:0:0:0:
320,192,318432,1,0,0:0:0:35:hihat.wav
64,192,318590,1,0,0:0:0:70:kick.wav
448,192,318590,1,0,0:0:0:30:bell.wav
192,192,318747,1,0,0:0:0:35:hihat.wav
320,192,318904,1,0,0:0:0:70:snare.wav
448,192,318904,1,0,0:0:0:70:kick.wav
64,192,318982,1,0,0:0:0:0:
192,192,319061,1,0,0:0:0:35:hihat.wav
64,192,319218,1,0,0:0:0:70:kick.wav
448,192,319218,1,0,0:0:0:20:bell.wav
320,192,319375,1,0,0:0:0:35:hihat.wav
64,192,319532,1,0,0:0:0:70:snare.wav
192,192,319532,1,0,0:0:0:70:kick.wav
448,192,319610,1,0,0:0:0:0:
64,192,319689,1,0,0:0:0:35:hihat.wav
448,192,319846,1,0,0:0:0:70:kick.wav
320,192,319846,1,0,0:0:0:10:bell.wav
192,192,320003,1,0,0:0:0:35:hihat.wav
320,192,320160,1,0,0:0:0:70:snare.wav
448,192,320160,1,0,0:0:0:70:kick.wav
64,192,320239,1,0,0:0:0:0:
448,192,320317,1,0,0:0:0:35:hihat.wav
192,192,320474,1,0,0:0:0:70:kick.wav
64,192,320474,1,0,0:0:0:0:
320,192,320631,1,0,0:0:0:35:hihat.wav
64,192,320788,1,0,0:0:0:70:snare.wav
448,192,320788,1,0,0:0:0:70:kick.wav
192,192,320867,1,0,0:0:0:0:
320,192,320946,1,0,0:0:0:35:hihat.wav
64,192,321103,1,0,0:0:0:70:kick.wav
448,192,321103,1,0,0:0:0:0:
192,192,321260,1,0,0:0:0:35:hihat.wav
64,192,321417,1,0,0:0:0:70:snare.wav
448,192,321417,1,0,0:0:0:70:kick.wav
320,192,321495,1,0,0:0:0:0:
64,192,321574,1,0,0:0:0:70:snare.wav
192,192,321574,1,0,0:0:0:0:
320,192,321652,1,0,0:0:0:0:
64,192,321731,1,0,0:0:0:70:crash-cymbol.wav
448,192,321731,1,0,0:0:0:70:kick.wav
192,192,321888,1,0,0:0:0:35:hihat.wav
320,192,322045,1,0,0:0:0:70:kick.wav
448,192,322045,1,0,0:0:0:70:snare.wav
192,192,322124,1,0,0:0:0:0:
64,192,322202,1,0,0:0:0:35:hihat.wav
448,192,322359,1,0,0:0:0:70:kick.wav
192,192,322359,1,0,0:0:0:0:
320,192,322516,1,0,0:0:0:35:hihat.wav
64,192,322673,1,0,0:0:0:70:snare.wav
192,192,322673,1,0,0:0:0:70:kick.wav
320,192,322752,1,0,0:0:0:0:
448,192,322830,1,0,0:0:0:35:hihat.wav
64,192,322987,1,0,0:0:0:70:kick.wav
320,192,322987,1,0,0:0:0:0:
192,192,323145,1,0,0:0:0:35:hihat.wav
320,192,323302,1,0,0:0:0:70:kick.wav
448,192,323302,1,0,0:0:0:70:snare.wav
64,192,323380,1,0,0:0:0:0:
192,192,323459,1,0,0:0:0:35:hihat.wav
448,192,323616,1,0,0:0:0:70:kick.wav
64,192,323616,1,0,0:0:0:0:
320,192,323773,1,0,0:0:0:35:hihat.wav
64,192,323930,1,0,0:0:0:70:kick.wav
192,192,323930,1,0,0:0:0:70:snare.wav
448,192,324008,1,0,0:0:0:0:
320,192,324087,1,0,0:0:0:35:hihat.wav
64,192,324244,1,0,0:0:0:70:kick.wav
448,192,324244,1,0,0:0:0:0:
192,192,324401,1,0,0:0:0:35:hihat.wav
320,192,324558,1,0,0:0:0:70:snare.wav
448,192,324558,1,0,0:0:0:70:kick.wav
64,192,324637,1,0,0:0:0:0:
448,192,324715,1,0,0:0:0:35:hihat.wav
64,192,324872,1,0,0:0:0:70:kick.wav
192,192,324872,1,0,0:0:0:0:
320,192,325029,1,0,0:0:0:35:hihat.wav
64,192,325186,1,0,0:0:0:70:snare.wav
192,192,325186,1,0,0:0:0:70:kick.wav
448,192,325265,1,0,0:0:0:0:
64,192,325343,1,0,0:0:0:35:hihat.wav
320,192,325501,1,0,0:0:0:70:snare.wav
448,192,325501,1,0,0:0:0:0:
320,192,325815,1,0,0:0:0:70:snare.wav
448,192,325815,1,0,0:0:0:0:
320,192,326129,1,0,0:0:0:70:snare.wav
448,192,326129,1,0,0:0:0:0:
192,192,326364,5,0,0:0:0:70:kick.wav
64,192,326443,1,0,0:0:0:70:kick.wav
448,192,326443,1,0,0:0:0:0:
192,192,326521,1,0,0:0:0:70:kick.wav
320,192,326521,1,0,0:0:0:0:
64,192,326600,1,0,0:0:0:70:kick.wav
448,192,326600,1,0,0:0:0:0:
192,192,326679,1,0,0:0:0:70:kick.wav
320,192,326679,1,0,0:0:0:0:
448,192,326757,5,0,0:0:0:70:crash-cymbol.wav
64,192,326757,1,0,0:0:0:70:kick.wav
320,192,326914,1,0,0:0:0:35:hihat.wav
192,192,327071,1,0,0:0:0:70:snare.wav
448,192,327071,1,0,0:0:0:0:
64,192,327228,1,0,0:0:0:35:hihat.wav
320,192,327385,1,0,0:0:0:70:kick.wav
448,192,327385,1,0,0:0:0:50:bell.wav
192,192,327542,1,0,0:0:0:35:hihat.wav
64,192,327699,1,0,0:0:0:70:snare.wav
448,192,327699,1,0,0:0:0:0:
192,192,327857,1,0,0:0:0:35:hihat.wav
64,192,328014,1,0,0:0:0:70:kick.wav
448,192,328014,1,0,0:0:0:40:bell.wav
192,192,328171,1,0,0:0:0:35:hihat.wav
64,192,328328,1,0,0:0:0:70:snare.wav
320,192,328328,1,0,0:0:0:0:
448,192,328485,1,0,0:0:0:35:hihat.wav
64,192,328642,1,0,0:0:0:70:kick.wav
192,192,328642,1,0,0:0:0:30:bell.wav
320,192,328799,1,0,0:0:0:35:hihat.wav
448,192,328956,1,0,0:0:0:70:snare.wav
64,192,328956,1,0,0:0:0:0:
320,192,329113,1,0,0:0:0:35:hihat.wav
448,192,329270,1,0,0:0:0:70:kick.wav
192,192,329270,1,0,0:0:0:20:bell.wav
320,192,329427,1,0,0:0:0:35:hihat.wav
64,192,329584,1,0,0:0:0:70:snare.wav
192,192,329584,1,0,0:0:0:0:
192,192,329741,1,0,0:0:0:35:hihat.wav
64,192,329898,1,0,0:0:0:70:kick.wav
448,192,329898,1,0,0:0:0:10:bell.wav
320,192,330055,1,0,0:0:0:35:hihat.wav
448,192,330213,1,0,0:0:0:70:snare.wav
192,192,330213,1,0,0:0:0:0:
192,192,330370,1,0,0:0:0:35:hihat.wav
64,192,330527,1,0,0:0:0:70:kick.wav
320,192,330527,1,0,0:0:0:0:
192,192,330684,1,0,0:0:0:35:hihat.wav
320,192,330841,1,0,0:0:0:70:snare.wav
448,192,330841,1,0,0:0:0:0:
320,192,330998,1,0,0:0:0:35:hihat.wav
64,192,331155,1,0,0:0:0:70:kick.wav
448,192,331155,1,0,0:0:0:0:
192,192,331312,1,0,0:0:0:35:hihat.wav
64,192,331469,1,0,0:0:0:70:snare.wav
320,192,331469,1,0,0:0:0:0:
192,192,331626,1,0,0:0:0:70:snare.wav
320,192,331626,1,0,0:0:0:0:
192,192,331783,1,0,0:0:0:70:kick.wav
448,192,331783,1,0,0:0:0:0:
320,192,331940,1,0,0:0:0:35:hihat.wav
64,192,332097,1,0,0:0:0:70:snare.wav
192,192,332097,1,0,0:0:0:0:
320,192,332254,1,0,0:0:0:35:hihat.wav
64,192,332412,1,0,0:0:0:70:kick.wav
448,192,332412,1,0,0:0:0:0:
192,192,332569,1,0,0:0:0:35:hihat.wav
320,192,332726,1,0,0:0:0:70:snare.wav
448,192,332726,1,0,0:0:0:0:
192,192,332883,1,0,0:0:0:35:hihat.wav
448,192,333040,1,0,0:0:0:70:kick.wav
64,192,333040,1,0,0:0:0:0:
192,192,333197,1,0,0:0:0:35:hihat.wav
64,192,333354,1,0,0:0:0:70:snare.wav
320,192,333354,1,0,0:0:0:0:
448,192,333511,1,0,0:0:0:35:hihat.wav
192,192,333668,1,0,0:0:0:70:kick.wav
64,192,333668,1,0,0:0:0:0:
320,192,333825,1,0,0:0:0:35:hihat.wav
192,192,333982,1,0,0:0:0:70:snare.wav
448,192,333982,1,0,0:0:0:0:
64,192,334139,1,0,0:0:0:35:hihat.wav
448,192,334296,1,0,0:0:0:70:kick.wav
320,192,334296,1,0,0:0:0:0:
192,192,334453,1,0,0:0:0:35:hihat.wav
64,192,334610,1,0,0:0:0:70:snare.wav
320,192,334610,1,0,0:0:0:0:
320,192,334768,1,0,0:0:0:35:hihat.wav
192,192,334925,1,0,0:0:0:70:kick.wav
64,192,334925,1,0,0:0:0:0:
320,192,335082,1,0,0:0:0:35:hihat.wav
192,192,335239,1,0,0:0:0:70:snare.wav
448,192,335239,1,0,0:0:0:0:
192,192,335396,1,0,0:0:0:35:hihat.wav
64,192,335553,1,0,0:0:0:70:kick.wav
448,192,335553,1,0,0:0:0:0:
320,192,335710,1,0,0:0:0:35:hihat.wav
64,192,335867,1,0,0:0:0:70:snare.wav
448,192,335867,1,0,0:0:0:0:
64,192,336024,1,0,0:0:0:35:hihat.wav
320,192,336181,1,0,0:0:0:70:kick.wav
448,192,336181,1,0,0:0:0:0:
192,192,336338,1,0,0:0:0:35:hihat.wav
64,192,336495,1,0,0:0:0:70:kick.wav
320,192,336495,1,0,0:0:0:70:snare.wav
192,192,336574,1,0,0:0:0:70:kick.wav
448,192,336574,1,0,0:0:0:0:
64,192,336652,1,0,0:0:0:70:kick.wav
320,192,336652,1,0,0:0:0:0:
192,192,336731,1,0,0:0:0:70:kick.wav
448,192,336809,5,0,0:0:0:70:crash-cymbol.wav
64,192,336809,1,0,0:0:0:70:kick.wav
320,192,336966,1,0,0:0:0:35:hihat.wav
448,192,337124,1,0,0:0:0:70:snare.wav
64,192,337124,128,0,337281:0:0:0:0:
320,192,337281,1,0,0:0:0:35:hihat.wav
64,192,337438,1,0,0:0:0:70:kick.wav
448,192,337438,1,0,0:0:0:50:bell.wav
320,192,337595,1,0,0:0:0:35:hihat.wav
448,192,337752,1,0,0:0:0:70:snare.wav
64,192,337752,128,0,337909:0:0:0:0:
320,192,337909,1,0,0:0:0:35:hihat.wav
64,192,338066,1,0,0:0:0:70:kick.wav
448,192,338066,1,0,0:0:0:40:bell.wav
320,192,338223,1,0,0:0:0:35:hihat.wav
64,192,338380,128,0,338537:0:0:0:0:
448,192,338380,1,0,0:0:0:70:snare.wav
320,192,338537,1,0,0:0:0:35:hihat.wav
64,192,338694,1,0,0:0:0:70:kick.wav
448,192,338694,1,0,0:0:0:30:bell.wav
320,192,338851,1,0,0:0:0:35:hihat.wav
64,192,339008,128,0,339165:0:0:0:0:
448,192,339008,1,0,0:0:0:70:snare.wav
320,192,339165,1,0,0:0:0:35:hihat.wav
64,192,339323,1,0,0:0:0:70:kick.wav
448,192,339323,1,0,0:0:0:20:bell.wav
192,192,339323,1,0,0:0:0:0:
192,192,339480,1,0,0:0:0:35:hihat.wav
64,192,339637,1,0,0:0:0:70:snare.wav
448,192,339637,128,0,339794:0:0:0:0:
192,192,339794,1,0,0:0:0:35:hihat.wav
64,192,339951,1,0,0:0:0:70:kick.wav
448,192,339951,1,0,0:0:0:10:bell.wav
192,192,340108,1,0,0:0:0:35:hihat.wav
64,192,340265,1,0,0:0:0:70:snare.wav
448,192,340265,128,0,340422:0:0:0:0:
192,192,340422,1,0,0:0:0:35:hihat.wav
64,192,340579,1,0,0:0:0:70:kick.wav
448,192,340579,1,0,0:0:0:0:
192,192,340736,1,0,0:0:0:35:hihat.wav
64,192,340893,1,0,0:0:0:70:snare.wav
448,192,340893,128,0,341050:0:0:0:0:
192,192,341050,1,0,0:0:0:35:hihat.wav
64,192,341207,1,0,0:0:0:70:kick.wav
448,192,341207,1,0,0:0:0:0:
192,192,341364,1,0,0:0:0:35:hihat.wav
64,192,341521,1,0,0:0:0:70:snare.wav
448,192,341521,128,0,341679:0:0:0:0:
192,192,341679,1,0,0:0:0:0:
448,192,341836,1,0,0:0:0:70:kick.wav
64,192,341836,1,0,0:0:0:70:crash-cymbol.wav
192,192,341836,1,0,0:0:0:0:
320,192,341993,1,0,0:0:0:70:kick.wav
192,192,342150,1,0,0:0:0:70:kick.wav
64,192,342150,1,0,0:0:0:0:
448,192,342150,1,0,0:0:0:0:
320,192,342307,1,0,0:0:0:70:kick.wav
448,192,342464,1,0,0:0:0:70:kick.wav
192,192,342464,1,0,0:0:0:0:
64,192,342464,1,0,0:0:0:0:
320,192,342621,1,0,0:0:0:70:kick.wav
448,192,342778,1,0,0:0:0:70:kick.wav
192,192,342778,1,0,0:0:0:0:
64,192,342778,1,0,0:0:0:0:
320,192,342935,1,0,0:0:0:70:kick.wav
320,192,343092,1,0,0:0:0:70:crash-cymbol.wav
448,192,343092,1,0,0:0:0:70:kick.wav
64,192,343092,1,0,0:0:0:0:
192,192,343249,1,0,0:0:0:70:kick.wav
64,192,343406,1,0,0:0:0:70:kick.wav
320,192,343406,1,0,0:0:0:0:
448,192,343406,1,0,0:0:0:0:
192,192,343563,1,0,0:0:0:70:kick.wav
64,192,343720,1,0,0:0:0:70:kick.wav
320,192,343720,1,0,0:0:0:0:
448,192,343720,1,0,0:0:0:0:
192,192,343877,1,0,0:0:0:70:kick.wav
64,192,344035,1,0,0:0:0:70:kick.wav
448,192,344035,1,0,0:0:0:0:
320,192,344035,1,0,0:0:0:0:
192,192,344192,1,0,0:0:0:70:kick.wav
64,192,344349,1,0,0:0:0:70:crash-cymbol.wav
448,192,344349,1,0,0:0:0:70:kick.wav
320,192,344427,1,0,0:0:0:70:kick.wav
192,192,344427,1,0,0:0:0:0:
448,192,344506,1,0,0:0:0:70:kick.wav
64,192,344506,1,0,0:0:0:0:
320,192,344584,1,0,0:0:0:70:kick.wav
192,192,344584,1,0,0:0:0:0:
448,192,344663,1,0,0:0:0:70:kick.wav
64,192,344663,1,0,0:0:0:0:
320,192,344741,1,0,0:0:0:70:kick.wav
192,192,344741,1,0,0:0:0:0:
448,192,344820,1,0,0:0:0:70:kick.wav
64,192,344820,1,0,0:0:0:0:
320,192,344898,1,0,0:0:0:70:kick.wav
192,192,344898,1,0,0:0:0:0:
448,192,344977,1,0,0:0:0:70:kick.wav
64,192,344977,1,0,0:0:0:70:crash-cymbol.wav
320,192,345055,1,0,0:0:0:70:kick.wav
192,192,345055,1,0,0:0:0:0:
64,192,345134,1,0,0:0:0:0:
448,192,345134,1,0,0:0:0:70:kick.wav
320,192,345213,1,0,0:0:0:70:kick.wav
192,192,345213,1,0,0:0:0:0:
448,192,345291,1,0,0:0:0:70:kick.wav
64,192,345291,1,0,0:0:0:0:
192,192,345370,1,0,0:0:0:0:
320,192,345370,1,0,0:0:0:70:kick.wav
64,192,345448,1,0,0:0:0:0:
448,192,345448,1,0,0:0:0:70:kick.wav
192,192,345527,1,0,0:0:0:0:
320,192,345527,1,0,0:0:0:70:kick.wav
192,192,346548,1,0,0:0:0:70:snare.wav
320,192,346548,1,0,0:0:0:70:cymbol.wav
448,192,346548,1,0,0:0:0:70:drum.wav
64,192,346548,1,0,0:0:0:70:crash-cymbol.wav
64,192,346862,128,0,349375:0:0:0:70:snare.wav
192,192,347490,128,0,350003:0:0:0:40:bell.wav
320,192,348118,128,0,350631:0:0:0:30:bell.wav
448,192,348747,128,0,351260:0:0:0:50:bell.wav
