osu file format v14

[General]
AudioFilename: 08 MariannE.mp3
AudioLeadIn: 2000
PreviewTime: 153354
Countdown: 0
SampleSet: Soft
StackLeniency: 0.5
Mode: 0
LetterboxInBreaks: 0
EpilepsyWarning: 1
WidescreenStoryboard: 1

[Editor]
Bookmarks: 20153,30205,40257,50310,60362,70414,80467,90519,103085,113137,123189,133242,143294,153346,163399,173451,186017,196069,206121,216174,226226,236278,246331,256383,266435,276488,286540,296592,306645,316697,326749,336802
DistanceSpacing: 1.6
BeatDivisor: 4
GridSize: 4
TimelineZoom: 1.6

[Metadata]
Title:MariannE
TitleUnicode:MariannE
Artist:Yooh
ArtistUnicode:Yooh
Creator:neonat
Version:Collab
Source:
Tags:handsome Jerry Fullerene- mingmichael CLSW Nardoxyribonucleic Guy Xinely Tidek Ichigaki Fort Sayaka- pishifat Irreversible aabc271 _Gezo_ qoot8123 Kuo Kyoka DE-CADE Spectator kakattekoyeah c.h.s gothic themed c87 Raymond Minato Yukina Neppu CiiyusMiapah Nardo Unmei Muma
BeatmapID:644971
BeatmapSetID:285577

[Difficulty]
HPDrainRate:6
CircleSize:4
OverallDifficulty:8.5
ApproachRate:9.3
SliderMultiplier:1.8
SliderTickRate:1

[Events]
//Background and Video events
0,0,"SO57p38.jpg",0,0
//Break Periods
//Storyboard Layer 0 (Background)
//Storyboard Layer 1 (Fail)
//Storyboard Layer 2 (Pass)
//Storyboard Layer 3 (Foreground)
Sprite,Foreground,Centre,"SB\whitenamebar.png",320,240 F,0,-300,0,0,1 C,0,0,20003,255,176,195 M,0,0,300000,60,400 S,0,0,300000,0.75 C,0,20003,20160,255,176,195,228,176,255 C,0,30055,30213,228,176,255,255,176,195 C,0,40108,40265,255,176,195,228,176,255 C,0,50160,50317,228,176,255,255,176,195 C,0,60213,60370,255,176,195,255,190,115 C,0,70265,70422,255,190,115,255,176,195 C,0,80317,80474,255,176,195,228,176,255 C,0,90370,90527,228,176,255,255,176,195 C,0,102935,103092,255,176,195,228,176,255 C,0,112987,113144,228,176,255,135,255,120 C,0,123040,123197,135,255,120,255,255,140 C,0,133092,133249,255,255,140,140,205,255 C,0,143145,143302,140,205,255,228,176,255 C,0,153197,153354,228,176,255,255,176,195 C,0,163249,163406,255,176,195,228,176,255 C,0,173302,173459,228,176,255,255,255,140 C,0,185867,186024,255,255,140,255,176,195 C,0,195919,196076,255,176,195,255,190,115 C,0,205972,206129,255,190,115,140,205,255 C,0,216024,216181,140,205,255,228,176,255 C,0,226076,226233,228,176,255,255,176,195 C,0,236129,236286,255,176,195,140,205,255 C,0,246181,246338,140,205,255,135,255,120 C,0,256234,256391,135,255,120,255,190,115 C,0,266286,266443,255,190,115,255,255,140 C,0,276338,276495,255,255,140,255,176,195 C,0,286391,286548,255,176,195,228,176,255 C,0,296443,296600,228,176,255,255,176,195 C,0,306495,306652,255,176,195,228,176,255 C,0,316548,316705,228,176,255,255,255,140 C,0,326600,326757,255,255,140,255,176,195 C,0,336652,336809,255,176,195,135,255,120 F,0,348118,348418,1,0
Sprite,Foreground,Centre,"SB\Marianne.png",320,240 F,0,40265,40765,0,1 F,0,44663,44863,1,0 M,2,44663,45163,320,240,320,140
Sprite,Foreground,Centre,"SB\COLLAB.png",320,240 F,0,45291,45491,0,1 M,1,45291,45791,320,280,320,240 F,0,48747,48947,1,0 M,2,48747,49247,320,240,320,180
Sprite,Foreground,Centre,"SB\sb.png",320,240 F,0,49218,49418,0,1 M,1,49218,49718,320,280,320,240 F,0,50003,50203,1,0 M,2,50003,50503,320,240,320,180
Sprite,Foreground,Centre,"SB\Names\neonat.png",320,240 F,0,0,300,0,1 M,0,0,300000,60,400 S,0,0,300000,0.75 F,0,20003,20303,1,0 F,0,30213,30513,0,1 F,0,40108,40408,1,0 F,0,50317,50617,0,1 F,0,60213,60513,1,0 F,0,70422,70722,0,1 F,0,80317,80617,1,0 F,0,90527,90827,0,1 F,0,102935,103235,1,0 F,0,153354,153654,0,1 F,0,163249,163549,1,0 F,0,186024,186324,0,1 F,0,195919,196219,1,0 F,0,226233,226533,0,1 F,0,236129,236429,1,0 F,0,276495,276795,0,1 F,0,286391,286691,1,0 F,0,296600,296900,0,1 F,0,306495,306795,1,0 F,0,326757,327057,0,1 F,0,336652,336952,1,0
Sprite,Foreground,Centre,"SB\Names\Fort.png",320,240 M,0,0,300000,60,400 S,0,0,300000,0.75 F,0,60370,60670,0,1 F,0,70265,70565,1,0 F,0,196076,196376,0,1 F,0,205972,206272,1,0 F,0,256391,256691,0,1 F,0,266286,266586,1,0
Sprite,Foreground,Centre,"SB\Names\Guy.png",320,240 M,0,0,300000,60,400 S,0,0,300000,0.75 F,0,123197,123497,0,1 F,0,133092,133392,1,0 F,0,173459,173759,0,1 F,0,185867,186167,1,0 F,0,266443,266743,0,1 F,0,276338,276638,1,0 F,0,316705,317005,0,1 F,0,326600,326900,1,0
Sprite,Foreground,Centre,"SB\Names\pishifat.png",320,240 M,0,0,300000,60,400 S,0,0,300000,0.75 F,0,113144,113444,0,1 F,0,123040,123340,1,0 F,0,246338,246638,0,1 F,0,256234,256534,1,0 F,0,336809,337109,0,1 F,0,348118,348418,1,0
Sprite,Foreground,Centre,"SB\Names\Irreversible.png",320,240 M,0,0,300000,60,400 S,0,0,300000,0.75 F,0,133249,133549,0,1 F,0,143145,143445,1,0 F,0,206129,206429,0,1 F,0,216024,216324,1,0 F,0,236286,236586,0,1 F,0,246181,246481,1,0
Sprite,Foreground,Centre,"SB\Names\handsome.png",320,240 M,0,0,300000,60,400 S,0,0,300000,0.75 F,0,20160,20460,0,1 F,0,30055,30355,1,0 F,0,40265,40565,0,1 F,0,50160,50460,1,0 F,0,80474,80774,0,1 F,0,90370,90670,1,0 F,0,103092,103392,0,1 F,0,112987,113287,1,0 F,0,143302,143602,0,1 F,0,153197,153497,1,0 F,0,163406,163706,0,1 F,0,173302,173602,1,0 F,0,216181,216481,0,1 F,0,226076,226376,1,0 F,0,286548,286848,0,1 F,0,296443,296743,1,0 F,0,306652,306952,0,1 F,0,316548,316848,1,0
//Storyboard Sound Samples

[TimingPoints]
56,314.13612565445,4,2,4,70,1,0
370,-133.333333333333,4,2,0,70,0,0
10108,-133.333333333333,4,2,3,45,0,0
10265,-133.333333333333,4,2,1,45,0,0
15134,-133.333333333333,4,2,1,55,0,0
17647,-133.333333333333,4,2,1,65,0,0
19218,-133.333333333333,4,2,1,75,0,0
19532,-133.333333333333,4,2,1,80,0,0
20160,-100,4,2,3,80,0,0
20239,-100,4,2,1,80,0,0
23930,-100,4,2,2,80,0,0
25186,-100,4,2,1,80,0,0
29270,-100,4,2,2,80,0,0
30213,-100,4,2,3,80,0,0
30370,-100,4,2,1,80,0,0
34139,-100,4,2,2,80,0,0
35239,-100,4,2,1,80,0,0
37752,-100,4,2,1,50,0,0
38066,-100,4,2,1,60,0,0
38380,-100,4,2,1,70,0,0
38694,-100,4,2,1,80,0,0
39008,-100,4,1,0,35,0,0
39637,-133.333333333333,4,2,0,70,0,0
40265,-100,4,2,3,70,0,0
40422,-100,4,2,1,70,0,0
49218,-100,4,2,1,30,0,0
50003,-100,4,2,2,70,0,0
50317,-100,4,2,3,70,0,0
50474,-100,4,2,1,70,0,0
55343,-100,4,2,1,35,0,0
55972,-100,4,2,1,40,0,0
56600,-100,4,2,1,45,0,0
57228,-100,4,2,1,50,0,0
57857,-100,4,2,1,55,0,0
58485,-100,4,2,1,60,0,0
59113,-100,4,2,1,70,0,0
60370,-100,4,2,4,80,0,0
60448,-100,4,2,0,80,0,0
70422,-100,4,2,4,80,0,0
70579,-100,4,2,0,80,0,0
79846,-133.333333333333,4,2,0,70,0,0
80160,-74.0740740740741,4,2,0,70,0,0
80474,-133.333333333333,4,2,4,70,0,0
80631,-133.333333333333,4,2,0,70,0,0
90527,-133.333333333333,4,2,4,70,0,0
90684,-133.333333333333,4,2,0,70,0,0
101836,-133.333333333333,4,1,0,35,0,0
102464,-133.333333333333,4,2,1,70,0,0
102778,-74.0740740740741,4,2,0,70,0,0
103092,-100,4,2,4,60,0,0
103249,-100,4,2,0,60,0,0
113145,-100,4,2,4,60,0,0
113302,-100,4,2,0,60,0,0
122569,-86.9565217391304,4,2,0,60,0,0
122883,-76.9230769230769,4,2,0,60,0,0
123197,-100,4,2,3,50,0,0
123354,-100,4,2,1,60,0,0
133249,-100,4,2,1,100,0,0
138275,-100,4,2,1,35,0,0
138904,-100,4,2,1,40,0,0
139532,-100,4,2,1,45,0,0
140160,-100,4,2,1,50,0,0
140788,-66.6666666666667,4,2,1,55,0,0
141731,-100,4,2,1,60,0,0
142045,-133.333333333333,4,2,1,60,0,0
142987,-66.6666666666667,4,2,2,60,0,0
143302,-83.3333333333333,4,2,4,80,0,1
143459,-83.3333333333333,4,2,0,80,0,1
153354,-83.3333333333333,4,2,4,80,0,1
153511,-83.3333333333333,4,2,0,80,0,1
162150,-100,4,2,1,80,0,1
163406,-83.3333333333333,4,2,0,80,0,1
186024,-200,4,2,4,60,0,0
186338,-200,4,2,0,60,0,0
190186,-200,4,2,0,25,0,0
190343,-200,4,2,0,60,0,0
190815,-200,4,2,0,25,0,0
190972,-200,4,2,0,60,0,0
191443,-200,4,2,0,25,0,0
191600,-200,4,2,0,60,0,0
192071,-200,4,2,0,25,0,0
192228,-200,4,2,0,60,0,0
192699,-200,4,2,0,25,0,0
192857,-200,4,2,0,60,0,0
193328,-200,4,2,0,25,0,0
193485,-200,4,2,0,60,0,0
196076,-200,4,2,4,60,0,0
196234,-200,4,2,0,60,0,0
196940,-200,4,2,0,15,0,0
197097,-200,4,2,0,60,0,0
198354,-200,4,2,0,15,0,0
198511,-200,4,2,0,60,0,0
199139,-200,4,2,0,15,0,0
199296,-200,4,2,0,60,0,0
200317,-200,4,2,0,15,0,0
200435,-200,4,2,0,60,0,0
200985,-200,4,2,0,15,0,0
201063,-200,4,2,0,60,0,0
201613,-200,4,2,0,15,0,0
201692,-200,4,2,0,60,0,0
202241,-200,4,2,0,15,0,0
202320,-200,4,2,0,60,0,0
202870,-200,4,2,0,15,0,0
202948,-200,4,2,0,60,0,0
203498,-200,4,2,0,15,0,0
203576,-200,4,2,0,60,0,0
204205,-200,4,2,0,15,0,0
204283,-200,4,2,0,60,0,0
205069,-200,4,2,0,15,0,0
205147,-200,4,2,0,60,0,0
205383,-200,4,2,0,15,0,0
205461,-200,4,2,0,60,0,0
205697,-200,4,2,0,15,0,0
205775,-200,4,2,0,60,0,0
206129,-153.846153846154,4,2,3,50,0,0
206286,-153.846153846154,4,2,1,50,0,0
208642,-153.846153846154,4,2,1,55,0,0
209898,-153.846153846154,4,2,1,60,0,0
211155,-153.846153846154,4,2,1,50,0,0
212412,-153.846153846154,4,2,1,55,0,0
213668,-153.846153846154,4,2,1,60,0,0
214296,-153.846153846154,4,2,1,65,0,0
214925,-153.846153846154,4,2,1,70,0,0
216181,-125,4,2,1,70,0,0
221207,-125,4,2,1,35,0,0
221836,-125,4,2,1,40,0,0
222464,-125,4,2,1,50,0,0
223092,-125,4,2,1,55,0,0
223720,-125,4,2,1,60,0,0
224349,-125,4,2,1,65,0,0
224977,-200,4,2,1,50,0,0
226155,-200,4,2,1,20,0,0
226234,-83.3333333333333,4,2,4,80,0,1
226391,-83.3333333333333,4,2,0,80,0,1
235972,-83.3333333333333,4,2,1,80,0,1
236286,-83.3333333333333,4,2,4,80,0,1
236443,-83.3333333333333,4,2,0,80,0,1
245082,-83.3333333333333,4,2,1,80,0,1
246338,-83.3333333333333,4,2,4,80,0,1
246495,-83.3333333333333,4,2,0,80,0,1
255448,-76.9230769230769,4,2,0,80,0,1
255762,-71.4285714285714,4,2,0,80,0,1
256076,-83.3333333333333,4,2,0,80,0,1
256234,-83.3333333333333,4,2,1,80,0,1
256391,-83.3333333333333,4,2,4,80,0,1
256548,-83.3333333333333,4,2,0,80,0,1
261417,-83.3333333333333,4,2,0,80,0,1
265186,-133.333333333333,4,2,1,80,0,1
266443,-83.3333333333333,4,2,4,80,0,1
266600,-83.3333333333333,4,2,0,80,0,1
276495,-83.3333333333333,4,2,4,80,0,1
276652,-83.3333333333333,4,2,0,80,0,1
284663,-83.3333333333333,4,1,1,50,0,1
285291,-111.111111111111,4,2,0,60,0,0
286234,-111.111111111111,4,2,2,60,0,0
286548,-83.3333333333333,4,2,3,70,0,1
286705,-83.3333333333333,4,2,1,70,0,1
301626,-83.3333333333333,4,2,1,40,0,1
302254,-83.3333333333333,4,2,1,45,0,1
302883,-83.3333333333333,4,2,1,50,0,1
303511,-83.3333333333333,4,2,1,55,0,1
304139,-71.4285714285714,4,2,1,60,0,1
304768,-71.4285714285714,4,2,1,65,0,1
305396,-133.333333333333,4,2,1,60,0,1
306338,-133.333333333333,4,2,2,60,0,1
306652,-100,4,2,3,70,0,0
306809,-100,4,2,1,70,0,0
315605,-100,4,2,1,30,0,0
316312,-100,4,2,1,20,0,0
316391,-100,4,2,2,70,0,0
316705,-100,4,2,3,70,0,0
316862,-100,4,2,1,70,0,0
326757,-100,4,2,3,50,0,0
326914,-100,4,2,1,70,0,0
336809,-100,4,2,3,70,0,0
336966,-100,4,2,1,70,0,0
344349,-100,4,2,1,40,0,0
344663,-100,4,2,1,45,0,0
344977,-100,4,2,1,50,0,0
345291,-100,4,2,1,55,0,0
346548,-100,4,2,1,65,0,0
346862,-100,4,2,3,65,0,0
347490,-100,4,2,1,60,0,0
348118,-100,4,2,1,50,0,0
348747,-100,4,2,1,45,0,0
349375,-100,4,2,1,40,0,0
350003,-100,4,2,1,35,0,0
350631,-100,4,2,1,30,0,0
351260,-100,4,2,1,20,0,0
351888,-100,4,2,1,10,0,0

[Colours]
Combo1 : 209,147,16
Combo2 : 185,91,198
Combo3 : 45,139,255
Combo4 : 250,160,174

[HitObjects]
392,128,56,5,10,0:0:0:0:
372,216,213,1,0,0:0:0:0:
308,276,370,2,0,P|252:256|232:228,1,67.5000025749208
232,96,684,2,0,P|288:116|308:144,1,67.5000025749208
140,128,998,2,0,P|136:88|144:56,1,67.5000025749208
208,176,1312,1,0,0:0:0:0:
180,292,1469,2,0,P|168:320|144:348,2,67.5000025749208
292,184,1940,2,0,L|307:118,1,67.5000025749208
411,90,2254,2,0,L|396:156,1,67.5000025749208
304,264,2569,5,2,0:0:0:0:
216,264,2726,1,0,0:0:0:0:
140,220,2883,1,0,0:0:0:0:
100,140,3040,1,0,0:0:0:0:
188,124,3197,1,0,0:0:0:0:
252,184,3354,1,0,0:0:0:0:
260,272,3511,1,0,0:0:0:0:
224,352,3668,1,0,0:0:0:0:
88,368,3825,6,0,L|60:288,1,67.5000025749208,2|0,0:0|0:0,0:0:0:0:
56,216,4139,1,0,0:0:0:0:
188,124,4296,1,0,0:0:0:0:
160,207,4453,1,0,0:0:0:0:
100,140,4610,1,0,0:0:0:0:
129,59,4768,1,0,0:0:0:0:
188,124,4925,1,0,0:0:0:0:
244,192,5082,6,0,L|244:288,1,67.5000025749208,2|0,0:0|0:0,0:0:0:0:
328,192,5396,2,0,L|328:124,1,67.5000025749208
400,40,5710,2,0,L|400:136,1,67.5000025749208
472,196,6024,2,0,L|472:128,1,67.5000025749208
400,40,6338,1,0,0:0:0:0:
280,108,6495,2,0,L|196:108,2,67.5000025749208
336,216,6966,2,0,P|340:268|328:300,1,67.5000025749208
175,282,7281,2,0,P|170:249|176:216,1,67.5000025749208
280,108,7595,5,2,0:0:0:0:
366,124,7752,1,0,0:0:0:0:
337,41,7909,1,0,0:0:0:0:
252,24,8066,1,0,0:0:0:0:
172,56,8223,2,0,L|96:36,1,67.5000025749208,2|0,0:0|0:0,0:0:0:0:
152,144,8537,2,0,L|217:161,1,67.5000025749208
332,236,8851,5,2,0:0:0:0:
364,320,9008,1,0,0:0:0:0:
423,158,9165,1,0,0:0:0:0:
420,248,9323,1,0,0:0:0:0:
280,304,9480,1,2,0:0:0:0:
191,290,9637,1,0,0:0:0:0:
212,144,9794,1,0,0:0:0:0:
244,224,9951,1,0,0:0:0:0:
112,320,10108,6,0,L|80:240,1,67.5000025749208,10|0,0:0|0:0,0:0:0:0:
128,152,10422,2,0,L|153:214,1,67.5000025749208
280,304,10736,1,8,0:0:0:0:
364,276,10893,1,0,0:0:0:0:
404,196,11050,1,2,0:0:0:0:
364,276,11207,1,0,0:0:0:0:
316,204,11364,1,2,0:0:0:0:
196,152,11521,2,0,L|116:152,2,67.5000025749208
344,96,11993,2,0,L|420:116,1,67.5000025749208,8|0,0:0|0:0,0:0:0:0:
470,215,12307,2,0,L|404:197,1,67.5000025749208
316,204,12621,5,2,0:0:0:0:
264,136,12778,1,0,0:0:0:0:
280,48,12935,1,0,0:0:0:0:
196,68,13092,1,0,0:0:0:0:
112,48,13249,1,8,0:0:0:0:
128,136,13406,1,0,0:0:0:0:
76,204,13563,1,2,0:0:0:0:
112,284,13720,1,0,0:0:0:0:
200,280,13877,6,0,L|272:280,1,67.5000025749208,2|0,0:0|0:0,0:0:0:0:
344,328,14192,1,2,0:0:0:0:
448,236,14349,1,0,0:0:0:0:
360,240,14506,1,8,0:0:0:0:
316,164,14663,1,0,0:0:0:0:
240,204,14820,1,0,0:0:0:0:
200,280,14977,1,0,0:0:0:0:
108,352,15134,6,0,L|112:260,1,67.5000025749208,2|0,0:0|0:0,0:0:0:0:
156,144,15448,2,0,L|153:211,1,67.5000025749208
32,288,15762,2,0,L|34:220,1,67.5000025749208,8|0,0:0|0:0,0:0:0:0:
60,112,16076,1,2,0:0:0:0:
156,144,16234,1,0,0:0:0:0:
248,104,16391,1,2,0:0:0:0:
384,60,16548,2,0,L|448:28,2,67.5000025749208
312,176,17019,2,0,L|312:256,1,67.5000025749208,8|0,0:0|0:0,0:0:0:0:
244,352,17333,2,0,L|244:284,1,67.5000025749208
208,204,17647,5,2,0:0:0:0:
244,284,17804,1,0,0:0:0:0:
320,244,17961,1,0,0:0:0:0:
320,156,18118,1,0,0:0:0:0:
432,204,18275,1,8,0:0:0:0:
396,284,18432,1,0,0:0:0:0:
244,284,18590,1,2,0:0:0:0:
208,204,18747,1,0,0:0:0:0:
212,60,18904,6,0,P|216:108|208:136,1,67.5000025749208,2|0,0:0|0:0,0:0:0:0:
120,236,19218,2,0,P|116:188|124:160,1,67.5000025749208,2|0,0:0|0:0,0:0:0:0:
276,164,19532,1,8,0:0:0:0:
288,252,19689,1,2,0:0:0:0:
156,316,19846,1,2,0:0:0:0:
68,304,20003,1,2,0:0:0:0:
120,236,20160,5,12,0:0:0:0:
317,193,20474,2,0,P|341:226|329:303,1,90
241,346,20788,2,0,L|262:239,1,90,8|0,0:0|0:0,0:0:0:0:
263,115,21103,2,0,L|197:125,1,45
317,193,21260,2,0,L|383:183,1,45
248,104,21417,6,0,L|116:123,1,90,2|0,0:0|0:0,0:0:0:0:
88,216,21731,2,0,L|98:282,1,45
166,162,21888,2,0,L|156:96,1,45
77,231,22045,2,0,L|96:362,1,90,8|0,0:0|0:0,0:0:0:0:
177,147,22359,2,0,L|157:15,1,90
275,44,22673,6,0,B|323:76|323:76|411:83,1,135,2|0,0:0|0:0,0:0:0:0:
378,11,22987,2,0,P|330:52|358:142,1,135
343,134,23302,2,0,L|310:158,1,22.5,8|0,0:0|0:0,0:0:0:0:
381,216,23459,2,0,L|400:203,1,22.5
455,273,23616,2,0,L|422:297,1,22.5
492,356,23773,2,0,L|511:343,1,22.5
404,371,23930,6,0,P|356:360|305:383,1,90,2|0,0:0|0:0,0:0:0:0:
180,350,24244,2,0,L|231:358,1,45,2|0,0:0|0:0,0:0:0:0:
269,241,24401,2,0,L|287:290,1,45,2|0,0:0|0:0,0:0:0:0:
318,372,24558,1,8,0:0:0:0:
379,298,24715,2,0,L|407:263,1,45,2|0,0:0|0:0,0:0:0:0:
285,283,24872,2,0,L|268:240,1,45,2|0,0:0|0:0,0:0:0:0:
224,357,25029,2,0,L|180:350,1,45,2|0,0:0|0:0,0:0:0:0:
69,324,25186,6,0,P|60:266|125:215,1,135,2|0,0:0|0:0,0:0:0:0:
111,216,25501,2,0,B|55:262|55:262|69:324,1,135
80,337,25815,2,0,P|126:351|186:342,1,90,8|0,0:0|0:0,0:0:0:0:
266,286,26129,2,0,L|276:220,1,45,2|0,0:0|0:0,0:0:0:0:
344,340,26286,2,0,L|334:406,1,45
255,271,26443,6,0,L|274:140,1,90,2|0,0:0|0:0,0:0:0:0:
278,53,26757,2,0,L|287:11,1,22.5
255,67,26836,2,0,L|246:109,1,22.5
208,53,26914,2,0,L|217:11,1,22.5
185,67,26993,2,0,L|176:109,1,22.5
140,64,27071,2,0,B|93:72|93:72|53:67|53:67|12:98,1,135,8|0,0:0|0:0,0:0:0:0:
15,95,27385,2,0,L|119:94,1,90
233,140,27699,6,0,P|268:199|235:272,1,135,2|0,0:0|0:0,0:0:0:0:
187,208,28014,2,0,B|253:186|253:186|298:205|298:205|328:200,1,135
336,204,28328,2,0,P|333:261|305:302,1,90,8|0,0:0|0:0,0:0:0:0:
232,371,28642,2,0,P|203:382|174:380,1,45,2|0,0:0|0:0,0:0:0:0:
144,219,28799,2,0,P|173:208|202:210,1,45
188,295,28956,6,0,L|81:326,1,90,2|0,0:0|0:0,0:0:0:0:
215,185,29270,2,0,L|279:167,1,45,2|0,0:0|0:0,0:0:0:0:
199,278,29427,2,0,L|134:295,1,45,2|0,0:0|0:0,0:0:0:0:
268,156,29584,1,8,0:0:0:0:
146,307,29741,1,2,0:0:0:0:
277,140,29898,2,0,L|234:152,1,45,2|0,0:0|0:0,0:0:0:0:
135,321,30055,2,0,L|179:310,1,45,2|0,0:0|0:0,0:0:0:0:
260,172,30213,5,10,0:0:0:0:
408,272,30370,1,0,0:0:0:0:
236,284,30527,1,2,0:0:0:0:
328,344,30684,1,0,0:0:0:0:
368,172,30841,1,8,0:0:0:0:
400,60,30998,2,0,L|424:20,1,45
296,44,31155,2,0,L|280:-4,1,45,2|0,0:0|0:0,0:0:0:0:
192,84,31312,2,0,L|155:52,1,45
208,192,31469,6,0,L|200:308,1,90,2|0,0:0|0:0,0:0:0:0:
24,196,31783,2,0,L|16:148,1,45,2|0,0:0|0:0,0:0:0:0:
56,24,31940,2,0,L|68:68,1,45
156,100,32097,2,0,B|176:92|176:92|192:96|192:96|208:92|208:92|224:96|224:96|236:92|236:92|248:96|248:96|260:92|260:92|272:96|272:96|292:92,1,135,8|0,0:0|0:0,0:0:0:0:
368,132,32412,2,0,B|402:163|414:215|374:267,1,135,2|0,0:0|0:0,0:0:0:0:
383,254,32726,6,0,B|360:264|360:264|344:260|344:260|328:268|328:268|312:264|312:264|296:272|296:272|280:268|280:268|264:276|264:276|248:272|248:272|224:284|224:284|200:280,1,180,2|2,0:0|0:0,0:0:0:0:
84,232,33197,1,0,0:0:0:0:
156,100,33354,2,0,L|156:48,1,45,8|0,0:0|0:0,0:0:0:0:
192,172,33511,2,0,L|192:217,1,45
248,112,33668,2,0,L|248:60,1,45,2|0,0:0|0:0,0:0:0:0:
300,172,33825,2,0,L|300:217,1,45
339,101,33982,5,2,0:0:0:0:
456,192,34139,1,2,0:0:0:0:
456,192,34218,1,2,0:0:0:0:
456,192,34296,1,2,0:0:0:0:
392,40,34453,1,2,0:0:0:0:
368,256,34610,2,0,L|368:316,1,45,10|0,0:0|0:0,0:0:0:0:
284,280,34768,2,0,L|284:340,1,45,2|0,0:0|0:0,0:0:0:0:
128,280,34925,2,0,L|128:220,1,45,10|0,0:0|0:0,0:0:0:0:
44,256,35082,2,0,L|44:196,1,45,2|0,0:0|0:0,0:0:0:0:
148,80,35239,5,2,0:0:0:0:
244,132,35396,1,2,0:0:0:0:
136,136,35553,1,2,0:0:0:0:
248,76,35710,1,2,0:0:0:0:
160,188,35867,1,2,0:0:0:0:
212,32,36024,1,2,0:0:0:0:
212,212,36181,1,2,0:0:0:0:
156,24,36338,1,2,0:0:0:0:
269,210,36495,5,2,0:0:0:0:
104,48,36652,1,2,0:0:0:0:
316,180,36809,1,2,0:0:0:0:
84,104,36966,1,2,0:0:0:0:
328,124,37124,1,2,0:0:0:0:
92,160,37281,1,2,0:0:0:0:
308,72,37438,1,2,0:0:0:0:
140,188,37595,1,2,0:0:0:0:
260,44,37752,5,2,0:0:0:0:
292,24,37830,1,2,0:0:0:0:
328,20,37909,1,2,0:0:0:0:
364,28,37987,1,2,0:0:0:0:
392,48,38066,1,2,0:0:0:0:
408,80,38145,1,2,0:0:0:0:
412,116,38223,1,2,0:0:0:0:
400,152,38302,1,2,0:0:0:0:
376,180,38380,1,2,0:0:0:0:
344,196,38459,1,2,0:0:0:0:
308,192,38537,1,2,0:0:0:0:
276,176,38616,1,2,0:0:0:0:
236,156,38694,2,0,L|208:160,2,22.5,2|2|2,0:0|0:0|0:0,0:0:0:0:
256,88,38851,2,0,L|284:84,2,22.5,2|2|2,0:0|0:0|0:0,0:0:0:0:
160,88,39008,5,0,0:0:0:0:
152,116,39087,1,0,0:0:0:0:
144,140,39165,1,0,0:0:0:0:
136,164,39244,1,0,0:0:0:0:
128,188,39323,1,0,0:0:0:0:
132,320,39480,1,0,0:0:0:0:
248,256,39637,6,0,L|272:172,2,67.5000025749208
320,368,40108,1,0,0:0:0:0:
212,251,40265,6,0,L|114:249,1,90,14|0,0:0|0:0,0:0:0:0:
300,133,40579,2,0,L|398:135,1,90,2|0,0:0|0:0,0:0:0:0:
173,264,40893,2,0,P|113:253|72:225,1,90,2|0,0:0|0:0,0:0:0:0:
339,120,41207,2,0,P|399:131|440:159,1,90,2|0,0:0|0:0,0:0:0:0:
134,259,41521,6,0,L|33:196,1,90,2|0,0:0|0:0,0:0:0:0:
378,125,41836,2,0,L|479:188,1,90,2|0,0:0|0:0,0:0:0:0:
58,212,42150,2,0,P|54:151|82:100,1,90,2|0,0:0|0:0,0:0:0:0:
454,172,42464,2,0,P|458:233|430:284,1,90,2|0,0:0|0:0,0:0:0:0:
15,136,42778,6,0,L|123:106,1,90,2|0,0:0|0:0,0:0:0:0:
497,247,43092,2,0,L|389:277,1,90,2|0,0:0|0:0,0:0:0:0:
73,88,43406,2,0,P|126:55|179:58,1,90,2|0,0:0|0:0,0:0:0:0:
439,296,43720,2,0,P|386:329|333:326,1,90,2|0,0:0|0:0,0:0:0:0:
159,14,44035,6,0,L|280:14,1,90,2|0,0:0|0:0,0:0:0:0:
353,370,44349,2,0,L|232:370,1,90,2|0,0:0|0:0,0:0:0:0:
332,18,44663,2,0,P|380:33|415:76,1,90,2|0,0:0|0:0,0:0:0:0:
180,366,44977,6,0,P|132:351|97:308,2,90,2|2|2,0:0|0:0|0:0,0:0:0:0:
419,279,45448,2,0,P|440:218|430:154,1,90,0|2,0:0|0:0,0:0:0:0:
103,125,45762,2,0,P|88:182|102:239,1,90,0|2,0:0|0:0,0:0:0:0:
408,258,46076,2,0,P|423:201|409:144,1,90,0|2,0:0|0:0,0:0:0:0:
115,145,46391,6,0,P|107:196|123:245,1,90,0|2,0:0|0:0,0:0:0:0:
396,238,46705,2,0,P|404:187|388:138,1,90,0|2,0:0|0:0,0:0:0:0:
129,162,47019,2,0,P|126:207|144:248,1,90,0|2,0:0|0:0,0:0:0:0:
382,221,47333,2,0,P|385:176|367:135,1,90,0|2,0:0|0:0,0:0:0:0:
144,184,47647,6,0,P|145:229|167:269,1,90,0|2,0:0|0:0,0:0:0:0:
367,199,47961,2,0,P|366:154|344:114,1,90,0|2,0:0|0:0,0:0:0:0:
165,193,48275,2,0,P|170:237|194:274,1,90,0|2,0:0|0:0,0:0:0:0:
346,191,48590,2,0,P|341:146|317:109,1,90,0|2,0:0|0:0,0:0:0:0:
199,203,48904,6,0,L|250:295,1,90,0|2,0:0|0:0,0:0:0:0:
98,302,49218,2,0,B|55:292|8:306|8:306|21:268|64:239|104:257,1,180
217,326,49689,2,0,B|254:313|291:275|291:275|303:306|294:343,1,135
326,356,50003,1,10,0:0:0:0:
326,311,50082,1,2,0:0:0:0:
326,266,50160,1,2,0:0:0:0:
326,221,50239,1,2,0:0:0:0:
326,176,50317,6,0,P|312:108|288:80,1,90,12|0,0:0|0:0,0:0:0:0:
326,266,50631,2,0,L|412:328,1,90,10|0,0:0|0:0,0:0:0:0:
196,196,50946,2,0,P|176:256|188:304,1,90,2|0,0:0|0:0,0:0:0:0:
252,112,51260,2,0,L|216:24,1,90,10|0,0:0|0:0,0:0:0:0:
326,221,51574,6,0,P|392:216|436:184,1,90,2|0,0:0|0:0,0:0:0:0:
248,284,51888,2,0,L|224:372,1,90,10|0,0:0|0:0,0:0:0:0:
152,208,52202,2,0,L|107:226,2,45,2|0|0,0:0|0:0|0:0,0:0:0:0:
320,140,52516,2,0,L|432:104,1,90,10|0,0:0|0:0,0:0:0:0:
496,216,52830,5,2,0:0:0:0:
496,216,52909,1,0,0:0:0:0:
496,216,52987,1,0,0:0:0:0:
332,304,53145,2,0,L|212:304,1,90,10|0,0:0|0:0,0:0:0:0:
468,144,53459,1,2,0:0:0:0:
468,144,53537,1,0,0:0:0:0:
468,144,53616,1,0,0:0:0:0:
339,284,53773,2,0,L|231:284,1,90,10|0,0:0|0:0,0:0:0:0:
436,76,54087,5,2,0:0:0:0:
436,76,54165,1,0,0:0:0:0:
436,76,54244,1,0,0:0:0:0:
346,264,54401,2,0,L|238:264,1,90,10|0,0:0|0:0,0:0:0:0:
232,264,54637,1,0,0:0:0:0:
208,264,54715,1,2,0:0:0:0:
184,264,54794,1,0,0:0:0:0:
160,264,54872,1,0,0:0:0:0:
0,180,55029,1,10,0:0:0:0:
80,348,55186,1,2,0:0:0:0:
164,180,55343,5,2,1:2:0:0:
184,156,55422,1,0,1:2:0:0:
212,144,55501,1,0,1:2:0:0:
244,144,55579,1,0,1:2:0:0:
276,152,55658,1,8,1:2:0:0:
300,172,55736,1,0,1:2:0:0:
328,188,55815,1,0,1:2:0:0:
356,200,55893,1,0,1:2:0:0:
388,204,55972,1,2,1:2:0:0:
420,200,56050,1,0,1:2:0:0:
448,184,56129,1,0,1:2:0:0:
464,156,56207,1,0,1:2:0:0:
464,124,56286,1,8,1:2:0:0:
452,96,56364,1,0,1:2:0:0:
424,80,56443,1,0,1:2:0:0:
392,72,56521,1,0,1:2:0:0:
364,84,56600,5,2,1:2:0:0:
340,104,56679,1,0,1:2:0:0:
332,136,56757,1,0,1:2:0:0:
336,168,56836,1,0,1:2:0:0:
356,200,56914,1,8,1:2:0:0:
364,232,56993,1,0,1:2:0:0:
372,262,57071,1,0,1:2:0:0:
370,293,57150,1,0,1:2:0:0:
355,321,57228,1,2,1:2:0:0:
330,339,57307,1,0,1:2:0:0:
300,348,57385,1,0,1:2:0:0:
269,348,57464,1,0,1:2:0:0:
238,340,57542,1,8,1:2:0:0:
212,323,57621,1,0,1:2:0:0:
193,298,57699,1,0,1:2:0:0:
186,268,57778,1,0,1:2:0:0:
190,236,57857,5,2,1:2:0:0:
200,207,57935,1,0,1:2:0:0:
213,178,58014,1,0,1:2:0:0:
225,149,58092,1,0,1:2:0:0:
232,118,58171,1,8,1:2:0:0:
229,87,58249,1,0,1:2:0:0:
213,60,58328,1,0,1:2:0:0:
187,43,58406,1,0,1:2:0:0:
157,35,58485,1,2,1:2:0:0:
125,36,58563,1,0,1:2:0:0:
95,44,58642,1,0,1:2:0:0:
68,60,58720,1,0,1:2:0:0:
45,82,58799,1,8,1:2:0:0:
35,111,58877,1,0,1:2:0:0:
35,142,58956,1,0,1:2:0:0:
47,171,59035,1,0,1:2:0:0:
60,200,59113,6,0,L|64:292,1,90,8|0,0:0|0:0,0:0:0:0:
228,240,59427,2,0,L|224:150,1,90,8|0,0:0|0:0,0:0:0:0:
316,60,59741,1,8,0:0:0:0:
420,116,59898,1,8,0:0:0:0:
416,132,59977,1,8,0:0:0:0:
412,148,60055,1,8,0:0:0:0:
408,164,60134,1,8,0:0:0:0:
404,180,60213,1,8,0:0:0:0:
400,196,60291,1,8,0:0:0:0:
396,212,60370,6,0,L|496:200,1,90,14|0,0:0|0:0,0:0:0:0:
232,140,60684,2,0,L|132:152,1,90,8|2,0:0|0:0,0:0:0:0:
316,60,60998,1,2,0:0:0:0:
304,276,61155,1,0,0:0:0:0:
204,240,61312,1,8,0:0:0:0:
420,220,61469,1,2,0:0:0:0:
204,240,61626,5,2,0:0:0:0:
308,268,61783,1,2,0:0:0:0:
200,256,61940,1,10,0:0:0:0:
308,256,62097,1,2,0:0:0:0:
200,272,62254,1,2,0:0:0:0:
124,196,62412,1,0,0:0:0:0:
132,88,62569,1,8,0:0:0:0:
204,292,62726,1,2,0:0:0:0:
52,136,62883,5,2,0:0:0:0:
120,220,63040,1,0,0:0:0:0:
136,112,63197,1,8,0:0:0:0:
36,156,63354,1,2,0:0:0:0:
104,240,63511,1,2,0:0:0:0:
212,252,63668,1,0,0:0:0:0:
312,212,63825,1,8,0:0:0:0:
416,244,63982,1,2,0:0:0:0:
312,212,64139,6,0,P|304:160|304:112,1,90,2|0,0:0|0:0,0:0:0:0:
416,244,64453,2,0,P|414:288|407:333,1,90,8|2,0:0|0:0,0:0:0:0:
308,80,64768,1,2,0:0:0:0:
404,212,64925,1,2,0:0:0:0:
196,152,65082,1,10,0:0:0:0:
412,124,65239,1,2,0:0:0:0:
304,312,65396,6,0,L|184:292,1,90,6|0,0:0|0:0,0:0:0:0:
24,192,65710,2,0,L|144:212,1,90,8|2,0:0|0:0,0:0:0:0:
220,204,66024,1,2,0:0:0:0:
88,296,66181,1,0,0:0:0:0:
132,84,66338,1,8,0:0:0:0:
88,296,66495,1,2,0:0:0:0:
212,120,66652,5,2,0:0:0:0:
52,104,66809,1,0,0:0:0:0:
320,76,66966,1,10,0:0:0:0:
160,52,67124,1,2,0:0:0:0:
324,44,67281,1,2,0:0:0:0:
200,148,67438,1,2,0:0:0:0:
240,48,67595,1,10,0:0:0:0:
268,208,67752,1,2,0:0:0:0:
52,196,67909,5,2,0:0:0:0:
160,180,68066,1,0,0:0:0:0:
256,228,68223,1,8,0:0:0:0:
364,216,68380,1,2,0:0:0:0:
440,140,68537,1,2,0:0:0:0:
304,308,68694,1,2,0:0:0:0:
336,96,68851,1,10,0:0:0:0:
388,248,69008,1,2,0:0:0:0:
124,296,69165,5,2,0:0:0:0:
124,296,69480,1,10,0:0:0:0:
268,220,69637,1,2,0:0:0:0:
212,356,69794,1,2,0:0:0:0:
172,212,69951,1,2,0:0:0:0:
174,201,70029,1,2,0:0:0:0:
176,190,70108,1,10,0:0:0:0:
122,199,70186,1,8,0:0:0:0:
75,170,70265,1,8,0:0:0:0:
59,117,70343,1,8,0:0:0:0:
81,67,70422,6,0,P|144:72|176:64,1,90,12|0,0:0|0:0,0:0:0:0:
360,112,70736,2,0,P|297:107|265:115,1,90,8|2,0:0|0:0,0:0:0:0:
212,312,71050,1,2,0:0:0:0:
324,252,71207,1,0,0:0:0:0:
75,170,71364,1,8,0:0:0:0:
92,332,71521,1,2,0:0:0:0:
172,212,71679,5,2,0:0:0:0:
384,104,71836,1,0,0:0:0:0:
400,212,71993,1,8,0:0:0:0:
276,152,72150,1,2,0:0:0:0:
304,256,72307,1,2,0:0:0:0:
392,320,72464,1,2,0:0:0:0:
400,212,72621,1,8,0:0:0:0:
304,256,72778,1,2,0:0:0:0:
492,260,72935,6,0,P|504:200|484:148,1,90,2|0,0:0|0:0,0:0:0:0:
348,288,73249,2,0,P|336:348|356:400,1,90,8|2,0:0|0:0,0:0:0:0:
412,208,73563,1,2,0:0:0:0:
453,99,73720,1,0,0:0:0:0:
346,55,73877,1,8,0:0:0:0:
302,164,74035,1,2,0:0:0:0:
152,256,74192,5,2,0:0:0:0:
124,124,74349,1,0,0:0:0:0:
132,260,74506,1,8,0:0:0:0:
216,64,74663,1,2,0:0:0:0:
172,252,74820,1,2,0:0:0:0:
252,104,74977,1,2,0:0:0:0:
192,248,75134,1,8,0:0:0:0:
288,144,75291,1,2,0:0:0:0:
213,244,75448,6,0,L|221:336,1,90,4|0,0:0|0:0,0:0:0:0:
376,216,75762,2,0,L|368:126,1,90,8|2,0:0|0:0,0:0:0:0:
200,164,76076,1,2,0:0:0:0:
304,252,76234,1,0,0:0:0:0:
324,48,76391,1,8,0:0:0:0:
288,144,76548,1,2,0:0:0:0:
136,96,76705,5,4,0:0:0:0:
404,68,76862,1,2,0:0:0:0:
372,292,77019,1,8,0:0:0:0:
472,108,77176,1,2,0:0:0:0:
348,192,77333,1,2,0:0:0:0:
488,188,77490,1,0,0:0:0:0:
344,180,77647,1,8,0:0:0:0:
444,256,77804,1,2,0:0:0:0:
292,292,77961,5,4,0:0:0:0:
180,252,78118,1,2,0:0:0:0:
72,292,78275,2,0,P|56:264|48:204,1,90,8|0,0:0|0:0,0:0:0:0:
236,116,78590,2,0,P|252:144|260:204,1,90,4|2,0:0|0:0,0:0:0:0:
84,88,78904,1,8,0:0:0:0:
96,64,78982,1,8,0:0:0:0:
116,48,79061,1,8,0:0:0:0:
140,36,79139,1,8,0:0:0:0:
168,36,79218,5,0,0:0:0:0:
180,36,79296,1,0,0:0:0:0:
192,36,79375,1,0,0:0:0:0:
204,36,79453,1,0,0:0:0:0:
216,36,79532,2,0,B|244:44|244:44|268:32|268:32|320:40,1,90
456,92,79846,6,0,B|472:144|424:164|464:216,1,101.250003862381
450,191,80160,6,0,L|306:207,1,121.500000463486
49,196,80474,6,0,L|36:280,1,67.5000025749208,14|0,0:0|0:0,0:0:0:0:
136,228,80788,2,0,L|120:312,1,67.5000025749208
210,330,81103,2,0,L|224:260,1,67.5000025749208,2|0,0:0|0:0,0:0:0:0:
310,291,81417,2,0,L|292:372,1,67.5000025749208
423,289,81731,5,2,0:0:0:0:
353,25,82045,1,0,0:0:0:0:
89,95,82359,1,2,0:0:0:0:
159,359,82673,1,0,0:0:0:0:
431,274,82987,6,0,L|508:228,1,67.5000025749208,2|0,0:0|0:0,0:0:0:0:
512,113,83302,2,0,L|432:160,1,67.5000025749208
357,218,83616,1,2,0:0:0:0:
290,124,83773,1,0,0:0:0:0:
384,59,83930,1,0,0:0:0:0:
451,150,84087,1,0,0:0:0:0:
357,218,84244,6,0,L|268:216,1,67.5000025749208,2|0,0:0|0:0,0:0:0:0:
239,293,84558,2,0,L|160:292,1,67.5000025749208
0,123,84872,2,0,L|68:124,1,67.5000025749208,2|0,0:0|0:0,0:0:0:0:
120,196,85186,2,0,L|188:197,1,67.5000025749208,2|0,0:0|0:0,0:0:0:0:
290,110,85501,6,0,L|328:32,1,67.5000025749208,2|0,0:0|0:0,0:0:0:0:
357,218,85815,2,0,L|327:278,1,67.5000025749208
232,357,86129,1,2,0:0:0:0:
97,307,86286,1,0,0:0:0:0:
232,357,86443,1,0,0:0:0:0:
97,307,86600,1,0,0:0:0:0:
232,357,86757,6,0,L|328:372,1,67.5000025749208,2|0,0:0|0:0,0:0:0:0:
484,310,87071,2,0,L|388:324,1,67.5000025749208
232,242,87385,2,0,L|328:256,1,67.5000025749208,2|0,0:0|0:0,0:0:0:0:
484,195,87699,2,0,L|392:208,1,67.5000025749208
299,74,88014,5,2,0:0:0:0:
384,58,88171,1,0,0:0:0:0:
441,123,88328,1,0,0:0:0:0:
413,205,88485,1,0,0:0:0:0:
256,144,88642,1,2,0:0:0:0:
256,144,88956,5,0,0:0:0:0:
209,286,89113,1,0,0:0:0:0:
109,174,89270,1,2,0:0:0:0:
109,174,89584,2,0,L|76:200,5,22.5000008583069
140,187,89898,5,2,0:0:0:0:
256,145,90055,1,0,0:0:0:0:
140,87,90213,1,0,0:0:0:0:
256,45,90370,1,0,0:0:0:0:
364,104,90527,5,14,0:0:0:0:
396,213,90684,1,0,0:0:0:0:
320,299,90841,1,0,0:0:0:0:
208,276,90998,1,0,0:0:0:0:
171,167,91155,1,2,0:0:0:0:
243,79,91312,1,0,0:0:0:0:
284,188,91469,1,0,0:0:0:0:
284,188,91626,1,0,0:0:0:0:
364,104,91783,6,0,L|440:156,1,67.5000025749208,2|0,0:0|0:0,0:0:0:0:
396,248,92097,2,0,L|464:292,1,67.5000025749208
204,312,92412,2,0,L|128:260,1,67.5000025749208,2|0,0:0|0:0,0:0:0:0:
172,168,92726,2,0,L|104:124,1,67.5000025749208
256,45,93040,5,2,0:0:0:0:
254,325,93354,1,0,0:0:0:0:
20,192,93668,1,2,0:0:0:0:
124,82,93825,1,0,0:0:0:0:
214,127,93982,1,0,0:0:0:0:
238,225,94139,1,0,0:0:0:0:
254,325,94296,6,0,L|350:322,1,67.5000025749208,2|0,0:0|0:0,0:0:0:0:
239,225,94610,2,0,L|171:227,1,67.5000025749208
214,127,94925,2,0,L|310:124,1,67.5000025749208,2|0,0:0|0:0,0:0:0:0:
199,27,95239,2,0,L|131:29,1,67.5000025749208,2|0,0:0|0:0,0:0:0:0:
40,136,95553,6,0,L|24:210,1,67.5000025749208,2|0,0:0|0:0,0:0:0:0:
129,314,95867,2,0,L|115:249,1,67.5000025749208
160,128,96181,1,2,0:0:0:0:
251,105,96338,1,0,0:0:0:0:
306,181,96495,1,0,0:0:0:0:
251,105,96652,1,0,0:0:0:0:
303,26,96809,6,0,L|373:7,1,67.5000025749208,2|0,0:0|0:0,0:0:0:0:
371,163,97124,2,0,L|306:181,1,67.5000025749208
216,212,97438,1,2,0:0:0:0:
160,128,97595,1,0,0:0:0:0:
126,251,97752,1,0,0:0:0:0:
69,107,97909,1,0,0:0:0:0:
38,288,98066,6,0,L|35:367,1,67.5000025749208,2|0,0:0|0:0,0:0:0:0:
126,251,98380,2,0,L|123:330,1,67.5000025749208
216,212,98694,1,2,0:0:0:0:
347,240,98851,1,0,0:0:0:0:
459,218,99008,1,0,0:0:0:0:
347,240,99165,1,0,0:0:0:0:
216,212,99323,6,0,P|194:160|208:95,1,101.250003862381,2|0,0:0|0:0,0:0:0:0:
207,83,99637,2,0,L|214:41,6,22.5000008583069,0|0|0|0|0|0|2,0:0|0:0|0:0|0:0|0:0|0:0|0:0,0:0:0:0:
319,160,100108,1,0,0:0:0:0:
425,123,100265,1,0,0:0:0:0:
343,54,100422,1,0,0:0:0:0:
213,148,100579,6,0,P|149:158|93:151,1,101.250003862381,2|0,0:0|0:0,0:0:0:0:
83,144,100893,2,0,L|47:125,6,22.5000008583069,0|0|0|0|0|0|2,0:0|0:0|0:0|0:0|0:0|0:0|0:0,0:0:0:0:
144,267,101364,1,0,0:0:0:0:
213,148,101521,1,0,0:0:0:0:
149,28,101679,1,0,0:0:0:0:
83,145,101836,5,0,0:0:0:0:
78,153,101914,1,0,0:0:0:0:
72,160,101993,1,0,0:0:0:0:
68,168,102071,1,0,0:0:0:0:
64,176,102150,2,0,L|12:252,1,67.5000025749208
46,328,102464,1,8,0:0:0:0:
133,364,102621,1,0,0:0:0:0:
217,326,102778,6,0,L|372:330,1,121.500000463486
460,199,103092,5,12,0:0:0:0:
360,240,103249,1,2,0:3:0:0:
445,306,103406,1,0,0:0:0:0:
375,133,103563,5,2,0:3:0:0:
335,111,103642,1,0,0:0:0:0:
291,111,103720,1,2,0:0:0:0:
254,271,103877,2,0,P|297:240|317:178,1,90,2|0,0:3|0:0,0:0:0:0:
194,97,104192,2,0,P|198:150|242:198,1,90,2|0,0:3|0:0,0:0:0:0:
375,133,104506,2,0,P|327:110|263:124,1,90,2|0,0:3|0:0,0:0:0:0:
282,283,104820,5,2,0:3:0:0:
313,251,104898,1,0,0:0:0:0:
328,209,104977,1,2,0:0:0:0:
169,115,105134,2,0,P|188:170|249:209,1,90,2|0,0:3|0:0,0:0:0:0:
371,102,105448,2,0,P|314:91|250:124,1,90,2|0,0:3|0:0,0:0:0:0:
282,283,105762,2,0,P|320:238|323:166,1,90,2|0,0:3|0:0,0:0:0:0:
147,142,106076,5,2,0:3:0:0:
169,181,106155,1,0,0:0:0:0:
205,208,106234,1,2,0:0:0:0:
359,70,106391,2,0,P|310:70|266:92,1,90,2|0,0:3|0:0,0:0:0:0:
315,288,106705,2,0,P|340:245|343:196,1,90,2|0,0:3|0:0,0:0:0:0:
147,142,107019,2,0,P|172:184|213:212,1,90,2|0,0:3|0:0,0:0:0:0:
337,40,107333,5,2,0:3:0:0:
293,50,107412,1,0,0:0:0:0:
256,75,107490,1,2,0:0:0:0:
353,284,107647,2,0,P|366:231|356:178,1,90,2|0,0:3|0:0,0:0:0:0:
132,176,107961,2,0,P|171:214|222:232,1,90,2|0,0:3|0:0,0:0:0:0:
337,40,108275,2,0,P|284:54|244:89,1,90,2|0,0:3|0:0,0:0:0:0:
381,272,108590,5,2,0:3:0:0:
397,230,108668,1,0,0:0:0:0:
388,185,108747,2,0,L|269:174,1,90,2|2,0:0|0:3,0:0:0:0:
124,199,109061,2,0,L|243:210,1,90,0|2,0:0|0:3,0:0:0:0:
440,201,109375,2,0,L|317:213,1,90,0|2,0:0|0:3,0:0:0:0:
71,182,109689,2,0,L|190:171,1,90,0|2,0:0|0:3,0:0:0:0:
194,203,109925,1,0,0:0:0:0:
194,203,110003,6,0,P|202:258|192:305,1,90,2|2,0:0|0:3,0:0:0:0:
326,157,110317,2,0,P|305:208|302:256,1,90,0|2,0:0|0:3,0:0:0:0:
118,38,110631,2,0,P|153:81|168:127,1,90,0|2,0:0|0:3,0:0:0:0:
444,0,110946,2,0,P|400:33|374:73,1,90,0|2,0:0|0:3,0:0:0:0:
390,102,111181,1,0,0:0:0:0:
390,102,111260,6,0,L|494:108,1,90,2|2,0:0|0:3,0:0:0:0:
377,251,111574,2,0,L|288:245,1,90,0|2,0:0|0:3,0:0:0:0:
167,88,111888,2,0,L|271:94,1,90,0|2,0:0|0:3,0:0:0:0:
154,237,112202,2,0,L|65:231,1,90,0|2,0:0|0:3,0:0:0:0:
41,193,112438,1,0,0:0:0:0:
41,193,112516,6,0,B|20:147|20:147|27:88,1,90,2|2,0:0|0:3,0:0:0:0:
154,237,112830,2,0,B|175:283|175:283|168:342,1,90,0|2,0:0|0:3,0:0:0:0:
212,161,113145,6,0,L|330:153,1,90,12|2,0:0|0:3,0:0:0:0:
460,131,113459,2,0,P|435:188|446:238,1,90,0|2,0:0|0:3,0:0:0:0:
453,246,113694,1,0,0:0:0:0:
453,246,113773,2,0,L|363:256,1,90,2|2,0:0|0:3,0:0:0:0:
240,86,114087,2,0,P|195:83|155:102,1,90,0|2,0:0|0:3,0:0:0:0:
188,377,114401,6,0,P|207:341|191:272,1,90,0|2,0:0|0:3,0:0:0:0:
46,189,114715,2,0,L|137:182,1,90,0|2,0:0|0:3,0:0:0:0:
160,201,114951,1,0,0:0:0:0:
160,201,115029,2,0,L|231:204,1,45,2|0,0:0|0:0,0:0:0:0:
298,163,115186,1,2,0:3:0:0:
371,360,115343,2,0,P|295:353|272:326,1,90,0|2,0:0|0:3,0:0:0:0:
206,204,115658,5,0,0:0:0:0:
209,222,115736,1,0,0:0:0:0:
212,240,115815,1,2,0:3:0:0:
425,261,115972,1,0,0:0:0:0:
442,214,116050,1,0,0:0:0:0:
432,167,116129,1,2,0:3:0:0:
402,129,116207,1,0,0:3:0:0:
358,115,116286,5,2,0:0:0:0:
376,111,116364,1,0,0:0:0:0:
395,108,116443,1,2,0:3:0:0:
273,279,116600,1,0,0:0:0:0:
268,234,116679,1,0,0:0:0:0:
261,189,116757,1,2,0:3:0:0:
254,144,116836,1,0,0:0:0:0:
248,97,116914,5,0,0:0:0:0:
165,223,117071,1,2,0:3:0:0:
144,43,117228,2,0,P|102:27|57:31,1,90,0|2,0:0|0:3,0:0:0:0:
35,49,117464,1,0,0:0:0:0:
35,49,117542,2,0,L|41:142,1,90,2|2,0:0|0:3,0:0:0:0:
266,8,117857,1,0,0:0:0:0:
151,133,118014,1,2,0:3:0:0:
302,95,118171,6,0,L|416:86,1,90,0|2,0:0|0:3,0:0:0:0:
428,315,118485,2,0,B|417:269|417:269|420:206,1,90,0|2,0:0|0:3,0:0:0:0:
402,201,118720,1,0,0:0:0:0:
402,201,118799,2,0,L|335:207,1,45,2|0,0:0|0:0,0:0:0:0:
262,254,118956,1,2,0:3:0:0:
168,87,119113,2,0,P|126:71|82:77,1,90,0|2,0:0|0:3,0:0:0:0:
162,237,119427,6,0,B|172:278|172:278|175:337,1,90,0|2,0:0|0:3,0:0:0:0:
118,156,119741,1,0,0:0:0:0:
257,280,119898,1,2,0:3:0:0:
257,280,119977,1,0,0:0:0:0:
257,280,120055,2,0,L|328:290,1,45,2|0,0:0|0:0,0:0:0:0:
388,259,120213,1,2,0:3:0:0:
338,105,120370,1,0,0:0:0:0:
287,194,120527,1,2,0:3:0:0:
266,46,120684,5,0,0:0:0:0:
243,43,120762,1,0,0:0:0:0:
220,40,120841,1,2,0:3:0:0:
378,181,120998,2,0,B|392:226|392:226|395:300,1,90,0|2,0:0|0:3,0:0:0:0:
376,301,121234,1,0,0:0:0:0:
376,300,121312,2,0,L|383:358,2,45,2|0|2,0:0|0:0|0:3,0:0:0:0:
271,200,121626,2,0,L|141:191,1,90,0|2,0:0|0:3,0:0:0:0:
85,304,121940,5,0,0:0:0:0:
107,301,122019,1,0,0:0:0:0:
129,298,122097,1,2,0:3:0:0:
22,120,122254,1,0,0:0:0:0:
41,79,122333,1,0,0:0:0:0:
83,61,122412,1,2,0:3:0:0:
128,66,122490,1,0,0:0:0:0:
170,87,122569,6,0,L|241:94,1,51.7500009870529
294,6,122726,2,0,L|206:18,1,51.7500009870529,2|0,0:3|0:0,0:0:0:0:
90,198,122883,6,0,L|96:140,1,58.4999973220826
316,100,123040,2,0,L|324:158,1,58.4999973220826,2|0,0:3|0:0,0:0:0:0:
224,264,123197,6,0,P|216:312|212:356,1,90,12|0,0:0|0:0,0:0:0:0:
336,255,123511,1,2,0:0:0:0:
168,154,123668,1,0,0:0:0:0:
357,101,123825,1,2,0:0:0:0:
199,236,123982,1,0,0:0:0:0:
376,274,124139,1,2,0:0:0:0:
158,317,124296,1,0,0:0:0:0:
418,350,124453,6,0,P|423:305|421:250,1,90,2|0,0:0|0:0,0:0:0:0:
265,84,124768,2,0,P|260:129|262:184,1,90,2|0,0:0|0:0,0:0:0:0:
197,301,125082,2,0,P|242:306|297:304,1,90,2|0,0:0|0:0,0:0:0:0:
487,127,125396,2,0,P|442:122|387:124,1,90,2|0,0:0|0:0,0:0:0:0:
180,216,125710,6,0,P|130:208|91:192,1,90,2|0,0:0|0:0,0:0:0:0:
298,204,126024,2,0,P|290:254|274:293,1,90,2|0,0:0|0:0,0:0:0:0:
280,89,126338,2,0,P|330:97|369:113,1,90,2|0,0:0|0:0,0:0:0:0:
162,99,126652,2,0,P|170:49|186:10,1,90,2|0,0:0|0:0,0:0:0:0:
351,26,126966,5,2,0:0:0:0:
229,153,127124,1,0,0:0:0:0:
231,46,127281,1,2,0:0:0:0:
287,212,127438,1,0,0:0:0:0:
119,164,127595,1,2,0:0:0:0:
288,242,127752,1,0,0:0:0:0:
98,325,127909,1,2,0:0:0:0:
294,270,128066,1,0,0:0:0:0:
113,146,128223,6,0,P|105:88|105:47,1,90,2|0,0:0|0:0,0:0:0:0:
345,27,128537,1,2,0:0:0:0:
219,90,128694,1,0,0:0:0:0:
338,167,128851,1,2,0:0:0:0:
259,48,129008,1,0,0:0:0:0:
237,225,129165,1,2,0:0:0:0:
403,160,129323,1,0,0:0:0:0:
327,339,129480,6,0,P|279:337|219:331,1,90,2|0,0:0|0:0,0:0:0:0:
52,171,129794,2,0,P|96:167|141:165,1,90,2|0,0:0|0:0,0:0:0:0:
399,124,130108,2,0,P|352:202|258:187,1,180,2|2,0:0|0:0,0:0:0:0:
268,61,130579,1,0,0:0:0:0:
191,238,130736,6,0,P|197:287|208:338,1,90,2|0,0:0|0:0,0:0:0:0:
305,220,131050,2,0,P|314:176|320:132,1,90,2|0,0:0|0:0,0:0:0:0:
95,209,131364,2,0,P|101:253|110:298,1,90,2|0,0:0|0:0,0:0:0:0:
416,174,131679,2,0,P|410:130|402:86,1,90,2|0,0:0|0:0,0:0:0:0:
165,24,131993,5,2,0:0:0:0:
170,153,132150,1,0,0:0:0:0:
285,94,132307,1,2,0:0:0:0:
147,168,132464,1,0,0:0:0:0:
347,244,132621,1,2,0:0:0:0:
117,292,132778,1,0,0:0:0:0:
276,176,132935,1,2,0:0:0:0:
77,99,133092,1,0,0:0:0:0:
117,292,133249,6,0,P|161:296|202:278,1,90,14|2,0:0|0:0,0:0:0:0:
320,328,133563,2,0,P|352:344|410:340,1,90,10|2,0:0|0:0,0:0:0:0:
256,180,133877,1,10,0:0:0:0:
352,80,134035,1,2,0:0:0:0:
376,264,134192,1,10,0:0:0:0:
256,68,134349,1,2,0:0:0:0:
120,268,134506,6,0,P|108:312|132:368,1,90,10|2,0:0|0:0,0:0:0:0:
128,136,134820,2,0,P|95:103|35:96,1,90,10|2,0:0|0:0,0:0:0:0:
192,312,135134,1,10,0:0:0:0:
352,296,135291,1,2,0:0:0:0:
192,312,135448,1,10,0:0:0:0:
352,296,135605,1,2,0:0:0:0:
420,144,135762,6,0,L|408:52,1,90,14|2,0:0|0:0,0:0:0:0:
176,128,136076,2,0,L|164:24,1,90,10|2,0:0|0:0,0:0:0:0:
437,226,136391,2,0,P|414:185|425:134,1,90,10|2,0:0|0:0,0:0:0:0:
158,210,136705,2,0,P|181:169|170:118,1,90,10|2,0:0|0:0,0:0:0:0:
372,340,137019,5,10,0:0:0:0:
492,171,137176,1,2,0:0:0:0:
288,223,137333,1,10,0:0:0:0:
408,54,137490,1,2,0:0:0:0:
176,128,137647,6,0,P|124:127|78:91,1,90,10|2,0:0|0:0,0:0:0:0:
176,256,137961,2,0,P|131:254|92:275,1,90,10|2,0:0|0:0,0:0:0:0:
304,330,138275,5,8,1:2:0:0:
317,328,138354,1,0,1:0:0:0:
331,326,138432,1,0,1:0:0:0:
344,323,138511,1,0,1:0:0:0:
357,321,138590,1,8,1:2:0:0:
370,318,138668,1,0,1:0:0:0:
384,316,138747,1,0,1:0:0:0:
397,314,138825,1,0,1:0:0:0:
410,310,138904,5,8,1:2:0:0:
431,294,138982,1,0,1:0:0:0:
448,273,139061,1,0,1:0:0:0:
459,248,139139,1,0,1:0:0:0:
462,221,139218,1,8,1:2:0:0:
457,195,139296,1,0,1:0:0:0:
446,170,139375,1,0,1:0:0:0:
428,150,139453,1,0,1:0:0:0:
408,136,139532,5,8,1:2:0:0:
377,145,139610,1,0,1:0:0:0:
347,154,139689,1,0,1:0:0:0:
317,163,139768,1,0,1:0:0:0:
287,172,139846,1,8,1:2:0:0:
257,181,139925,1,0,1:0:0:0:
227,190,140003,1,0,1:0:0:0:
196,199,140082,1,0,1:0:0:0:
164,208,140160,5,10,1:2:0:0:
125,192,140239,1,2,1:2:0:0:
98,157,140317,1,2,1:2:0:0:
90,113,140396,1,2,1:2:0:0:
106,71,140474,1,10,1:2:0:0:
139,42,140553,1,2,1:2:0:0:
183,33,140631,1,2,1:2:0:0:
225,47,140710,1,2,1:2:0:0:
256,80,140788,6,2,P|300:80|328:64,1,67.5000025749208,2|2,1:2|1:2,1:2:0:0:
416,144,140946,2,2,P|404:176|424:232,1,67.5000025749208,2|2,1:2|1:2,1:2:0:0:
344,352,141103,2,2,P|348:318|336:287,1,67.5000025749208,2|2,1:2|1:2,1:2:0:0:
192,228,141260,2,2,P|223:259|254:267,1,67.5000025749208,2|2,1:2|1:2,1:2:0:0:
321,71,141417,2,2,P|289:39|258:31,1,67.5000025749208,2|2,1:2|1:2,1:2:0:0:
144,148,141574,2,2,P|103:167|72:165,1,67.5000025749208,2|2,1:2|1:2,1:2:0:0:
12,48,141731,6,0,L|24:28,7,22.5
40,16,142045,6,0,L|108:4,1,67.5000025749208
388,60,142359,2,0,L|320:72,1,67.5000025749208
240,156,142673,2,0,P|240:192|251:222,1,67.5000025749208
472,312,142987,6,0,P|480:280|404:276,1,135.000005149842,2|2,1:2|0:0,0:0:0:0:
372,348,143223,1,2,0:0:0:0:
372,348,143302,6,0,P|308:364|248:340,1,107.999996704102,12|0,0:0|0:0,0:0:0:0:
176,260,143616,2,0,L|200:379,1,107.999996704102,8|2,0:0|0:0,0:0:0:0:
292,247,143930,1,2,0:0:0:0:
122,131,144087,1,0,0:0:0:0:
289,195,144244,1,8,0:0:0:0:
56,234,144401,1,2,0:0:0:0:
134,339,144558,6,0,B|176:348|176:348|277:324,1,107.999996704102,2|0,0:0|0:0,0:0:0:0:
303,216,144872,2,0,L|420:189,1,107.999996704102,8|2,0:0|0:0,0:0:0:0:
477,96,145186,2,0,P|419:75|391:137,1,107.999996704102,0|2,0:0|0:0,0:0:0:0:
382,289,145501,2,0,L|276:313,1,107.999996704102,8|2,0:0|0:0,0:0:0:0:
140,235,145815,6,0,P|88:212|52:156,1,107.999996704102,2|0,0:0|0:0,0:0:0:0:
155,127,146129,2,0,P|178:75|234:39,1,107.999996704102,8|2,0:0|0:0,0:0:0:0:
263,143,146443,2,0,P|315:166|351:222,1,107.999996704102,2|0,0:0|0:0,0:0:0:0:
248,251,146757,2,0,P|225:303|169:339,1,107.999996704102,8|2,0:0|0:0,0:0:0:0:
115,223,147071,5,2,0:0:0:0:
166,102,147228,1,0,0:0:0:0:
287,154,147385,1,8,0:0:0:0:
236,275,147542,1,2,0:0:0:0:
308,176,147699,5,0,0:0:0:0:
188,81,147857,1,2,0:0:0:0:
94,201,148014,1,8,0:0:0:0:
214,296,148171,1,10,0:0:0:0:
95,101,148328,6,0,B|113:35|113:35|156:-8,1,107.999996704102,4|0,0:0|0:0,0:0:0:0:
266,51,148642,2,0,L|407:51,1,107.999996704102,8|2,0:0|0:0,0:0:0:0:
483,106,148956,1,2,0:0:0:0:
374,153,149113,1,0,0:0:0:0:
512,207,149270,1,8,0:0:0:0:
361,273,149427,1,2,0:0:0:0:
472,380,149584,6,0,L|484:271,1,107.999996704102,2|0,0:0|0:0,0:0:0:0:
345,321,149898,2,0,L|333:212,1,107.999996704102,8|2,0:0|0:0,0:0:0:0:
203,384,150213,2,0,L|215:275,1,107.999996704102,0|2,0:0|0:0,0:0:0:0:
76,325,150527,2,0,L|64:216,1,107.999996704102,8|2,0:0|0:0,0:0:0:0:
115,65,150841,6,0,L|235:73,1,107.999996704102,2|0,0:0|0:0,0:0:0:0:
382,142,151155,2,0,L|262:134,1,107.999996704102,8|2,0:0|0:0,0:0:0:0:
65,160,151469,2,0,L|194:151,1,107.999996704102,0|2,0:0|0:0,0:0:0:0:
461,46,151783,2,0,L|332:55,1,107.999996704102,8|2,0:0|0:0,0:0:0:0:
203,114,152097,5,2,0:0:0:0:
215,282,152254,1,2,0:0:0:0:
355,188,152412,1,8,0:0:0:0:
203,114,152569,1,2,0:0:0:0:
339,316,152726,5,2,0:0:0:0:
322,63,152883,1,2,0:0:0:0:
112,205,153040,1,8,0:0:0:0:
403,185,153197,1,8,0:0:0:0:
403,185,153275,1,8,0:0:0:0:
403,185,153354,6,0,P|432:256|424:300,1,107.999996704102,12|0,0:0|0:0,0:0:0:0:
284,260,153668,2,0,P|255:189|263:145,1,107.999996704102,8|2,0:0|0:0,0:0:0:0:
404,40,153982,1,2,0:0:0:0:
216,76,154139,1,0,0:0:0:0:
364,112,154296,1,8,0:0:0:0:
204,248,154453,1,2,0:0:0:0:
64,172,154610,6,0,L|52:52,1,107.999996704102,2|0,0:0|0:0,0:0:0:0:
284,260,154925,2,0,L|294:367,1,107.999996704102,8|2,0:0|0:0,0:0:0:0:
128,264,155239,2,0,L|20:274,1,107.999996704102,0|2,0:0|0:0,0:0:0:0:
224,164,155553,2,0,L|331:153,1,107.999996704102,8|2,0:0|0:0,0:0:0:0:
488,168,155867,6,0,P|488:244|468:292,1,107.999996704102,2|0,0:0|0:0,0:0:0:0:
332,356,156181,1,8,0:0:0:0:
300,220,156338,1,2,0:0:0:0:
396,280,156495,1,0,0:0:0:0:
212,328,156652,1,2,0:0:0:0:
256,236,156809,1,8,0:0:0:0:
296,372,156966,1,2,0:0:0:0:
148,248,157124,6,0,B|116:228|116:228|80:228|80:228|52:208,1,107.999996704102,2|0,0:0|0:0,0:0:0:0:
8,108,157438,1,8,0:0:0:0:
8,108,157595,1,2,0:0:0:0:
176,28,157752,1,0,0:0:0:0:
228,144,157909,1,2,0:0:0:0:
312,44,158066,1,8,0:0:0:0:
368,160,158223,1,10,0:0:0:0:
104,200,158380,6,0,P|96:280|108:328,1,107.999996704102,4|0,0:0|0:0,0:0:0:0:
220,256,158694,1,8,0:0:0:0:
28,224,158851,1,2,0:0:0:0:
224,176,159008,1,2,0:0:0:0:
340,296,159165,1,0,0:0:0:0:
176,336,159323,1,8,0:0:0:0:
224,176,159480,1,2,0:0:0:0:
332,144,159637,6,0,L|468:124,1,107.999996704102,6|0,0:0|0:0,0:0:0:0:
300,272,159951,2,0,L|193:287,1,107.999996704102,8|2,0:0|0:0,0:0:0:0:
380,216,160265,2,0,L|394:354,1,107.999996704102,0|2,0:0|0:0,0:0:0:0:
244,200,160579,2,0,L|254:92,1,107.999996704102,8|2,0:0|0:0,0:0:0:0:
488,116,160893,5,4,0:0:0:0:
320,156,161050,1,0,0:0:0:0:
488,208,161207,1,8,0:0:0:0:
348,248,161364,1,2,0:0:0:0:
188,116,161521,1,6,0:0:0:0:
224,284,161679,1,0,0:0:0:0:
104,152,161836,1,8,0:0:0:0:
136,296,161993,1,2,0:0:0:0:
280,76,162150,6,0,L|380:52,1,90,8|0,0:0|0:0,0:0:0:0:
464,124,162464,2,0,L|360:148,1,90,8|0,0:0|0:0,0:0:0:0:
280,76,162778,1,8,0:0:0:0:
184,201,162935,1,8,0:0:0:0:
184,216,163014,1,8,0:0:0:0:
184,231,163092,1,8,0:0:0:0:
184,246,163171,1,8,0:0:0:0:
184,261,163249,1,8,0:0:0:0:
184,276,163328,1,8,0:0:0:0:
184,291,163406,6,0,L|298:310,1,107.999996704102,4|2,0:0|0:0,0:0:0:0:
430,352,163720,2,0,P|430:298|367:277,1,107.999996704102,8|2,0:0|0:0,0:0:0:0:
281,220,164035,1,0,0:0:0:0:
209,340,164192,1,2,0:0:0:0:
156,168,164349,1,8,0:0:0:0:
43,354,164506,1,2,0:0:0:0:
2,112,164663,6,0,B|43:95|43:95|127:93,1,107.999996704102,0|2,0:0|0:0,0:0:0:0:
235,140,164977,2,0,B|229:178|229:178|211:212|211:212|201:264,1,107.999996704102,8|2,0:0|0:0,0:0:0:0:
325,327,165291,2,0,P|392:341|409:275,1,107.999996704102,0|2,0:0|0:0,0:0:0:0:
507,194,165605,2,0,L|385:186,1,107.999996704102,8|2,0:0|0:0,0:0:0:0:
301,268,165919,6,0,P|315:202|293:126,1,107.999996704102,0|2,0:0|0:0,0:0:0:0:
164,85,166234,2,0,L|286:77,1,107.999996704102,8|2,0:0|0:0,0:0:0:0:
444,55,166548,1,0,0:0:0:0:
371,233,166705,1,2,0:0:0:0:
355,22,166862,1,8,0:0:0:0:
454,264,167019,1,2,0:0:0:0:
359,352,167176,6,0,B|329:332|329:332|242:330,1,107.999996704102,0|2,0:0|0:0,0:0:0:0:
111,284,167490,2,0,P|74:327|114:365,1,107.999996704102,8|2,0:0|0:0,0:0:0:0:
208,228,167804,2,0,B|260:274|325:219|325:219|281:221,1,161.999995056153,0|2,0:0|0:0,0:0:0:0:
285,238,168118,2,0,B|281:300|281:300|304:372,1,107.999996704102,8|2,0:0|0:0,0:0:0:0:
442,384,168432,5,0,0:0:0:0:
501,247,168590,2,0,B|504:184|504:184|482:113,1,107.999996704102,2|8,0:0|0:0,0:0:0:0:
382,33,168904,1,2,0:0:0:0:
268,156,169061,1,0,0:0:0:0:
405,204,169218,1,2,0:0:0:0:
210,216,169375,1,8,0:0:0:0:
446,134,169532,1,2,0:0:0:0:
335,17,169689,6,0,L|325:136,1,107.999996704102,0|2,0:0|0:0,0:0:0:0:
201,109,170003,2,0,L|211:228,1,107.999996704102,8|2,0:0|0:0,0:0:0:0:
78,16,170317,2,0,L|68:135,1,107.999996704102,0|2,0:0|0:0,0:0:0:0:
29,272,170631,2,0,B|65:292|65:292|145:290,1,107.999996704102,8|2,0:0|0:0,0:0:0:0:
250,156,170946,5,0,0:0:0:0:
355,317,171103,2,0,L|232:320,1,107.999996704102,2|8,0:0|0:0,0:0:0:0:
354,138,171417,1,2,0:0:0:0:
291,283,171574,2,0,L|398:280,1,107.999996704102,0|2,0:0|0:0,0:0:0:0:
496,174,171888,1,8,0:0:0:0:
425,355,172045,1,2,0:0:0:0:
328,195,172202,6,0,P|355:137|429:130,1,107.999996704102,0|2,0:0|0:0,0:0:0:0:
455,257,172516,2,0,L|498:260,5,35.9999989013672,8|0|0|0|0|0,0:0|0:0|0:0|0:0|0:0|0:0,0:0:0:0:
421,281,172830,2,0,L|287:285,1,107.999996704102,0|2,0:0|0:0,0:0:0:0:
163,143,173145,1,8,0:0:0:0:
265,338,173302,1,2,0:0:0:0:
370,198,173459,6,0,P|383:146|386:89,1,107.999996704102,4|0,0:0|0:0,0:0:0:0:
147,37,173773,2,0,P|150:90|163:143,1,107.999996704102,8|0,0:0|0:0,0:0:0:0:
265,251,174087,1,2,0:0:0:0:
131,320,174244,1,0,0:0:0:0:
276,247,174401,1,8,0:0:0:0:
135,153,174558,1,0,0:0:0:0:
177,344,174715,6,0,P|234:340|293:319,1,107.999996704102,2|0,0:0|0:0,0:0:0:0:
481,215,175029,2,0,P|429:198|375:195,1,107.999996704102,8|0,0:0|0:0,0:0:0:0:
206,70,175343,2,0,L|218:195,1,107.999996704102,2|0,0:0|0:0,0:0:0:0:
284,324,175658,1,8,0:0:0:0:
138,220,175815,1,0,0:0:0:0:
296,335,175972,6,0,B|351:298|427:303|427:303|422:319|405:325,1,161.999995056153,4|0,0:0|0:0,0:0:0:0:
385,333,176286,2,0,P|370:249|370:196,1,107.999996704102,8|0,0:0|0:0,0:0:0:0:
368,59,176600,1,2,0:0:0:0:
226,178,176757,1,0,0:0:0:0:
364,200,176914,1,8,0:0:0:0:
192,102,177071,1,0,0:0:0:0:
221,258,177228,6,0,P|278:251|337:240,1,107.999996704102,2|0,0:0|0:0,0:0:0:0:
84,314,177542,2,0,P|137:324|190:329,1,107.999996704102,8|0,0:0|0:0,0:0:0:0:
404,354,177857,2,0,P|433:281|318:251,1,215.999993408203,2|8,0:0|0:0,0:0:0:0:
155,146,178328,1,0,0:0:0:0:
155,146,178406,1,0,0:0:0:0:
155,146,178485,5,4,0:0:0:0:
214,257,178642,1,0,0:0:0:0:
221,103,178799,1,8,0:0:0:0:
85,177,178956,1,0,0:0:0:0:
224,267,179113,2,0,L|339:260,1,107.999996704102,2|0,0:0|0:0,0:0:0:0:
455,188,179427,1,8,0:0:0:0:
329,116,179584,1,0,0:0:0:0:
467,197,179741,6,0,L|455:90,1,107.999996704102,4|0,0:0|0:0,0:0:0:0:
231,202,180055,2,0,L|243:309,1,107.999996704102,8|0,0:0|0:0,0:0:0:0:
393,214,180370,2,0,L|381:107,1,107.999996704102,2|0,0:0|0:0,0:0:0:0:
157,219,180684,2,0,L|169:326,1,107.999996704102,8|0,0:0|0:0,0:0:0:0:
351,370,180998,5,4,0:0:0:0:
393,214,181155,1,0,0:0:0:0:
276,299,181312,5,8,0:0:0:0:
304,139,181469,1,0,0:0:0:0:
187,246,181626,5,8,0:0:0:0:
200,84,181783,1,0,0:0:0:0:
94,201,181940,5,8,0:0:0:0:
92,38,182097,1,0,0:0:0:0:
187,246,182254,6,0,P|252:231|298:226,1,107.999996704102,8|0,0:0|0:0,0:0:0:0:
460,281,182569,2,0,L|447:212,1,53.9999983520508,10|2,0:0|0:0,0:0:0:0:
373,173,182726,2,0,L|386:104,1,53.9999983520508,2|2,0:0|0:0,0:0:0:0:
401,39,182883,1,8,0:0:0:0:
237,90,183040,1,0,0:0:0:0:
365,205,183197,1,8,0:0:0:0:
204,260,183354,1,0,0:0:0:0:
237,90,183511,6,0,L|228:207,1,107.999996704102,8|0,0:0|0:0,0:0:0:0:
119,320,183825,2,0,L|112:259,1,53.9999983520508,10|2,0:0|0:0,0:0:0:0:
26,211,183982,2,0,L|33:272,1,53.9999983520508,2|2,0:0|0:0,0:0:0:0:
210,329,184139,1,8,0:0:0:0:
244,342,184218,1,0,0:0:0:0:
281,343,184296,1,0,0:0:0:0:
315,328,184375,1,0,0:0:0:0:
340,299,184453,6,0,L|336:280,2,17.9999994506836,2|0|0,0:0|0:0|0:0,0:0:0:0:
252,256,184610,2,0,L|248:237,2,17.9999994506836,2|0|0,0:0|0:0|0:0,0:0:0:0:
335,200,184768,5,2,0:0:0:0:
247,156,184925,1,0,0:0:0:0:
328,100,185082,1,10,0:0:0:0:
241,58,185239,1,0,0:0:0:0:
341,109,185396,5,2,0:0:0:0:
233,165,185553,1,0,0:0:0:0:
349,213,185710,1,8,0:0:0:0:
240,266,185867,1,0,0:0:0:0:
389,352,186024,6,0,P|436:300|464:188,1,180,12|0,0:0|0:0,0:0:0:0:
444,76,186809,2,0,L|452:136,1,45,2|2,0:0|0:0,0:0:0:0:
392,172,187124,1,0,0:0:0:0:
228,168,187281,2,0,B|188:144|188:92|188:92|148:128|104:112,1,180,2|0,0:0|0:0,0:0:0:0:
105,112,188223,1,0,0:0:0:0:
96,288,188537,6,0,P|112:328|232:320,1,180,2|0,0:0|0:0,0:0:0:0:
260,248,189323,1,2,0:0:0:0:
336,200,189480,2,0,L|396:200,1,45,2|0,0:0|0:0,0:0:0:0:
472,112,189794,2,0,L|324:112,1,135,2|0,0:0|0:0,0:0:0:0:
236,64,190422,2,0,B|280:56|324:76|384:56,1,135,2|0,0:0|0:0,0:0:0:0:
472,160,191050,6,0,L|324:160,1,135,2|0,0:0|0:0,0:0:0:0:
256,208,191679,2,0,B|328:216|328:216|400:208,1,135,2|0,0:0|0:0,0:0:0:0:
312,260,192307,2,0,L|177:260,1,135,2|0,0:0|0:0,0:0:0:0:
256,304,192935,2,0,B|312:296|312:296|344:300|360:304|391:304,1,135,2|0,0:0|0:0,0:0:0:0:
452,184,193563,6,0,B|404:172|396:100|396:100|372:144|320:120,1,180,2|0,0:0|0:0,0:0:0:0:
260,96,194349,1,2,0:0:0:0:
152,168,194506,2,0,P|152:200|160:232,1,45,2|0,0:0|0:0,0:0:0:0:
212,276,194820,2,0,L|304:308,2,90,2|2|2,0:0|0:0|0:0,0:0:0:0:
212,276,195762,1,0,0:0:0:0:
296,316,196076,6,0,B|308:272|300:244|300:244|316:244|330:224|330:224|348:236|332:196|348:164|380:148|380:148|380:120|384:108|384:108|376:72,1,270,10|0,0:0|0:0,0:0:0:0:
348,24,197176,1,0,0:0:0:0:
456,128,197333,2,0,B|440:132|440:132|425:156|376:172|332:160|320:120|320:120|304:132|272:128|272:128|244:140|223:136|223:136|228:164|216:180|216:180|224:200,1,315,2|0,0:0|0:0,0:0:0:0:
232,256,198590,2,0,B|216:236|220:204|220:204|176:196|128:216|140:268,1,180,2|0,0:0|0:0,0:0:0:0:
168,336,199375,1,0,0:0:0:0:
304,296,199532,2,0,P|312:260|308:232,1,45,2|0,0:0|0:0,0:0:0:0:
292,184,199846,2,0,B|316:220|348:220|348:220|364:232|364:232|396:224|428:248,1,157.5,2|0,0:0|0:0,0:0:0:0:
436,264,200474,2,0,B|424:232|444:200|444:200|440:176|424:152|424:152|432:128|424:112,1,157.5,2|0,0:0|0:0,0:0:0:0:
432,100,201103,6,0,B|404:116|376:104|376:104|348:112|328:96|328:96|304:100|276:92,1,157.5,4|0,0:0|0:0,0:0:0:0:
252,96,201731,2,0,B|204:108|204:108|152:100|152:100|96:108,1,157.5,2|0,0:0|0:0,0:0:0:0:
72,92,202359,2,0,B|84:148|84:148|88:224|88:224|92:204|100:192,1,157.5,2|0,0:0|0:0,0:0:0:0:
124,200,202987,2,0,P|148:208|108:296,1,157.5,2|0,0:0|0:0,0:0:0:0:
88,312,203616,6,0,B|120:300|176:328|176:328|212:328|256:296,1,180,2|0,0:0|0:0,0:0:0:0:
308,192,204401,2,0,L|300:144,2,45
364,288,204872,2,0,B|380:304|380:304|408:312|436:296,1,67.5,2|0,0:0|0:0,0:0:0:0:
440,304,205186,2,0,B|448:276|448:252|448:252|464:224,1,67.5,2|0,0:0|0:0,0:0:0:0:
468,224,205501,2,0,P|444:200|444:152,1,67.5,2|0,0:0|0:0,0:0:0:0:
444,152,205815,2,0,L|488:140,1,45,4|0,1:0|0:0,0:0:0:0:
384,72,206129,6,0,L|320:88,1,58.4999973220826,14|2,0:0|0:3,0:0:0:0:
272,232,206443,2,0,L|256:168,1,58.4999973220826,2|2,0:0|0:3,0:0:0:0:
172,100,206757,1,2,0:0:0:0:
160,96,206836,1,2,0:3:0:0:
148,94,206914,1,2,0:3:0:0:
40,192,207071,1,2,0:0:0:0:
40,192,207228,1,2,0:3:0:0:
148,290,207385,5,2,0:0:0:0:
160,288,207464,1,2,0:3:0:0:
172,284,207542,1,2,0:3:0:0:
256,156,207699,1,2,0:0:0:0:
256,156,207857,1,2,0:3:0:0:
340,284,208014,1,2,0:0:0:0:
352,288,208092,1,0,0:0:0:0:
364,290,208171,1,2,0:3:0:0:
472,192,208328,1,2,0:0:0:0:
472,192,208485,1,2,0:3:0:0:
396,60,208642,6,0,P|396:28|424:4,1,58.4999973220826,2|2,0:0|0:3,0:0:0:0:
256,156,208956,2,0,P|233:133|236:96,1,58.4999973220826,2|2,0:0|0:3,0:0:0:0:
76,144,209270,2,0,P|44:144|20:116,1,58.4999973220826,2|2,0:0|0:3,0:0:0:0:
172,284,209584,2,0,P|149:306|112:303,1,58.4999973220826,2|2,0:0|0:3,0:0:0:0:
360,332,209898,6,0,L|428:320,1,58.4999973220826,2|2,0:0|0:3,0:0:0:0:
396,88,210213,2,0,L|384:20,1,58.4999973220826,2|2,0:0|0:3,0:0:0:0:
152,52,210527,2,0,L|84:64,1,58.4999973220826,2|2,0:0|0:3,0:0:0:0:
116,296,210841,2,0,L|128:364,1,58.4999973220826,2|2,0:0|0:3,0:0:0:0:
360,332,211155,5,2,0:0:0:0:
408,265,211312,1,2,0:3:0:0:
360,199,211469,1,2,0:0:0:0:
282,224,211626,1,2,0:3:0:0:
282,306,211783,2,0,P|232:352|204:356,1,58.4999973220826,2|2,0:0|0:3,0:0:0:0:
36,264,212097,2,0,L|56:236,3,19.4999991073609,2|0|0|0,0:0|0:0|0:0|0:0,0:0:0:0:
282,224,212412,5,2,0:0:0:0:
360,199,212569,1,2,0:3:0:0:
476,92,212726,1,2,0:0:0:0:
398,117,212883,1,2,0:3:0:0:
260,80,213040,2,0,P|244:16|260:0,1,58.4999973220826,2|2,0:0|0:3,0:0:0:0:
157,244,213354,2,0,L|136:272,3,19.4999991073609,2|0|0|0,0:0|0:0|0:0|0:0,0:0:0:0:
20,144,213668,6,0,L|12:64,1,58.4999973220826,2|2,0:0|0:3,0:0:0:0:
20,144,213982,2,0,L|100:136,1,58.4999973220826,2|2,0:0|0:3,0:0:0:0:
157,244,214296,2,0,L|149:164,1,58.4999973220826,2|2,0:0|0:3,0:0:0:0:
148,272,214610,2,0,L|228:264,1,58.4999973220826,2|2,0:0|0:3,0:0:0:0:
404,176,214925,6,0,L|396:96,1,58.4999973220826,2|2,0:0|0:3,0:0:0:0:
352,312,215239,2,0,L|432:304,1,58.4999973220826,2|2,0:0|0:3,0:0:0:0:
148,272,215553,2,0,L|228:264,1,58.4999973220826,2|2,0:0|0:3,0:0:0:0:
20,144,215867,2,0,L|100:136,1,58.4999973220826,2|2,0:0|0:3,0:0:0:0:
256,40,216181,5,6,0:0:0:0:
256,40,216338,1,2,0:0:0:0:
350,86,216495,1,10,0:0:0:0:
350,86,216652,1,2,0:0:0:0:
263,144,216809,1,10,0:0:0:0:
263,144,216966,1,2,0:0:0:0:
357,190,217124,1,10,0:0:0:0:
357,190,217281,1,2,0:0:0:0:
416,277,217438,6,0,P|386:306|331:319,1,72,10|2,0:0|0:0,0:0:0:0:
262,286,217752,2,0,P|226:282|192:291,1,72,10|2,0:0|0:0,0:0:0:0:
95,320,218066,2,0,P|66:290|53:234,1,72,10|2,0:0|0:0,0:0:0:0:
134,74,218380,2,0,L|210:71,1,72,10|2,0:0|0:0,0:0:0:0:
312,148,218694,5,14,0:0:0:0:
312,148,218851,1,2,0:0:0:0:
182,157,219008,1,10,0:0:0:0:
182,157,219165,1,2,0:0:0:0:
191,287,219323,1,10,0:0:0:0:
191,287,219480,1,2,0:0:0:0:
321,278,219637,1,10,0:0:0:0:
321,278,219794,1,2,0:0:0:0:
403,200,219951,5,10,0:0:0:0:
182,157,220108,1,2,0:0:0:0:
234,67,220265,1,10,0:0:0:0:
191,288,220422,1,2,0:0:0:0:
100,235,220579,1,10,0:0:0:0:
321,278,220736,1,2,0:0:0:0:
269,369,220893,1,10,0:0:0:0:
312,148,221050,1,2,0:0:0:0:
191,287,221207,5,8,1:2:0:0:
188,289,221286,1,0,1:2:0:0:
185,291,221364,1,0,1:2:0:0:
182,293,221443,1,0,1:2:0:0:
179,295,221521,1,8,1:2:0:0:
176,297,221600,1,0,1:2:0:0:
173,299,221679,1,0,1:2:0:0:
170,301,221757,1,0,1:2:0:0:
166,302,221836,5,8,1:2:0:0:
163,304,221914,1,0,1:2:0:0:
160,305,221993,1,0,1:2:0:0:
157,307,222071,1,0,1:2:0:0:
153,308,222150,1,8,1:2:0:0:
150,310,222228,1,0,1:2:0:0:
147,311,222307,1,0,1:2:0:0:
143,312,222385,1,0,1:2:0:0:
140,313,222464,5,8,1:2:0:0:
128,305,222542,1,0,1:2:0:0:
117,295,222621,1,0,1:2:0:0:
108,284,222699,1,0,1:2:0:0:
101,271,222778,1,8,1:2:0:0:
95,258,222857,1,0,1:2:0:0:
91,244,222935,1,0,1:2:0:0:
89,230,223014,1,0,1:2:0:0:
90,216,223092,5,8,1:2:0:0:
92,201,223171,1,0,1:2:0:0:
96,188,223249,1,0,1:2:0:0:
101,174,223328,1,0,1:2:0:0:
108,162,223406,1,8,1:2:0:0:
117,151,223485,1,0,1:2:0:0:
128,142,223563,1,0,1:2:0:0:
141,135,223642,1,0,1:2:0:0:
154,130,223720,5,10,1:2:0:0:
165,156,223799,1,2,1:2:0:0:
180,181,223877,1,2,1:2:0:0:
199,203,223956,1,2,1:2:0:0:
221,221,224035,1,2,1:2:0:0:
246,234,224113,1,2,1:2:0:0:
274,243,224192,1,2,1:2:0:0:
302,247,224270,1,2,1:2:0:0:
331,246,224349,5,10,1:2:0:0:
359,240,224427,1,2,1:2:0:0:
386,229,224506,1,2,1:2:0:0:
410,213,224584,1,2,1:2:0:0:
431,194,224663,2,0,L|461:189,2,18
397,110,224820,2,0,L|417:94,2,18
318,60,224977,5,0,0:0:0:0:
397,110,225291,1,0,0:0:0:0:
431,194,225605,1,0,0:0:0:0:
413,285,225919,2,0,B|427:321|427:321|388:323,1,67.5,8|0,1:2|0:0,0:0:0:0:
320,312,226234,5,12,0:0:0:0:
217,184,226391,1,0,0:0:0:0:
378,159,226548,1,8,0:0:0:0:
216,296,226705,1,2,0:0:0:0:
32,307,226862,1,2,0:0:0:0:
113,143,227019,1,0,0:0:0:0:
263,298,227176,1,8,0:0:0:0:
322,90,227333,1,2,0:0:0:0:
36,48,227490,6,0,P|24:112|32:176,1,107.999996704102,2|0,0:0|0:0,0:0:0:0:
208,292,227804,2,0,P|219:239|216:185,1,107.999996704102,8|2,0:0|0:0,0:0:0:0:
384,136,228118,2,0,P|440:128|512:144,1,107.999996704102,0|2,0:0|0:0,0:0:0:0:
264,36,228432,2,0,P|208:44|136:28,1,107.999996704102,8|2,0:0|0:0,0:0:0:0:
116,200,228747,5,2,0:0:0:0:
225,318,228904,1,0,0:0:0:0:
273,163,229061,1,8,0:0:0:0:
402,242,229218,1,2,0:0:0:0:
208,232,229375,1,2,0:0:0:0:
313,68,229532,1,0,0:0:0:0:
332,283,229689,1,8,0:0:0:0:
137,191,229846,1,2,0:0:0:0:
400,88,230003,6,0,L|508:84,1,107.999996704102,2|0,0:0|0:0,0:0:0:0:
256,152,230317,1,8,0:0:0:0:
152,120,230474,1,2,0:0:0:0:
376,220,230631,2,0,L|408:348,1,107.999996704102,0|2,0:0|0:0,0:0:0:0:
172,228,230946,1,8,0:0:0:0:
136,328,231103,1,2,0:0:0:0:
52,260,231260,6,0,P|20:208|20:160,1,107.999996704102,2|0,0:0|0:0,0:0:0:0:
168,72,231574,1,8,0:0:0:0:
308,128,231731,1,2,0:0:0:0:
444,60,231888,2,0,P|473:104|476:157,1,107.999996704102,2|0,0:0|0:0,0:0:0:0:
408,312,232202,2,0,L|424:360,3,35.9999989013672,8|0|0|0,0:0|0:0|0:0|0:0,0:0:0:0:
228,252,232516,5,2,0:0:0:0:
112,352,232673,1,0,0:0:0:0:
156,184,232830,1,8,0:0:0:0:
272,364,232987,1,2,0:0:0:0:
352,172,233145,2,0,P|356:112|324:60,1,107.999996704102,2|0,0:0|0:0,0:0:0:0:
112,24,233459,2,0,L|80:68,3,35.9999989013672,8|0|0|0,0:0|0:0|0:0|0:0,0:0:0:0:
240,160,233773,5,2,0:0:0:0:
412,144,233930,1,0,0:0:0:0:
280,64,234087,1,8,0:0:0:0:
312,272,234244,1,2,0:0:0:0:
128,184,234401,2,0,P|87:201|41:254,1,107.999996704102,2|0,0:0|0:0,0:0:0:0:
116,352,234715,2,0,L|160:324,3,35.9999989013672,8|0|0|0,0:0|0:0|0:0|0:0,0:0:0:0:
164,200,235029,6,0,L|178:88,1,107.999996704102,2|0,0:0|0:0,0:0:0:0:
272,244,235343,1,8,0:0:0:0:
480,184,235501,1,2,0:0:0:0:
340,336,235658,1,0,0:0:0:0:
348,88,235815,1,2,0:0:0:0:
208,112,235972,5,8,0:0:0:0:
188,112,236050,1,8,0:0:0:0:
168,112,236129,1,8,0:0:0:0:
148,112,236207,1,8,0:0:0:0:
128,112,236286,6,0,P|97:161|24:168,1,107.999996704102,12|0,0:0|0:0,0:0:0:0:
164,347,236600,2,0,P|124:312|72:312,1,107.999996704102,8|2,0:0|0:0,0:0:0:0:
264,166,236914,2,0,P|253:218|280:264,1,107.999996704102,2|0,0:0|0:0,0:0:0:0:
460,292,237228,1,8,0:0:0:0:
480,184,237385,1,2,0:0:0:0:
380,356,237542,6,0,P|323:342|266:389,1,107.999996704102,2|0,0:0|0:0,0:0:0:0:
92,316,237857,2,0,P|105:259|58:202,1,107.999996704102,8|2,0:0|0:0,0:0:0:0:
132,28,238171,2,0,P|188:41|245:-5,1,107.999996704102,0|2,0:0|0:0,0:0:0:0:
420,68,238485,2,0,P|406:124|453:181,1,107.999996704102,8|2,0:0|0:0,0:0:0:0:
364,360,238799,5,2,0:0:0:0:
256,192,238956,1,0,0:0:0:0:
225,295,239113,2,0,L|257:187,1,107.999996704102,8|2,0:0|0:0,0:0:0:0:
420,68,239427,2,0,L|316:37,1,107.999996704102,2|0,0:0|0:0,0:0:0:0:
97,105,239741,2,0,P|153:109|200:74,1,107.999996704102,8|2,0:0|0:0,0:0:0:0:
131,28,240055,5,2,0:0:0:0:
156,216,240213,1,0,0:0:0:0:
460,166,240370,5,8,0:0:0:0:
285,93,240527,1,2,0:0:0:0:
51,217,240684,5,0,0:0:0:0:
226,290,240841,1,2,0:0:0:0:
336,2,240998,5,8,0:0:0:0:
185,117,241155,1,10,0:0:0:0:
296,360,241312,6,0,P|320:292|312:260,1,107.999996704102,2|0,0:0|0:0,0:0:0:0:
68,116,241626,2,0,P|44:184|52:216,1,107.999996704102,8|2,0:0|0:0,0:0:0:0:
226,290,241940,1,2,0:0:0:0:
128,176,242097,1,0,0:0:0:0:
40,348,242254,2,0,L|48:388,3,35.9999989013672,8|0|0|0,0:0|0:0|0:0|0:0,0:0:0:0:
128,176,242569,6,0,B|185:117|185:117|176:156,1,107.999996704102,2|0,0:0|0:0,0:0:0:0:
306,310,242883,2,0,B|226:290|226:290|264:279,1,107.999996704102,8|2,0:0|0:0,0:0:0:0:
460,236,243197,2,0,P|468:320|444:344,1,107.999996704102,2|0,0:0|0:0,0:0:0:0:
324,144,243511,2,0,L|316:96,3,35.9999989013672,10|0|0|0,0:0|0:0|0:0|0:0,0:0:0:0:
132,260,243825,6,0,P|55:224|46:192,1,107.999996704102,2|0,0:0|0:0,0:0:0:0:
308,32,244139,2,0,P|384:67|393:99,1,107.999996704102,8|2,0:0|0:0,0:0:0:0:
122,237,244453,6,0,P|52:189|49:155,1,107.999996704102,2|2,0:0|0:0,0:0:0:0:
334,43,244768,2,0,P|404:91|407:125,1,107.999996704102,8|2,0:0|0:0,0:0:0:0:
132,156,245082,6,0,L|108:44,1,107.999996704102,8|0,0:0|0:0,0:0:0:0:
292,316,245396,2,0,L|404:340,1,107.999996704102,8|0,0:0|0:0,0:0:0:0:
120,168,245710,2,0,L|96:56,1,107.999996704102,8|0,0:0|0:0,0:0:0:0:
280,328,246024,5,8,0:0:0:0:
332,339,246103,1,8,0:0:0:0:
385,350,246181,1,8,0:0:0:0:
265,168,246338,6,0,P|306:149|403:167,1,107.999996704102,12|0,0:0|0:0,0:0:0:0:
177,275,246652,1,8,0:0:0:0:
228,90,246809,1,2,0:0:0:0:
85,248,246966,2,0,L|-38:262,1,107.999996704102,2|0,0:0|0:0,0:0:0:0:
233,353,247281,2,0,L|299:357,1,53.9999983520508,8|0,0:0|0:0,0:0:0:0:
177,275,247438,1,2,0:0:0:0:
265,168,247595,6,0,P|273:109|226:37,1,107.999996704102,2|0,0:0|0:0,0:0:0:0:
107,313,247909,2,0,L|0:324,1,107.999996704102,8|2,0:0|0:0,0:0:0:0:
356,207,248223,2,0,P|407:186|492:207,1,107.999996704102,0|2,0:0|0:0,0:0:0:0:
286,346,248537,1,8,0:0:0:0:
286,346,248616,1,2,0:0:0:0:
286,346,248694,1,2,0:0:0:0:
196,217,248851,6,0,L|189:89,1,107.999996704102,2|0,0:0|0:0,0:0:0:0:
139,292,249165,1,8,0:0:0:0:
97,32,249323,1,2,0:0:0:0:
268,169,249480,2,0,P|325:173|396:137,1,107.999996704102,2|0,0:0|0:0,0:0:0:0:
482,11,249794,2,0,L|477:75,1,53.9999983520508,8|0,0:0|0:0,0:0:0:0:
501,150,249951,1,2,0:0:0:0:
300,88,250108,6,0,L|175:77,1,107.999996704102,2|0,0:0|0:0,0:0:0:0:
262,349,250422,2,0,P|290:262|266:213,1,107.999996704102,8|2,0:0|0:0,0:0:0:0:
97,32,250736,1,0,0:0:0:0:
32,201,250893,1,2,0:0:0:0:
300,88,251050,1,8,0:0:0:0:
300,88,251129,1,2,0:0:0:0:
300,88,251207,1,2,0:0:0:0:
329,226,251364,5,2,0:0:0:0:
196,287,251521,1,0,0:0:0:0:
341,209,251679,1,8,0:0:0:0:
102,119,251836,1,2,0:0:0:0:
140,366,251993,1,2,0:0:0:0:
353,195,252150,1,0,0:0:0:0:
101,278,252307,2,0,L|65:273,3,35.9999989013672,8|0|0|0,0:0|0:0|0:0|0:0,0:0:0:0:
460,292,252621,5,2,0:0:0:0:
344,114,252778,1,0,0:0:0:0:
236,372,252935,1,8,0:0:0:0:
283,229,253092,1,2,0:0:0:0:
99,179,253249,1,2,0:0:0:0:
331,311,253406,1,0,0:0:0:0:
221,79,253563,2,0,L|228:31,3,35.9999989013672,8|0|0|0,0:0|0:0|0:0|0:0,0:0:0:0:
236,373,253877,5,2,0:0:0:0:
283,229,254035,1,0,0:0:0:0:
12,266,254192,1,8,0:0:0:0:
169,304,254349,1,2,0:0:0:0:
87,107,254506,1,2,0:0:0:0:
272,220,254663,1,0,0:0:0:0:
108,196,254820,2,0,L|60:198,3,35.9999989013672,8|0|0|0,0:0|0:0|0:0|0:0,0:0:0:0:
310,340,255134,6,0,P|363:362|417:362,1,107.999996704102,2|0,0:0|0:0,0:0:0:0:
118,186,255448,2,0,P|39:193|6:213,1,116.999994644165,8|2,0:0|0:0,0:0:0:0:
316,112,255762,2,0,L|487:99,1,125.999996154785,0|2,0:0|0:0,0:0:0:0:
132,16,256076,1,8,0:0:0:0:
156,272,256234,1,8,0:0:0:0:
147,325,256312,1,8,0:0:0:0:
136,377,256391,6,0,P|128:320|96:272,1,107.999996704102,12|0,0:0|0:0,0:0:0:0:
188,84,256705,1,8,0:0:0:0:
232,216,256862,1,2,0:0:0:0:
108,148,257019,1,2,0:0:0:0:
312,200,257176,2,0,P|312:240|296:268,1,53.9999983520508
248,140,257333,1,8,0:0:0:0:
388,120,257490,1,2,0:0:0:0:
224,232,257647,5,2,0:0:0:0:
268,100,257804,1,0,0:0:0:0:
276,308,257961,1,8,0:0:0:0:
208,36,258118,1,2,0:0:0:0:
208,36,258197,1,2,0:0:0:0:
208,36,258275,1,2,0:0:0:0:
120,148,258432,1,2,0:0:0:0:
240,220,258590,2,0,B|276:224|276:224|312:220|312:220|372:232,1,107.999996704102,8|2,0:0|0:0,0:0:0:0:
104,168,258904,5,2,0:0:0:0:
240,140,259061,1,0,0:0:0:0:
140,240,259218,1,8,0:0:0:0:
144,100,259375,1,2,0:0:0:0:
184,308,259532,1,2,0:0:0:0:
60,244,259689,1,0,0:0:0:0:
336,296,259846,1,8,0:0:0:0:
104,320,260003,1,2,0:0:0:0:
228,112,260160,6,0,L|236:224,1,107.999996704102,2|2,0:0|0:0,0:0:0:0:
244,228,260396,1,2,0:0:0:0:
256,240,260474,2,0,L|264:308,1,53.9999983520508,8|0,0:0|0:0,0:0:0:0:
316,180,260631,1,2,0:0:0:0:
132,212,260788,1,2,0:0:0:0:
412,196,260946,1,2,0:0:0:0:
244,320,261103,1,8,0:0:0:0:
256,108,261260,1,2,0:0:0:0:
496,252,261417,6,0,L|492:360,1,107.999996704102,6|0,0:0|0:0,0:0:0:0:
440,84,261731,1,8,0:0:0:0:
396,292,261888,1,2,0:0:0:0:
496,152,262045,1,2,0:0:0:0:
312,256,262202,2,0,P|312:316|324:348,1,53.9999983520508
396,212,262359,2,0,L|436:200,3,35.9999989013672,8|2|2|2,0:0|0:0|0:0|0:0,0:0:0:0:
264,156,262673,6,0,L|276:40,1,107.999996704102,4|0,0:0|0:0,0:0:0:0:
212,324,262987,1,8,0:0:0:0:
84,264,263145,1,2,0:0:0:0:
288,244,263302,1,2,0:0:0:0:
196,344,263459,2,0,L|128:336,1,53.9999983520508
136,112,263616,2,0,L|128:176,3,35.9999989013672,8|2|2|2,0:0|0:0|0:0|0:0,0:0:0:0:
272,12,263930,6,0,L|260:128,1,107.999996704102,4|0,0:0|0:0,0:0:0:0:
228,308,264244,1,8,0:0:0:0:
180,176,264401,1,2,0:0:0:0:
384,180,264558,2,0,L|372:296,1,107.999996704102,6|2,0:0|0:0,0:0:0:0:
364,300,264794,1,2,0:0:0:0:
352,312,264872,2,0,L|344:370,1,53.9999983520508,8|0,0:0|0:0,0:0:0:0:
464,224,265029,2,0,L|456:282,1,53.9999983520508,2|0,0:0|0:0,0:0:0:0:
276,136,265186,6,0,L|266:208,1,67.5000025749208,12|0,0:0|0:0,0:0:0:0:
288,120,265501,2,0,L|278:192,1,67.5000025749208,8|0,0:0|0:0,0:0:0:0:
304,104,265815,2,0,L|294:176,1,67.5000025749208,8|0,0:0|0:0,0:0:0:0:
236,336,266129,1,8,0:0:0:0:
234,327,266207,1,8,0:0:0:0:
232,319,266286,1,8,0:0:0:0:
231,311,266364,1,8,0:0:0:0:
229,302,266443,5,12,0:0:0:0:
132,197,266600,1,0,0:0:0:0:
94,334,266757,1,8,0:0:0:0:
247,298,266914,1,0,0:0:0:0:
126,177,267071,2,0,P|114:123|111:70,1,107.999996704102,2|0,0:0|0:0,0:0:0:0:
342,141,267385,2,0,P|338:194|326:247,1,107.999996704102,8|0,0:0|0:0,0:0:0:0:
171,361,267699,5,2,0:0:0:0:
237,183,267857,1,0,0:0:0:0:
237,183,267935,1,0,0:0:0:0:
237,183,268014,1,8,0:0:0:0:
125,266,268171,1,0,0:0:0:0:
311,317,268328,2,0,P|365:309|417:297,1,107.999996704102,2|0,0:0|0:0,0:0:0:0:
237,183,268642,2,0,P|183:189|131:202,1,107.999996704102,8|0,0:0|0:0,0:0:0:0:
86,347,268956,6,0,P|168:359|201:287,1,161.999995056153,2|0,0:0|0:0,0:0:0:0:
202,298,269270,1,8,0:0:0:0:
102,211,269427,1,0,0:0:0:0:
285,267,269584,1,2,0:0:0:0:
80,222,269741,1,0,0:0:0:0:
246,170,269898,1,8,0:0:0:0:
266,347,270055,1,0,0:0:0:0:
390,255,270213,6,0,P|401:197|405:145,1,107.999996704102,2|0,0:0|0:0,0:0:0:0:
225,180,270527,2,0,P|214:122|210:70,1,107.999996704102,8|0,0:0|0:0,0:0:0:0:
470,264,270841,2,0,P|481:206|485:154,1,107.999996704102,2|0,0:0|0:0,0:0:0:0:
320,78,271155,1,8,0:0:0:0:
301,251,271312,1,8,0:0:0:0:
131,215,271469,6,0,L|140:324,1,107.999996704102,2|0,0:0|0:0,0:0:0:0:
224,153,271783,1,8,0:0:0:0:
100,227,271940,1,0,0:0:0:0:
224,301,272097,2,0,P|292:292|332:282,1,107.999996704102,2|0,0:0|0:0,0:0:0:0:
475,183,272412,2,0,P|422:170|368:164,1,107.999996704102,8|0,0:0|0:0,0:0:0:0:
156,84,272726,6,0,P|141:155|139:198,1,107.999996704102,2|0,0:0|0:0,0:0:0:0:
228,333,273040,1,8,0:0:0:0:
386,291,273197,1,0,0:0:0:0:
209,340,273354,2,0,P|148:333|97:320,1,107.999996704102,2|0,0:0|0:0,0:0:0:0:
266,220,273668,2,0,P|318:207|372:201,1,107.999996704102,8|0,0:0|0:0,0:0:0:0:
481,278,273982,5,2,0:0:0:0:
389,165,274139,1,0,0:0:0:0:
250,210,274296,1,8,0:0:0:0:
394,146,274453,1,0,0:0:0:0:
355,301,274610,1,2,0:0:0:0:
232,198,274768,1,0,0:0:0:0:
400,124,274925,2,0,L|394:237,1,107.999996704102,8|0,0:0|0:0,0:0:0:0:
281,352,275239,6,0,P|224:338|172:332,1,107.999996704102,2|0,0:0|0:0,0:0:0:0:
22,224,275553,2,0,P|75:217|127:204,1,107.999996704102,8|0,0:0|0:0,0:0:0:0:
210,40,275867,2,0,P|223:101|241:150,1,107.999996704102,2|0,0:0|0:0,0:0:0:0:
327,269,276181,1,8,0:0:0:0:
461,196,276338,1,0,0:0:0:0:
461,196,276417,1,0,0:0:0:0:
461,196,276495,5,12,0:0:0:0:
340,104,276652,1,0,0:0:0:0:
240,276,276809,1,8,0:0:0:0:
416,128,276966,1,2,0:0:0:0:
165,211,277124,2,0,P|145:157|158:102,1,107.999996704102,2|0,0:0|0:0,0:0:0:0:
380,196,277438,2,0,P|400:249|387:304,1,107.999996704102,8|2,0:0|0:0,0:0:0:0:
368,324,277673,1,2,0:0:0:0:
336,344,277752,6,0,L|224:356,1,107.999996704102,2|0,0:0|0:0,0:0:0:0:
60,244,278066,2,0,L|167:232,1,107.999996704102,8|2,0:0|0:0,0:0:0:0:
312,268,278380,1,0,0:0:0:0:
344,112,278537,1,2,0:0:0:0:
240,240,278694,1,8,0:0:0:0:
416,140,278851,1,2,0:0:0:0:
200,124,279008,5,4,0:0:0:0:
184,320,279165,1,0,0:0:0:0:
293,243,279323,2,0,P|315:195|291:111,1,107.999996704102,8|2,0:0|0:0,0:0:0:0:
80,156,279637,1,2,0:0:0:0:
208,24,279794,1,0,0:0:0:0:
236,192,279951,1,8,0:0:0:0:
184,356,280108,1,2,0:0:0:0:
152,184,280265,6,0,P|180:128|248:108,1,107.999996704102,2|0,0:0|0:0,0:0:0:0:
220,108,280501,1,2,0:0:0:0:
220,108,280579,1,10,0:0:0:0:
293,243,280736,1,2,0:0:0:0:
366,108,280893,1,0,0:0:0:0:
439,243,281050,1,2,0:0:0:0:
497,43,281207,1,8,0:0:0:0:
292,156,281364,1,8,0:0:0:0:
76,56,281521,6,0,P|40:120|44:176,1,107.999996704102,4|0,0:0|0:0,0:0:0:0:
176,244,281836,2,0,P|169:297|138:341,1,107.999996704102,8|2,0:0|0:0,0:0:0:0:
196,119,282150,2,0,P|249:125|293:156,1,107.999996704102,2|0,0:0|0:0,0:0:0:0:
376,308,282464,2,0,L|416:308,3,35.9999989013672,8|2|2|2,0:0|0:0|0:0|0:0,0:0:0:0:
472,72,282778,6,0,P|388:80|360:104,1,107.999996704102,4|0,0:0|0:0,0:0:0:0:
260,260,283092,2,0,P|212:283|159:280,1,107.999996704102,8|2,0:0|0:0,0:0:0:0:
68,104,283406,2,0,P|115:80|168:83,1,107.999996704102,2|0,0:0|0:0,0:0:0:0:
340,192,283720,2,0,L|380:204,3,35.9999989013672,8|2|2|2,0:0|0:0|0:0|0:0,0:0:0:0:
216,164,284035,6,0,L|104:204,1,107.999996704102,4|0,0:0|0:0,0:0:0:0:
208,348,284349,1,8,0:0:0:0:
384,264,284506,1,2,0:0:0:0:
168,260,284663,1,2,0:2:0:0:
140,248,284741,1,0,0:0:0:0:
120,224,284820,1,0,0:0:0:0:
108,192,284898,1,0,0:0:0:0:
108,160,284977,1,2,0:2:0:0:
116,128,285055,1,0,0:0:0:0:
132,100,285134,1,0,0:0:0:0:
160,84,285213,1,0,0:0:0:0:
188,80,285291,5,2,0:0:0:0:
200,80,285370,1,2,0:0:0:0:
212,80,285448,1,2,0:0:0:0:
224,80,285527,1,0,0:0:0:0:
236,80,285605,2,0,L|328:80,1,80.9999975280763,2|2,0:0|0:0,0:0:0:0:
448,176,285919,2,0,B|372:156|356:208|276:180,1,161.999995056153,0|0,0:0|1:0,0:0:0:0:
260,176,286312,1,2,0:0:0:0:
232,176,286391,1,2,0:0:0:0:
208,188,286469,1,2,0:0:0:0:
192,210,286548,6,0,L|211:330,1,107.999996704102,12|0,0:0|0:0,0:0:0:0:
320,174,286862,2,0,L|301:54,1,107.999996704102,8|0,0:0|0:0,0:0:0:0:
163,128,287176,2,0,P|110:171|103:230,1,107.999996704102,8|0,0:0|0:0,0:0:0:0:
349,256,287490,2,0,P|402:213|409:154,1,107.999996704102,8|0,0:0|0:0,0:0:0:0:
131,54,287804,6,0,L|11:77,1,107.999996704102,8|0,0:0|0:0,0:0:0:0:
367,338,288118,2,0,L|487:315,1,107.999996704102,8|0,0:0|0:0,0:0:0:0:
20,234,288432,2,0,P|32:305|89:353,1,107.999996704102,8|0,0:0|0:0,0:0:0:0:
492,150,288747,2,0,P|480:79|423:31,1,107.999996704102,8|0,0:0|0:0,0:0:0:0:
259,348,289061,6,0,L|366:337,1,107.999996704102,12|0,0:0|0:0,0:0:0:0:
253,36,289375,2,0,L|145:46,1,107.999996704102,8|0,0:0|0:0,0:0:0:0:
132,234,289689,1,8,0:0:0:0:
380,150,289846,1,0,0:0:0:0:
132,234,290003,1,8,0:0:0:0:
380,150,290160,1,0,0:0:0:0:
181,97,290317,5,8,0:0:0:0:
331,287,290474,1,0,0:0:0:0:
181,97,290631,1,8,0:0:0:0:
331,287,290788,1,0,0:0:0:0:
470,163,290946,2,0,P|444:101|385:67,1,107.999996704102,8|0,0:0|0:0,0:0:0:0:
222,162,291260,1,8,0:0:0:0:
217,202,291338,1,0,0:0:0:0:
213,243,291417,1,8,0:0:0:0:
208,283,291495,1,0,0:0:0:0:
203,323,291574,6,0,L|76:349,1,107.999996704102,12|0,0:0|0:0,0:0:0:0:
0,237,291888,2,0,L|126:210,1,107.999996704102,8|0,0:0|0:0,0:0:0:0:
430,269,292202,2,0,L|303:295,1,107.999996704102,8|0,0:0|0:0,0:0:0:0:
227,183,292516,2,0,L|353:156,1,107.999996704102,8|0,0:0|0:0,0:0:0:0:
455,75,292830,6,0,P|382:47|312:47,1,107.999996704102,8|0,0:0|0:0,0:0:0:0:
57,75,293145,2,0,P|130:47|200:47,1,107.999996704102,8|0,0:0|0:0,0:0:0:0:
380,119,293459,2,0,P|330:166|323:224,1,107.999996704102,8|0,0:0|0:0,0:0:0:0:
132,119,293773,2,0,P|182:166|189:224,1,107.999996704102,8|0,0:0|0:0,0:0:0:0:
170,346,294087,6,0,P|109:353|49:329,1,107.999996704102,12|0,0:0|0:0,0:0:0:0:
342,346,294401,2,0,P|403:353|463:329,1,107.999996704102,8|0,0:0|0:0,0:0:0:0:
118,226,294715,2,0,L|137:85,1,107.999996704102,8|0,0:0|0:0,0:0:0:0:
394,226,295029,2,0,L|375:85,1,107.999996704102,8|0,0:0|0:0,0:0:0:0:
80,264,295343,6,0,L|61:123,1,107.999996704102,8|0,0:0|0:0,0:0:0:0:
432,264,295658,2,0,L|451:123,1,107.999996704102,8|0,0:0|0:0,0:0:0:0:
256,0,295972,2,0,L|256:132,1,107.999996704102,8|0,0:0|0:0,0:0:0:0:
264,328,296286,1,8,0:0:0:0:
211,289,296364,1,0,0:0:0:0:
231,228,296443,1,8,0:0:0:0:
295,228,296521,1,0,0:0:0:0:
318,291,296600,5,6,0:0:0:0:
369,194,296757,1,0,0:0:0:0:
436,292,296914,1,2,0:0:0:0:
492,176,297071,1,0,0:0:0:0:
428,52,297228,1,2,0:0:0:0:
369,194,297385,1,0,0:0:0:0:
296,48,297542,1,2,0:0:0:0:
248,216,297699,1,0,0:0:0:0:
168,64,297857,5,6,0:0:0:0:
344,116,298014,1,0,0:0:0:0:
168,196,298171,1,2,0:0:0:0:
360,272,298328,1,0,0:0:0:0:
152,328,298485,1,2,0:0:0:0:
328,196,298642,1,0,0:0:0:0:
112,128,298799,1,2,0:0:0:0:
320,36,298956,1,0,0:0:0:0:
92,52,299113,5,6,0:0:0:0:
344,116,299270,1,0,0:0:0:0:
96,200,299427,1,2,0:0:0:0:
320,36,299584,1,0,0:0:0:0:
152,260,299741,1,2,0:0:0:0:
244,8,299898,1,0,0:0:0:0:
236,268,300055,1,2,0:0:0:0:
160,12,300213,1,0,0:0:0:0:
72,280,300370,5,6,0:0:0:0:
332,196,300527,1,0,0:0:0:0:
68,128,300684,1,2,0:0:0:0:
320,36,300841,1,0,0:0:0:0:
96,200,300998,1,2,0:0:0:0:
352,284,301155,1,0,0:0:0:0:
284,24,301312,1,2,0:0:0:0:
96,220,301469,1,0,0:0:0:0:
296,280,301626,5,8,1:2:0:0:
324,288,301705,1,0,1:0:0:0:
348,296,301783,1,0,1:0:0:0:
372,304,301862,1,0,1:0:0:0:
400,308,301940,1,8,1:2:0:0:
428,304,302019,1,0,1:0:0:0:
452,292,302097,1,0,1:0:0:0:
468,272,302176,1,0,1:0:0:0:
480,244,302254,5,8,1:2:0:0:
480,212,302333,1,0,1:0:0:0:
468,180,302412,1,0,1:0:0:0:
448,156,302490,1,0,1:0:0:0:
416,144,302569,1,8,1:2:0:0:
380,144,302647,1,0,1:0:0:0:
344,156,302726,1,0,1:0:0:0:
308,168,302804,1,0,1:0:0:0:
268,184,302883,5,8,1:2:0:0:
228,200,302961,1,0,1:0:0:0:
188,216,303040,1,0,1:0:0:0:
148,232,303118,1,0,1:0:0:0:
104,248,303197,1,8,1:2:0:0:
56,248,303275,1,0,1:0:0:0:
20,216,303354,1,0,1:0:0:0:
8,168,303432,1,0,1:0:0:0:
12,116,303511,5,10,1:2:0:0:
40,72,303590,1,2,1:2:0:0:
92,60,303668,1,2,1:2:0:0:
144,72,303747,1,2,1:2:0:0:
180,120,303825,1,10,1:2:0:0:
180,180,303904,1,2,1:2:0:0:
148,232,303982,1,2,1:2:0:0:
140,292,304061,1,2,1:2:0:0:
172,348,304139,6,2,L|268:376,1,62.9999980773926,10|2,1:2|1:2,1:2:0:0:
392,276,304296,2,2,L|324:252,1,62.9999980773926,2|2,1:2|1:2,1:2:0:0:
104,248,304453,2,2,L|56:320,1,62.9999980773926,10|2,1:2|1:2,1:2:0:0:
228,268,304610,2,2,L|264:212,1,62.9999980773926,2|2,1:2|1:2,1:2:0:0:
92,60,304768,6,2,L|104:148,1,62.9999980773926,10|2,1:2|1:2,1:2:0:0:
268,132,304925,2,2,L|260:68,1,62.9999980773926,2|2,1:2|1:2,1:2:0:0:
180,180,305082,2,0,L|168:232,4,31.4999990386963
312,280,305396,6,0,L|320:360,2,67.5000025749208
256,192,305867,1,0,0:0:0:0:
348,108,306024,1,0,0:0:0:0:
440,192,306181,1,0,0:0:0:0:
260,104,306338,1,8,1:2:0:0:
228,104,306417,1,2,0:0:0:0:
196,104,306495,1,2,0:0:0:0:
164,104,306574,1,2,0:0:0:0:
132,105,306652,6,0,P|121:157|135:219,1,90,14|0,0:0|0:0,0:0:0:0:
258,254,306966,1,8,0:0:0:0:
297,232,307045,1,0,0:0:0:0:
341,225,307124,1,0,0:0:0:0:
384,234,307202,1,0,0:0:0:0:
423,257,307281,2,0,P|445:302|442:348,1,90,2|0,0:0|0:0,0:0:0:0:
257,350,307595,1,8,0:0:0:0:
218,372,307673,1,0,0:0:0:0:
174,379,307752,1,0,0:0:0:0:
131,370,307830,1,0,0:0:0:0:
92,347,307909,6,0,P|69:301|73:256,1,90,2|0,0:0|0:0,0:0:0:0:
101,38,308223,1,8,0:0:0:0:
115,80,308302,1,0,0:0:0:0:
129,123,308380,1,0,0:0:0:0:
143,166,308459,1,0,0:0:0:0:
157,208,308537,2,0,P|189:145|237:117,1,90,2|0,0:0|0:0,0:0:0:0:
403,79,308851,1,8,0:0:0:0:
361,62,308930,1,0,0:0:0:0:
316,62,309008,1,0,0:0:0:0:
275,78,309087,1,0,0:0:0:0:
240,107,309165,6,0,L|280:220,1,90,2|0,0:0|0:0,0:0:0:0:
253,349,309480,1,8,0:0:0:0:
289,323,309558,1,0,0:0:0:0:
333,313,309637,1,0,0:0:0:0:
377,321,309715,1,0,0:0:0:0:
414,345,309794,2,0,P|449:298|456:254,1,90,2|0,0:0|0:0,0:0:0:0:
281,100,310108,1,8,0:0:0:0:
325,95,310186,1,0,0:0:0:0:
370,90,310265,1,0,0:0:0:0:
415,86,310343,1,0,0:0:0:0:
459,78,310422,6,0,L|460:202,1,90,2|0,0:0|0:0,0:0:0:0:
290,323,310736,1,8,0:0:0:0:
246,328,310815,1,0,0:0:0:0:
201,333,310893,1,0,0:0:0:0:
156,337,310972,1,0,0:0:0:0:
112,345,311050,2,0,L|111:221,1,90,2|0,0:0|0:0,0:0:0:0:
145,115,311364,1,8,0:0:0:0:
131,73,311443,1,0,0:0:0:0:
86,73,311521,1,8,0:0:0:0:
72,116,311600,1,0,0:0:0:0:
109,143,311679,6,0,P|163:186|186:242,1,90,2|0,0:0|0:0,0:0:0:0:
189,378,311993,1,8,0:0:0:0:
61,261,312150,1,0,0:0:0:0:
271,243,312307,2,0,L|390:252,1,90,2|0,0:0|0:0,0:0:0:0:
509,120,312621,1,8,0:0:0:0:
433,368,312778,1,0,0:0:0:0:
435,180,312935,6,0,L|345:173,1,90,2|0,0:0|0:0,0:0:0:0:
205,46,313249,1,8,0:0:0:0:
307,46,313406,1,0,0:0:0:0:
166,173,313563,2,0,L|77:180,1,90,2|0,0:0|0:0,0:0:0:0:
140,351,313877,1,8,0:0:0:0:
77,180,314035,1,0,0:0:0:0:
256,210,314192,6,0,P|328:212|379:241,1,90,2|0,0:0|0:0,0:0:0:0:
402,384,314506,1,8,0:0:0:0:
172,277,314663,1,0,0:0:0:0:
425,275,314820,2,0,P|439:217|424:162,1,90,2|0,0:0|0:0,0:0:0:0:
309,29,315134,1,8,0:0:0:0:
176,149,315291,1,0,0:0:0:0:
333,199,315448,6,0,L|449:178,1,90,2|0,0:0|0:0,0:0:0:0:
303,304,315762,2,0,L|214:320,1,90
176,149,316076,2,0,B|114:176|114:176|200:196,1,135
248,169,316391,1,8,0:0:0:0:
203,171,316469,1,2,0:0:0:0:
158,173,316548,1,2,0:0:0:0:
114,176,316626,1,2,0:0:0:0:
69,178,316705,6,0,L|81:278,1,90,12|0,0:0|0:0,0:0:0:0:
254,353,317019,2,0,P|303:345|350:333,1,90,8|0,0:0|0:0,0:0:0:0:
434,178,317333,1,2,0:0:0:0:
285,250,317490,1,0,0:0:0:0:
320,102,317647,1,8,0:0:0:0:
279,271,317804,1,0,0:0:0:0:
184,161,317961,6,0,P|171:102|168:67,1,90,2|0,0:0|0:0,0:0:0:0:
347,187,318275,2,0,P|341:231|331:275,1,90,8|0,0:0|0:0,0:0:0:0:
104,336,318590,1,2,0:0:0:0:
233,262,318747,1,0,0:0:0:0:
233,262,318825,1,0,0:0:0:0:
233,262,318904,1,8,0:0:0:0:
69,164,319061,1,0,0:0:0:0:
293,94,319218,6,0,L|282:199,1,90,2|0,0:0|0:0,0:0:0:0:
104,335,319532,2,0,L|94:245,1,90,8|0,0:0|0:0,0:0:0:0:
91,209,319768,1,0,0:0:0:0:
86,173,319846,1,2,0:0:0:0:
255,266,320003,1,0,0:0:0:0:
177,126,320160,2,0,P|166:67|163:21,1,90,8|0,0:0|0:0,0:0:0:0:
329,161,320474,5,2,0:0:0:0:
166,236,320631,1,0,0:0:0:0:
166,236,320710,1,0,0:0:0:0:
166,236,320788,1,8,0:0:0:0:
381,331,320946,1,0,0:0:0:0:
215,323,321103,5,2,0:0:0:0:
381,240,321260,1,0,0:0:0:0:
238,136,321417,2,0,L|245:185,1,45,8|0,0:0|0:0,0:0:0:0:
165,236,321574,2,0,L|158:191,1,45,8|0,0:0|0:0,0:0:0:0:
320,69,321731,6,0,L|336:191,1,90,2|0,0:0|0:0,0:0:0:0:
127,320,322045,2,0,P|93:282|77:242,1,90,8|0,0:0|0:0,0:0:0:0:
70,210,322281,1,0,0:0:0:0:
75,174,322359,1,0,0:0:0:0:
255,266,322516,1,0,0:0:0:0:
255,266,322595,1,0,0:0:0:0:
255,266,322673,1,8,0:0:0:0:
180,69,322830,2,0,L|171:129,1,45
160,199,322987,6,0,L|251:184,1,90,2|0,0:0|0:0,0:0:0:0:
407,71,323302,2,0,P|394:130|386:199,1,90,8|0,0:0|0:0,0:0:0:0:
409,374,323616,1,2,0:0:0:0:
329,230,323773,1,0,0:0:0:0:
179,298,323930,1,8,0:0:0:0:
341,317,324087,1,0,0:0:0:0:
133,167,324244,6,0,L|146:266,1,90,2|0,0:0|0:0,0:0:0:0:
415,264,324558,2,0,L|402:165,1,90,8|0,0:0|0:0,0:0:0:0:
57,148,324872,2,0,L|70:247,1,90,2|0,0:0|0:0,0:0:0:0:
339,245,325186,2,0,L|326:146,1,90,8|0,0:0|0:0,0:0:0:0:
183,38,325501,5,8,0:0:0:0:
200,131,325815,5,8,0:0:0:0:
220,224,326129,6,0,L|97:209,1,90,8|0,0:0|0:0,0:0:0:0:
95,209,326364,1,8,0:0:0:0:
52,234,326443,5,8,0:0:0:0:
43,282,326521,1,8,0:0:0:0:
71,323,326600,1,8,0:0:0:0:
120,321,326679,1,8,0:0:0:0:
169,319,326757,6,0,L|258:329,1,90,12|2,0:0|0:3,0:0:0:0:
396,244,327071,1,8,0:0:0:0:
220,224,327228,1,2,0:3:0:0:
428,216,327385,2,0,P|452:264|464:312,1,90,2|2,0:0|0:3,0:0:0:0:
296,256,327699,1,8,0:0:0:0:
428,368,327857,1,2,0:3:0:0:
356,168,328014,6,0,P|348:116|344:64,1,90,2|2,0:0|0:3,0:0:0:0:
180,124,328328,1,8,0:0:0:0:
340,188,328485,1,2,0:3:0:0:
200,288,328642,1,2,0:0:0:0:
352,308,328799,1,2,0:3:0:0:
260,184,328956,1,8,0:0:0:0:
184,316,329113,1,2,0:3:0:0:
56,188,329270,6,0,L|40:84,1,90,2|2,0:0|0:3,0:0:0:0:
280,200,329584,2,0,L|294:289,1,90,8|2,0:0|0:3,0:0:0:0:
128,152,329898,1,2,0:0:0:0:
356,176,330055,1,2,0:3:0:0:
132,232,330213,1,8,0:0:0:0:
296,112,330370,1,2,0:3:0:0:
172,300,330527,6,0,L|80:356,1,90,2|2,0:0|0:3,0:0:0:0:
380,256,330841,2,0,L|456:209,1,90,8|2,0:0|0:3,0:0:0:0:
300,236,331155,1,2,0:0:0:0:
448,304,331312,1,2,0:3:0:0:
444,132,331469,2,0,L|448:76,1,45,8|0,0:0|0:0,0:0:0:0:
372,44,331626,2,0,L|368:88,1,45,8|0,0:0|0:0,0:0:0:0:
488,196,331783,6,0,P|492:256|488:316,1,90,2|2,0:0|0:3,0:0:0:0:
302,326,332097,2,0,P|298:266|302:206,1,90,8|2,0:0|0:3,0:0:0:0:
496,144,332412,1,2,0:0:0:0:
332,208,332569,1,2,0:3:0:0:
512,240,332726,1,8,0:0:0:0:
316,132,332883,1,2,0:3:0:0:
144,232,333040,6,0,L|144:328,1,90,2|2,0:0|0:3,0:0:0:0:
268,160,333354,2,0,L|268:70,1,90,8|2,0:0|0:3,0:0:0:0:
92,132,333668,1,2,0:0:0:0:
236,240,333825,1,2,0:3:0:0:
72,312,333982,1,8,0:0:0:0:
72,132,334139,1,2,0:3:0:0:
252,248,334296,6,0,P|300:256|348:244,1,90,2|2,0:0|0:3,0:0:0:0:
500,80,334610,2,0,P|452:72|404:84,1,90,8|2,0:0|0:3,0:0:0:0:
260,168,334925,1,2,0:0:0:0:
152,32,335082,1,2,0:3:0:0:
280,164,335239,1,8,0:0:0:0:
100,200,335396,1,2,0:3:0:0:
240,76,335553,6,0,L|344:76,1,90,2|2,0:0|0:3,0:0:0:0:
508,164,335867,1,8,0:0:0:0:
380,24,336024,1,2,0:3:0:0:
260,168,336181,2,0,L|170:168,1,90,2|2,0:0|0:3,0:0:0:0:
8,288,336495,1,8,0:0:0:0:
8,328,336574,1,8,0:0:0:0:
40,352,336652,1,8,0:0:0:0:
80,340,336731,1,8,0:0:0:0:
92,304,336809,6,0,L|101:201,1,90,12|0,0:0|0:0,0:0:0:0:
72,56,337124,1,8,0:0:0:0:
4,208,337281,1,0,0:0:0:0:
213,177,337438,2,0,P|263:179|306:195,1,90,2|0,0:0|0:0,0:0:0:0:
469,306,337752,1,8,0:0:0:0:
437,173,337909,1,0,0:0:0:0:
259,266,338066,6,0,L|150:256,1,90,2|0,0:0|0:0,0:0:0:0:
63,103,338380,1,8,0:0:0:0:
163,154,338537,1,0,0:0:0:0:
42,280,338694,2,0,P|41:327|76:392,1,90,2|0,0:0|0:0,0:0:0:0:
268,251,339008,1,8,0:0:0:0:
154,271,339165,1,0,0:0:0:0:
375,350,339323,6,0,L|484:356,1,90,4|0,0:0|0:0,0:0:0:0:
312,120,339637,1,8,0:0:0:0:
281,239,339794,1,0,0:0:0:0:
415,137,339951,2,0,P|458:119|508:108,1,90,2|0,0:0|0:0,0:0:0:0:
369,268,340265,1,8,0:0:0:0:
304,134,340422,1,0,0:0:0:0:
213,311,340579,6,0,L|108:320,1,90,2|0,0:0|0:0,0:0:0:0:
61,112,340893,1,8,0:0:0:0:
169,162,341050,1,0,0:0:0:0:
231,33,341207,2,0,P|295:14|344:28,1,90,2|0,0:0|0:0,0:0:0:0:
397,211,341521,1,8,0:0:0:0:
417,89,341679,1,0,0:0:0:0:
451,299,341836,5,4,0:0:0:0:
451,299,341993,1,8,0:0:0:0:
336,328,342150,1,8,0:0:0:0:
336,328,342307,1,8,0:0:0:0:
244,263,342464,1,8,0:0:0:0:
244,263,342621,1,8,0:0:0:0:
131,242,342778,1,8,0:0:0:0:
131,242,342935,1,8,0:0:0:0:
183,77,343092,5,4,0:0:0:0:
101,130,343250,1,8,0:0:0:0:
195,66,343407,1,8,0:0:0:0:
192,182,343564,1,8,0:0:0:0:
205,57,343721,1,8,0:0:0:0:
296,176,343878,1,8,0:0:0:0:
214,47,344035,1,8,0:0:0:0:
386,116,344192,1,8,0:0:0:0:
110,143,344349,5,14,1:2:0:0:
83,154,344427,1,8,1:2:0:0:
61,174,344506,1,8,1:2:0:0:
51,201,344584,1,8,1:2:0:0:
52,249,344663,5,10,1:2:0:0:
71,281,344741,1,8,1:2:0:0:
104,300,344820,1,8,1:2:0:0:
141,304,344898,1,8,1:2:0:0:
185,284,344977,5,10,1:2:0:0:
230,270,345055,1,8,1:2:0:0:
276,283,345134,1,8,1:2:0:0:
313,313,345213,1,8,1:2:0:0:
369,321,345291,5,10,1:2:0:0:
421,297,345370,1,8,1:2:0:0:
444,257,345448,1,8,1:2:0:0:
441,200,345527,1,8,1:2:0:0:
256,193,346548,5,8,1:2:0:0:
256,206,346862,5,10,0:0:0:0:
256,192,347019,12,0,351888,0:0:0:0:
