osu file format v14

[General]
AudioFilename: audio.mp3
AudioLeadIn: 0
PreviewTime: 142045
Countdown: 1
SampleSet: Soft
StackLeniency: 0.5
Mode: 0
LetterboxInBreaks: 0
WidescreenStoryboard: 0

[Editor]
Bookmarks: 40265,60370,80474,103092,123197,143302,163406,184768,226234,246338,266443,285291,296600,301626,306652,351888
DistanceSpacing: 1.6
BeatDivisor: 4
GridSize: 16
TimelineZoom: 3.25

[Metadata]
Title:MariannE
TitleUnicode:MariannE
Artist:Yooh
ArtistUnicode:Yooh
Creator:TiredAndSleepy
Version:Ascension
Source:
Tags:
BeatmapID:2007399
BeatmapSetID:958794

[Difficulty]
HPDrainRate:5
CircleSize:4
OverallDifficulty:8
ApproachRate:9.5
SliderMultiplier:1.8
SliderTickRate:1

[Events]
//Background and Video events
0,0,"bg27.jpg",0,0
//Break Periods
//Storyboard Layer 0 (Background)
//Storyboard Layer 1 (Fail)
//Storyboard Layer 2 (Pass)
//Storyboard Layer 3 (Foreground)
//Storyboard Sound Samples

[TimingPoints]
56,314.13612565445,4,2,2,40,1,0
56,-166.666666666667,4,2,2,40,0,0
213,-166.666666666667,4,2,0,40,0,0
10108,-133.333333333333,4,2,2,40,0,0
19532,-133.333333333333,4,2,5,40,0,0
19689,-133.333333333333,4,2,2,40,0,0
20160,-100,4,2,2,55,0,0
26796,-100,4,2,2,5,0,0
26836,-100,4,2,2,55,0,0
26875,-100,4,2,2,5,0,0
26914,-100,4,2,2,55,0,0
26953,-100,4,2,2,5,0,0
26993,-100,4,2,2,55,0,0
27032,-100,4,2,2,5,0,0
27071,-100,4,2,2,55,0,0
37752,-100,4,2,2,35,0,0
38066,-100,4,2,2,45,0,0
38380,-100,4,2,2,55,0,0
38694,-100,4,2,2,65,0,0
39008,-100,4,2,2,35,0,0
39637,-100,4,2,2,55,0,0
40265,-80,4,3,2,55,0,1
49061,-166.666666666667,4,3,2,55,0,1
50317,-80,4,2,2,55,0,1
55343,-80,4,2,2,35,0,1
55972,-76.9230769230769,4,2,2,40,0,1
56600,-74.0740740740741,4,2,2,45,0,1
57228,-71.4285714285714,4,2,2,50,0,1
57857,-68.9655172413793,4,2,2,55,0,1
58563,-66.6666666666667,4,2,2,60,0,1
59113,-111.111111111111,4,2,2,40,0,0
60370,-71.4285714285714,4,2,2,60,0,1
79218,-71.4285714285714,4,2,2,50,0,1
80474,-133.333333333333,4,2,3,45,0,0
90527,-133.333333333333,4,2,3,45,0,0
101836,-100,4,2,3,50,0,0
103092,-117.647058823529,4,2,3,25,0,0
113145,-117.647058823529,4,2,3,30,0,0
123197,-100,4,2,2,40,0,0
133249,-90.9090909090909,4,2,2,40,0,0
138275,-90.9090909090909,4,2,2,25,0,0
138904,-90.9090909090909,4,2,2,30,0,0
139532,-90.9090909090909,4,2,2,35,0,0
140160,-90.9090909090909,4,2,2,40,0,0
140788,-60.6060606060606,4,2,2,45,0,0
142045,-142.857142857143,4,2,2,30,0,0
142359,-166.666666666667,4,2,2,30,0,0
142673,-200,4,2,2,30,0,0
143302,-76.9230769230769,4,2,2,55,0,1
163406,-76.9230769230769,4,2,2,60,0,1
184453,-100,4,2,2,60,0,1
184768,-76.9230769230769,4,2,2,35,0,0
186024,-181.818181818182,4,2,2,35,0,0
186181,-181.818181818182,4,2,0,35,0,0
186966,-250,4,2,0,25,0,0
187281,-200,4,2,0,35,0,0
187909,-222.222222222222,4,2,0,25,0,0
188537,-166.666666666667,4,2,0,35,0,0
189480,-222.222222222222,4,2,0,25,0,0
189794,-181.818181818182,4,2,0,35,0,0
190422,-200,4,2,0,30,0,0
191050,-153.846153846154,4,2,0,35,0,0
191600,-153.846153846154,4,2,0,5,0,0
191679,-200,4,2,0,25,0,0
192228,-200,4,2,0,5,0,0
192307,-166.666666666667,4,2,0,35,0,0
192857,-166.666666666667,4,2,0,5,0,0
192935,-222.222222222222,4,2,0,25,0,0
193485,-222.222222222222,4,2,0,5,0,0
193563,-181.818181818182,4,2,0,35,0,0
194506,-250,4,2,0,30,0,0
194820,-166.666666666667,4,2,0,35,0,0
195134,-181.818181818182,4,2,0,25,0,0
195448,-200,4,2,0,35,0,0
195762,-222.222222222222,4,2,0,25,0,0
196076,-181.818181818182,4,2,2,35,0,0
196234,-181.818181818182,4,2,0,35,0,0
197019,-250,4,2,0,25,0,0
197333,-200,4,2,0,35,0,0
197961,-222.222222222222,4,2,0,25,0,0
198590,-166.666666666667,4,2,0,35,0,0
199532,-222.222222222222,4,2,0,25,0,0
199846,-181.818181818182,4,2,0,35,0,0
200474,-200,4,2,0,30,0,0
201103,-153.846153846154,4,2,0,35,0,0
201652,-153.846153846154,4,2,0,5,0,0
201731,-166.666666666667,4,2,0,25,0,0
202281,-166.666666666667,4,2,0,5,0,0
202359,-142.857142857143,4,2,0,35,0,0
202909,-142.857142857143,4,2,0,5,0,0
202987,-153.846153846154,4,2,0,25,0,0
203537,-153.846153846154,4,2,0,5,0,0
203616,-125,4,2,0,35,0,0
204244,-200,4,2,0,30,0,0
204872,-117.647058823529,4,2,0,35,0,0
205186,-133.333333333333,4,2,0,25,0,0
205501,-153.846153846154,4,2,0,35,0,0
205815,-181.818181818182,4,2,0,25,0,0
206129,-90.9090909090909,4,2,3,40,0,0
216181,-86.9565217391304,4,2,2,45,0,0
221207,-86.9565217391304,4,2,2,25,0,0
221836,-86.9565217391304,4,2,2,30,0,0
222464,-86.9565217391304,4,2,2,45,0,0
223092,-86.9565217391304,4,2,2,40,0,0
223720,-86.9565217391304,4,2,2,45,0,0
224349,-86.9565217391304,4,2,2,50,0,0
224977,-222.222222222222,4,2,0,40,0,0
225919,-100,4,2,2,50,0,0
226234,-71.4285714285714,4,2,2,55,0,1
245082,-80,4,2,2,50,0,0
245396,-90.9090909090909,4,2,2,45,0,0
245710,-105.263157894737,4,2,2,40,0,0
246024,-125,4,2,2,35,0,0
246103,-125,4,2,2,40,0,0
246181,-125,4,2,2,45,0,0
246260,-125,4,2,2,50,0,0
246338,-71.4285714285714,4,2,2,55,0,1
265186,-80,4,2,2,50,0,0
265501,-90.9090909090909,4,2,2,45,0,0
265815,-105.263157894737,4,2,2,40,0,0
266129,-125,4,2,2,35,0,0
266207,-125,4,2,2,40,0,0
266286,-125,4,2,2,45,0,0
266364,-125,4,2,2,50,0,0
266443,-71.4285714285714,4,2,2,55,0,1
285291,-80,4,2,2,50,0,0
285605,-90.9090909090909,4,2,2,45,0,0
285919,-105.263157894737,4,2,2,40,0,0
286234,-125,4,2,2,35,0,0
286312,-125,4,2,2,40,0,0
286391,-125,4,2,2,45,0,0
286469,-125,4,2,2,50,0,0
286548,-66.6666666666667,4,2,2,60,0,1
301626,-222.222222222222,4,2,2,35,0,1
302254,-166.666666666667,4,2,2,40,0,1
302883,-133.333333333333,4,2,2,45,0,1
303511,-111.111111111111,4,2,2,50,0,1
304139,-95.2380952380952,4,2,2,55,0,1
304768,-83.3333333333333,4,2,2,60,0,1
305396,-200,4,2,2,40,0,0
306652,-111.111111111111,4,2,2,50,0,0
315448,-222.222222222222,4,2,2,30,0,0
316705,-125,4,2,2,50,0,0
325501,-250,4,2,2,30,0,0
326757,-142.857142857143,4,2,2,40,0,0
336809,-133.333333333333,4,2,2,45,0,0
345605,-500,4,2,2,35,0,0
346548,-100,4,2,2,50,0,0
346862,-250,4,2,2,45,0,0
347490,-250,4,2,2,40,0,0
348118,-250,4,2,2,35,0,0
348747,-250,4,2,2,30,0,0
349375,-250,4,2,2,25,0,0
350003,-250,4,2,2,20,0,0
350631,-250,4,2,2,15,0,0
351260,-250,4,2,2,10,0,0
351888,-250,4,2,2,5,0,0

[Colours]
Combo1 : 149,149,255
Combo2 : 255,128,128
Combo3 : 128,0,128
Combo4 : 128,0,64

[HitObjects]
60,181,56,5,4,0:0:0:0:
93,254,213,1,0,0:0:0:0:
176,262,370,1,0,0:0:0:0:
223,195,527,1,0,0:0:0:0:
188,121,684,1,0,0:0:0:0:
108,114,841,1,0,0:0:0:0:
141,188,998,5,0,0:0:0:0:
188,121,1155,1,0,0:0:0:0:
155,48,1312,1,0,0:0:0:0:
74,41,1469,1,0,0:0:0:0:
236,55,1626,5,0,0:0:0:0:
108,114,1783,1,0,0:0:0:0:
223,195,1940,5,0,0:0:0:0:
155,48,2097,1,0,0:0:0:0:
141,188,2254,5,0,0:0:0:0:
269,128,2412,1,0,0:0:0:0:
176,262,2569,5,2,0:0:0:0:
209,335,2726,1,0,0:0:0:0:
292,342,2883,1,0,0:0:0:0:
339,276,3040,1,0,0:0:0:0:
351,135,3197,5,0,0:0:0:0:
269,128,3354,1,0,0:0:0:0:
223,195,3511,1,0,0:0:0:0:
258,269,3668,1,0,0:0:0:0:
372,350,3825,5,2,0:0:0:0:
421,282,3982,1,0,0:0:0:0:
385,209,4139,1,0,0:0:0:0:
304,202,4296,5,0,0:0:0:0:
433,142,4453,1,0,0:0:0:0:
315,62,4610,1,0,0:0:0:0:
385,209,4768,1,0,0:0:0:0:
397,69,4925,1,0,0:0:0:0:
236,55,5082,5,2,0:0:0:0:
188,121,5239,1,0,0:0:0:0:
223,195,5396,1,0,0:0:0:0:
304,202,5553,1,0,0:0:0:0:
339,276,5710,1,0,0:0:0:0:
292,342,5867,1,0,0:0:0:0:
258,269,6024,5,0,0:0:0:0:
304,202,6181,1,0,0:0:0:0:
385,209,6338,1,0,0:0:0:0:
433,142,6495,1,0,0:0:0:0:
315,62,6652,5,0,0:0:0:0:
385,209,6809,1,0,0:0:0:0:
236,55,6966,5,0,0:0:0:0:
304,202,7124,1,0,0:0:0:0:
155,48,7281,5,0,0:0:0:0:
223,195,7438,1,0,0:0:0:0:
60,181,7595,5,2,0:0:0:0:
108,114,7752,1,0,0:0:0:0:
188,121,7909,1,0,0:0:0:0:
223,195,8066,1,0,0:0:0:0:
209,335,8223,5,2,0:0:0:0:
127,327,8380,1,0,0:0:0:0:
93,254,8537,1,0,0:0:0:0:
141,188,8694,1,0,0:0:0:0:
269,128,8851,5,2,0:0:0:0:
304,202,9008,1,0,0:0:0:0:
258,269,9165,5,0,0:0:0:0:
351,135,9323,1,0,0:0:0:0:
421,282,9480,1,2,0:0:0:0:
304,202,9637,1,0,0:0:0:0:
465,217,9794,1,0,0:0:0:0:
372,350,9951,1,0,0:0:0:0:
385,209,10108,6,0,L|392:121,1,67.5000025749208,6|0,0:0|0:0,0:0:0:0:
235,188,10422,2,0,P|267:201|311:197,1,67.5000025749208
286,117,10736,1,8,0:0:0:0:
199,109,10893,1,0,0:0:0:0:
60,170,11050,2,0,L|53:258,1,67.5000025749208,2|0,0:0|0:0,0:0:0:0:
142,247,11364,2,0,L|149:159,1,67.5000025749208,2|0,0:0|0:0,0:0:0:0:
90,38,11679,6,0,P|95:73|120:109,1,67.5000025749208
199,109,11993,1,8,0:0:0:0:
165,29,12150,1,0,0:0:0:0:
103,228,12307,2,0,P|130:206|149:166,1,67.5000025749208
276,243,12621,6,0,L|188:250,1,67.5000025749208,2|0,0:0|0:0,0:0:0:0:
112,367,12935,2,0,P|139:345|158:305,1,67.5000025749208
129,217,13249,1,8,0:0:0:0:
78,287,13406,1,0,0:0:0:0:
243,327,13563,6,0,L|310:321,1,67.5000025749208,2|0,0:0|0:0,0:0:0:0:
430,245,13877,2,0,L|362:250,1,67.5000025749208,2|0,0:0|0:0,0:0:0:0:
257,175,14192,2,0,L|324:169,1,67.5000025749208,2|0,0:0|0:0,0:0:0:0:
374,99,14506,1,8,0:0:0:0:
337,21,14663,1,0,0:0:0:0:
252,14,14820,1,0,0:0:0:0:
202,84,14977,1,0,0:0:0:0:
237,162,15134,6,0,L|231:229,1,67.5000025749208,2|0,0:0|0:0,0:0:0:0:
87,166,15448,2,0,P|119:152|163:156,1,67.5000025749208
137,236,15762,1,8,0:0:0:0:
52,245,15919,1,0,0:0:0:0:
36,96,16076,2,0,L|41:28,1,67.5000025749208,2|0,0:0|0:0,0:0:0:0:
211,9,16391,2,0,L|205:76,1,67.5000025749208,2|0,0:0|0:0,0:0:0:0:
149,217,16705,6,0,P|154:181|179:146,1,67.5000025749208
340,130,17019,1,8,0:0:0:0:
276,290,17176,1,0,0:0:0:0:
255,143,17333,2,0,P|260:107|285:72,1,67.5000025749208
393,197,17647,6,0,L|387:264,1,67.5000025749208,2|0,0:0|0:0,0:0:0:0:
238,289,17961,2,0,P|270:275|314:279,1,67.5000025749208
440,330,18275,1,8,0:0:0:0:
290,354,18432,1,0,0:0:0:0:
471,253,18590,6,0,L|476:185,1,67.5000025749208,2|0,0:0|0:0,0:0:0:0:
242,201,18904,2,0,L|309:206,1,67.5000025749208,2|0,0:0|0:0,0:0:0:0:
144,0,19218,2,0,L|138:67,1,67.5000025749208,2|0,0:0|0:0,0:0:0:0:
340,46,19532,6,0,L|306:43,1,33.7500012874604,8|0,0:0|0:0,0:0:0:0:
275,125,19689,2,0,L|308:122,1,33.7500012874604,2|0,0:0|0:0,0:0:0:0:
340,204,19846,2,0,L|306:201,1,33.7500012874604,2|0,0:0|0:0,0:0:0:0:
275,283,20003,2,0,L|308:280,1,33.7500012874604,2|0,0:0|0:0,0:0:0:0:
340,362,20160,6,0,P|387:323|395:271,1,90,6|0,0:0|0:0,0:0:0:0:
192,129,20474,2,0,P|202:189|243:222,1,90
482,104,20788,2,0,L|392:111,1,90,8|0,0:0|0:0,0:0:0:0:
274,282,21103,2,0,L|318:277,1,45
392,110,21260,2,0,L|347:114,1,45
227,199,21417,2,0,L|317:192,1,90,2|0,0:0|0:0,0:0:0:0:
127,59,21731,6,0,L|122:103,1,45
222,243,21888,2,0,L|226:198,1,45
91,240,22045,2,0,L|84:330,1,90,8|0,0:0|0:0,0:0:0:0:
272,313,22359,2,0,P|311:266|310:214,1,90
194,97,22673,6,0,B|196:109|196:109|191:120|191:120|194:133|194:133|189:144|189:144|192:157|192:157|187:168|187:168|190:181|190:181|185:192,1,90,2|0,0:0|0:0,0:0:0:0:
364,79,22987,2,0,P|338:23|290:2,1,90
399,229,23302,2,0,L|489:222,1,90,8|0,0:0|0:0,0:0:0:0:
317,238,23616,6,0,L|312:282,1,45
240,204,23773,2,0,L|214:240,1,45
190,136,23930,2,0,P|147:159|108:174,1,90,2|0,0:0|0:0,0:0:0:0:
182,55,24244,2,0,P|205:53|227:59,1,45,2|0,0:3|0:3,0:3:0:0:
119,252,24401,2,0,P|95:253|74:248,1,45,2|0,0:3|0:3,0:3:0:0:
240,204,24558,1,8,0:0:0:0:
109,174,24715,2,0,P|107:150|113:129,1,45,2|0,0:3|0:3,0:3:0:0:
166,318,24872,2,0,P|146:331|125:337,1,45,2|0,0:3|0:3,0:3:0:0:
318,343,25029,2,0,P|339:353|354:368,1,45,2|0,0:3|0:3,0:3:0:0:
413,222,25186,6,0,B|411:210|411:210|416:199|416:199|413:186|413:186|418:175|418:175|415:162|415:162|420:151|420:151|417:138|417:138|422:127,1,90,2|0,0:0|0:0,0:0:0:0:
381,295,25501,2,0,P|442:295|482:260,1,90
255,240,25815,2,0,L|165:233,1,90,8|0,0:0|0:0,0:0:0:0:
304,67,26129,2,0,L|349:71,1,45
299,245,26286,2,0,L|255:240,1,45
183,133,26443,2,0,L|273:140,1,90,2|0,0:0|0:0,0:0:0:0:
223,312,26757,6,0,L|219:346,1,22.5
184,294,26836,2,0,L|185:271,1,22.5
147,302,26914,2,0,L|143:336,1,22.5
111,291,26993,2,0,L|112:268,1,22.5
75,300,27071,2,0,B|31:305|31:305|-10:248,1,90,8|0,0:0|0:0,0:0:0:0:
133,106,27385,2,0,P|169:131|187:171,1,90
55,117,27699,6,0,B|53:105|53:105|58:94|58:94|55:81|55:81|60:70|60:70|57:57|57:57|62:46|62:46|59:33|59:33|64:22,1,90,2|0,0:0|0:0,0:0:0:0:
103,179,28014,2,0,P|62:198|18:193,1,90
163,34,28328,2,0,L|253:41,1,90,8|0,0:0|0:0,0:0:0:0:
269,172,28642,2,0,L|225:167,1,45
299,101,28799,2,0,L|344:105,1,45
404,239,28956,2,0,L|314:232,1,90,2|0,0:0|0:0,0:0:0:0:
258,321,29270,6,0,P|251:297|253:277,1,45,2|0,0:3|0:3,0:3:0:0:
112,297,29427,2,0,P|117:273|129:256,1,45,2|0,0:3|0:3,0:3:0:0:
59,156,29584,1,8,0:0:0:0:
185,64,29741,2,0,P|191:87|190:108,1,45,2|0,0:3|0:3,0:3:0:0:
333,85,29898,2,0,P|327:108|315:125,1,45,2|0,0:3|0:3,0:3:0:0:
388,221,30055,2,0,P|371:238|352:247,1,45,2|0,0:3|0:3,0:3:0:0:
231,210,30213,5,6,0:0:0:0:
434,110,30370,1,0,0:0:0:0:
387,326,30527,1,2,0:0:0:0:
314,126,30684,1,0,0:0:0:0:
467,291,30841,2,0,P|475:335|458:376,1,90,10|0,0:0|0:0,0:0:0:0:
255,312,31155,2,0,L|304:316,1,45,2|0,0:0|0:0,0:0:0:0:
196,129,31312,2,0,L|151:125,1,45
335,67,31469,6,0,B|347:65|347:65|358:70|358:70|371:67|371:67|382:72|382:72|395:69|395:69|406:74|406:74|419:71|419:71|430:76,1,90,2|0,0:0|0:0,0:0:0:0:
234,211,31783,1,2,0:0:0:0:
158,47,31940,1,0,0:0:0:0:
315,171,32097,2,0,B|338:213|313:256|313:256|256:277,1,135,10|0,0:0|0:0,0:0:0:0:
227,373,32412,2,0,B|203:330|228:287|228:287|284:268,1,135,2|0,0:0|0:0,0:0:0:0:
107,236,32726,6,0,B|109:248|109:248|104:259|104:259|107:272|107:272|102:283|102:283|105:296|105:296|100:307|100:307|103:320|103:320|98:331,1,90,2|0,0:0|0:0,0:0:0:0:
32,187,33040,2,0,P|62:154|105:143,1,90,2|0,0:0|0:0,0:0:0:0:
273,94,33354,2,0,L|177:102,1,90,10|0,0:0|0:0,0:0:0:0:
33,7,33668,2,0,L|78:3,1,45,2|0,0:0|0:0,0:0:0:0:
183,101,33825,2,0,L|138:105,1,45
243,201,33982,5,2,0:0:0:0:
254,220,34061,1,2,0:0:0:0:
270,235,34139,1,2,0:0:0:0:
290,246,34218,1,0,0:0:0:0:
312,250,34296,6,0,L|357:246,1,45,2|0,0:3|0:3,0:3:0:0:
409,86,34453,2,0,L|364:82,1,45,2|0,0:3|0:3,0:3:0:0:
339,167,34610,6,0,L|384:163,1,45,2|0,0:3|0:3,0:3:0:0:
436,3,34768,2,0,L|391:-1,1,45,2|0,0:3|0:3,0:3:0:0:
236,106,34925,6,0,L|281:102,1,45,2|0,0:3|0:3,0:3:0:0:
490,111,35082,2,0,L|494:66,1,45,2|0,0:3|0:3,0:3:0:0:
463,193,35239,5,2,0:1:0:0:
366,85,35396,1,2,0:1:0:0:
392,246,35553,5,2,0:1:0:0:
361,103,35710,1,2,0:1:0:0:
304,256,35867,5,2,0:1:0:0:
348,116,36024,1,2,0:1:0:0:
222,220,36181,5,2,0:1:0:0:
330,120,36338,1,2,0:1:0:0:
169,147,36495,5,2,0:1:0:0:
333,231,36652,1,2,0:1:0:0:
159,217,36809,5,2,0:1:0:0:
335,162,36966,1,2,0:1:0:0:
206,272,37124,5,2,0:1:0:0:
291,109,37281,1,2,0:1:0:0:
278,278,37438,5,2,0:1:0:0:
222,103,37595,1,2,0:1:0:0:
333,231,37752,5,2,0:1:0:0:
347,261,37830,1,2,0:1:0:0:
350,298,37909,1,2,0:1:0:0:
336,332,37987,1,2,0:1:0:0:
314,359,38066,5,2,0:1:0:0:
281,376,38145,1,2,0:1:0:0:
245,378,38223,1,2,0:1:0:0:
212,365,38302,1,2,0:1:0:0:
184,342,38380,5,2,0:1:0:0:
169,310,38459,1,2,0:1:0:0:
166,273,38537,1,2,0:1:0:0:
178,240,38616,1,2,0:1:0:0:
201,213,38694,6,2,L|223:193,2,22.5,2|2|2,0:1|0:1|0:1,0:1:0:0:
272,189,38851,2,2,L|257:171,2,22.5,2|2|2,0:1|0:1|0:1,0:1:0:0:
267,94,39008,5,0,0:0:0:0:
231,95,39087,1,0,0:0:0:0:
195,96,39165,1,0,0:0:0:0:
159,97,39244,1,0,0:0:0:0:
123,98,39323,1,0,0:0:0:0:
88,100,39401,1,0,0:0:0:0:
53,102,39480,1,0,0:0:0:0:
105,182,39637,5,0,0:0:0:0:
96,17,39794,1,0,0:0:0:0:
200,177,39951,1,0,0:0:0:0:
53,102,40108,1,0,0:0:0:0:
156,261,40265,6,0,P|137:326|92:355,1,112.5,4|0,0:2|0:0,0:0:0:0:
249,256,40579,2,0,P|314:275|343:320,1,112.5
244,163,40893,2,0,P|263:98|308:69,1,112.5
151,168,41207,2,0,P|86:149|57:104,1,112.5
188,11,41521,6,0,L|320:22,1,112.5
511,165,41836,2,0,L|378:176,1,112.5
188,319,42150,2,0,L|320:330,1,112.5
211,187,42464,2,0,L|78:198,1,112.5
253,91,42778,6,0,P|299:139|302:193,1,112.5
132,283,43092,2,0,P|180:236|234:233,1,112.5
359,367,43406,2,0,P|312:318|309:264,1,112.5
478,173,43720,2,0,P|429:219|375:222,1,112.5
392,34,44035,6,0,L|524:45,1,112.5
234,106,44349,2,0,L|366:117,1,112.5
73,17,44663,2,0,L|205:28,1,112.5
96,188,44977,1,2,0:1:0:0:
285,349,45134,1,2,0:1:0:0:
266,103,45291,6,0,P|214:85|162:103,1,112.5
398,145,45605,2,0,P|387:90|346:53,1,112.5
427,279,45919,2,0,P|468:242|480:188,1,112.5
325,371,46234,2,0,P|377:389|429:371,1,112.5
251,215,46548,6,0,L|242:328,1,112.5
330,165,46862,2,0,L|442:175,1,112.5
248,122,47176,2,0,L|257:9,1,112.5
169,172,47490,2,0,L|57:162,1,112.5
330,165,47804,6,0,P|323:109|286:68,1,112.5
210,357,48118,2,0,P|264:350|305:312,1,112.5
16,237,48432,2,0,P|21:291|59:332,1,112.5
135,44,48747,2,0,P|79:49|39:86,1,112.5
159,180,49061,6,0,B|216:190|251:168|240:152|247:131|295:123|333:157|318:208|259:194,1,215.999993408203
186,104,49846,1,2,0:0:0:0:
351,71,50003,1,8,0:2:0:0:
374,80,50082,1,0,0:0:0:0:
395,99,50160,1,0,0:0:0:0:
409,124,50239,1,0,0:0:0:0:
413,151,50317,6,0,P|405:205|366:244,1,112.5,4|0,0:0|0:0,0:0:0:0:
213,158,50631,2,0,L|343:169,1,112.5,8|0,0:0|0:0,0:0:0:0:
406,320,50946,2,0,P|351:327|303:299,1,112.5
489,55,51260,2,0,L|500:185,1,112.5,8|0,0:0|0:0,0:0:0:0:
192,301,51574,2,0,P|213:249|261:222,1,112.5
146,374,51888,2,0,L|33:364,1,112.5,8|0,0:0|0:0,0:0:0:0:
71,197,52202,2,0,P|104:240|104:296,1,112.5
30,119,52516,2,0,L|39:6,1,112.5,8|0,0:0|0:0,0:0:0:0:
277,37,52830,5,0,0:0:0:0:
277,37,52909,1,0,0:0:0:0:
277,37,52987,1,0,0:0:0:0:
230,112,53145,2,0,L|117:121,1,112.5,8|0,0:0|0:0,0:0:0:0:
318,115,53459,5,0,0:0:0:0:
318,115,53537,1,0,0:0:0:0:
318,115,53616,1,0,0:0:0:0:
271,190,53773,2,0,L|158:199,1,112.5,8|0,0:0|0:0,0:0:0:0:
359,193,54087,5,0,0:0:0:0:
359,193,54165,1,0,0:0:0:0:
359,193,54244,1,0,0:0:0:0:
312,268,54401,2,0,L|199:277,1,112.5,8|0,0:0|0:0,0:0:0:0:
400,271,54715,5,0,0:0:0:0:
400,271,54794,1,0,0:0:0:0:
400,271,54872,1,0,0:0:0:0:
353,346,55029,1,8,0:0:0:0:
405,118,55186,1,2,0:3:0:0:
154,142,55343,5,0,0:0:0:0:
172,164,55422,1,0,0:0:0:0:
194,182,55501,1,0,0:0:0:0:
219,195,55579,1,0,0:0:0:0:
246,203,55658,2,0,L|358:193,1,112.5,8|0,0:0|0:0,0:0:0:0:
492,120,55972,5,0,0:0:0:0:
475,89,56050,1,0,0:0:0:0:
451,67,56129,1,0,0:0:0:0:
420,48,56207,1,0,0:0:0:0:
390,37,56286,2,0,L|267:48,1,116.999994644165,8|0,0:0|0:0,0:0:0:0:
297,271,56600,5,0,0:0:0:0:
334,254,56679,1,0,0:0:0:0:
364,228,56757,1,0,0:0:0:0:
387,197,56836,1,0,0:0:0:0:
400,158,56914,2,0,L|388:34,1,121.500000463486,8|0,0:0|0:0,0:0:0:0:
154,142,57228,5,0,0:0:0:0:
110,154,57307,1,0,0:0:0:0:
73,179,57385,1,0,0:0:0:0:
44,214,57464,1,0,0:0:0:0:
27,256,57542,2,0,L|38:381,1,125.999996154785,8|0,0:0|0:0,0:0:0:0:
274,209,57857,5,0,0:0:0:0:
264,157,57935,1,0,0:0:0:0:
242,112,58014,1,0,0:0:0:0:
205,78,58092,1,0,0:0:0:0:
157,58,58171,2,0,L|22:69,1,130.500003982544,8|0,0:0|0:0,0:0:0:0:
286,296,58485,5,0,0:0:0:0:
342,299,58563,1,0,0:0:0:0:
394,279,58642,1,0,0:0:0:0:
434,240,58720,1,0,0:0:0:0:
454,186,58799,2,0,L|441:41,1,135.000005149842,8|0,0:0|0:0,0:0:0:0:
326,194,59113,5,8,0:0:0:0:
359,339,59270,1,0,0:0:0:0:
385,257,59427,1,8,0:0:0:0:
274,357,59584,1,0,0:0:0:0:
242,214,59741,1,8,0:0:0:0:
359,339,59898,5,8,0:0:0:0:
387,342,59977,1,8,0:0:0:0:
417,337,60055,1,8,0:0:0:0:
442,323,60134,1,8,0:0:0:0:
458,299,60213,1,8,0:0:0:0:
465,268,60291,1,8,0:0:0:0:
464,239,60370,6,0,B|459:188|459:188|436:178|436:178|432:127,1,125.999996154785,12|0,0:0|0:0,0:0:0:0:
186,168,60684,1,8,0:0:0:0:
357,248,60841,1,0,0:0:0:0:
232,69,60998,1,0,0:0:0:0:
140,268,61155,1,0,0:0:0:0:
295,157,61312,5,8,0:0:0:0:
123,80,61469,1,0,0:0:0:0:
346,61,61626,1,0,0:0:0:0:
251,257,61783,1,0,0:0:0:0:
236,40,61940,5,8,0:0:0:0:
148,240,62097,1,0,0:0:0:0:
42,119,62254,5,0,0:0:0:0:
105,340,62412,1,0,0:0:0:0:
249,142,62569,5,8,0:0:0:0:
213,327,62726,1,0,0:0:0:0:
40,253,62883,5,0,0:0:0:0:
254,223,63040,1,0,0:0:0:0:
105,340,63197,1,8,0:0:0:0:
187,140,63354,1,0,0:0:0:0:
321,306,63511,5,0,0:0:0:0:
149,240,63668,1,0,0:0:0:0:
216,323,63825,1,8,0:0:0:0:
358,206,63982,1,0,0:0:0:0:
427,289,64139,5,0,0:0:0:0:
252,223,64296,1,0,0:0:0:0:
294,379,64453,1,8,0:0:0:0:
358,206,64610,5,0,0:0:0:0:
387,373,64768,1,0,0:0:0:0:
228,315,64925,1,0,0:0:0:0:
395,286,65082,1,8,0:0:0:0:
287,156,65239,1,0,0:0:0:0:
316,323,65396,6,0,P|362:367|426:367,1,125.999996154785
286,139,65710,1,8,0:0:0:0:
248,239,65867,1,0,0:0:0:0:
392,122,66024,1,0,0:0:0:0:
218,55,66181,1,0,0:0:0:0:
354,223,66338,5,8,0:0:0:0:
323,38,66495,1,0,0:0:0:0:
179,155,66652,1,0,0:0:0:0:
392,122,66809,1,0,0:0:0:0:
192,45,66966,5,8,0:0:0:0:
226,257,67124,1,0,0:0:0:0:
86,64,67281,5,0,0:0:0:0:
14,295,67438,1,0,0:0:0:0:
251,242,67595,5,8,0:0:0:0:
49,164,67752,1,0,0:0:0:0:
214,342,67909,5,0,0:0:0:0:
145,259,68066,1,0,0:0:0:0:
320,325,68223,1,8,0:0:0:0:
108,359,68380,1,0,0:0:0:0:
184,159,68537,5,0,0:0:0:0:
214,342,68694,1,0,0:0:0:0:
79,176,68851,1,8,0:0:0:0:
289,142,69008,1,0,0:0:0:0:
194,219,69165,5,0,0:0:0:0:
424,309,69323,1,0,0:0:0:0:
326,45,69480,5,8,0:0:0:0:
321,325,69637,1,0,0:0:0:0:
495,111,69794,5,0,0:0:0:0:
184,159,69951,1,0,0:0:0:0:
424,309,70108,5,2,1:0:0:0:
391,128,70265,1,2,1:0:0:0:
382,109,70343,1,2,1:0:0:0:
373,90,70422,6,0,B|356:54|356:54|260:43,1,125.999996154785,12|0,0:0|0:0,0:0:0:0:
297,286,70736,1,8,0:0:0:0:
127,220,70893,1,0,0:0:0:0:
335,188,71050,1,0,0:0:0:0:
258,384,71207,1,0,0:0:0:0:
232,205,71364,5,8,0:0:0:0:
87,318,71521,1,0,0:0:0:0:
269,290,71679,1,0,0:0:0:0:
154,147,71836,1,0,0:0:0:0:
182,328,71993,5,8,0:0:0:0:
241,109,72150,1,0,0:0:0:0:
22,167,72307,5,0,0:0:0:0:
232,205,72464,1,0,0:0:0:0:
160,5,72621,5,8,0:0:0:0:
100,225,72778,1,0,0:0:0:0:
320,165,72935,5,0,0:0:0:0:
151,97,73092,1,0,0:0:0:0:
281,263,73249,1,8,0:0:0:0:
359,67,73406,1,0,0:0:0:0:
216,181,73563,5,0,0:0:0:0:
424,149,73720,1,0,0:0:0:0:
386,248,73877,1,8,0:0:0:0:
281,263,74035,1,0,0:0:0:0:
254,82,74192,5,0,0:0:0:0:
386,248,74349,1,0,0:0:0:0:
178,280,74506,1,8,0:0:0:0:
320,164,74663,5,0,0:0:0:0:
452,329,74820,1,0,0:0:0:0:
281,263,74977,1,0,0:0:0:0:
490,232,75134,1,8,0:0:0:0:
348,345,75291,1,8,0:0:0:0:
424,151,75448,6,0,B|421:89|421:89|358:68,1,125.999996154785,8|0,0:0|0:0,0:0:0:0:
111,194,75762,5,8,0:0:0:0:
348,345,75919,1,0,0:0:0:0:
255,81,76076,5,8,0:0:0:0:
74,286,76234,1,0,0:0:0:0:
320,164,76391,5,8,0:0:0:0:
47,109,76548,1,0,0:0:0:0:
177,274,76705,6,0,B|229:240|229:240|215:175,1,125.999996154785,8|0,0:0|0:0,0:0:0:0:
31,383,77019,5,8,0:0:0:0:
153,98,77176,1,0,0:0:0:0:
242,356,77333,5,8,0:0:0:0:
259,87,77490,1,0,0:0:0:0:
454,334,77647,5,8,0:0:0:0:
365,76,77804,1,0,0:0:0:0:
179,269,77961,5,8,0:0:0:0:
497,235,78118,1,0,0:0:0:0:
220,76,78275,1,8,0:0:0:0:
351,368,78432,1,0,0:0:0:0:
417,55,78590,1,8,0:0:0:0:
225,144,78747,5,0,0:0:0:0:
252,177,78825,1,0,0:0:0:0:
291,199,78904,1,8,0:0:0:0:
334,203,78982,1,0,0:0:0:0:
376,191,79061,1,0,0:0:0:0:
411,163,79139,1,0,0:0:0:0:
433,125,79218,5,0,0:0:0:0:
433,142,79296,1,0,0:0:0:0:
435,161,79375,1,0,0:0:0:0:
437,180,79453,1,0,0:0:0:0:
438,199,79532,5,0,0:0:0:0:
288,311,79689,1,0,0:0:0:0:
395,298,79846,1,0,0:0:0:0:
224,225,80003,1,0,0:0:0:0:
182,322,80160,2,0,P|129:275|120:211,1,125.999996154785
275,129,80474,6,0,L|343:122,1,67.5000025749208,6|0,0:0|0:0,0:0:0:0:
316,37,80788,2,0,L|385:30,1,67.5000025749208
215,48,81103,2,0,L|144:53,1,67.5000025749208
173,140,81417,2,0,L|102:145,1,67.5000025749208
131,232,81731,5,2,0:0:0:0:
394,296,82045,1,0,0:0:0:0:
319,37,82359,1,0,0:0:0:0:
255,299,82673,5,0,0:0:0:0:
442,104,82987,2,0,L|435:173,1,67.5000025749208,2|0,0:0|0:0,0:0:0:0:
340,115,83302,2,0,L|333:184,2,67.5000025749208
381,22,83773,1,0,0:0:0:0:
280,33,83930,1,0,0:0:0:0:
241,125,84087,1,0,0:0:0:0:
141,138,84244,6,0,P|115:164|101:218,1,67.5000025749208,2|0,0:0|0:0,0:0:0:0:
65,283,84558,2,0,P|91:308|145:322,1,67.5000025749208,0|0,0:0|0:0,0:0:0:0:
210,359,84872,2,0,P|235:332|249:278,1,67.5000025749208,0|0,0:0|0:0,0:0:0:0:
286,214,85186,2,0,P|259:188|205:174,1,67.5000025749208,0|0,0:0|0:0,0:0:0:0:
175,248,85501,5,2,0:0:0:0:
239,329,85658,1,0,0:0:0:0:
341,315,85815,1,0,0:0:0:0:
381,219,85972,1,0,0:0:0:0:
278,234,86129,5,0,0:0:0:0:
341,315,86286,1,0,0:0:0:0:
444,301,86443,1,0,0:0:0:0:
484,205,86600,1,0,0:0:0:0:
421,123,86757,6,0,L|414:52,1,67.5000025749208,2|0,0:0|0:0,0:0:0:0:
314,72,87071,2,0,L|319:141,1,67.5000025749208
217,149,87385,1,0,0:0:0:0:
217,149,87699,6,0,L|210:78,1,67.5000025749208
178,244,88014,2,0,P|145:228|121:203,2,67.5000025749208,2|0|0,0:0|0:0|0:0,0:0:0:0:
348,227,88642,2,0,L|277:233,1,67.5000025749208
310,323,88956,5,0,0:0:0:0:
411,308,89113,1,0,0:0:0:0:
449,212,89270,2,0,L|442:141,1,67.5000025749208,2|0,0:0|0:0,0:0:0:0:
380,67,89584,2,0,L|335:62,3,33.7500012874604,0|0|0|0,0:0|0:0|0:0|0:0,0:0:0:0:
361,114,89898,5,0,0:0:0:0:
323,209,90055,1,0,0:0:0:0:
222,223,90213,1,0,0:0:0:0:
151,144,90370,1,0,0:0:0:0:
260,127,90527,6,0,L|266:195,1,67.5000025749208,6|0,0:0|0:0,0:0:0:0:
163,207,90841,2,0,L|169:275,1,67.5000025749208,0|0,0:0|0:0,0:0:0:0:
142,83,91155,2,0,L|134:12,1,67.5000025749208,8|0,0:0|0:0,0:0:0:0:
46,162,91469,2,0,L|38:91,1,67.5000025749208
67,287,91783,5,2,0:0:0:0:
436,318,92097,1,0,0:0:0:0:
133,106,92412,1,8,0:0:0:0:
212,274,92569,5,0,0:0:0:0:
248,179,92726,1,0,0:0:0:0:
349,161,92883,1,0,0:0:0:0:
413,238,93040,2,0,P|415:273|405:306,1,67.5000025749208,2|0,0:0|0:0,0:0:0:0:
349,161,93354,2,0,P|377:141|411:131,1,67.5000025749208
313,256,93668,1,8,0:0:0:0:
248,179,93825,5,0,0:0:0:0:
284,84,93982,1,0,0:0:0:0:
185,101,94139,1,0,0:0:0:0:
120,24,94296,6,0,L|49:30,1,67.5000025749208,2|0,0:0|0:0,0:0:0:0:
85,118,94610,2,0,L|15:124,1,67.5000025749208
149,195,94925,2,0,L|218:187,1,67.5000025749208,8|0,0:0|0:0,0:0:0:0:
212,272,95239,2,0,L|281:264,1,67.5000025749208
177,365,95553,5,2,0:0:0:0:
113,287,95710,1,0,0:0:0:0:
150,194,95867,1,0,0:0:0:0:
250,179,96024,1,0,0:0:0:0:
213,273,96181,5,8,0:0:0:0:
314,259,96338,1,0,0:0:0:0:
353,165,96495,1,0,0:0:0:0:
291,85,96652,1,0,0:0:0:0:
391,71,96809,6,0,L|460:63,2,67.5000025749208,2|0|0,0:0|0:0|0:0,0:0:0:0:
250,179,97438,1,8,0:0:0:0:
453,152,97595,5,0,0:0:0:0:
353,165,97752,1,0,0:0:0:0:
314,259,97909,1,0,0:0:0:0:
373,339,98066,2,0,P|408:347|442:344,2,67.5000025749208,2|0|0,0:0|0:0|0:0,0:0:0:0:
177,365,98694,1,8,0:0:0:0:
250,179,99008,5,0,0:0:0:0:
211,272,99165,1,0,0:0:0:0:
113,287,99323,2,0,L|42:279,1,67.5000025749208,2|0,0:0|0:0,0:0:0:0:
117,187,99637,2,0,L|152:191,3,33.7500012874604
136,139,99951,5,8,0:0:0:0:
175,44,100108,1,0,0:0:0:0:
277,30,100265,1,0,0:0:0:0:
339,110,100422,1,0,0:0:0:0:
300,204,100579,2,0,B|283:207|283:207|267:200,7,33.7500012874604,2|0|0|0|0|0|0|0,0:0|0:0|0:0|0:0|0:0|0:0|0:0|0:0,0:0:0:0:
281,253,101207,5,8,0:2:0:0:
343,333,101364,1,0,0:0:0:0:
444,320,101521,1,0,0:0:0:0:
482,226,101679,1,0,0:0:0:0:
419,145,101836,5,0,0:0:0:0:
402,143,101914,1,0,0:0:0:0:
385,141,101993,1,0,0:0:0:0:
368,140,102071,1,0,0:0:0:0:
351,138,102150,5,0,0:0:0:0:
391,38,102307,1,0,0:0:0:0:
245,154,102464,1,8,0:0:0:0:
285,55,102621,1,0,0:0:0:0:
311,237,102778,2,0,P|236:260|191:242,1,90,2|0,0:0|0:0,0:0:0:0:
134,93,103092,6,0,L|140:169,1,76.5000014591217,4|0,0:0|0:0,0:0:0:0:
67,10,103406,2,0,L|143:3,1,76.5000014591217
165,18,103642,1,0,0:0:0:0:
186,34,103720,2,0,L|262:27,1,76.5000014591217,2|0,0:1|0:0,0:0:0:0:
142,130,104035,2,0,L|66:137,1,76.5000014591217
209,213,104349,6,0,L|285:206,1,76.5000014591217,2|0,0:1|0:0,0:0:0:0:
428,280,104663,2,0,L|352:287,1,76.5000014591217
335,309,104898,1,0,0:0:0:0:
319,331,104977,2,0,L|243:338,1,76.5000014591217,2|0,0:1|0:0,0:0:0:0:
98,262,105291,2,0,L|174:255,1,76.5000014591217
319,175,105605,6,0,P|306:210|279:237,1,76.5000014591217,2|0,0:1|0:0,0:0:0:0:
285,72,105919,2,0,P|322:65|359:75,1,76.5000014591217
377,94,106155,1,0,0:0:0:0:
388,118,106234,2,0,L|395:194,1,76.5000014591217,2|0,0:1|0:0,0:0:0:0:
502,217,106548,2,0,L|495:141,1,76.5000014591217
459,34,106862,6,0,P|423:25|386:32,1,76.5000014591217,2|0,0:1|0:0,0:0:0:0:
273,175,107176,2,0,P|299:148|312:112,1,76.5000014591217
306,86,107412,1,0,0:0:0:0:
290,63,107490,2,0,L|214:56,1,76.5000014591217,2|0,0:1|0:0,0:0:0:0:
63,130,107804,2,0,L|139:137,1,76.5000014591217,0|0,0:1|0:0,0:0:0:0:
213,301,108118,6,0,P|186:274|173:238,1,76.5000014591217,2|0,0:1|0:0,0:0:0:0:
369,227,108432,2,0,P|363:264|341:295,1,76.5000014591217,0|0,0:1|0:0,0:0:0:0:
315,305,108668,1,0,0:0:0:0:
289,308,108747,2,0,L|213:301,1,76.5000014591217,2|0,0:1|0:0,0:0:0:0:
137,382,109061,2,0,L|61:375,1,76.5000014591217,0|0,0:1|0:0,0:0:0:0:
61,203,109375,6,0,P|51:239|26:268,1,76.5000014591217,2|0,0:1|0:0,0:0:0:0:
28,98,109689,2,0,P|64:88|101:95,1,76.5000014591217,0|0,0:1|0:0,0:0:0:0:
120,113,109925,1,0,0:0:0:0:
134,135,110003,2,0,L|210:142,1,76.5000014591217,2|0,0:1|0:0,0:0:0:0:
319,254,110317,2,0,L|243:247,1,76.5000014591217,0|0,0:1|0:0,0:0:0:0:
394,173,110631,6,0,P|420:199|432:235,1,76.5000014591217,2|0,0:1|0:0,0:0:0:0:
362,68,110946,2,0,P|398:58|435:65,1,76.5000014591217,0|0,0:1|0:0,0:0:0:0:
454,83,111181,1,0,0:0:0:0:
468,105,111260,2,0,P|478:141|502:170,1,76.5000014591217,2|0,0:1|0:0,0:0:0:0:
362,68,111574,2,0,P|337:96|327:133,1,76.5000014591217,0|0,0:3|0:0,0:0:0:0:
221,157,111888,6,0,P|230:192|255:222,1,76.5000014591217,2|0,0:1|0:0,0:0:0:0:
257,65,112202,2,0,P|221:55|184:62,1,76.5000014591217,0|0,0:1|0:0,0:0:0:0:
166,79,112438,1,0,0:0:0:0:
152,101,112516,2,0,P|142:137|117:166,1,76.5000014591217,2|0,0:1|0:0,0:0:0:0:
149,269,112830,2,0,P|112:278|75:271,1,76.5000014591217,0|0,0:1|0:0,0:0:0:0:
222,189,113145,6,0,L|298:195,1,76.5000014591217,4|0,0:0|0:0,0:0:0:0:
255,293,113459,1,0,0:1:0:0:
296,110,113616,1,0,0:0:0:0:
322,112,113694,1,0,0:0:0:0:
346,123,113773,1,2,0:1:0:0:
366,142,113851,1,0,0:0:0:0:
379,164,113930,1,0,0:0:0:0:
453,85,114087,2,0,L|459:8,1,76.5000014591217,0|0,0:1|0:0,0:0:0:0:
485,189,114401,5,2,0:1:0:0:
410,268,114558,1,0,0:0:0:0:
440,372,114715,2,0,L|363:365,1,76.5000014591217,0|0,0:1|0:0,0:0:0:0:
352,373,114951,1,0,0:0:0:0:
342,381,115029,2,0,L|303:377,1,38.2500007295609,2|0,0:1|0:0,0:0:0:0:
275,273,115186,2,0,L|236:269,1,38.2500007295609
208,165,115343,2,0,L|131:158,1,76.5000014591217,0|0,0:1|0:0,0:0:0:0:
236,61,115658,5,2,0:1:0:0:
261,65,115736,1,0,0:0:0:0:
284,78,115815,1,0,0:0:0:0:
302,98,115893,1,0,0:0:0:0:
313,122,115972,2,0,L|309:160,3,38.2500007295609
320,237,116286,5,2,0:1:0:0:
304,256,116364,1,0,0:0:0:0:
281,269,116443,1,0,0:0:0:0:
255,274,116521,1,0,0:0:0:0:
228,272,116600,2,0,L|189:268,3,38.2500007295609
125,302,116914,5,2,0:1:0:0:
108,286,116993,1,0,0:0:0:0:
94,263,117071,1,0,0:0:0:0:
89,237,117150,1,0,0:0:0:0:
91,210,117228,2,0,L|94:170,3,38.2500007295609
61,107,117542,5,2,0:1:0:0:
77,87,117621,1,0,0:0:0:0:
100,72,117699,1,0,0:0:0:0:
127,68,117778,1,0,0:0:0:0:
152,70,117857,2,0,L|190:73,1,38.2500007295609
221,177,118014,2,0,L|182:173,1,38.2500007295609
296,99,118171,6,0,L|334:102,3,38.2500007295609,2|0|0|0,0:1|0:0|0:0|0:0,0:0:0:0:
327,203,118485,2,0,L|361:186,1,38.2500007295609
406,278,118642,2,0,L|427:246,1,38.2500007295609
512,304,118799,6,0,L|508:341,3,38.2500007295609,2|0|0|0,0:1|0:0|0:0|0:0,0:0:0:0:
406,278,119113,2,0,L|409:315,1,38.2500007295609
300,304,119270,2,0,L|296:341,1,38.2500007295609
194,278,119427,6,0,L|197:315,3,38.2500007295609,2|0|0|0,0:1|0:0|0:0|0:0,0:0:0:0:
88,252,119741,2,0,L|71:286,1,38.2500007295609
57,147,119898,2,0,L|25:168,1,38.2500007295609
132,68,120055,6,0,L|169:64,3,38.2500007295609,2|0|0|0,0:1|0:0|0:0|0:0,0:0:0:0:
228,158,120370,2,0,L|266:162,1,38.2500007295609
342,67,120527,2,0,L|379:63,1,38.2500007295609
447,92,120684,5,2,0:1:0:0:
452,122,120762,1,0,0:0:0:0:
447,153,120841,1,0,0:0:0:0:
373,232,120998,2,0,L|296:225,1,76.5000014591217,0|0,0:1|0:0,0:0:0:0:
170,335,121312,5,2,0:1:0:0:
198,324,121391,1,0,0:0:0:0:
222,304,121469,1,0,0:0:0:0:
191,201,121626,2,0,L|198:124,1,76.5000014591217,0|0,0:1|0:0,0:0:0:0:
89,233,121940,5,2,0:1:0:0:
60,222,122019,1,0,0:0:0:0:
36,202,122097,1,0,0:0:0:0:
169,306,122254,2,0,L|162:383,1,76.5000014591217,0|0,0:1|0:0,0:0:0:0:
336,216,122569,6,0,L|373:212,1,38.2500007295609,2|0,0:1|0:0,0:0:0:0:
229,194,122726,2,0,L|225:157,1,38.2500007295609
314,323,122883,6,0,L|318:360,1,38.2500007295609
207,301,123040,2,0,L|170:305,1,38.2500007295609,2|0,0:0|0:0,0:0:0:0:
336,216,123197,5,4,0:0:0:0:
125,229,123354,1,0,0:1:0:0:
250,85,123511,1,2,0:1:0:0:
229,193,123668,1,0,0:1:0:0:
167,13,123825,1,2,0:1:0:0:
353,49,123982,1,0,0:1:0:0:
147,121,124139,1,2,0:1:0:0:
332,157,124296,1,0,0:1:0:0:
167,13,124453,6,0,P|117:11|69:21,1,90,2|0,0:1|0:1,0:1:0:0:
204,117,124768,2,0,P|177:158|162:205,1,90,2|0,0:1|0:1,0:1:0:0:
313,137,125082,2,0,P|336:180|369:217,1,90,2|0,0:1|0:1,0:1:0:0:
385,52,125396,2,0,P|434:53|482:43,1,90,2|0,0:1|0:1,0:1:0:0:
465,173,125710,6,0,P|473:218|443:283,1,90,2|0,0:1|0:1,0:1:0:0:
267,289,126024,2,0,L|356:296,1,90,2|0,0:1|0:1,0:1:0:0:
164,327,126338,2,0,P|151:284|159:240,1,90,2|0,0:1|0:1,0:1:0:0:
269,112,126652,2,0,L|261:201,1,90,2|0,0:1|0:1,0:1:0:0:
75,170,126966,5,2,0:1:0:0:
197,26,127124,1,0,0:1:0:0:
261,201,127281,1,2,0:1:0:0:
159,240,127438,1,0,0:1:0:0:
281,97,127595,1,2,0:1:0:0:
345,272,127752,1,0,0:1:0:0:
470,132,127909,1,2,0:1:0:0:
385,60,128066,1,0,0:1:0:0:
451,242,128223,5,2,0:1:0:0:
365,171,128380,1,0,0:1:0:0:
431,343,128537,1,2,0:1:0:0:
240,310,128694,1,0,0:1:0:0:
422,244,128851,1,2,0:1:0:0:
274,120,129008,1,0,0:1:0:0:
341,302,129165,1,2,0:1:0:0:
466,153,129323,1,0,0:1:0:0:
284,220,129480,6,0,P|234:221|186:211,1,90,2|0,0:1|0:1,0:1:0:0:
279,30,129794,2,0,P|280:79|270:127,1,90,2|0,0:1|0:1,0:1:0:0:
89,35,130108,2,0,P|138:33|186:43,1,90,2|0,0:1|0:1,0:1:0:0:
94,225,130422,2,0,P|92:175|102:127,1,90,2|0,0:1|0:1,0:1:0:0:
154,307,130736,6,0,P|112:326|42:314,1,90,2|0,0:1|0:1,0:1:0:0:
259,269,131050,2,0,L|348:276,1,90,2|0,0:1|0:1,0:1:0:0:
173,197,131364,2,0,P|176:151|222:96,1,90,2|0,0:1|0:1,0:1:0:0:
259,269,131679,2,0,L|251:358,1,90,2|0,0:1|0:1,0:1:0:0:
279,159,131993,5,2,0:1:0:0:
345,342,132150,1,0,0:1:0:0:
471,194,132307,1,2,0:1:0:0:
288,260,132464,1,0,0:1:0:0:
480,295,132621,1,2,0:1:0:0:
415,112,132778,1,0,0:1:0:0:
372,202,132935,1,2,0:1:0:0:
215,125,133092,1,0,0:1:0:0:
361,28,133249,6,0,P|411:24|460:28,1,99.0000030212403,8|2,0:0|0:1,0:0:0:0:
272,209,133563,2,0,P|221:212|173:209,1,99.0000030212403,8|2,0:0|0:1,0:0:0:0:
234,101,133877,1,8,0:0:0:0:
310,317,134035,1,2,0:1:0:0:
84,273,134192,1,8,0:0:0:0:
272,209,134349,1,2,0:1:0:0:
122,381,134506,6,0,P|71:384|23:381,1,99.0000030212403,8|2,0:0|0:1,0:0:0:0:
46,164,134820,2,0,P|96:160|145:164,1,99.0000030212403,8|2,0:0|0:1,0:0:0:0:
182,272,135134,1,8,0:0:0:0:
106,54,135291,1,2,0:1:0:0:
253,125,135448,1,8,0:0:0:0:
35,201,135605,1,2,0:1:0:0:
263,245,135762,6,0,P|266:195|262:146,1,99.0000030212403,8|2,0:0|0:1,0:0:0:0:
147,25,136076,2,0,P|143:74|147:123,1,99.0000030212403,8|2,0:0|0:1,0:0:0:0:
375,69,136391,1,8,0:0:0:0:
334,266,136548,1,2,0:1:0:0:
184,129,136705,1,8,0:0:0:0:
383,173,136862,1,2,0:1:0:0:
256,354,137019,6,0,P|206:357|157:354,1,99.0000030212403,8|2,0:0|0:1,0:0:0:0:
334,266,137333,2,0,P|383:262|432:265,1,99.0000030212403,8|2,0:0|0:1,0:0:0:0:
371,377,137647,1,8,0:0:0:0:
219,243,137804,1,2,0:1:0:0:
412,179,137961,1,8,0:0:0:0:
256,354,138118,1,2,0:1:0:0:
334,266,138275,5,8,0:0:0:0:
336,246,138354,1,0,0:0:0:0:
337,227,138432,1,0,0:0:0:0:
339,207,138511,1,0,0:0:0:0:
341,187,138590,1,8,0:0:0:0:
342,168,138668,1,0,0:0:0:0:
344,148,138747,1,0,0:0:0:0:
345,129,138825,1,0,0:0:0:0:
346,110,138904,5,8,0:0:0:0:
341,81,138982,1,0,0:0:0:0:
324,57,139061,1,0,0:0:0:0:
299,40,139139,1,0,0:0:0:0:
270,34,139218,1,8,0:0:0:0:
241,40,139296,1,0,0:0:0:0:
216,57,139375,1,0,0:0:0:0:
200,81,139453,1,0,0:0:0:0:
194,110,139532,5,8,0:0:0:0:
200,149,139610,1,0,0:0:0:0:
194,190,139689,1,0,0:0:0:0:
171,222,139768,1,0,0:0:0:0:
137,245,139846,1,8,0:0:0:0:
98,252,139925,1,0,0:0:0:0:
58,245,140003,1,0,0:0:0:0:
25,222,140082,1,0,0:0:0:0:
3,190,140160,5,8,0:0:0:0:
44,163,140239,1,0,0:0:0:0:
92,153,140317,1,0,0:0:0:0:
141,163,140396,1,0,0:0:0:0:
182,190,140474,1,8,0:0:0:0:
210,231,140553,1,0,0:0:0:0:
219,280,140631,1,0,0:0:0:0:
210,329,140710,1,0,0:0:0:0:
182,369,140788,6,0,P|143:373|105:362,1,74.2500007081032,8|0,0:0|0:0,0:0:0:0:
284,307,140946,2,0,P|306:338|315:376,1,74.2500007081032,8|0,0:0|0:0,0:0:0:0:
179,249,141103,2,0,P|156:217|147:179,1,74.2500007081032,8|0,0:0|0:0,0:0:0:0:
281,187,141260,2,0,P|319:183|357:194,1,74.2500007081032,8|0,0:0|0:0,0:0:0:0:
459,249,141417,2,0,P|443:283|416:308,1,74.2500007081032,8|0,0:0|0:0,0:0:0:0:
456,129,141574,2,0,P|472:93|500:66,1,74.2500007081032,8|0,0:0|0:0,0:0:0:0:
350,71,141731,2,0,L|328:40,6,37.1250003540516
228,73,142045,6,0,P|196:75|166:70,1,62.9999980773926
169,179,142359,2,0,P|145:168|125:151,1,53.9999983520508
46,203,142673,2,0,P|53:225|67:243,1,45
174,302,142987,1,0,0:0:0:0:
181,311,143065,1,0,0:0:0:0:
190,321,143144,1,0,0:0:0:0:
199,331,143223,1,0,0:0:0:0:
207,340,143302,6,0,B|227:364|227:364|313:372,1,116.999994644165,4|0,0:0|0:0,0:0:0:0:
231,195,143616,1,8,0:0:0:0:
416,292,143773,1,0,0:0:0:0:
288,89,143930,1,0,0:0:0:0:
294,297,144087,1,0,0:0:0:0:
407,85,144244,1,8,0:0:0:0:
169,93,144401,1,0,0:0:0:0:
350,191,144558,6,0,P|408:191|466:182,1,116.999994644165
238,80,144872,2,0,P|295:70|354:71,1,116.999994644165,8|0,0:0|0:0,0:0:0:0:
116,207,145186,2,0,P|174:207|232:198,1,116.999994644165
4,96,145501,2,0,P|61:86|120:87,1,116.999994644165,8|0,0:0|0:0,0:0:0:0:
53,308,145815,6,0,P|108:327|172:312,1,116.999994644165
343,204,146129,2,0,L|226:214,1,116.999994644165,8|0,0:0|0:0,0:0:0:0:
399,310,146443,2,0,P|442:271|461:208,1,116.999994644165
287,98,146757,2,0,L|170:108,1,116.999994644165,8|0,0:0|0:0,0:0:0:0:
282,320,147071,5,0,0:0:0:0:
405,111,147228,1,0,0:0:0:0:
194,231,147385,1,8,0:0:0:0:
402,231,147542,1,0,0:0:0:0:
302,53,147699,5,0,0:0:0:0:
507,172,147857,1,0,0:0:0:0:
300,171,148014,2,0,L|237:165,1,58.4999973220826,8|0,0:0|0:0,0:0:0:0:
356,276,148171,2,0,L|414:281,1,58.4999973220826,8|0,0:0|0:0,0:0:0:0:
294,377,148328,5,0,0:0:0:0:
169,243,148485,1,0,0:0:0:0:
324,101,148642,1,8,0:0:0:0:
270,274,148799,1,0,0:0:0:0:
68,212,148957,1,0,0:0:0:0:
246,172,149114,1,0,0:0:0:0:
91,314,149270,1,8,0:0:0:0:
145,141,149427,1,0,0:0:0:0:
347,203,149584,6,0,P|405:203|463:194,1,116.999994644165
270,274,149898,2,0,P|298:325|335:369,1,116.999994644165,8|0,0:0|0:0,0:0:0:0:
169,243,150213,2,0,P|140:293|118:347,1,116.999994644165
145,141,150527,2,0,P|86:139|29:150,1,116.999994644165,8|0,0:0|0:0,0:0:0:0:
246,172,150841,6,0,L|363:162,1,116.999994644165
228,66,151155,2,0,P|176:92|141:148,1,116.999994644165,8|0,0:0|0:0,0:0:0:0:
308,273,151469,2,0,L|425:263,1,116.999994644165
189,276,151783,2,0,P|183:339|254:322,1,116.999994644165,8|0,0:0|0:0,0:0:0:0:
365,169,152097,5,0,0:0:0:0:
184,193,152254,1,0,0:0:0:0:
380,272,152412,1,8,0:0:0:0:
448,105,152569,1,0,0:0:0:0:
282,233,152726,1,0,0:0:0:0:
463,208,152882,1,0,0:0:0:0:
267,129,153039,1,8,0:0:0:0:
296,338,153197,1,0,0:0:0:0:
296,338,153275,1,0,0:0:0:0:
296,338,153354,6,0,B|344:341|344:341|357:323|357:323|403:327,1,116.999994644165,4|0,0:0|0:0,0:0:0:0:
289,119,153668,1,8,0:0:0:0:
165,321,153825,1,0,0:0:0:0:
345,223,153982,1,0,0:0:0:0:
108,216,154139,1,0,0:0:0:0:
282,323,154296,1,8,0:0:0:0:
169,114,154453,1,0,0:0:0:0:
408,122,154610,6,0,L|419:238,1,116.999994644165
307,59,154925,2,0,L|295:174,1,116.999994644165,8|0,0:0|0:0,0:0:0:0:
183,123,155240,2,0,L|195:239,1,116.999994644165
81,59,155554,2,0,L|69:174,1,116.999994644165,8|0,0:0|0:0,0:0:0:0:
132,331,155867,6,0,P|175:292|194:229,1,116.999994644165
299,113,156181,2,0,L|182:123,1,116.999994644165,8|0,0:0|0:0,0:0:0:0:
345,333,156495,2,0,P|332:276|287:228,1,116.999994644165
65,107,156809,2,0,L|75:224,1,116.999994644165,8|0,0:0|0:0,0:0:0:0:
277,174,157124,5,0,0:0:0:0:
111,302,157281,1,0,0:0:0:0:
292,277,157438,1,8,0:0:0:0:
262,71,157595,1,0,0:0:0:0:
194,238,157752,1,0,0:0:0:0:
375,213,157909,1,0,0:0:0:0:
179,134,158066,2,0,L|116:128,1,58.4999973220826,8|0,0:0|0:0,0:0:0:0:
194,238,158223,2,0,L|252:243,1,58.4999973220826,8|0,0:0|0:0,0:0:0:0:
132,331,158380,5,4,0:1:0:0:
258,135,158537,1,0,0:0:0:0:
365,343,158694,1,8,0:0:0:0:
194,238,158851,1,0,0:0:0:0:
429,240,159008,1,0,0:0:0:0:
244,340,159165,1,0,0:0:0:0:
372,134,159323,1,8,0:0:0:0:
486,346,159480,1,0,0:0:0:0:
308,237,159637,6,0,L|296:121,1,116.999994644165,4|0,0:1|0:0,0:0:0:0:
480,20,159951,2,0,L|491:135,1,116.999994644165,8|0,0:0|0:0,0:0:0:0:
241,28,160265,2,0,L|356:16,1,116.999994644165
458,200,160579,2,0,L|342:211,1,116.999994644165,8|0,0:0|0:0,0:0:0:0:
104,166,160893,6,0,P|126:116|178:130,1,116.999994644165,4|0,0:1|0:0,0:0:0:0:
219,374,161207,2,0,P|161:384|103:383,1,116.999994644165,8|0,0:0|0:0,0:0:0:0:
287,189,161521,6,0,P|318:232|280:271,1,116.999994644165,4|0,0:1|0:0,0:0:0:0:
46,279,161836,2,0,P|35:221|36:163,1,116.999994644165,8|0,0:0|0:0,0:0:0:0:
336,70,162150,5,8,0:0:0:0:
210,272,162307,1,0,0:0:0:0:
216,136,162464,5,8,0:0:0:0:
327,346,162621,1,0,0:0:0:0:
454,145,162778,5,8,0:0:0:0:
391,246,162935,1,8,0:0:0:0:
367,248,163013,1,8,0:0:0:0:
344,250,163092,1,8,0:0:0:0:
321,252,163170,1,8,0:0:0:0:
297,254,163249,1,8,0:0:0:0:
274,256,163327,1,8,0:0:0:0:
251,258,163406,6,4,P|192:258|135:248,1,116.999994644165,4|0,0:1|0:0,0:0:0:0:
280,138,163720,1,8,0:0:0:0:
126,58,163877,1,0,0:0:0:0:
251,258,164035,1,0,0:0:0:0:
399,101,164192,1,0,0:0:0:0:
162,174,164349,1,8,0:0:0:0:
288,375,164506,1,0,0:0:0:0:
279,137,164663,6,0,P|279:78|270:21,1,116.999994644165
251,258,164977,2,0,P|301:287|356:308,1,116.999994644165,8|0,0:0|0:0,0:0:0:0:
162,174,165291,2,0,P|111:203|65:239,1,116.999994644165
398,142,165605,2,0,P|407:199|407:258,1,116.999994644165,8|0,0:0|0:0,0:0:0:0:
230,31,165919,6,0,P|286:20|342:37,1,116.999994644165
127,86,166234,2,0,L|10:96,1,116.999994644165,8|0,0:0|0:0,0:0:0:0:
227,148,166548,1,0,0:0:0:0:
19,376,166705,5,0,0:0:0:0:
125,204,166862,1,8,0:0:0:0:
220,381,167019,1,0,0:0:0:0:
326,209,167176,6,0,P|326:150|317:93,1,116.999994644165
323,324,167490,2,0,P|374:353|427:374,1,116.999994644165,8|0,0:0|0:0,0:0:0:0:
224,263,167804,2,0,P|172:292|128:328,1,116.999994644165
425,270,168118,2,0,L|485:275,1,58.4999973220826,8|0,0:0|0:0,0:0:0:0:
323,324,168275,2,0,L|289:371,1,58.4999973220826,8|0,0:0|0:0,0:0:0:0:
428,153,168432,5,0,0:0:0:0:
422,384,168590,1,0,0:0:0:0:
224,265,168747,1,8,0:0:0:0:
455,270,168904,1,0,0:0:0:0:
344,68,169061,5,0,0:0:0:0:
340,299,169218,1,0,0:0:0:0:
242,124,169375,1,8,0:0:0:0:
460,70,169532,1,0,0:0:0:0:
341,183,169689,6,0,L|209:194,1,116.999994644165
95,384,170003,2,0,L|162:288,1,116.999994644165,8|0,0:0|0:0,0:0:0:0:
41,92,170317,2,0,L|108:187,1,116.999994644165
211,134,170631,2,0,L|200:17,1,116.999994644165,8|0,0:0|0:0,0:0:0:0:
206,250,170946,6,0,P|257:276|315:275,1,116.999994644165
493,166,171260,2,0,L|376:176,1,116.999994644165,8|0,0:0|0:0,0:0:0:0:
462,384,171574,2,0,P|459:326|429:276,1,116.999994644165
322,75,171888,1,8,0:0:0:0:
200,269,172045,1,0,0:0:0:0:
376,176,172202,6,0,P|418:136|437:81,1,116.999994644165
263,172,172516,2,0,L|224:175,4,38.9999982147218,8|0|0|0|0,0:0|0:0|0:0|0:0|0:0,0:0:0:0:
322,75,172830,6,0,L|316:12,1,58.4999973220826
376,176,172987,2,0,L|381:234,1,58.4999973220826
263,172,173145,6,0,L|204:177,1,58.4999973220826
435,79,173302,2,0,L|493:73,1,58.4999973220826
209,70,173459,5,0,0:0:0:0:
316,273,173616,1,0,0:0:0:0:
322,75,173773,1,8,0:0:0:0:
147,166,173930,1,0,0:0:0:0:
254,369,174087,5,0,0:0:0:0:
262,172,174244,1,0,0:0:0:0:
32,159,174401,1,8,0:0:0:0:
199,268,174558,1,0,0:0:0:0:
177,69,174715,6,0,P|139:30|94:61,1,116.999994644165
84,263,175029,2,0,P|124:305|179:324,1,116.999994644165,8|0,0:0|0:0,0:0:0:0:
451,290,175343,2,0,P|410:248|356:229,1,116.999994644165
187,210,175658,2,0,P|239:196|234:142,1,116.999994644165,8|0,0:0|0:0,0:0:0:0:
79,379,175972,6,0,P|138:379|195:370,1,116.999994644165
284,37,176286,2,0,P|254:88|233:141,1,116.999994644165,8|0,0:0|0:0,0:0:0:0:
439,320,176600,1,0,0:0:0:0:
228,257,176757,5,0,0:0:0:0:
431,149,176914,1,8,0:0:0:0:
325,317,177071,1,0,0:0:0:0:
334,89,177228,6,0,P|282:59|229:38,1,116.999994644165
235,270,177542,2,0,P|235:211|226:154,1,116.999994644165,8|0,0:0|0:0,0:0:0:0:
28,274,177857,2,0,P|79:244|123:208,1,116.999994644165
84,36,178171,2,0,L|25:31,1,58.4999973220826,8|0,0:0|0:0,0:0:0:0:
184,96,178328,2,0,L|218:49,1,58.4999973220826,8|0,0:0|0:0,0:0:0:0:
83,153,178485,5,4,0:1:0:0:
342,138,178642,1,0,0:0:0:0:
197,353,178799,1,8,0:0:0:0:
198,153,178956,1,0,0:0:0:0:
426,353,179113,5,0,0:0:0:0:
255,252,179270,1,0,0:0:0:0:
483,252,179427,1,8,0:0:0:0:
311,350,179584,1,0,0:0:0:0:
482,140,179741,6,0,L|471:23,1,116.999994644165,4|0,0:1|0:0,0:0:0:0:
331,253,180055,2,0,L|342:136,1,116.999994644165,8|0,0:0|0:0,0:0:0:0:
201,140,180370,2,0,L|190:23,1,116.999994644165,8|0,0:0|0:0,0:0:0:0:
49,254,180684,2,0,L|60:137,1,116.999994644165,8|0,0:0|0:0,0:0:0:0:
224,329,180998,5,10,0:0:0:0:
452,129,181155,1,2,0:0:0:0:
438,343,181312,5,10,0:0:0:0:
238,115,181469,1,2,0:0:0:0:
332,307,181626,5,10,0:0:0:0:
429,19,181783,1,2,0:0:0:0:
470,228,181940,5,10,0:0:0:0:
270,0,182097,1,2,0:0:0:0:
311,210,182254,6,0,P|267:247|210:261,1,116.999994644165,10|2,0:0|0:0,0:0:0:0:
76,112,182569,2,0,L|92:76,4,38.9999982147218,10|0|0|2|0,0:0|0:0|0:0|0:0|0:0,0:0:0:0:
75,224,182883,5,10,0:0:0:0:
231,73,183040,1,2,0:0:0:0:
324,329,183197,5,10,0:0:0:0:
172,173,183354,1,2,0:0:0:0:
113,383,183511,6,0,L|74:379,5,38.9999982147218,10|0|0|2|0|0,0:0|0:0|0:0|0:0|0:0|0:0,0:0:0:0:
102,330,183825,2,0,L|69:307,5,38.9999982147218,10|0|0|2|0|0,0:0|0:0|0:0|0:0|0:0|0:0,0:0:0:0:
118,278,184139,1,10,0:0:0:0:
147,234,184218,1,2,0:0:0:0:
191,205,184297,1,2,0:0:0:0:
243,195,184375,1,2,0:0:0:0:
294,205,184453,2,0,L|323:225,2,22.5,2|2|2,0:0|0:0|0:0,0:0:0:0:
249,273,184610,2,0,L|219:293,2,22.5,2|2|2,0:0|0:0|0:0,0:0:0:0:
285,345,184768,5,0,0:0:0:0:
392,323,184925,1,0,0:0:0:0:
425,225,185082,1,0,0:0:0:0:
360,151,185239,1,0,0:0:0:0:
330,239,185396,5,0,0:0:0:0:
273,174,185553,1,0,0:0:0:0:
297,97,185710,2,0,P|345:63|386:22,1,116.999994644165,8|0,0:0|0:0,0:0:0:0:
445,77,186024,6,0,B|445:122|405:145|405:145|453:173|450:226|405:256|361:230,1,247.500007553101,4|0,0:0|0:0,0:0:0:0:
282,247,186966,2,0,L|278:286,1,36,2|0,0:0|0:0,0:0:0:0:
307,171,187281,2,0,P|262:122|196:112,1,135,2|0,0:0|0:0,0:0:0:0:
118,130,187909,2,0,B|108:190|108:190|128:247,1,121.499996292114,2|0,0:0|0:0,0:0:0:0:
203,270,188537,6,0,B|270:245|328:295|328:295|292:368|198:367,1,269.999991760254,2|0,0:0|0:0,0:0:0:0:
145,384,189480,2,0,L|104:380,1,40.4999987640381,2|0,0:0|0:0,0:0:0:0:
51,324,189794,2,0,B|27:289|44:252|44:252|21:218|38:180,1,148.50000453186,2|0,0:0|0:0,0:0:0:0:
92,129,190422,2,0,B|129:93|182:153|219:117,1,135,2|0,0:0|0:0,0:0:0:0:
274,61,191050,6,0,P|368:25|467:44,1,204.749990627289,2|0,0:0|0:0,0:0:0:0:
486,119,191679,2,0,B|469:137|469:137|362:144|362:144|345:163,1,157.5,2|0,0:0|0:0,0:0:0:0:
306,230,192307,6,0,B|274:273|294:316|332:339|332:339|270:360,1,188.999994232178,2|0,0:0|0:0,0:0:0:0:
196,359,192935,2,0,B|140:354|140:354|118:328|118:328|62:323,1,141.749995674133,2|0,0:0|0:0,0:0:0:0:
104,254,193563,6,0,B|120:225|122:195|122:195|116:153|78:138|51:185|82:210|122:195|122:195|147:178|160:155,1,247.500007553101,2|2,0:0|0:0,0:0:0:0:
197,88,194506,1,2,0:0:0:0:
275,86,194663,1,2,0:0:0:0:
316,152,194820,6,0,L|321:209,1,53.9999983520508,2|0,0:0|0:0,0:0:0:0:
278,322,195134,2,0,L|283:273,1,49.5000015106202,2|0,0:0|0:0,0:0:0:0:
240,159,195448,2,0,L|244:204,1,45,2|0,0:0|0:0,0:0:0:0:
201,312,195762,2,0,L|204:272,1,40.4999987640381,2|0,0:0|0:0,0:0:0:0:
161,163,196076,6,0,B|146:117|101:99|62:116|62:116|97:130|144:108|152:51,1,247.500007553101,4|0,0:0|0:0,0:0:0:0:
207,0,197019,2,0,L|249:3,1,36,2|0,0:0|0:0,0:0:0:0:
278,69,197333,2,0,P|336:102|401:91,1,135,2|0,0:0|0:0,0:0:0:0:
441,26,197961,2,0,B|475:53|475:53|488:143,1,121.499996292114,2|0,0:0|0:0,0:0:0:0:
446,195,198590,6,0,B|381:189|365:267|293:265|293:265|339:306|319:359,1,269.999991760254,2|2,0:0|0:0,0:0:0:0:
248,329,199532,1,2,0:0:0:0:
191,381,199689,1,2,0:0:0:0:
116,356,199846,2,0,B|79:318|111:266|111:266|79:260|66:228,1,148.50000453186,2|0,0:0|0:0,0:0:0:0:
54,162,200474,2,0,B|45:62|45:62|78:37,1,135,2|0,0:0|0:0,0:0:0:0:
152,44,201103,6,0,P|249:74|346:46,1,204.749990627289,2|0,0:0|0:0,0:0:0:0:
415,90,201731,2,0,B|431:153|431:153|407:207|407:207|424:269,1,188.999994232178,2|0,0:0|0:0,0:0:0:0:
379,336,202359,6,0,P|275:350|217:263,1,220.499993270874,2|0,0:0|0:0,0:0:0:0:
290,227,202987,2,0,B|339:197|339:197|191:184,1,204.749990627289,2|0,0:0|0:0,0:0:0:0:
131,236,203616,6,0,P|19:225|107:156,1,288,2|2,0:0|0:0,0:0:0:0:
107,156,204401,5,2,0:0:0:0:
170,104,204558,1,2,0:0:0:0:
247,133,204715,1,2,0:0:0:0:
311,81,204872,6,0,P|349:77|386:69,1,76.5000014591217,2|0,0:0|0:0,0:0:0:0:
408,175,205186,2,0,P|435:156|461:134,1,67.5000025749208,2|0,0:0|0:0,0:0:0:0:
324,163,205501,2,0,P|300:179|278:198,1,58.4999973220826,2|0,0:0|0:0,0:0:0:0:
395,261,205815,2,0,P|370:264|346:269,1,49.5000015106202,2|0,0:0|0:0,0:0:0:0:
406,381,206129,5,4,0:0:0:0:
200,313,206286,1,2,0:3:0:0:
305,290,206443,1,2,0:3:0:0:
296,261,206522,1,0,0:3:0:0:
278,239,206600,1,2,0:3:0:0:
98,281,206757,2,0,P|140:310|192:314,1,99.0000030212403,2|2,0:3|0:3,0:3:0:0:
75,177,207071,1,2,0:3:0:0:
177,210,207228,1,2,0:3:0:0:
256,139,207385,6,0,L|247:40,1,99.0000030212403,2|2,0:3|0:3,0:3:0:0:
256,139,207699,2,0,L|157:147,1,99.0000030212403,2|2,0:3|0:3,0:3:0:0:
256,139,208014,2,0,L|264:238,1,99.0000030212403,2|2,0:3|0:3,0:3:0:0:
256,139,208328,2,0,L|355:130,1,99.0000030212403,2|2,0:3|0:3,0:3:0:0:
433,60,208642,5,2,0:3:0:0:
374,234,208799,1,2,0:3:0:0:
333,28,208956,1,2,0:3:0:0:
303,21,209035,1,0,0:3:0:0:
275,25,209113,1,2,0:3:0:0:
354,131,209270,2,0,P|396:160|448:164,1,99.0000030212403,2|2,0:3|0:3,0:3:0:0:
275,200,209584,1,2,0:3:0:0:
295,302,209741,1,2,0:3:0:0:
470,266,209898,6,0,L|479:365,1,99.0000030212403,2|2,0:3|0:3,0:3:0:0:
372,233,210213,2,0,L|363:332,1,99.0000030212403,2|2,0:3|0:3,0:3:0:0:
256,265,210527,2,0,L|265:364,1,99.0000030212403,2|2,0:3|0:3,0:3:0:0:
158,232,210841,2,0,L|149:331,1,99.0000030212403,2|2,0:3|0:3,0:3:0:0:
42,264,211155,5,2,0:3:0:0:
196,126,211312,1,2,0:3:0:0:
187,270,211469,1,2,0:3:0:0:
100,95,211626,1,2,0:3:0:0:
292,157,211783,2,0,P|296:106|273:59,1,99.0000030212403,2|2,0:3|0:3,0:3:0:0:
120,196,212097,2,0,L|117:229,3,33.0000010070801,2|0|0|2,0:3|0:3|0:3|0:3,0:3:0:0:
261,252,212412,5,2,0:3:0:0:
391,136,212569,1,2,0:3:0:0:
359,232,212726,1,2,0:3:0:0:
324,61,212883,1,2,0:3:0:0:
490,115,213040,2,0,P|488:163|463:206,1,99.0000030212403,2|2,0:3|0:3,0:3:0:0:
423,40,213354,2,0,L|426:7,3,33.0000010070801,2|0|0|2,0:3|0:3|0:3|0:3,0:3:0:0:
292,157,213668,5,2,0:3:0:0:
426,307,213825,1,2,0:3:0:0:
229,347,213982,1,2,0:3:0:0:
380,214,214139,1,2,0:3:0:0:
327,372,214296,2,0,P|303:328|303:279,1,99.0000030212403,2|2,0:3|0:3,0:3:0:0:
486,347,214610,2,0,L|489:380,3,33.0000010070801,2|0|0|2,0:3|0:3|0:3|0:3,0:3:0:0:
380,214,214925,5,2,0:3:0:0:
192,252,215082,1,2,0:3:0:0:
248,45,215239,5,2,0:3:0:0:
286,233,215396,1,2,0:3:0:0:
79,177,215553,5,2,0:3:0:0:
267,139,215710,1,2,0:3:0:0:
211,346,215867,5,2,0:3:0:0:
173,158,216024,1,2,0:3:0:0:
117,365,216181,6,0,P|65:363|21:337,1,103.500001974106,4|2,0:1|0:1,0:3:0:0:
147,274,216495,1,8,0:0:0:0:
304,326,216652,1,2,0:1:0:0:
176,183,216809,2,0,L|185:79,1,103.500001974106,8|2,0:0|0:1,0:0:0:0:
83,204,217124,1,8,0:0:0:0:
269,162,217281,1,2,0:1:0:0:
211,347,217438,5,8,0:0:0:0:
360,190,217595,1,2,0:1:0:0:
426,311,217752,5,8,0:0:0:0:
269,162,217909,1,2,0:1:0:0:
390,96,218066,5,8,0:0:0:0:
241,253,218223,1,2,0:1:0:0:
175,132,218380,5,8,0:0:0:0:
332,281,218537,1,2,0:1:0:0:
297,71,218694,6,0,P|252:45|201:43,1,103.500001974106,4|2,0:1|0:1,0:3:0:0:
61,171,219008,1,8,0:0:0:0:
241,228,219165,1,2,0:1:0:0:
131,107,219323,2,0,P|86:81|35:79,1,103.500001974106,8|2,0:0|0:1,0:3:0:0:
74,287,219637,1,8,0:0:0:0:
213,152,219794,1,2,0:1:0:0:
123,379,219951,5,8,0:0:0:0:
61,171,220108,1,2,0:1:0:0:
208,336,220265,5,8,0:0:0:0:
201,118,220422,1,2,0:1:0:0:
301,316,220579,5,8,0:0:0:0:
350,104,220736,1,2,0:1:0:0:
396,320,220893,5,8,0:0:0:0:
498,128,221050,1,2,0:1:0:0:
492,223,221207,5,8,0:0:0:0:
489,237,221285,1,2,0:1:0:0:
488,253,221364,1,2,0:1:0:0:
486,268,221442,1,2,0:1:0:0:
484,283,221521,1,8,0:0:0:0:
483,299,221600,1,2,0:1:0:0:
481,314,221678,1,2,0:1:0:0:
480,330,221757,1,2,0:1:0:0:
479,345,221836,5,8,0:0:0:0:
467,362,221914,1,2,0:1:0:0:
450,373,221993,1,2,0:1:0:0:
429,377,222071,1,2,0:1:0:0:
409,373,222150,1,8,0:0:0:0:
392,362,222228,1,2,0:1:0:0:
380,345,222307,1,2,0:1:0:0:
376,324,222385,1,2,0:1:0:0:
380,304,222464,5,8,0:0:0:0:
354,309,222543,1,2,0:1:0:0:
329,304,222621,1,2,0:1:0:0:
307,290,222700,1,2,0:1:0:0:
293,268,222778,1,8,0:0:0:0:
278,246,222857,1,2,0:1:0:0:
257,232,222935,1,2,0:1:0:0:
231,227,223014,1,2,0:1:0:0:
206,232,223092,5,8,0:0:0:0:
188,257,223170,1,2,0:1:0:0:
162,275,223249,1,2,0:1:0:0:
132,281,223327,1,2,0:1:0:0:
102,275,223406,1,8,0:0:0:0:
76,257,223484,1,2,0:1:0:0:
58,232,223563,1,2,0:1:0:0:
52,201,223641,1,2,0:1:0:0:
58,171,223720,5,8,0:0:0:0:
91,157,223798,1,2,0:1:0:0:
124,144,223877,1,2,0:1:0:0:
158,131,223956,1,2,0:1:0:0:
191,117,224035,1,8,0:0:0:0:
225,104,224113,1,2,0:1:0:0:
258,91,224192,1,2,0:1:0:0:
292,78,224271,1,2,0:1:0:0:
325,64,224349,5,8,0:0:0:0:
302,98,224428,1,2,0:1:0:0:
294,139,224507,1,2,0:1:0:0:
302,179,224585,1,2,0:1:0:0:
325,213,224663,2,0,L|351:229,2,25.8750004935265,8|2|2,0:0|0:1|0:1,0:0:0:0:
239,255,224820,2,0,L|212:270,2,25.8750004935265,2|2|2,0:1|0:1|0:1,0:0:0:0:
319,309,224977,6,0,P|357:318|394:304,2,80.9999975280763,2|2|2,0:0|0:0|0:0,0:0:0:0:
319,309,225919,6,0,L|229:316,1,90,8|0,0:0|0:0,0:0:0:0:
39,327,226234,6,0,B|13:305|13:305|4:212,1,125.999996154785,4|0,0:0|0:0,0:0:0:0:
217,148,226548,1,8,0:0:0:0:
132,328,226705,1,0,0:0:0:0:
121,156,226862,2,0,P|134:95|183:57,1,125.999996154785,2|0,0:1|0:0,0:0:0:0:
409,132,227176,1,8,0:0:0:0:
224,243,227333,1,0,0:0:0:0:
356,54,227490,6,0,P|419:40|483:42,1,125.999996154785,2|0,0:1|0:0,0:0:0:0:
367,216,227804,2,0,P|410:263|440:320,1,125.999996154785,8|0,0:0|0:0,0:0:0:0:
204,224,228118,2,0,P|160:271|130:328,1,125.999996154785,2|0,0:1|0:0,0:0:0:0:
215,62,228432,2,0,P|151:48|87:50,1,125.999996154785,8|0,0:0|0:0,0:0:0:0:
266,142,228747,6,0,P|303:92|300:30,1,125.999996154785,2|0,0:1|0:0,0:0:0:0:
171,148,229061,1,8,0:0:0:0:
370,300,229218,1,0,0:0:0:0:
130,234,229375,2,0,P|122:295|155:347,1,125.999996154785,2|0,0:1|0:0,0:0:0:0:
224,226,229689,1,8,0:0:0:0:
36,242,229846,1,0,0:0:0:0:
231,319,230003,6,0,P|294:332|358:330,1,125.999996154785,2|0,0:1|0:0,0:0:0:0:
344,132,230317,2,0,P|302:178|272:234,1,125.999996154785,8|0,0:0|0:0,0:0:0:0:
448,324,230631,2,0,P|428:262|393:207,1,125.999996154785,2|0,0:1|0:0,0:0:0:0:
259,88,230946,2,0,L|196:82,1,62.9999980773926,8|0,0:0|0:0,0:0:0:0:
339,36,231103,2,0,L|401:41,1,62.9999980773926,8|0,0:0|0:0,0:0:0:0:
344,132,231260,6,0,L|332:258,1,125.999996154785,2|0,0:1|0:0,0:0:0:0:
205,223,231574,1,8,0:0:0:0:
440,127,231731,1,0,0:0:0:0:
405,378,231888,2,0,L|279:367,1,125.999996154785,2|0,0:1|0:0,0:0:0:0:
110,229,232202,2,0,L|113:186,3,41.9999987182618,8|0|0|0,0:0|0:0|0:0|0:0,0:0:0:0:
68,315,232516,6,0,P|129:322|181:289,1,125.999996154785,2|0,0:1|0:0,0:0:0:0:
15,236,232830,1,8,0:0:0:0:
250,140,232987,1,0,0:0:0:0:
260,375,233145,2,0,P|205:346|181:289,1,125.999996154785,2|0,0:1|0:0,0:0:0:0:
103,69,233459,2,0,L|99:26,3,41.9999987182618,8|0|0|0,0:0|0:0|0:0|0:0,0:0:0:0:
156,146,233773,6,0,B|130:167|130:167|37:160,1,125.999996154785,2|0,0:1|0:0,0:0:0:0:
197,63,234087,1,8,0:0:0:0:
264,302,234244,1,0,0:0:0:0:
78,316,234401,2,0,B|72:282|72:282|124:206,1,125.999996154785,2|0,0:1|0:0,0:0:0:0:
290,54,234715,2,0,L|332:50,3,41.9999987182618,8|0|0|0,0:0|0:0|0:0|0:0,0:0:0:0:
251,138,235029,6,0,P|237:201|239:265,1,125.999996154785,2|0,0:1|0:0,0:0:0:0:
417,277,235343,2,0,P|370:234|315:204,1,125.999996154785,8|0,0:0|0:0,0:0:0:0:
211,353,235658,2,0,P|270:333|324:300,1,125.999996154785,2|0,0:1|0:0,0:0:0:0:
393,148,235972,1,8,0:0:0:0:
228,165,236129,1,0,0:0:0:0:
197,159,236208,1,0,0:0:0:0:
171,142,236286,6,0,P|137:89|145:28,1,125.999996154785,4|0,0:0|0:0,0:0:0:0:
131,227,236600,1,8,0:0:0:0:
305,50,236757,1,0,0:0:0:0:
371,289,236914,2,0,P|327:333|265:339,1,125.999996154785,2|0,0:1|0:0,0:0:0:0:
319,212,237228,1,8,0:0:0:0:
90,310,237385,1,0,0:0:0:0:
268,135,237542,6,0,P|331:121|395:122,1,125.999996154785,2|0,0:1|0:0,0:0:0:0:
176,141,237857,2,0,P|162:78|163:16,1,125.999996154785,8|0,0:0|0:0,0:0:0:0:
182,233,238171,2,0,P|119:247|55:245,1,125.999996154785,2|0,0:1|0:0,0:0:0:0:
274,227,238485,2,0,P|287:289|286:351,1,125.999996154785,8|0,0:0|0:0,0:0:0:0:
50,322,238799,6,0,B|24:300|24:300|15:207,1,125.999996154785,2|0,0:1|0:0,0:0:0:0:
185,34,239113,1,8,0:0:0:0:
160,276,239270,1,0,0:0:0:0:
1,48,239427,2,0,B|22:22|22:22|115:13,1,125.999996154785,2|0,0:1|0:0,0:0:0:0:
291,186,239741,1,8,0:0:0:0:
54,127,239898,1,0,0:0:0:0:
276,24,240055,6,0,L|402:12,1,125.999996154785,2|0,0:1|0:0,0:0:0:0:
423,223,240370,2,0,L|297:211,1,125.999996154785,8|0,0:0|0:0,0:0:0:0:
287,118,240684,2,0,L|413:106,1,125.999996154785,2|0,0:1|0:0,0:0:0:0:
307,304,240998,2,0,L|244:298,1,62.9999980773926,8|0,0:0|0:0,0:0:0:0:
433,316,241155,2,0,L|495:321,1,62.9999980773926,8|0,0:0|0:0,0:0:0:0:
381,201,241312,6,0,P|351:146|294:122,1,125.999996154785,2|0,0:1|0:0,0:0:0:0:
43,159,241626,1,8,0:0:0:0:
287,212,241783,1,0,0:0:0:0:
190,38,241940,2,0,P|128:35|79:73,1,125.999996154785,2|0,0:1|0:0,0:0:0:0:
61,317,242254,2,0,L|58:358,3,41.9999987182618,8|0|0|0,0:0|0:0|0:0|0:0,0:0:0:0:
98,233,242569,6,0,P|147:195|208:197,1,125.999996154785,2|0,0:1|0:0,0:0:0:0:
391,370,242883,1,8,0:0:0:0:
152,309,243040,1,0,0:0:0:0:
344,206,243197,2,0,P|401:229|430:284,1,125.999996154785,2|0,0:1|0:0,0:0:0:0:
205,384,243511,2,0,L|163:381,3,41.9999987182618,8|0|0|0,0:0|0:0|0:0|0:0,0:0:0:0:
244,299,243825,6,0,L|256:173,1,125.999996154785,2|0,0:1|0:0,0:0:0:0:
426,12,244139,1,8,0:0:0:0:
451,262,244296,1,0,0:0:0:0:
278,79,244453,2,0,L|152:91,1,125.999996154785,2|0,0:1|0:0,0:0:0:0:
301,327,244768,2,0,P|352:299|326:250,1,125.999996154785,8|0,0:0|0:0,0:0:0:0:
115,309,245082,6,0,L|2:299,1,112.5,8|0,0:0|0:0,0:0:0:0:
169,232,245396,2,0,L|105:156,1,99.0000030212403,8|0,0:0|0:0,0:0:0:0:
254,192,245710,2,0,L|261:106,1,85.4999977169037,8|0,0:0|0:0,0:0:0:0:
348,200,246024,1,8,0:0:0:0:
349,217,246103,1,8,0:0:0:0:
351,235,246181,1,8,0:0:0:0:
352,253,246260,1,8,0:0:0:0:
354,271,246338,6,0,B|359:329|359:329|397:323|419:292,1,125.999996154785,4|0,0:0|0:0,0:0:0:0:
483,56,246652,1,8,0:0:0:0:
242,120,246809,1,0,0:0:0:0:
415,297,246966,2,0,P|460:255|467:193,1,125.999996154785,2|0,0:1|0:0,0:0:0:0:
294,41,247281,1,8,0:0:0:0:
234,284,247438,1,0,0:0:0:0:
375,95,247595,6,0,P|438:81|502:82,1,125.999996154785,2|0,0:1|0:0,0:0:0:0:
242,120,247910,2,0,P|261:58|293:5,1,125.999996154785,8|0,0:0|0:0,0:0:0:0:
197,247,248223,2,0,P|153:199|123:145,1,125.999996154785,2|0,0:1|0:0,0:0:0:0:
284,349,248537,2,0,P|221:362|159:362,1,125.999996154785,8|0,0:0|0:0,0:0:0:0:
327,223,248851,6,0,P|313:162|264:125,1,125.999996154785,2|0,0:1|0:0,0:0:0:0:
14,60,249165,1,8,0:0:0:0:
84,314,249322,1,0,0:0:0:0:
182,72,249480,2,0,P|121:85|84:134,1,125.999996154785,2|0,0:1|0:0,0:0:0:0:
166,367,249794,1,8,0:0:0:0:
346,178,249951,1,0,0:0:0:0:
161,284,250108,6,0,P|98:298|34:297,1,125.999996154785,2|0,0:1|0:0,0:0:0:0:
294,259,250422,2,0,P|274:320|242:373,1,125.999996154785,8|0,0:0|0:0,0:0:0:0:
339,132,250735,2,0,P|382:179|412:233,1,125.999996154785,2|0,0:1|0:0,0:0:0:0:
252,30,251050,2,0,L|315:24,1,62.9999980773926,8|0,0:0|0:0,0:0:0:0:
199,111,251207,2,0,L|172:167,1,62.9999980773926,8|0,0:0|0:0,0:0:0:0:
155,24,251364,6,0,P|94:37|57:86,1,125.999996154785,2|0,0:1|0:0,0:0:0:0:
130,336,251679,1,8,0:0:0:0:
311,145,251836,1,0,0:0:0:0:
53,185,251993,2,0,L|41:311,1,125.999996154785,2|0,0:1|0:0,0:0:0:0:
225,190,252307,2,0,L|267:187,3,41.9999987182618,8|0|0|0,0:0|0:0|0:0|0:0,0:0:0:0:
138,237,252621,6,0,P|179:283|240:290,1,125.999996154785,2|0,0:1|0:0,0:0:0:0:
417,98,252935,1,8,0:0:0:0:
161,143,253092,1,0,0:0:0:0:
324,340,253249,2,0,L|450:352,1,125.999996154785,2|0,0:1|0:0,0:0:0:0:
328,146,253563,2,0,L|325:104,3,41.9999987182618,8|0|0|0,0:0|0:0|0:0|0:0,0:0:0:0:
411,198,253877,6,0,P|430:138|406:82,1,125.999996154785,2|0,0:1|0:0,0:0:0:0:
153,22,254192,1,8,0:0:0:0:
228,273,254349,1,0,0:0:0:0:
322,29,254506,2,0,L|196:41,1,125.999996154785,2|0,0:1|0:0,0:0:0:0:
312,227,254820,2,0,L|354:224,3,41.9999987182618,8|0|0|0,0:0|0:0|0:0|0:0,0:0:0:0:
233,174,255134,6,0,P|170:160|106:161,1,125.999996154785,2|0,0:1|0:0,0:0:0:0:
400,44,255448,2,0,P|357:91|327:146,1,125.999996154785,8|0,0:0|0:0,0:0:0:0:
248,343,255762,2,0,P|291:295|322:239,1,125.999996154785,2|0,0:1|0:0,0:0:0:0:
166,290,256076,1,8,0:0:0:0:
405,286,256233,1,0,0:0:0:0:
415,256,256312,1,0,0:0:0:0:
412,225,256390,6,0,P|384:169|327:145,1,125.999996154785,4|0,0:0|0:0,0:0:0:0:
85,133,256705,1,8,0:0:0:0:
160,384,256862,1,0,0:0:0:0:
251,145,257019,2,0,L|125:157,1,125.999996154785,2|0,0:1|0:0,0:0:0:0:
324,295,257333,1,8,0:0:0:0:
80,331,257490,1,0,0:0:0:0:
170,90,257647,6,0,P|233:76|297:77,1,125.999996154785,2|0,0:1|0:0,0:0:0:0:
497,140,257961,2,0,P|434:126|372:128,1,125.999996154785,8|0,0:0|0:0,0:0:0:0:
170,190,258275,2,0,P|232:176|294:178,1,125.999996154785,2|0,0:1|0:0,0:0:0:0:
497,240,258590,2,0,P|434:226|372:228,1,125.999996154785,8|0,0:0|0:0,0:0:0:0:
170,290,258904,6,0,B|192:316|192:316|283:325,1,125.999996154785,2|0,0:1|0:0,0:0:0:0:
182,103,259218,1,8,0:0:0:0:
420,168,259375,1,0,0:0:0:0:
175,197,259532,2,0,B|141:190|141:190|88:116,1,125.999996154785,2|0,0:1|0:0,0:0:0:0:
341,115,259846,1,8,0:0:0:0:
170,290,260003,1,0,0:0:0:0:
261,61,260160,6,0,P|324:47|388:48,1,125.999996154785,2|0,0:1|0:0,0:0:0:0:
95,145,260474,2,0,P|51:97|22:42,1,125.999996154785,8|0,0:0|0:0,0:0:0:0:
255,255,260788,2,0,P|235:316|202:369,1,125.999996154785,2|0,0:1|0:0,0:0:0:0:
254,158,261103,2,0,L|317:152,1,62.9999980773926,8|0,0:0|0:0,0:0:0:0:
173,103,261260,2,0,L|138:51,1,62.9999980773926,8|0,0:0|0:0,0:0:0:0:
174,200,261417,6,0,P|126:241|65:244,1,125.999996154785,4|0,0:1|0:0,0:0:0:0:
261,61,261731,1,8,0:0:0:0:
424,267,261888,1,0,0:0:0:0:
185,325,262045,2,0,L|173:199,1,125.999996154785,2|0,0:1|0:0,0:0:0:0:
349,18,262359,2,0,L|391:15,3,41.9999987182618,8|0|0|0,0:0|0:0|0:0|0:0,0:0:0:0:
342,115,262673,6,0,P|376:166|434:186,1,125.999996154785,4|0,0:1|0:0,0:0:0:0:
174,105,262987,1,8,0:0:0:0:
244,353,263144,1,0,0:0:0:0:
435,186,263302,2,0,L|423:60,1,125.999996154785,2|0,0:1|0:0,0:0:0:0:
178,8,263616,2,0,L|136:11,3,41.9999987182618,8|0|0|0,0:0|0:0|0:0|0:0,0:0:0:0:
88,151,263930,6,0,P|131:193|192:201,1,125.999996154785,4|0,0:1|0:0,0:0:0:0:
10,4,264244,1,8,0:0:0:0:
84,247,264401,1,0,0:0:0:0:
260,63,264558,2,0,P|321:69|365:113,1,125.999996154785,4|0,0:1|0:0,0:0:0:0:
174,107,264872,1,8,0:0:0:0:
334,306,265029,1,0,0:0:0:0:
81,345,265186,6,0,L|71:232,1,112.5,8|0,0:0|0:0,0:0:0:0:
431,345,265501,2,0,L|439:246,1,99.0000030212403,8|0,0:0|0:0,0:0:0:0:
157,188,265815,2,0,L|149:102,1,85.4999977169037,8|0,0:0|0:0,0:0:0:0:
355,188,266129,1,8,0:0:0:0:
356,170,266207,1,8,0:0:0:0:
358,152,266286,1,8,0:0:0:0:
359,134,266364,1,8,0:0:0:0:
361,116,266443,6,0,B|366:53|366:53|423:25,1,125.999996154785,4|0,0:0|0:0,0:0:0:0:
193,107,266757,1,8,0:0:0:0:
442,162,266914,1,0,0:0:0:0:
190,205,267071,2,0,P|251:197|292:151,1,125.999996154785,2|0,0:1|0:0,0:0:0:0:
19,201,267385,1,8,0:0:0:0:
224,340,267542,1,0,0:0:0:0:
242,93,267699,6,0,P|179:79|115:80,1,125.999996154785,6|0,0:1|0:0,0:0:0:0:
408,193,268014,2,0,P|422:129|419:67,1,125.999996154785,8|0,0:0|0:0,0:0:0:0:
308,359,268328,2,0,P|371:373|433:370,1,125.999996154785,2|0,0:1|0:0,0:0:0:0:
142,259,268642,2,0,P|127:322|130:384,1,125.999996154785,8|0,0:0|0:0,0:0:0:0:
325,143,268956,6,0,P|339:83|311:28,1,125.999996154785,6|0,0:1|0:0,0:0:0:0:
74,187,269270,1,8,0:0:0:0:
322,238,269427,1,0,0:0:0:0:
158,92,269584,1,2,0:1:0:0:
237,332,269741,1,0,0:0:0:0:
282,117,269898,1,8,0:0:0:0:
113,307,270055,1,0,0:0:0:0:
361,358,270213,6,0,P|420:340|453:288,1,125.999996154785,6|0,0:1|0:0,0:0:0:0:
184,97,270527,2,0,P|169:156|197:211,1,125.999996154785,8|0,0:0|0:0,0:0:0:0:
498,74,270841,2,0,P|453:31|391:28,1,125.999996154785,2|0,0:1|0:0,0:0:0:0:
279,259,271155,2,8,L|273:321,1,62.9999980773926
361,211,271312,2,8,L|418:184,1,62.9999980773926
279,164,271469,6,0,B|267:131|267:131|305:48,1,125.999996154785,6|0,0:1|0:0,0:0:0:0:
361,306,271783,1,8,0:0:0:0:
116,260,271940,1,0,0:0:0:0:
360,116,272097,2,0,P|315:73|253:70,1,125.999996154785,2|0,0:1|0:0,0:0:0:0:
34,214,272412,2,0,L|31:256,3,41.9999987182618,8|0|0|0,0:0|0:0|0:0|0:0,0:0:0:0:
115,166,272726,6,0,P|173:185|205:237,1,125.999996154785,6|0,0:1|0:0,0:0:0:0:
33,26,273040,1,8,0:0:0:0:
275,70,273197,1,0,0:0:0:0:
117,260,273354,2,0,P|149:312|207:331,1,125.999996154785,2|0,0:1|0:0,0:0:0:0:
449,277,273668,2,0,L|446:235,3,41.9999987182618,8|0|0|0,0:0|0:0|0:0|0:0,0:0:0:0:
451,370,273982,6,0,L|325:380,1,125.999996154785,6|0,0:1|0:0,0:0:0:0:
161,200,274296,1,8,0:0:0:0:
366,50,274453,1,0,0:0:0:0:
324,289,274610,2,0,L|198:299,1,125.999996154785,2|0,0:1|0:0,0:0:0:0:
238,62,274925,2,0,L|280:59,3,41.9999987182618,8|0|0|0,0:0|0:0|0:0|0:0,0:0:0:0:
161,109,275239,6,0,P|117:156|86:212,1,125.999996154785,6|0,0:1|0:0,0:0:0:0:
366,131,275553,2,0,P|346:68|312:16,1,125.999996154785,8|0,0:0|0:0,0:0:0:0:
244,297,275867,2,0,P|308:311|370:308,1,125.999996154785,2|0,0:1|0:0,0:0:0:0:
168,341,276181,1,8,0:0:0:0:
244,123,276338,1,0,0:0:0:0:
223,99,276417,1,0,0:0:0:0:
194,86,276495,6,0,P|131:82|82:119,1,125.999996154785,4|0,0:0|0:0,0:0:0:0:
320,254,276809,1,8,0:0:0:0:
47,218,276966,1,0,0:0:0:0:
274,83,277124,2,0,P|334:68|388:97,1,125.999996154785,2|0,0:1|0:0,0:0:0:0:
480,348,277438,1,8,0:0:0:0:
207,312,277595,1,0,0:0:0:0:
482,164,277752,6,0,P|496:101|495:37,1,125.999996154785,6|0,0:1|0:0,0:0:0:0:
353,288,278067,2,0,P|339:224|342:162,1,125.999996154785,8|0,0:0|0:0,0:0:0:0:
201,164,278380,2,0,P|215:100|212:38,1,125.999996154785,2|0,0:1|0:0,0:0:0:0:
72,288,278694,2,0,P|58:224|61:162,1,125.999996154785,8|0,0:0|0:0,0:0:0:0:
244,338,279008,6,0,B|266:364|266:364|357:373,1,125.999996154785,6|0,0:1|0:0,0:0:0:0:
296,99,279323,1,8,0:0:0:0:
108,256,279480,1,0,0:0:0:0:
350,215,279637,1,2,0:1:0:0:
194,26,279794,1,0,0:0:0:0:
235,268,279951,1,8,0:0:0:0:
425,112,280108,1,0,0:0:0:0:
183,153,280265,6,0,P|125:134|93:82,1,125.999996154785,6|0,0:1|0:0,0:0:0:0:
318,234,280579,2,0,P|330:293|301:347,1,125.999996154785,8|0,0:0|0:0,0:0:0:0:
321,77,280893,2,0,P|366:36|427:34,1,125.999996154785,2|0,0:1|0:0,0:0:0:0:
238,277,281207,2,0,P|186:302|155:254,1,125.999996154785,8|0,0:0|0:0,0:0:0:0:
366,157,281521,6,0,P|424:176|456:228,1,125.999996154785,6|0,0:1|0:0,0:0:0:0:
183,153,281836,1,8,0:0:0:0:
370,360,281993,1,0,0:0:0:0:
262,109,282150,1,8,0:0:0:0:
137,322,282307,1,0,0:0:0:0:
366,248,282464,2,0,L|408:245,3,41.9999987182618,8|0|0|0,0:0|0:0|0:0|0:0,0:0:0:0:
288,294,282778,6,0,P|230:274|198:223,1,125.999996154785,6|0,0:1|0:0,0:0:0:0:
431,80,283092,1,8,0:0:0:0:
370,360,283249,1,0,0:0:0:0:
198,130,283406,1,8,0:0:0:0:
466,201,283563,1,0,0:0:0:0:
198,308,283720,2,0,L|156:311,3,41.9999987182618,8|0|0|0,0:0|0:0|0:0|0:0,0:0:0:0:
276,264,284035,6,0,P|244:211|185:191,1,125.999996154785,6|0,0:1|0:0,0:0:0:0:
28,367,284349,1,8,0:0:0:0:
274,353,284506,1,0,0:0:0:0:
108,234,284663,1,8,0:0:0:0:
98,198,284742,1,0,0:1:0:0:
102,160,284820,1,0,0:1:0:0:
120,128,284899,1,0,0:1:0:0:
150,104,284977,5,8,0:0:0:0:
184,122,285056,1,0,0:1:0:0:
221,126,285135,1,0,0:1:0:0:
257,116,285213,1,0,0:1:0:0:
286,92,285291,5,8,0:0:0:0:
290,104,285370,1,0,0:0:0:0:
295,119,285449,1,0,0:0:0:0:
300,132,285527,1,0,0:0:0:0:
305,146,285605,2,0,L|342:250,1,99.0000030212403,8|0,0:0|0:0,0:0:0:0:
414,195,285919,2,0,L|451:299,1,85.4999977169037,8|0,0:0|0:0,0:0:0:0:
490,151,286234,5,8,0:0:0:0:
485,125,286313,1,8,0:0:0:0:
469,102,286391,1,8,0:0:0:0:
447,87,286470,1,8,0:0:0:0:
421,82,286548,6,0,L|275:69,1,135.000005149842,8|0,0:0|0:0,0:0:0:0:
421,302,286862,2,0,L|275:314,1,135.000005149842,8|0,0:0|0:0,0:0:0:0:
91,302,287176,6,0,L|236:314,1,135.000005149842,8|0,0:0|0:0,0:0:0:0:
91,82,287490,2,0,L|236:69,1,135.000005149842,8|0,0:0|0:0,0:0:0:0:
410,168,287804,6,0,P|423:235|421:302,1,135.000005149842,8|0,0:0|0:0,0:0:0:0:
102,168,288118,2,0,P|88:235|90:302,1,135.000005149842,8|0,0:0|0:0,0:0:0:0:
177,124,288432,6,0,P|126:84|60:89,1,135.000005149842,8|0,0:0|0:0,0:0:0:0:
334,124,288747,2,0,P|385:84|451:89,1,135.000005149842,8|0,0:0|0:0,0:0:0:0:
332,298,289061,6,0,P|391:313|407:254,1,135.000005149842,8|0,0:0|0:0,0:0:0:0:
180,298,289375,2,0,P|120:313|104:254,1,135.000005149842,8|0,0:0|0:0,0:0:0:0:
260,80,289689,6,0,L|405:67,1,135.000005149842,8|0,0:0|0:0,0:0:0:0:
182,208,290003,2,0,L|327:195,1,135.000005149842,8|0,0:0|0:0,0:0:0:0:
52,47,290317,2,0,L|197:34,1,135.000005149842,8|0,0:0|0:0,0:0:0:0:
34,292,290631,2,0,L|179:279,1,135.000005149842,8|0,0:0|0:0,0:0:0:0:
478,292,290946,6,0,L|332:279,1,135.000005149842,8|0,0:0|0:0,0:0:0:0:
108,165,291260,1,8,0:0:0:0:
326,34,291417,1,0,0:0:0:0:
343,280,291574,6,0,B|292:284|292:284|277:315|277:315|227:319,1,135.000005149842,8|0,0:0|0:0,0:0:0:0:
169,104,291888,2,0,B|219:99|219:99|234:68|234:68|284:64,1,135.000005149842,8|0,0:0|0:0,0:0:0:0:
98,149,292202,6,0,P|84:216|86:283,1,135.000005149842,8|0,0:0|0:0,0:0:0:0:
414,149,292516,2,0,P|428:216|426:283,1,135.000005149842,8|0,0:0|0:0,0:0:0:0:
340,111,292830,6,0,P|391:71|457:76,1,135.000005149842,8|0,0:0|0:0,0:0:0:0:
172,111,293145,2,0,P|121:71|55:76,1,135.000005149842,8|0,0:0|0:0,0:0:0:0:
159,320,293459,6,0,P|226:334|293:332,1,135.000005149842,8|0,0:0|0:0,0:0:0:0:
353,64,293773,2,0,P|286:50|219:52,1,135.000005149842,8|0,0:0|0:0,0:0:0:0:
435,271,294087,6,0,P|418:212|359:228,1,135.000005149842,8|0,0:0|0:0,0:0:0:0:
77,271,294401,2,0,P|93:212|152:228,1,135.000005149842,8|0,0:0|0:0,0:0:0:0:
295,359,294715,6,0,L|440:372,1,135.000005149842,8|0,0:0|0:0,0:0:0:0:
206,269,295029,2,0,L|351:282,1,135.000005149842,8|0,0:0|0:0,0:0:0:0:
117,179,295343,2,0,L|262:192,1,135.000005149842,8|0,0:0|0:0,0:0:0:0:
25,333,295658,2,0,L|170:346,1,135.000005149842,8|0,0:0|0:0,0:0:0:0:
465,190,295972,6,0,L|320:203,1,135.000005149842,8|0,0:0|0:0,0:0:0:0:
101,105,296286,1,8,0:0:0:0:
386,103,296443,1,0,0:0:0:0:
139,254,296600,5,4,0:1:0:0:
346,33,296757,1,0,0:0:0:0:
401,312,296914,5,8,0:0:0:0:
180,105,297071,1,0,0:0:0:0:
283,381,297228,5,8,0:0:0:0:
490,160,297385,1,0,0:0:0:0:
362,380,297542,5,8,0:0:0:0:
141,173,297699,1,0,0:0:0:0:
322,313,297857,5,8,0:0:0:0:
390,17,298014,1,0,0:0:0:0:
243,314,298171,5,8,0:0:0:0:
309,18,298328,1,0,0:0:0:0:
164,315,298485,5,8,0:0:0:0:
230,19,298642,1,0,0:0:0:0:
85,316,298799,5,8,0:0:0:0:
151,20,298956,1,0,0:0:0:0:
371,224,299113,5,8,0:0:0:0:
75,158,299270,1,0,0:0:0:0:
304,318,299427,5,8,0:0:0:0:
141,63,299584,1,0,0:0:0:0:
189,339,299741,5,8,0:0:0:0:
256,43,299898,1,0,0:0:0:0:
95,272,300055,5,8,0:0:0:0:
350,109,300212,1,0,0:0:0:0:
170,105,300370,5,8,0:0:0:0:
333,360,300527,1,0,0:0:0:0:
337,180,300684,5,8,0:0:0:0:
82,343,300841,1,0,0:0:0:0:
262,347,300998,5,8,0:0:0:0:
99,92,301155,1,0,0:0:0:0:
95,272,301312,5,8,0:0:0:0:
350,109,301469,1,0,0:0:0:0:
216,226,301626,5,8,0:0:0:0:
220,246,301704,1,2,0:1:0:0:
231,263,301783,1,2,0:1:0:0:
248,274,301861,1,2,0:1:0:0:
268,278,301940,1,8,0:0:0:0:
288,274,302018,1,0,0:0:0:0:
305,263,302097,1,0,0:0:0:0:
316,246,302175,1,0,0:0:0:0:
320,226,302253,5,8,0:0:0:0:
305,204,302333,1,2,0:1:0:0:
299,177,302412,1,2,0:1:0:0:
305,151,302490,1,2,0:1:0:0:
320,128,302569,1,8,0:0:0:0:
348,110,302648,1,2,0:1:0:0:
367,82,302726,1,2,0:1:0:0:
373,48,302804,1,2,0:1:0:0:
367,15,302883,5,8,0:0:0:0:
333,17,302961,1,2,0:1:0:0:
299,20,303040,1,2,0:1:0:0:
266,23,303118,1,2,0:1:0:0:
232,26,303197,1,8,0:0:0:0:
198,29,303275,1,2,0:1:0:0:
164,32,303354,1,2,0:1:0:0:
131,35,303432,1,2,0:1:0:0:
97,38,303511,5,8,0:0:0:0:
120,72,303590,1,2,0:1:0:0:
127,112,303668,1,2,0:1:0:0:
120,152,303747,1,2,0:1:0:0:
97,185,303826,1,8,0:0:0:0:
89,225,303904,1,2,0:1:0:0:
97,265,303982,1,2,0:1:0:0:
119,298,304061,1,2,0:1:0:0:
153,321,304139,5,8,0:0:0:0:
192,294,304218,1,2,0:1:0:0:
239,285,304296,1,2,0:1:0:0:
285,294,304375,1,2,0:1:0:0:
324,321,304453,1,8,0:0:0:0:
371,330,304532,1,2,0:1:0:0:
417,321,304611,1,2,0:1:0:0:
456,295,304689,1,2,0:1:0:0:
483,256,304768,5,8,0:0:0:0:
452,211,304846,1,2,0:1:0:0:
408,181,304924,1,2,0:1:0:0:
355,170,305003,1,2,0:1:0:0:
302,181,305082,2,0,L|265:201,2,26.9999991760254,8|2|2,0:0|0:1|0:1,0:0:0:0:
247,126,305239,2,0,L|210:105,2,26.9999991760254,2|2|2,0:1|0:1|0:1,0:0:0:0:
192,181,305396,6,0,P|170:185|148:181,2,45
84,114,305867,2,0,P|62:110|40:114,2,45
59,202,306338,1,8,0:0:0:0:
57,223,306416,1,8,0:0:0:0:
55,246,306495,1,8,0:0:0:0:
53,268,306573,1,8,0:0:0:0:
51,290,306652,6,0,P|68:326|99:350,1,80.9999975280763,4|0,0:0|0:0,0:0:0:0:
255,326,306966,2,0,L|174:333,1,80.9999975280763,8|0,0:0|0:0,0:0:0:0:
280,253,307281,1,0,0:0:0:0:
280,253,307359,1,0,0:0:0:0:
280,253,307438,1,0,0:0:0:0:
331,312,307595,2,0,P|371:315|408:300,1,80.9999975280763,8|0,0:0|0:0,0:0:0:0:
385,168,307909,6,0,P|362:200|356:240,1,80.9999975280763
462,154,308223,2,0,L|454:73,1,80.9999975280763,8|0,0:0|0:0,0:0:0:0:
326,27,308537,1,0,0:0:0:0:
326,27,308615,1,0,0:0:0:0:
326,27,308694,1,0,0:0:0:0:
377,87,308851,2,0,P|339:102|299:98,1,80.9999975280763,8|0,0:0|0:0,0:0:0:0:
170,49,309165,6,0,P|207:33|247:37,1,80.9999975280763
144,124,309480,2,0,L|63:131,1,80.9999975280763,8|0,0:0|0:0,0:0:0:0:
222,110,309794,1,0,0:0:0:0:
222,110,309872,1,0,0:0:0:0:
222,110,309951,1,0,0:0:0:0:
196,185,310108,2,0,P|213:221|244:245,1,80.9999975280763,8|0,0:0|0:0,0:0:0:0:
351,159,310422,6,0,P|310:155|273:170,1,80.9999975280763
296,306,310736,2,0,L|376:313,1,80.9999975280763,8|0,0:0|0:0,0:0:0:0:
217,320,311050,1,0,0:0:0:0:
217,320,311128,1,0,0:0:0:0:
217,320,311207,1,0,0:0:0:0:
324,231,311364,1,8,0:0:0:0:
267,381,311521,1,8,0:0:0:0:
167,259,311679,6,0,P|126:255|89:270,1,80.9999975280763
245,247,311993,2,0,L|252:166,1,80.9999975280763,8|0,0:0|0:0,0:0:0:0:
202,104,312307,1,0,0:0:0:0:
202,104,312385,1,0,0:0:0:0:
202,104,312464,1,0,0:0:0:0:
174,179,312621,2,0,P|142:154|125:118,1,80.9999975280763,8|0,0:0|0:0,0:0:0:0:
233,35,312935,6,0,P|264:59|281:95,1,80.9999975280763
337,232,313249,2,0,L|329:151,1,80.9999975280763,8|0,0:0|0:0,0:0:0:0:
359,81,313563,1,0,0:0:0:0:
359,81,313641,1,0,0:0:0:0:
359,81,313720,1,0,0:0:0:0:
437,67,313877,2,0,P|431:106|408:139,1,80.9999975280763,8|0,0:0|0:0,0:0:0:0:
459,199,314192,6,0,P|421:214|381:210,1,80.9999975280763
296,305,314506,2,0,L|303:224,1,80.9999975280763,8|0,0:0|0:0,0:0:0:0:
373,292,314820,1,0,0:0:0:0:
373,292,314898,1,0,0:0:0:0:
373,292,314977,1,0,0:0:0:0:
423,353,315134,2,0,P|385:368|345:364,1,80.9999975280763,8|0,0:0|0:0,0:0:0:0:
140,329,315448,6,0,B|182:321|209:338|200:350|206:365|242:371|270:346|259:308|215:318,1,161.999995056153
62,341,316234,1,0,0:0:0:0:
91,268,316391,1,8,0:0:0:0:
92,247,316469,1,0,0:0:0:0:
94,227,316548,1,0,0:0:0:0:
96,207,316626,1,0,0:0:0:0:
98,187,316705,6,0,P|105:152|128:124,1,72,4|0,0:0|0:0,0:0:0:0:
277,106,317019,2,0,L|205:112,1,72,8|0,0:0|0:0,0:0:0:0:
317,38,317333,2,0,P|343:61|355:95,1,72
332,241,317647,2,0,L|325:169,1,72,8|0,0:0|0:0,0:0:0:0:
434,95,317961,2,0,P|426:129|403:157,1,72
423,17,318275,2,0,L|494:23,1,72,8|0,0:0|0:0,0:0:0:0:
443,224,318590,2,0,P|409:235|373:228,1,72
253,175,318904,2,0,L|324:168,1,72,8|0,0:0|0:0,0:0:0:0:
224,249,319218,6,0,P|194:229|177:197,1,72
302,237,319532,2,0,L|308:308,1,72,8|0,0:0|0:0,0:0:0:0:
162,334,319846,2,0,P|194:318|229:319,1,72
84,346,320160,2,0,L|90:274,1,72,8|0,0:0|0:0,0:0:0:0:
218,209,320474,2,0,P|185:224|150:223,1,72
97,143,320788,2,0,L|168:149,1,72,8|0,0:0|0:0,0:0:0:0:
38,190,321103,2,0,P|22:157|23:122,1,72
145,22,321417,1,8,0:0:0:0:
167,170,321574,1,8,0:0:0:0:
274,2,321731,6,0,P|289:34|288:69,1,72
120,109,322045,2,0,P|152:93|187:94,1,72,8|0,0:0|0:0,0:0:0:0:
227,263,322359,2,0,P|211:230|212:195,1,72
381,156,322673,2,0,P|348:171|313:170,1,72,8|0,0:0|0:0,0:0:0:0:
410,84,322987,2,0,L|481:90,1,72
381,156,323302,2,0,L|452:162,1,72,8|0,0:0|0:0,0:0:0:0:
352,228,323616,2,0,L|423:234,1,72
323,300,323930,2,0,L|394:306,1,72,8|0,0:0|0:0,0:0:0:0:
262,349,324244,6,0,P|246:316|247:281,1,72
175,253,324558,2,0,P|194:223|226:206,1,72,8|0,0:0|0:0,0:0:0:0:
214,129,324872,2,0,P|249:131|279:150,1,72
340,100,325186,2,0,P|355:132|354:167,1,72,8|0,0:0|0:0,0:0:0:0:
300,225,325501,5,8,0:0:0:0:
156,169,325815,1,8,0:0:0:0:
276,72,326129,1,8,0:0:0:0:
245,156,326286,1,8,0:0:0:0:
238,172,326364,1,8,0:0:0:0:
232,189,326443,1,8,0:0:0:0:
226,206,326521,1,8,0:0:0:0:
219,223,326600,1,8,0:0:0:0:
213,240,326678,1,8,0:0:0:0:
207,257,326757,6,0,L|144:262,1,62.9999980773926,4|0,0:0|0:0,0:0:0:0:
180,329,327071,2,0,L|117:334,1,62.9999980773926,8|0,0:0|0:0,0:0:0:0:
256,317,327385,2,0,L|318:311,1,62.9999980773926
284,246,327699,2,0,L|346:240,1,62.9999980773926,8|0,0:0|0:0,0:0:0:0:
312,175,328014,2,0,L|306:112,1,62.9999980773926
240,148,328328,2,0,L|234:85,1,62.9999980773926,8|0,0:0|0:0,0:0:0:0:
183,194,328642,2,0,L|177:256,1,62.9999980773926,0|0,0:0|0:0,0:0:0:0:
111,221,328956,2,0,L|105:283,1,62.9999980773926,8|0,0:0|0:0,0:0:0:0:
40,194,329270,6,0,P|57:167|83:150,1,62.9999980773926
72,76,329584,2,0,P|103:77|131:91,1,62.9999980773926,8|0,0:0|0:0,0:0:0:0:
200,118,329898,2,0,P|183:144|157:161,1,62.9999980773926
170,236,330213,2,0,P|138:234|110:220,1,62.9999980773926,8|0,0:0|0:0,0:0:0:0:
239,263,330527,2,0,P|222:289|196:306,1,62.9999980773926
296,216,330841,2,0,P|310:243|312:274,1,62.9999980773926,8|0,0:0|0:0,0:0:0:0:
283,143,331155,2,0,P|314:144|342:158,1,62.9999980773926
213,117,331469,1,8,0:0:0:0:
327,23,331626,1,8,0:0:0:0:
395,47,331783,6,0,L|457:41,1,62.9999980773926
367,118,332097,2,0,L|429:112,1,62.9999980773926,8|0,0:0|0:0,0:0:0:0:
401,183,332412,2,0,L|463:177,1,62.9999980773926
373,254,332726,2,0,L|435:248,1,62.9999980773926,8|0,0:0|0:0,0:0:0:0:
351,322,333040,2,0,L|288:316,1,62.9999980773926
260,245,333354,2,0,L|197:239,1,62.9999980773926,8|0,0:0|0:0,0:0:0:0:
345,182,333668,2,0,L|282:176,1,62.9999980773926
254,105,333982,2,0,L|191:99,1,62.9999980773926,8|0,0:0|0:0,0:0:0:0:
324,90,334296,6,0,P|311:61|288:40,1,62.9999980773926
371,143,334610,2,0,P|389:118|396:87,1,62.9999980773926,8|0,0:0|0:0,0:0:0:0:
302,158,334925,2,0,P|283:182|276:213,1,62.9999980773926
207,228,335239,2,0,P|219:256|242:277,1,62.9999980773926,8|0,0:0|0:0,0:0:0:0:
228,160,335553,2,0,P|215:131|192:110,1,62.9999980773926
159,176,335867,2,0,P|127:172|98:181,1,62.9999980773926,8|0,0:0|0:0,0:0:0:0:
17,254,336181,2,0,P|48:257|77:248,1,62.9999980773926
17,124,336495,5,8,0:0:0:0:
15,139,336573,1,8,0:0:0:0:
14,155,336652,1,8,0:0:0:0:
12,171,336730,1,8,0:0:0:0:
11,186,336809,6,0,L|16:253,1,67.5000025749208,4|0,0:0|0:0,0:0:0:0:
139,233,337124,2,0,L|83:271,1,67.5000025749208,8|0,0:0|0:0,0:0:0:0:
162,367,337438,2,0,L|100:338,1,67.5000025749208
211,319,337752,2,0,L|205:251,1,67.5000025749208,8|0,0:0|0:0,0:0:0:0:
279,300,338066,2,0,L|334:261,1,67.5000025749208
266,212,338380,2,0,L|260:144,1,67.5000025749208,8|0,0:0|0:0,0:0:0:0:
334,193,338694,2,0,L|389:154,1,67.5000025749208
321,105,339008,2,0,L|315:37,1,67.5000025749208,8|0,0:0|0:0,0:0:0:0:
388,86,339323,6,0,P|421:91|448:112,1,67.5000025749208,4|0,0:1|0:0,0:0:0:0:
389,154,339637,2,0,P|400:185|396:218,1,67.5000025749208,8|0,0:0|0:0,0:0:0:0:
330,188,339951,2,0,P|308:213|277:226,1,67.5000025749208
271,153,340265,2,0,P|238:147|211:126,1,67.5000025749208,8|0,0:0|0:0,0:0:0:0:
208,55,340579,2,0,P|240:60|267:81,1,67.5000025749208
148,93,340893,2,0,P|136:61|140:28,1,67.5000025749208,8|0,0:0|0:0,0:0:0:0:
151,162,341207,2,0,P|118:156|91:135,1,67.5000025749208
212,193,341521,2,0,P|190:218|159:231,1,67.5000025749208,8|0,0:0|0:0,0:0:0:0:
88,233,341836,5,4,0:1:0:0:
126,294,341993,1,0,0:0:0:0:
233,229,342150,1,8,0:0:0:0:
198,292,342307,1,0,0:0:0:0:
306,228,342464,1,8,0:0:0:0:
344,291,342621,1,0,0:0:0:0:
342,163,342778,1,8,0:0:0:0:
380,227,342935,1,0,0:0:0:0:
452,97,343092,5,4,0:1:0:0:
416,162,343249,1,0,0:0:0:0:
303,99,343406,1,8,0:0:0:0:
378,98,343563,1,0,0:0:0:0:
264,34,343720,1,8,0:0:0:0:
228,101,343877,1,0,0:0:0:0:
115,36,344035,1,8,0:0:0:0:
190,35,344192,1,0,0:0:0:0:
79,103,344349,5,2,0:1:0:0:
77,119,344427,1,8,0:0:0:0:
76,136,344506,1,8,0:0:0:0:
74,153,344584,1,8,0:0:0:0:
73,170,344663,5,2,0:1:0:0:
71,190,344741,1,8,0:0:0:0:
69,210,344820,1,8,0:0:0:0:
67,230,344898,1,8,0:0:0:0:
65,250,344977,5,2,0:1:0:0:
78,269,345055,1,8,0:0:0:0:
97,282,345134,1,8,0:0:0:0:
121,287,345212,1,8,0:0:0:0:
144,282,345291,5,2,0:1:0:0:
159,304,345370,1,8,0:0:0:0:
181,319,345448,1,8,0:0:0:0:
208,324,345527,1,8,0:0:0:0:
234,319,345605,5,2,0:1:0:0:
234,319,346548,6,0,L|144:326,1,90,8|0,0:0|0:0,0:0:0:0:
167,229,346862,6,0,B|157:142|92:114|92:114|173:111|216:49|216:49|294:57|330:124|330:124|350:172|414:177|441:124|441:124|426:73|346:71|330:124|330:124|263:158|254:238|254:238|332:242|370:312|370:312|305:354|227:316,1,1152,4|0,0:0|0:0,0:0:0:0:
