osu file format v14

[General]
AudioFilename: audio.mp3
AudioLeadIn: 0
PreviewTime: 72182
Countdown: 0
SampleSet: Soft
StackLeniency: 0.7
Mode: 3
LetterboxInBreaks: 0
SpecialStyle: 0
WidescreenStoryboard: 1

[Editor]
Bookmarks: 1310,39967,72182,97954
DistanceSpacing: 0.8
BeatDivisor: 4
GridSize: 4
TimelineZoom: 3.2

[Metadata]
Title:LiFE Garden
TitleUnicode:LiFE Garden
Artist:Yooh
ArtistUnicode:Yooh
Creator:pocket-Gao
Version:Xing vs. Neko's 4K Another
Source:
Tags:eutopia c86 Crystal critical_star dosyeru exneko
BeatmapID:968369
BeatmapSetID:436217

[Difficulty]
HPDrainRate:8
CircleSize:4
OverallDifficulty:9
ApproachRate:5
SliderMultiplier:1.4
SliderTickRate:1

[Events]
//Background and Video events
0,0,"2.jpg",0,0
//Break Periods
//Storyboard Layer 0 (Background)
//Storyboard Layer 1 (Fail)
//Storyboard Layer 2 (Pass)
//Storyboard Layer 3 (Foreground)
//Storyboard Sound Samples
Sample,115269,0,"cym_c_003.wav",30

[TimingPoints]
1310,402.684563758389,4,2,0,50,1,0
85068,-100,4,2,0,50,0,1
115672,-100,4,2,0,50,0,0

[HitObjects]
448,192,504,128,0,1310:0:0:0:0:
192,192,1310,1,0,0:0:0:30:cym.wav
64,192,1310,1,0,0:0:0:30:kick02.wav
320,192,1410,1,0,0:0:0:0:
320,192,1612,1,0,0:0:0:0:
64,192,1712,1,0,0:0:0:30:kick02.wav
192,192,1712,1,8,0:0:0:0:
320,192,1813,1,0,0:0:0:0:
448,192,1914,1,0,0:0:0:0:
64,192,2115,1,0,0:0:0:30:kick02.wav
320,192,2115,1,0,0:0:0:0:
192,192,2216,1,0,0:0:0:0:
192,192,2417,1,0,0:0:0:0:
320,192,2518,1,8,0:0:0:0:
64,192,2518,1,0,0:0:0:30:kick02.wav
448,192,2618,1,0,0:0:0:0:
192,192,2719,1,0,0:0:0:0:
448,192,2920,1,0,0:0:0:0:
320,192,2920,1,0,0:0:0:30:kick02.wav
192,192,3021,1,0,0:0:0:0:
192,192,3222,1,0,0:0:0:0:
448,192,3323,1,8,0:0:0:0:
320,192,3323,1,0,0:0:0:30:kick02.wav
64,192,3424,1,0,0:0:0:0:
192,192,3524,1,0,0:0:0:0:
64,192,3726,1,0,0:0:0:0:
448,192,3726,1,0,0:0:0:30:kick02.wav
320,192,3826,1,0,0:0:0:0:
320,192,4028,1,0,0:0:0:0:
64,192,4128,1,8,0:0:0:0:
448,192,4128,1,0,0:0:0:30:kick02.wav
192,192,4229,1,0,0:0:0:0:
320,192,4330,1,0,0:0:0:0:
192,192,4430,1,0,0:0:0:0:
64,192,4531,1,0,0:0:0:0:
448,192,4531,1,0,0:0:0:30:kick02.wav
320,192,4632,1,0,0:0:0:0:
320,192,4833,1,0,0:0:0:0:
64,192,4934,1,0,0:0:0:30:kick02.wav
192,192,4934,1,8,0:0:0:0:
448,192,5034,1,0,0:0:0:0:
320,192,5135,1,0,0:0:0:0:
64,192,5336,1,0,0:0:0:30:kick02.wav
448,192,5336,1,0,0:0:0:0:
192,192,5437,1,0,0:0:0:0:
192,192,5638,1,0,0:0:0:0:
64,192,5739,1,8,0:0:0:0:
448,192,5739,1,0,0:0:0:30:kick02.wav
320,192,5840,1,0,0:0:0:0:
192,192,5940,1,0,0:0:0:0:
448,192,6142,1,0,0:0:0:0:
64,192,6142,1,0,0:0:0:30:kick02.wav
192,192,6242,1,0,0:0:0:0:
192,192,6444,1,0,0:0:0:0:
448,192,6544,1,8,0:0:0:0:
64,192,6544,1,0,0:0:0:30:kick02.wav
320,192,6645,1,0,0:0:0:0:
192,192,6746,1,0,0:0:0:0:
64,192,6947,1,0,0:0:0:0:
320,192,6947,1,0,0:0:0:30:kick02.wav
448,192,7048,1,0,0:0:0:0:
448,192,7249,1,0,0:0:0:0:
192,192,7249,1,0,0:0:0:0:
64,192,7350,1,8,0:0:0:0:
320,192,7350,1,0,0:0:0:30:kick02.wav
192,192,7450,1,0,0:0:0:0:
448,192,7551,1,0,0:0:0:0:
64,192,7551,1,0,0:0:0:30:kick02.wav
320,192,7652,1,0,0:0:0:0:
192,192,7752,1,0,0:0:0:30:kick02.wav
64,192,7752,1,0,0:0:0:0:
448,192,7853,1,0,0:0:0:0:
320,192,7954,1,0,0:0:0:0:
192,192,8054,1,0,0:0:0:0:
64,192,8155,1,0,0:0:0:0:
448,192,8155,1,8,0:0:0:0:
320,192,8256,1,0,0:0:0:0:
192,192,8356,1,0,0:0:0:0:
320,192,8457,1,0,0:0:0:0:
64,192,8558,1,0,0:0:0:0:
448,192,8558,1,0,0:0:0:0:
192,192,8658,1,0,0:0:0:0:
320,192,8759,1,0,0:0:0:0:
64,192,8860,1,0,0:0:0:0:
192,192,8961,1,0,0:0:0:0:
448,192,8961,1,8,0:0:0:0:
320,192,9061,1,0,0:0:0:0:
192,192,9162,1,0,0:0:0:0:
64,192,9263,1,0,0:0:0:0:
320,192,9363,1,0,0:0:0:0:
448,192,9363,1,0,0:0:0:0:
192,192,9464,1,0,0:0:0:0:
64,192,9565,1,0,0:0:0:0:
320,192,9665,1,0,0:0:0:0:
192,192,9766,1,0,0:0:0:0:
448,192,9766,1,8,0:0:0:0:
64,192,9867,1,0,0:0:0:0:
320,192,9967,1,0,0:0:0:0:
192,192,10068,1,0,0:0:0:0:
64,192,10169,1,0,0:0:0:0:
320,192,10169,1,0,0:0:0:0:
448,192,10269,1,0,0:0:0:0:
192,192,10370,1,0,0:0:0:0:
320,192,10471,1,0,0:0:0:0:
448,192,10571,1,8,0:0:0:0:
64,192,10571,1,0,0:0:0:0:
192,192,10672,1,0,0:0:0:0:
320,192,10773,1,0,0:0:0:0:
192,192,10873,1,0,0:0:0:0:
448,192,10974,1,0,0:0:0:0:
64,192,10974,1,0,0:0:0:30:kick02.wav
320,192,11075,1,0,0:0:0:0:
192,192,11175,1,0,0:0:0:0:
64,192,11175,1,0,0:0:0:30:kick02.wav
448,192,11276,1,0,0:0:0:0:
320,192,11377,1,0,0:0:0:0:
192,192,11377,1,0,0:0:0:30:kick02.wav
64,192,11477,1,0,0:0:0:0:
448,192,11578,1,0,0:0:0:0:
320,192,11578,1,0,0:0:0:30:kick02.wav
192,192,11679,1,0,0:0:0:0:
64,192,11679,1,0,0:0:0:30:kick02.wav
320,192,11779,1,0,0:0:0:0:
448,192,11779,1,0,0:0:0:30:kick02.wav
192,192,11880,1,0,0:0:0:0:
448,192,11981,1,0,0:0:0:0:
64,192,11981,1,0,0:0:0:30:kick02.wav
320,192,12081,1,0,0:0:0:0:
192,192,12182,1,0,0:0:0:0:
64,192,12182,1,0,0:0:0:30:kick02.wav
448,192,12232,1,0,0:0:0:0:
320,192,12283,1,0,0:0:0:0:
192,192,12333,1,0,0:0:0:0:
64,192,12383,1,0,0:0:0:30:kick02.wav
448,192,12383,1,0,0:0:0:0:
192,192,12484,1,0,0:0:0:30:kick02.wav
448,192,12585,128,0,13390:0:0:0:0:
320,192,12585,1,0,0:0:0:30:kick02.wav
192,192,13390,1,0,0:0:0:30:kick.wav
64,192,13390,1,0,0:0:0:30:cym_c_000.wav
448,192,13491,1,0,0:0:0:30:kick.wav
320,192,13491,1,0,0:0:0:30:cym_c_000.wav
64,192,13692,1,0,0:0:0:30:cym_c_000.wav
192,192,13692,1,0,0:0:0:30:kick.wav
64,192,13893,1,0,0:0:0:30:cym_c_000.wav
192,192,13893,1,0,0:0:0:30:kick.wav
448,192,13994,1,0,0:0:0:30:cym_c_000.wav
320,192,13994,1,0,0:0:0:30:kick.wav
64,192,14095,1,0,0:0:0:30:cym_c_000.wav
192,192,14095,1,0,0:0:0:30:kick.wav
320,192,14195,1,0,0:0:0:30:kick.wav
448,192,14195,128,0,14397:0:0:0:30:cym.wav
64,192,14296,1,0,0:0:0:0:
192,192,14397,1,0,0:0:0:0:
448,192,14497,1,8,0:0:0:0:
320,192,14497,128,0,14699:0:0:0:0:
192,192,14598,1,0,0:0:0:0:
64,192,14598,1,0,0:0:0:30:kick02.wav
448,192,14699,1,0,0:0:0:0:
192,192,14799,1,0,0:0:0:0:
320,192,14799,1,0,0:0:0:0:
320,192,15001,1,0,0:0:0:30:kick02.wav
448,192,15001,128,0,15202:0:0:0:0:
192,192,15101,1,0,0:0:0:0:
64,192,15202,1,0,0:0:0:0:
448,192,15303,1,8,0:0:0:0:
320,192,15303,128,0,15504:0:0:0:0:
192,192,15403,1,0,0:0:0:0:
64,192,15403,1,0,0:0:0:30:kick02.wav
448,192,15504,1,0,0:0:0:0:
320,192,15605,1,0,0:0:0:0:
192,192,15605,128,0,15705:0:0:0:0:
192,192,15806,1,0,0:0:0:30:kick02.wav
64,192,15806,128,0,16007:0:0:0:0:
448,192,15907,1,0,0:0:0:0:
320,192,16007,1,0,0:0:0:0:
64,192,16108,1,8,0:0:0:0:
192,192,16108,128,0,16309:0:0:0:0:
320,192,16209,1,0,0:0:0:0:
448,192,16209,1,0,0:0:0:30:kick02.wav
64,192,16309,1,0,0:0:0:0:
320,192,16410,1,0,0:0:0:0:
448,192,16410,1,0,0:0:0:0:
64,192,16612,1,0,0:0:0:30:kick02.wav
192,192,16612,128,0,16813:0:0:0:0:
320,192,16712,1,0,0:0:0:0:
64,192,16813,1,0,0:0:0:0:
448,192,16914,1,8,0:0:0:0:
320,192,16914,128,0,17115:0:0:0:0:
64,192,17014,1,0,0:0:0:0:
192,192,17014,1,0,0:0:0:30:kick02.wav
448,192,17115,1,0,0:0:0:0:
320,192,17216,1,0,0:0:0:0:
192,192,17216,128,0,17316:0:0:0:0:
448,192,17417,1,0,0:0:0:30:kick02.wav
64,192,17417,128,0,17618:0:0:0:0:
192,192,17518,1,0,0:0:0:0:
320,192,17618,1,0,0:0:0:0:
64,192,17719,1,8,0:0:0:0:
192,192,17719,128,0,17920:0:0:0:0:
320,192,17820,1,0,0:0:0:0:
448,192,17820,1,0,0:0:0:30:kick02.wav
64,192,17920,1,0,0:0:0:0:
192,192,18021,1,0,0:0:0:0:
448,192,18021,1,0,0:0:0:0:
192,192,18222,1,0,0:0:0:30:kick02.wav
64,192,18222,128,0,18424:0:0:0:0:
448,192,18323,1,0,0:0:0:0:
320,192,18424,1,0,0:0:0:0:
64,192,18524,1,8,0:0:0:0:
192,192,18524,128,0,18726:0:0:0:0:
320,192,18625,1,0,0:0:0:0:
448,192,18625,1,0,0:0:0:30:kick02.wav
64,192,18726,1,0,0:0:0:0:
192,192,18826,1,0,0:0:0:0:
320,192,18826,128,0,18927:0:0:0:0:
64,192,19028,1,0,0:0:0:30:kick02.wav
448,192,19028,128,0,19229:0:0:0:0:
192,192,19128,1,0,0:0:0:0:
320,192,19229,1,0,0:0:0:0:
64,192,19330,1,8,0:0:0:0:
192,192,19330,128,0,19531:0:0:0:0:
320,192,19430,1,0,0:0:0:0:
448,192,19430,1,0,0:0:0:30:kick02.wav
64,192,19531,1,0,0:0:0:0:
192,192,19632,1,0,0:0:0:0:
448,192,19632,1,0,0:0:0:0:
320,192,19833,1,0,0:0:0:30:kick02.wav
192,192,19833,128,0,20034:0:0:0:0:
448,192,19934,1,0,0:0:0:0:
320,192,20034,1,0,0:0:0:0:
192,192,20135,1,8,0:0:0:0:
64,192,20135,128,0,20336:0:0:0:0:
320,192,20236,1,0,0:0:0:0:
448,192,20236,1,0,0:0:0:30:kick02.wav
192,192,20336,1,0,0:0:0:0:
64,192,20437,1,0,0:0:0:30:kick02.wav
448,192,20437,128,0,20538:0:0:0:0:
320,192,20538,1,0,0:0:0:0:
192,192,20638,1,0,0:0:0:30:kick02.wav
64,192,20638,128,0,20840:0:0:0:0:
448,192,20739,1,0,0:0:0:0:
320,192,20840,1,0,0:0:0:0:
64,192,20940,1,8,0:0:0:0:
192,192,20940,128,0,21142:0:0:0:0:
320,192,21041,1,0,0:0:0:0:
448,192,21041,1,0,0:0:0:30:kick02.wav
64,192,21142,1,0,0:0:0:0:
320,192,21242,1,0,0:0:0:0:
192,192,21242,1,0,0:0:0:0:
192,192,21444,1,0,0:0:0:30:kick02.wav
64,192,21444,128,0,21645:0:0:0:0:
320,192,21544,1,0,0:0:0:0:
448,192,21645,1,0,0:0:0:0:
64,192,21746,1,8,0:0:0:0:
192,192,21746,128,0,21947:0:0:0:0:
320,192,21846,1,0,0:0:0:0:
448,192,21846,1,0,0:0:0:30:kick02.wav
64,192,21947,1,0,0:0:0:0:
192,192,22048,1,0,0:0:0:0:
320,192,22048,128,0,22148:0:0:0:0:
320,192,22249,1,0,0:0:0:30:kick02.wav
448,192,22249,128,0,22450:0:0:0:0:
64,192,22350,1,0,0:0:0:0:
192,192,22450,1,0,0:0:0:0:
448,192,22551,1,8,0:0:0:0:
320,192,22551,128,0,22752:0:0:0:0:
192,192,22652,1,0,0:0:0:0:
64,192,22652,1,0,0:0:0:30:kick02.wav
448,192,22752,1,0,0:0:0:0:
64,192,22853,1,0,0:0:0:0:
192,192,22853,1,0,0:0:0:0:
320,192,23054,1,0,0:0:0:30:kick02.wav
448,192,23054,128,0,23256:0:0:0:0:
192,192,23155,1,0,0:0:0:0:
64,192,23256,1,0,0:0:0:0:
320,192,23356,1,8,0:0:0:0:
192,192,23356,128,0,23558:0:0:0:0:
448,192,23457,1,0,0:0:0:30:kick02.wav
64,192,23457,1,0,0:0:0:0:
320,192,23558,1,0,0:0:0:0:
192,192,23658,1,0,0:0:0:0:
64,192,23658,128,0,23759:0:0:0:0:
192,192,23860,1,0,0:0:0:30:kick02.wav
448,192,23860,128,0,24061:0:0:0:0:
64,192,23961,1,0,0:0:0:0:
192,192,24061,1,0,0:0:0:0:
448,192,24162,1,8,0:0:0:0:
320,192,24162,128,0,24363:0:0:0:0:
64,192,24263,1,0,0:0:0:30:kick02.wav
192,192,24263,1,0,0:0:0:0:
448,192,24363,1,0,0:0:0:0:
320,192,24464,1,0,0:0:0:0:
64,192,24464,1,0,0:0:0:0:
320,192,24665,1,0,0:0:0:30:kick02.wav
448,192,24665,128,0,24867:0:0:0:0:
64,192,24766,1,0,0:0:0:0:
192,192,24867,1,0,0:0:0:0:
448,192,24967,1,8,0:0:0:0:
320,192,24967,128,0,25169:0:0:0:0:
192,192,25068,1,0,0:0:0:0:
64,192,25068,1,0,0:0:0:30:kick02.wav
448,192,25169,1,0,0:0:0:0:
320,192,25269,1,0,0:0:0:0:
192,192,25269,128,0,25370:0:0:0:0:
448,192,25471,1,0,0:0:0:30:kick02.wav
64,192,25471,128,0,25672:0:0:0:0:
320,192,25571,1,0,0:0:0:0:
192,192,25672,1,0,0:0:0:0:
448,192,25773,1,8,0:0:0:0:
320,192,25773,128,0,25974:0:0:0:0:
192,192,25873,1,0,0:0:0:0:
64,192,25873,1,0,0:0:0:30:kick02.wav
448,192,25974,5,0,0:0:0:0:
64,192,26075,1,0,0:0:0:0:
192,192,26075,1,0,0:0:0:0:
320,192,26175,1,8,0:0:0:0:
448,192,26175,1,0,0:0:0:0:
64,192,26276,1,0,0:0:0:30:kick02.wav
192,192,26276,128,0,26477:0:0:0:0:
320,192,26377,1,0,0:0:0:0:
64,192,26477,1,0,0:0:0:0:
320,192,26578,1,8,0:0:0:0:
448,192,26578,128,0,26779:0:0:0:0:
192,192,26679,1,0,0:0:0:30:kick02.wav
64,192,26679,1,0,0:0:0:0:
320,192,26779,1,0,0:0:0:0:
448,192,26880,1,0,0:0:0:30:kick02.wav
64,192,26880,128,0,26981:0:0:0:0:
192,192,26981,1,0,0:0:0:0:
320,192,27081,1,0,0:0:0:30:kick02.wav
64,192,27081,1,0,0:0:0:0:
448,192,27081,128,0,27887:0:0:0:30:cym.wav
192,192,27283,1,0,0:0:0:0:
320,192,27383,1,0,0:0:0:0:
192,192,27484,1,0,0:0:0:30:kick02.wav
64,192,27484,1,0,0:0:0:0:
64,192,27685,1,0,0:0:0:0:
320,192,27887,128,0,28692:0:0:0:0:
192,192,27887,1,0,0:0:0:30:kick02.wav
64,192,28088,1,0,0:0:0:0:
448,192,28189,1,8,0:0:0:0:
192,192,28289,1,0,0:0:0:0:
64,192,28289,1,0,0:0:0:30:kick02.wav
448,192,28491,1,0,0:0:0:0:
192,192,28692,128,0,29497:0:0:0:0:
64,192,28692,1,0,0:0:0:30:kick02.wav
448,192,28893,1,0,0:0:0:0:
320,192,28994,1,8,0:0:0:0:
64,192,29095,1,0,0:0:0:0:
448,192,29095,1,0,0:0:0:30:kick02.wav
320,192,29296,1,0,0:0:0:0:
64,192,29497,128,0,30303:0:0:0:0:
448,192,29497,1,0,0:0:0:30:kick02.wav
192,192,29699,1,0,0:0:0:0:
320,192,29799,1,8,0:0:0:0:
448,192,29900,1,0,0:0:0:0:
192,192,29900,1,0,0:0:0:30:kick02.wav
320,192,30101,1,0,0:0:0:0:
192,192,30303,128,0,31108:0:0:0:0:
448,192,30303,1,0,0:0:0:30:kick02.wav
320,192,30504,1,0,0:0:0:0:
64,192,30605,1,8,0:0:0:0:
320,192,30705,1,0,0:0:0:30:kick02.wav
448,192,30705,1,0,0:0:0:0:
64,192,30907,1,0,0:0:0:0:
320,192,31108,128,0,31914:0:0:0:0:
448,192,31108,1,0,0:0:0:30:kick02.wav
64,192,31309,1,0,0:0:0:0:
192,192,31410,1,8,0:0:0:0:
448,192,31511,1,0,0:0:0:0:
64,192,31511,1,0,0:0:0:30:kick02.wav
192,192,31712,1,0,0:0:0:0:
448,192,31914,128,0,32719:0:0:0:0:
64,192,31914,1,0,0:0:0:30:kick02.wav
320,192,32115,1,0,0:0:0:0:
192,192,32216,1,8,0:0:0:0:
64,192,32316,1,0,0:0:0:0:
320,192,32316,1,0,0:0:0:30:kick02.wav
192,192,32518,1,0,0:0:0:0:
64,192,32719,1,0,0:0:0:30:kick.wav
192,192,32719,1,0,0:0:0:30:kick02.wav
320,192,32820,1,0,0:0:0:30:kick.wav
448,192,32920,1,0,0:0:0:0:
192,192,33021,1,8,0:0:0:0:
448,192,33122,1,0,0:0:0:30:kick02.wav
64,192,33122,1,0,0:0:0:0:
320,192,33222,1,0,0:0:0:0:
192,192,33323,1,0,0:0:0:30:kick02.wav
64,192,33323,1,0,0:0:0:0:
320,192,33424,1,0,0:0:0:0:
64,192,33524,128,0,34330:0:0:0:30:cym.wav
448,192,33524,1,0,0:0:0:30:kick02.wav
192,192,33524,1,0,0:0:0:0:
448,192,33726,1,0,0:0:0:30:kick02.wav
320,192,33826,1,8,0:0:0:0:
192,192,33927,1,0,0:0:0:0:
448,192,33927,1,0,0:0:0:30:kick02.wav
320,192,34028,1,0,0:0:0:0:
192,192,34128,1,0,0:0:0:0:
448,192,34330,1,0,0:0:0:30:kick02.wav
192,192,34330,128,0,35135:0:0:0:0:
64,192,34531,1,0,0:0:0:30:kick02.wav
320,192,34632,1,8,0:0:0:0:
448,192,34732,1,0,0:0:0:0:
64,192,34732,1,0,0:0:0:30:kick02.wav
320,192,34833,1,0,0:0:0:0:
448,192,34934,1,0,0:0:0:0:
320,192,35135,128,0,35940:0:0:0:30:cym.wav
64,192,35135,1,0,0:0:0:30:kick02.wav
448,192,35135,1,0,0:0:0:0:
448,192,35336,1,0,0:0:0:30:kick02.wav
192,192,35437,1,8,0:0:0:0:
64,192,35538,1,0,0:0:0:0:
448,192,35538,1,0,0:0:0:30:kick02.wav
192,192,35638,1,0,0:0:0:0:
64,192,35739,1,0,0:0:0:0:
448,192,35940,128,0,36746:0:0:0:0:
192,192,35940,1,0,0:0:0:30:kick02.wav
64,192,36142,1,0,0:0:0:30:kick02.wav
192,192,36242,1,8,0:0:0:0:
64,192,36343,1,0,0:0:0:30:kick02.wav
320,192,36343,1,0,0:0:0:0:
192,192,36444,1,0,0:0:0:0:
320,192,36544,1,0,0:0:0:30:kick02.wav
64,192,36746,1,0,0:0:0:30:cym.wav
192,192,36746,1,0,0:0:0:30:kick.wav
320,192,36846,1,0,0:0:0:30:kick.wav
64,192,36947,1,0,0:0:0:0:
448,192,36947,1,0,0:0:0:30:kick.wav
192,192,37048,1,0,0:0:0:30:kick.wav
448,192,37148,1,0,0:0:0:0:
320,192,37148,1,0,0:0:0:30:kick.wav
192,192,37249,1,0,0:0:0:30:kick.wav
320,192,37350,1,0,0:0:0:30:kick.wav
64,192,37350,1,0,0:0:0:0:
448,192,37450,1,0,0:0:0:30:kick.wav
64,192,37551,1,0,0:0:0:30:cym.wav
192,192,37551,1,0,0:0:0:30:kick.wav
320,192,37652,1,0,0:0:0:30:kick.wav
192,192,37752,1,0,0:0:0:30:kick.wav
448,192,37752,1,0,0:0:0:0:
64,192,37853,1,0,0:0:0:30:kick.wav
448,192,37954,1,0,0:0:0:0:
320,192,37954,1,0,0:0:0:30:kick.wav
192,192,38054,1,0,0:0:0:30:kick.wav
64,192,38155,1,0,0:0:0:0:
320,192,38155,1,0,0:0:0:30:kick.wav
448,192,38256,1,0,0:0:0:30:kick.wav
64,192,38356,1,0,0:0:0:30:cym.wav
192,192,38356,1,0,0:0:0:30:kick.wav
448,192,38457,1,0,0:0:0:0:
320,192,38457,1,0,0:0:0:30:kick.wav
64,192,38558,1,0,0:0:0:0:
192,192,38558,1,0,0:0:0:30:kick.wav
448,192,38658,1,0,0:0:0:0:
320,192,38658,1,0,0:0:0:30:kick.wav
64,192,38759,1,0,0:0:0:30:cym_c_003.wav
192,192,38759,1,0,0:0:0:30:kick.wav
448,192,38860,1,0,0:0:0:0:
320,192,38860,1,0,0:0:0:30:kick.wav
64,192,38961,1,0,0:0:0:0:
192,192,38961,1,0,0:0:0:30:kick.wav
448,192,39061,1,0,0:0:0:0:
320,192,39061,1,0,0:0:0:30:kick.wav
64,192,39162,1,0,0:0:0:30:cym_c_003.wav
192,192,39162,1,0,0:0:0:30:kick.wav
448,192,39263,1,0,0:0:0:0:
320,192,39263,1,0,0:0:0:30:kick.wav
192,192,39363,1,0,0:0:0:0:
448,192,39464,1,0,0:0:0:0:
64,192,39464,1,0,0:0:0:30:kick.wav
320,192,39565,1,0,0:0:0:30:cym_c_003.wav
64,192,39665,1,0,0:0:0:30:kick.wav
192,192,39665,1,0,0:0:0:0:
448,192,39766,1,0,0:0:0:0:
320,192,39766,1,0,0:0:0:0:
64,192,39816,1,0,0:0:0:0:
192,192,39867,1,0,0:0:0:0:
320,192,39917,1,0,0:0:0:0:
64,192,39967,1,0,0:0:0:30:cym.wav
448,192,39967,128,0,41175:0:0:0:0:
192,192,39967,1,0,0:0:0:30:kick.wav
192,192,41175,128,0,41578:0:0:0:0:
320,192,41578,128,0,43189:0:0:0:0:
64,192,43189,128,0,43994:0:0:0:0:
192,192,43994,128,0,44799:0:0:0:0:
320,192,44799,128,0,45605:0:0:0:0:
448,192,45605,128,0,46410:0:0:0:0:
320,192,46410,128,0,47216:0:0:0:0:
448,192,47216,128,0,48021:0:0:0:0:
64,192,48021,128,0,49632:0:0:0:0:
320,192,49632,128,0,50437:0:0:0:0:
192,192,50437,128,0,51242:0:0:0:0:
64,192,51242,128,0,52853:0:0:0:0:
448,192,52048,1,0,0:0:0:0:
320,192,52350,1,0,0:0:0:0:
192,192,52652,1,0,0:0:0:0:
192,192,52853,1,0,0:0:0:0:
448,192,52853,1,0,0:0:0:15:cym.wav
320,192,52853,1,0,0:0:0:15:cym.wav
64,192,53457,1,0,0:0:0:0:
192,192,53558,1,0,0:0:0:0:
320,192,53658,1,0,0:0:0:0:
192,192,54263,1,0,0:0:0:0:
320,192,54363,1,0,0:0:0:0:
448,192,54464,1,0,0:0:0:0:
448,192,55269,1,0,0:0:0:0:
192,192,55571,1,0,0:0:0:0:
64,192,55873,1,0,0:0:0:0:
320,192,56075,1,0,0:0:0:0:
192,192,56377,1,0,0:0:0:0:
448,192,56679,1,0,0:0:0:0:
320,192,56880,1,0,0:0:0:0:
64,192,57182,1,0,0:0:0:0:
320,192,57484,1,0,0:0:0:0:
192,192,57685,1,0,0:0:0:0:
320,192,58491,1,0,0:0:0:0:
192,192,58692,1,0,0:0:0:0:
448,192,58793,1,0,0:0:0:0:
320,192,58893,1,0,0:0:0:0:
192,192,59095,1,0,0:0:0:0:
320,192,59296,1,0,0:0:0:10:kick.wav
64,192,59296,1,0,0:0:0:0:
448,192,59397,1,0,0:0:0:10:kick.wav
320,192,59497,1,0,0:0:0:10:kick.wav
192,192,59598,1,0,0:0:0:10:kick.wav
64,192,59699,1,0,0:0:0:10:kick.wav
320,192,59799,1,0,0:0:0:10:kick.wav
192,192,59900,1,0,0:0:0:10:kick.wav
320,192,60001,1,0,0:0:0:10:kick.wav
64,192,60101,1,0,0:0:0:10:kick.wav
448,192,60101,1,0,0:0:0:0:
192,192,60202,1,0,0:0:0:10:kick.wav
320,192,60303,1,0,0:0:0:10:kick.wav
448,192,60403,1,0,0:0:0:10:kick.wav
192,192,60504,1,0,0:0:0:10:kick.wav
320,192,60605,1,0,0:0:0:10:kick.wav
64,192,60705,1,0,0:0:0:10:kick.wav
448,192,60705,1,0,0:0:0:0:
192,192,60806,1,0,0:0:0:10:kick.wav
320,192,60907,1,0,0:0:0:10:kick.wav
64,192,60907,1,0,0:0:0:0:
448,192,61007,1,0,0:0:0:10:kick.wav
192,192,61108,1,0,0:0:0:10:kick.wav
320,192,61209,1,0,0:0:0:10:kick.wav
192,192,61309,1,0,0:0:0:10:kick.wav
64,192,61410,1,0,0:0:0:10:kick.wav
448,192,61511,1,0,0:0:0:10:kick.wav
320,192,61612,1,0,0:0:0:10:kick.wav
192,192,61712,1,0,0:0:0:10:kick.wav
64,192,61712,1,0,0:0:0:0:
448,192,61813,1,0,0:0:0:10:kick.wav
320,192,61914,1,0,0:0:0:10:kick.wav
192,192,62014,1,0,0:0:0:10:kick.wav
64,192,62014,1,0,0:0:0:0:
448,192,62115,1,0,0:0:0:10:kick.wav
320,192,62216,1,0,0:0:0:10:kick.wav
192,192,62316,1,0,0:0:0:10:kick.wav
448,192,62316,1,0,0:0:0:0:
64,192,62417,1,0,0:0:0:10:kick.wav
320,192,62518,1,0,0:0:0:0:
192,192,62518,1,0,0:0:0:10:kick.wav
448,192,62618,1,0,0:0:0:10:kick.wav
320,192,62719,1,0,0:0:0:10:kick.wav
64,192,62820,1,0,0:0:0:0:
192,192,62820,1,0,0:0:0:10:kick.wav
320,192,62920,1,0,0:0:0:10:kick.wav
64,192,63021,1,0,0:0:0:10:kick.wav
448,192,63122,1,0,0:0:0:10:kick.wav
192,192,63122,1,0,0:0:0:0:
320,192,63222,1,0,0:0:0:10:kick.wav
192,192,63323,1,0,0:0:0:30:kick.wav
64,192,63323,1,0,0:0:0:0:
448,192,63424,1,0,0:0:0:10:kick.wav
320,192,63524,1,0,0:0:0:10:kick.wav
192,192,63625,1,0,0:0:0:30:kick.wav
64,192,63625,1,0,0:0:0:0:
320,192,63726,1,0,0:0:0:30:kick.wav
192,192,63826,1,0,0:0:0:10:kick.wav
448,192,63927,1,0,0:0:0:10:kick.wav
64,192,63927,1,0,0:0:0:0:
320,192,64028,1,0,0:0:0:10:kick.wav
192,192,64128,1,0,0:0:0:10:kick.wav
64,192,64128,1,0,0:0:0:0:
320,192,64430,1,0,0:0:0:0:
192,192,64732,1,0,0:0:0:0:
448,192,64934,1,0,0:0:0:0:
64,192,64934,128,0,65739:0:0:0:0:
448,192,65739,1,0,0:0:0:30:cym.wav
320,192,65739,1,0,0:0:0:30:kick.wav
192,192,65840,1,0,0:0:0:30:kick.wav
64,192,65940,1,0,0:0:0:0:
448,192,65940,1,0,0:0:0:30:kick.wav
320,192,66041,1,0,0:0:0:30:kick.wav
64,192,66142,1,0,0:0:0:0:
192,192,66142,1,0,0:0:0:30:kick.wav
320,192,66242,1,0,0:0:0:30:kick.wav
448,192,66343,1,0,0:0:0:0:
192,192,66343,1,0,0:0:0:30:kick.wav
64,192,66444,1,0,0:0:0:30:kick.wav
192,192,66544,1,0,0:0:0:30:kick.wav
320,192,66544,1,0,0:0:0:0:
448,192,66645,1,0,0:0:0:30:kick.wav
64,192,66746,1,0,0:0:0:0:
192,192,66746,1,0,0:0:0:30:kick.wav
320,192,66846,1,0,0:0:0:30:kick.wav
64,192,66947,1,0,0:0:0:30:kick.wav
448,192,66947,1,0,0:0:0:0:
320,192,67048,1,0,0:0:0:30:kick.wav
192,192,67148,1,0,0:0:0:0:
448,192,67148,1,0,0:0:0:30:kick.wav
64,192,67249,1,0,0:0:0:30:kick.wav
320,192,67350,1,0,0:0:0:30:kick.wav
192,192,67350,1,0,0:0:0:30:cym.wav
448,192,67450,1,0,0:0:0:30:kick.wav
64,192,67551,1,0,0:0:0:30:kick.wav
192,192,67551,1,0,0:0:0:0:
320,192,67652,1,0,0:0:0:30:kick.wav
64,192,67752,1,0,0:0:0:0:
448,192,67752,1,0,0:0:0:30:kick.wav
192,192,67853,1,0,0:0:0:30:kick.wav
320,192,67954,1,0,0:0:0:0:
64,192,67954,1,0,0:0:0:30:kick.wav
448,192,68054,1,0,0:0:0:30:kick.wav
320,192,68155,1,0,0:0:0:30:kick.wav
192,192,68155,1,0,0:0:0:0:
64,192,68256,1,0,0:0:0:30:kick.wav
192,192,68356,1,0,0:0:0:30:kick.wav
448,192,68356,1,0,0:0:0:0:
320,192,68457,1,0,0:0:0:30:kick.wav
64,192,68558,1,0,0:0:0:30:kick.wav
192,192,68558,1,0,0:0:0:0:
448,192,68658,1,0,0:0:0:30:kick.wav
320,192,68759,1,0,0:0:0:30:kick.wav
192,192,68759,1,0,0:0:0:0:
64,192,68860,1,0,0:0:0:30:kick.wav
448,192,68961,1,0,0:0:0:30:kick.wav
320,192,68961,1,0,0:0:0:30:cym_c_003.wav
192,192,69061,1,0,0:0:0:30:kick.wav
64,192,69162,1,0,0:0:0:30:kick.wav
448,192,69162,1,0,0:0:0:0:
192,192,69263,1,0,0:0:0:0:
320,192,69263,1,0,0:0:0:30:kick.wav
64,192,69363,1,0,0:0:0:30:cym_c_003.wav
448,192,69363,1,0,0:0:0:30:kick.wav
192,192,69464,1,0,0:0:0:30:kick.wav
448,192,69565,1,0,0:0:0:0:
64,192,69565,1,0,0:0:0:30:kick.wav
320,192,69615,1,0,0:0:0:0:
192,192,69665,1,0,0:0:0:30:kick.wav
64,192,69716,1,0,0:0:0:0:
320,192,69766,1,0,0:0:0:30:cym_c_003.wav
448,192,69766,1,0,0:0:0:30:kick.wav
192,192,69867,1,0,0:0:0:30:kick.wav
64,192,69967,1,0,0:0:0:30:kick.wav
448,192,69967,1,0,0:0:0:0:
192,192,70068,1,0,0:0:0:30:kick.wav
320,192,70068,1,0,0:0:0:0:
448,192,70169,1,0,0:0:0:30:kick.wav
64,192,70169,1,0,0:0:0:30:cym_c_003.wav
320,192,70269,1,0,0:0:0:30:kick.wav
64,192,70370,1,0,0:0:0:0:
448,192,70370,1,0,0:0:0:30:kick.wav
192,192,70420,1,0,0:0:0:0:
320,192,70471,1,0,0:0:0:30:kick.wav
448,192,70521,1,0,0:0:0:0:
192,192,70571,1,0,0:0:0:30:cym_c_000.wav
64,192,70571,1,0,0:0:0:30:kick.wav
320,192,70672,1,0,0:0:0:0:
192,192,70773,1,0,0:0:0:0:
320,192,70873,1,0,0:0:0:0:
192,192,71075,1,0,0:0:0:0:
320,192,71175,1,0,0:0:0:0:
320,192,71377,1,0,0:0:0:0:
192,192,71477,1,0,0:0:0:0:
320,192,71578,1,0,0:0:0:0:
64,192,71679,1,0,0:0:0:0:
448,192,71880,1,0,0:0:0:0:
320,192,71981,1,0,0:0:0:0:
192,192,72081,1,0,0:0:0:0:
64,192,72182,1,0,0:0:0:30:kick02.wav
448,192,72182,1,0,0:0:0:30:cym.wav
320,192,72182,1,0,0:0:0:0:
192,192,72283,1,0,0:0:0:0:
64,192,72383,1,0,0:0:0:0:
448,192,72484,1,0,0:0:0:0:
320,192,72484,1,0,0:0:0:0:
64,192,72585,1,0,0:0:0:30:kick02.wav
192,192,72585,1,0,0:0:0:0:
320,192,72685,1,0,0:0:0:0:
64,192,72786,1,0,0:0:0:0:
448,192,72786,1,0,0:0:0:0:
320,192,72987,1,0,0:0:0:0:
448,192,72987,1,0,0:0:0:30:kick02.wav
192,192,73088,1,0,0:0:0:0:
64,192,73088,1,0,0:0:0:0:
448,192,73189,1,0,0:0:0:0:
320,192,73289,1,0,0:0:0:0:
192,192,73289,1,8,0:0:0:0:
64,192,73390,1,0,0:0:0:30:kick02.wav
448,192,73390,1,0,0:0:0:0:
320,192,73491,1,0,0:0:0:0:
192,192,73591,1,0,0:0:0:0:
64,192,73591,1,0,0:0:0:0:
192,192,73793,1,0,0:0:0:0:
320,192,73793,1,0,0:0:0:30:kick02.wav
64,192,73893,1,0,0:0:0:0:
448,192,73893,1,0,0:0:0:0:
192,192,73994,1,0,0:0:0:0:
320,192,74095,1,0,0:0:0:0:
448,192,74095,1,8,0:0:0:0:
192,192,74195,1,0,0:0:0:0:
64,192,74195,1,0,0:0:0:30:kick02.wav
448,192,74296,1,0,0:0:0:0:
320,192,74397,1,0,0:0:0:0:
192,192,74397,1,0,0:0:0:0:
320,192,74598,1,0,0:0:0:0:
448,192,74598,1,0,0:0:0:30:kick02.wav
192,192,74699,1,0,0:0:0:0:
64,192,74699,1,0,0:0:0:0:
320,192,74799,1,0,0:0:0:0:
448,192,74900,1,0,0:0:0:0:
64,192,74900,1,8,0:0:0:0:
192,192,75001,1,0,0:0:0:30:kick02.wav
320,192,75001,1,0,0:0:0:0:
64,192,75101,1,0,0:0:0:0:
320,192,75202,1,0,0:0:0:0:
448,192,75202,1,0,0:0:0:0:
192,192,75403,1,0,0:0:0:0:
320,192,75403,1,0,0:0:0:30:kick02.wav
448,192,75504,1,0,0:0:0:0:
64,192,75504,1,0,0:0:0:0:
320,192,75605,1,0,0:0:0:0:
192,192,75705,1,0,0:0:0:0:
64,192,75705,1,8,0:0:0:0:
320,192,75806,1,0,0:0:0:30:kick02.wav
448,192,75806,1,0,0:0:0:0:
192,192,75907,1,0,0:0:0:0:
64,192,76007,1,0,0:0:0:0:
448,192,76007,1,0,0:0:0:0:
320,192,76108,1,0,0:0:0:0:
192,192,76209,1,0,0:0:0:0:
64,192,76209,1,0,0:0:0:30:kick02.wav
320,192,76309,1,0,0:0:0:0:
448,192,76309,1,0,0:0:0:0:
64,192,76410,1,0,0:0:0:0:
192,192,76511,1,0,0:0:0:0:
320,192,76511,1,8,0:0:0:0:
448,192,76612,1,0,0:0:0:30:kick02.wav
64,192,76612,1,0,0:0:0:0:
192,192,76712,1,0,0:0:0:0:
320,192,76813,1,0,0:0:0:0:
448,192,76813,1,0,0:0:0:0:
192,192,76914,1,0,0:0:0:0:
448,192,77014,1,0,0:0:0:0:
64,192,77014,1,0,0:0:0:30:kick02.wav
192,192,77115,1,0,0:0:0:0:
320,192,77115,1,0,0:0:0:0:
64,192,77216,1,0,0:0:0:0:
320,192,77316,1,8,0:0:0:0:
448,192,77316,1,0,0:0:0:0:
192,192,77417,1,0,0:0:0:30:kick02.wav
64,192,77417,1,0,0:0:0:0:
320,192,77518,1,0,0:0:0:0:
448,192,77618,1,0,0:0:0:0:
192,192,77618,1,0,0:0:0:0:
320,192,77820,1,0,0:0:0:30:kick02.wav
448,192,77820,1,0,0:0:0:0:
192,192,77920,1,0,0:0:0:0:
64,192,77920,1,0,0:0:0:0:
448,192,78021,1,0,0:0:0:0:
320,192,78122,1,0,0:0:0:0:
64,192,78122,1,8,0:0:0:0:
192,192,78222,1,0,0:0:0:30:kick02.wav
448,192,78222,1,0,0:0:0:0:
64,192,78323,1,0,0:0:0:0:
320,192,78424,1,0,0:0:0:30:kick02.wav
192,192,78424,1,0,0:0:0:0:
448,192,78524,1,0,0:0:0:0:
64,192,78625,1,0,0:0:0:30:kick02.wav
192,192,78625,1,0,0:0:0:0:
320,192,78726,1,0,0:0:0:0:
448,192,78726,1,0,0:0:0:0:
192,192,78826,1,0,0:0:0:0:
64,192,78927,1,8,0:0:0:0:
320,192,78927,1,0,0:0:0:0:
448,192,79028,1,0,0:0:0:30:kick02.wav
192,192,79028,1,0,0:0:0:0:
64,192,79128,1,0,0:0:0:0:
448,192,79229,1,0,0:0:0:0:
320,192,79229,1,0,0:0:0:0:
192,192,79430,1,0,0:0:0:0:
64,192,79430,1,0,0:0:0:30:kick02.wav
320,192,79531,1,0,0:0:0:0:
448,192,79531,1,0,0:0:0:0:
64,192,79632,1,0,0:0:0:0:
192,192,79732,1,8,0:0:0:0:
320,192,79732,1,0,0:0:0:0:
448,192,79833,1,0,0:0:0:30:kick02.wav
64,192,79833,1,0,0:0:0:0:
192,192,79934,1,0,0:0:0:0:
320,192,80034,1,0,0:0:0:0:
448,192,80034,1,0,0:0:0:0:
320,192,80236,1,0,0:0:0:0:
192,192,80236,1,0,0:0:0:30:kick02.wav
448,192,80336,1,0,0:0:0:0:
64,192,80336,1,0,0:0:0:0:
320,192,80437,1,0,0:0:0:0:
192,192,80538,1,0,0:0:0:0:
64,192,80538,1,8,0:0:0:0:
320,192,80638,1,0,0:0:0:30:kick02.wav
448,192,80638,1,0,0:0:0:0:
64,192,80739,1,0,0:0:0:0:
192,192,80840,1,0,0:0:0:0:
320,192,80840,1,0,0:0:0:0:
192,192,81041,1,0,0:0:0:0:
64,192,81041,1,0,0:0:0:30:kick02.wav
320,192,81142,1,0,0:0:0:0:
448,192,81142,1,0,0:0:0:0:
192,192,81242,1,0,0:0:0:0:
64,192,81343,1,0,0:0:0:0:
448,192,81343,1,8,0:0:0:0:
320,192,81444,1,0,0:0:0:30:kick02.wav
192,192,81444,1,0,0:0:0:0:
448,192,81544,1,0,0:0:0:0:
320,192,81645,1,0,0:0:0:0:
64,192,81645,1,0,0:0:0:0:
320,192,81846,1,0,0:0:0:0:
192,192,81846,1,0,0:0:0:30:kick02.wav
64,192,81947,1,0,0:0:0:0:
448,192,81947,1,0,0:0:0:0:
192,192,82048,1,0,0:0:0:0:
320,192,82148,1,0,0:0:0:0:
448,192,82148,1,8,0:0:0:0:
192,192,82249,1,0,0:0:0:30:kick02.wav
64,192,82249,1,0,0:0:0:0:
320,192,82350,1,0,0:0:0:0:
448,192,82450,1,0,0:0:0:0:
64,192,82450,1,0,0:0:0:0:
320,192,82652,1,0,0:0:0:30:kick02.wav
448,192,82652,1,0,0:0:0:0:
192,192,82752,1,0,0:0:0:0:
64,192,82752,1,0,0:0:0:0:
448,192,82853,1,0,0:0:0:0:
320,192,82954,1,0,0:0:0:0:
192,192,82954,1,8,0:0:0:0:
64,192,83054,1,0,0:0:0:30:kick02.wav
448,192,83054,1,0,0:0:0:0:
320,192,83155,1,0,0:0:0:0:
192,192,83256,1,0,0:0:0:0:
64,192,83256,1,0,0:0:0:0:
64,192,83457,1,0,0:0:0:0:
448,192,83457,1,0,0:0:0:30:kick02.wav
320,192,83558,1,0,0:0:0:0:
192,192,83558,1,0,0:0:0:0:
448,192,83658,1,0,0:0:0:0:
192,192,83759,1,0,0:0:0:0:
64,192,83759,1,8,0:0:0:0:
320,192,83860,1,0,0:0:0:30:kick02.wav
448,192,83860,1,0,0:0:0:0:
192,192,83961,1,0,0:0:0:0:
64,192,84061,1,0,0:0:0:0:
320,192,84061,1,0,0:0:0:0:
192,192,84263,1,0,0:0:0:0:
64,192,84263,1,0,0:0:0:30:kick02.wav
320,192,84363,1,0,0:0:0:0:
448,192,84363,1,0,0:0:0:0:
192,192,84464,1,0,0:0:0:0:
64,192,84565,1,0,0:0:0:30:kick.wav
448,192,84565,1,0,0:0:0:30:kick02.wav
320,192,84665,1,0,0:0:0:30:kick02.wav
192,192,84665,1,0,0:0:0:30:kick.wav
448,192,84766,1,0,0:0:0:0:
64,192,84867,1,0,0:0:0:0:
192,192,84867,1,0,0:0:0:30:kick.wav
320,192,84967,1,0,0:0:0:30:kick.wav
192,192,85068,1,0,0:0:0:30:kick.wav
64,192,85068,1,0,0:0:0:30:cym.wav
448,192,85068,1,0,0:0:0:30:kick02.wav
320,192,85269,1,0,0:0:0:0:
192,192,85471,1,0,0:0:0:0:
448,192,85471,1,0,0:0:0:30:kick02.wav
64,192,85471,1,8,0:0:0:0:
192,192,85672,1,0,0:0:0:0:
64,192,85873,1,0,0:0:0:30:kick02.wav
448,192,85873,1,0,0:0:0:0:
320,192,85873,1,0,0:0:0:0:
192,192,86075,1,0,0:0:0:0:
192,192,86276,1,0,0:0:0:30:kick02.wav
448,192,86276,1,8,0:0:0:0:
64,192,86276,1,0,0:0:0:0:
320,192,86477,1,0,0:0:0:0:
64,192,86477,1,0,0:0:0:0:
64,192,86679,1,0,0:0:0:0:
320,192,86679,1,0,0:0:0:0:
448,192,86679,1,0,0:0:0:30:kick02.wav
192,192,86880,1,0,0:0:0:0:
448,192,87081,1,0,0:0:0:0:
192,192,87081,1,8,0:0:0:0:
64,192,87081,1,0,0:0:0:30:kick02.wav
320,192,87283,1,0,0:0:0:0:
192,192,87484,1,0,0:0:0:0:
64,192,87484,1,0,0:0:0:0:
448,192,87484,1,0,0:0:0:30:kick02.wav
320,192,87685,1,0,0:0:0:0:
64,192,87685,1,0,0:0:0:0:
192,192,87887,1,0,0:0:0:30:kick02.wav
64,192,87887,1,8,0:0:0:0:
448,192,87887,1,0,0:0:0:0:
448,192,88088,1,0,0:0:0:0:
192,192,88088,1,0,0:0:0:0:
448,192,88289,1,0,0:0:0:0:
192,192,88289,1,0,0:0:0:0:
64,192,88289,1,0,0:0:0:30:kick02.wav
64,192,88491,1,0,0:0:0:0:
320,192,88692,1,0,0:0:0:0:
448,192,88692,1,8,0:0:0:0:
192,192,88692,1,0,0:0:0:30:kick02.wav
320,192,88893,1,0,0:0:0:0:
448,192,88893,1,0,0:0:0:0:
192,192,89095,1,0,0:0:0:0:
64,192,89095,1,0,0:0:0:0:
448,192,89095,1,0,0:0:0:30:kick02.wav
320,192,89296,1,0,0:0:0:0:
192,192,89296,1,0,0:0:0:0:
320,192,89497,1,0,0:0:0:0:
64,192,89497,1,8,0:0:0:0:
448,192,89497,1,0,0:0:0:30:kick02.wav
192,192,89699,1,0,0:0:0:0:
64,192,89699,1,0,0:0:0:0:
320,192,89900,1,0,0:0:0:0:
448,192,89900,1,0,0:0:0:0:
192,192,89900,1,0,0:0:0:30:kick02.wav
64,192,90101,1,0,0:0:0:0:
192,192,90303,1,0,0:0:0:0:
64,192,90303,1,0,0:0:0:30:kick02.wav
448,192,90303,1,8,0:0:0:0:
448,192,90504,1,0,0:0:0:0:
192,192,90504,1,0,0:0:0:0:
64,192,90705,1,0,0:0:0:30:kick02.wav
320,192,90705,1,0,0:0:0:0:
448,192,90705,1,0,0:0:0:0:
320,192,90907,1,0,0:0:0:0:
448,192,91108,1,0,0:0:0:0:
192,192,91108,1,0,0:0:0:30:kick02.wav
64,192,91108,1,8,0:0:0:0:
448,192,91309,1,0,0:0:0:0:
64,192,91309,1,0,0:0:0:0:
192,192,91309,1,0,0:0:0:30:kick02.wav
448,192,91511,1,0,0:0:0:0:
64,192,91511,1,0,0:0:0:30:cym.wav
192,192,91511,1,0,0:0:0:30:kick02.wav
320,192,91511,1,0,0:0:0:0:
320,192,91712,1,0,0:0:0:0:
448,192,91914,1,0,0:0:0:30:kick02.wav
64,192,91914,1,0,0:0:0:0:
192,192,91914,1,8,0:0:0:0:
192,192,92115,1,0,0:0:0:0:
64,192,92316,1,0,0:0:0:30:kick02.wav
320,192,92316,1,0,0:0:0:0:
448,192,92316,1,0,0:0:0:0:
320,192,92518,1,0,0:0:0:0:
192,192,92719,1,0,0:0:0:0:
64,192,92719,1,0,0:0:0:30:kick02.wav
448,192,92719,1,8,0:0:0:0:
448,192,92920,1,0,0:0:0:0:
320,192,92920,1,0,0:0:0:0:
64,192,93122,1,0,0:0:0:0:
448,192,93122,1,0,0:0:0:30:cym.wav
192,192,93122,1,0,0:0:0:30:kick02.wav
192,192,93323,1,0,0:0:0:0:
448,192,93524,1,0,0:0:0:30:kick02.wav
64,192,93524,1,8,0:0:0:0:
320,192,93524,1,0,0:0:0:0:
192,192,93726,1,0,0:0:0:0:
64,192,93726,1,0,0:0:0:30:kick.wav
448,192,93826,1,0,0:0:0:0:
320,192,93826,1,0,0:0:0:0:
192,192,93927,1,0,0:0:0:30:kick.wav
320,192,93927,1,0,0:0:0:0:
64,192,93927,1,0,0:0:0:30:kick02.wav
320,192,94128,1,0,0:0:0:0:
448,192,94128,1,0,0:0:0:0:
64,192,94330,1,0,0:0:0:0:
192,192,94330,1,0,0:0:0:30:kick02.wav
448,192,94330,1,8,0:0:0:0:
64,192,94531,1,0,0:0:0:0:
192,192,94531,1,0,0:0:0:30:kick02.wav
448,192,94732,1,0,0:0:0:0:
320,192,94732,1,0,0:0:0:30:cym.wav
64,192,94732,1,0,0:0:0:30:kick02.wav
448,192,94934,1,0,0:0:0:0:
320,192,94934,1,0,0:0:0:0:
448,192,95135,1,0,0:0:0:30:kick02.wav
64,192,95135,1,8,0:0:0:0:
192,192,95135,1,0,0:0:0:0:
192,192,95336,1,0,0:0:0:30:kick.wav
320,192,95336,1,0,0:0:0:0:
448,192,95437,1,0,0:0:0:0:
64,192,95437,1,0,0:0:0:0:
448,192,95538,1,0,0:0:0:30:kick.wav
192,192,95538,1,0,0:0:0:30:kick.wav
320,192,95538,1,0,0:0:0:30:kick02.wav
64,192,95739,1,0,0:0:0:0:
192,192,95739,1,0,0:0:0:0:
64,192,95940,1,0,0:0:0:0:
448,192,95940,1,0,0:0:0:30:kick02.wav
320,192,95940,1,0,0:0:0:0:
320,192,96142,1,0,0:0:0:30:kick.wav
448,192,96142,1,0,0:0:0:0:
64,192,96242,1,0,0:0:0:0:
192,192,96242,1,0,0:0:0:0:
448,192,96343,1,0,0:0:0:30:kick.wav
320,192,96343,1,0,0:0:0:30:cym_c_003.wav
64,192,96343,1,0,0:0:0:30:kick.wav
448,192,96444,1,0,0:0:0:0:
192,192,96544,1,0,0:0:0:30:kick.wav
64,192,96544,1,0,0:0:0:0:
448,192,96645,1,0,0:0:0:30:kick.wav
320,192,96645,1,0,0:0:0:0:
64,192,96746,1,0,0:0:0:30:cym_c_003.wav
448,192,96746,1,0,0:0:0:0:
192,192,96746,1,0,0:0:0:0:
64,192,96846,1,0,0:0:0:0:
448,192,96947,1,0,0:0:0:30:kick.wav
320,192,96947,1,0,0:0:0:0:
64,192,97048,5,0,0:0:0:30:kick.wav
192,192,97048,1,0,0:0:0:0:
320,192,97148,1,0,0:0:0:30:kick.wav
448,192,97148,1,0,0:0:0:0:
320,192,97249,1,0,0:0:0:30:kick.wav
448,192,97249,1,0,0:0:0:0:
192,192,97350,1,0,0:0:0:30:kick.wav
64,192,97350,1,0,0:0:0:0:
192,192,97450,1,0,0:0:0:30:kick.wav
64,192,97450,1,0,0:0:0:0:
320,192,97551,1,0,0:0:0:30:kick.wav
448,192,97551,1,0,0:0:0:0:
192,192,97652,1,0,0:0:0:30:kick.wav
64,192,97652,1,0,0:0:0:0:
320,192,97752,1,0,0:0:0:30:kick.wav
448,192,97752,1,0,0:0:0:0:
192,192,97853,1,0,0:0:0:30:kick.wav
64,192,97853,1,0,0:0:0:0:
64,192,97954,1,0,0:0:0:0:
192,192,97954,1,0,0:0:0:30:kick.wav
448,192,97954,1,0,0:0:0:30:cym.wav
320,192,97954,1,0,0:0:0:0:
64,192,98155,5,0,0:0:0:0:
192,192,98256,1,0,0:0:0:0:
320,192,98356,1,8,0:0:0:0:
448,192,98356,1,0,0:0:0:30:kick02.wav
192,192,98558,1,0,0:0:0:0:
64,192,98759,1,0,0:0:0:30:kick02.wav
192,192,98759,1,0,0:0:0:0:
320,192,98759,1,0,0:0:0:0:
64,192,98961,1,0,0:0:0:0:
320,192,99061,1,0,0:0:0:0:
64,192,99162,1,0,0:0:0:30:kick02.wav
192,192,99162,1,8,0:0:0:0:
448,192,99162,1,0,0:0:0:0:
320,192,99263,1,0,0:0:0:0:
448,192,99363,1,0,0:0:0:0:
192,192,99363,1,0,0:0:0:0:
64,192,99464,1,0,0:0:0:0:
448,192,99565,1,0,0:0:0:30:kick02.wav
192,192,99565,1,0,0:0:0:0:
320,192,99565,1,0,0:0:0:0:
64,192,99766,1,0,0:0:0:0:
192,192,99867,1,0,0:0:0:0:
320,192,99967,1,8,0:0:0:0:
448,192,99967,1,0,0:0:0:30:kick02.wav
64,192,100169,1,0,0:0:0:0:
448,192,100169,1,0,0:0:0:0:
320,192,100269,1,0,0:0:0:0:
64,192,100370,1,0,0:0:0:30:kick02.wav
192,192,100370,1,0,0:0:0:0:
448,192,100370,1,0,0:0:0:0:
320,192,100571,1,0,0:0:0:0:
448,192,100571,1,0,0:0:0:0:
192,192,100773,1,0,0:0:0:0:
64,192,100773,1,0,0:0:0:30:kick02.wav
448,192,100773,1,8,0:0:0:0:
320,192,100974,1,0,0:0:0:0:
192,192,100974,1,0,0:0:0:0:
448,192,101175,1,0,0:0:0:0:
320,192,101175,1,0,0:0:0:0:
64,192,101175,1,0,0:0:0:30:kick02.wav
192,192,101377,1,0,0:0:0:0:
320,192,101477,1,0,0:0:0:0:
448,192,101578,1,8,0:0:0:0:
64,192,101578,1,0,0:0:0:30:kick02.wav
64,192,101779,1,0,0:0:0:0:
192,192,101779,1,0,0:0:0:0:
320,192,101880,1,0,0:0:0:0:
64,192,101981,1,0,0:0:0:0:
448,192,101981,1,0,0:0:0:30:kick02.wav
192,192,101981,1,0,0:0:0:0:
320,192,102182,1,0,0:0:0:0:
448,192,102182,1,0,0:0:0:0:
192,192,102383,1,8,0:0:0:0:
448,192,102383,1,0,0:0:0:30:kick02.wav
64,192,102383,1,0,0:0:0:0:
192,192,102585,1,0,0:0:0:0:
320,192,102585,1,0,0:0:0:0:
64,192,102786,1,0,0:0:0:0:
192,192,102786,1,0,0:0:0:0:
320,192,102786,1,0,0:0:0:30:kick02.wav
448,192,102887,1,0,0:0:0:0:
320,192,102987,1,0,0:0:0:0:
192,192,103088,1,0,0:0:0:0:
320,192,103189,1,8,0:0:0:0:
64,192,103189,1,0,0:0:0:30:kick02.wav
448,192,103289,1,0,0:0:0:0:
192,192,103390,1,0,0:0:0:0:
64,192,103390,1,0,0:0:0:0:
320,192,103491,1,0,0:0:0:0:
448,192,103591,1,0,0:0:0:0:
192,192,103591,1,0,0:0:0:0:
64,192,103591,1,0,0:0:0:30:kick02.wav
320,192,103793,1,0,0:0:0:0:
192,192,103893,1,0,0:0:0:0:
320,192,103994,1,8,0:0:0:0:
64,192,103994,1,0,0:0:0:30:kick02.wav
448,192,103994,1,0,0:0:0:0:
192,192,104095,1,0,0:0:0:0:
64,192,104195,1,0,0:0:0:30:kick02.wav
448,192,104195,1,0,0:0:0:0:
320,192,104296,1,0,0:0:0:0:
448,192,104397,1,0,0:0:0:0:
192,192,104397,1,0,0:0:0:30:cym.wav
64,192,104397,1,0,0:0:0:30:kick02.wav
192,192,104598,1,0,0:0:0:0:
320,192,104699,1,0,0:0:0:0:
192,192,104799,1,8,0:0:0:0:
64,192,104799,1,0,0:0:0:30:kick02.wav
320,192,104900,1,0,0:0:0:0:
448,192,105001,1,0,0:0:0:0:
64,192,105001,1,0,0:0:0:0:
192,192,105101,1,0,0:0:0:0:
448,192,105202,1,0,0:0:0:30:cym.wav
320,192,105202,1,0,0:0:0:0:
64,192,105202,1,0,0:0:0:0:
448,192,105403,1,0,0:0:0:0:
320,192,105504,1,0,0:0:0:0:
192,192,105605,1,8,0:0:0:0:
64,192,105605,1,0,0:0:0:30:kick02.wav
448,192,105705,1,0,0:0:0:0:
192,192,105806,1,0,0:0:0:0:
320,192,105806,1,0,0:0:0:0:
64,192,105907,1,0,0:0:0:0:
448,192,106007,1,0,0:0:0:30:cym.wav
192,192,106007,1,0,0:0:0:0:
320,192,106007,1,0,0:0:0:0:
192,192,106209,1,0,0:0:0:0:
320,192,106309,1,0,0:0:0:0:
64,192,106410,1,8,0:0:0:0:
448,192,106410,1,0,0:0:0:30:kick02.wav
192,192,106511,1,0,0:0:0:0:
320,192,106612,1,0,0:0:0:0:
448,192,106612,1,0,0:0:0:0:
192,192,106712,1,0,0:0:0:0:
320,192,106813,1,0,0:0:0:0:
448,192,106813,1,0,0:0:0:0:
64,192,106813,1,0,0:0:0:30:cym.wav
192,192,107014,1,0,0:0:0:0:
448,192,107014,1,0,0:0:0:0:
320,192,107115,1,0,0:0:0:0:
64,192,107216,1,8,0:0:0:0:
448,192,107216,1,0,0:0:0:30:kick02.wav
192,192,107216,1,0,0:0:0:0:
320,192,107316,1,0,0:0:0:0:
192,192,107417,1,0,0:0:0:0:
64,192,107417,1,0,0:0:0:30:kick02.wav
320,192,107518,1,0,0:0:0:0:
64,192,107618,1,0,0:0:0:30:kick02.wav
192,192,107618,1,0,0:0:0:30:cym.wav
448,192,107618,1,0,0:0:0:0:
320,192,107820,1,0,0:0:0:0:
192,192,107920,1,0,0:0:0:0:
64,192,108021,1,8,0:0:0:0:
448,192,108021,1,0,0:0:0:30:kick02.wav
320,192,108122,1,0,0:0:0:0:
64,192,108222,1,0,0:0:0:0:
192,192,108222,1,0,0:0:0:0:
320,192,108323,1,0,0:0:0:0:
64,192,108424,1,0,0:0:0:0:
192,192,108424,1,0,0:0:0:0:
448,192,108424,1,0,0:0:0:30:kick02.wav
64,192,108625,1,0,0:0:0:0:
320,192,108625,1,0,0:0:0:0:
192,192,108726,1,0,0:0:0:0:
448,192,108826,1,0,0:0:0:30:kick02.wav
320,192,108826,1,8,0:0:0:0:
64,192,108826,1,0,0:0:0:0:
192,192,108927,1,0,0:0:0:0:
320,192,109028,1,0,0:0:0:0:
448,192,109028,1,0,0:0:0:0:
192,192,109128,1,0,0:0:0:0:
448,192,109229,1,0,0:0:0:0:
64,192,109229,1,0,0:0:0:30:kick02.wav
320,192,109229,1,0,0:0:0:30:cym.wav
320,192,109430,1,0,0:0:0:0:
192,192,109531,1,0,0:0:0:0:
64,192,109632,1,0,0:0:0:0:
448,192,109632,1,0,0:0:0:0:
320,192,109732,1,0,0:0:0:0:
448,192,109833,1,0,0:0:0:0:
192,192,109934,1,0,0:0:0:30:kick.wav
448,192,110034,1,0,0:0:0:30:kick02.wav
320,192,110034,1,0,0:0:0:0:
64,192,110034,1,0,0:0:0:30:kick.wav
192,192,110236,1,0,0:0:0:0:
64,192,110236,1,0,0:0:0:0:
448,192,110236,1,0,0:0:0:30:kick02.wav
448,192,110437,1,0,0:0:0:30:kick02.wav
320,192,110437,1,0,0:0:0:0:
64,192,110437,1,0,0:0:0:0:
192,192,110538,1,0,0:0:0:30:kick.wav
448,192,110638,1,0,0:0:0:30:kick02.wav
320,192,110638,1,0,0:0:0:30:kick.wav
64,192,110739,1,0,0:0:0:30:kick.wav
192,192,110840,1,0,0:0:0:30:kick02.wav
448,192,110840,1,0,0:0:0:30:cym.wav
320,192,110840,1,0,0:0:0:30:kick.wav
64,192,110940,1,0,0:0:0:30:kick.wav
320,192,111041,1,0,0:0:0:30:kick.wav
448,192,111041,1,0,0:0:0:0:
192,192,111142,1,8,0:0:0:30:kick.wav
64,192,111242,1,0,0:0:0:30:kick.wav
448,192,111242,1,0,0:0:0:0:
320,192,111343,1,0,0:0:0:30:kick.wav
192,192,111444,1,0,0:0:0:30:kick.wav
64,192,111444,1,0,0:0:0:0:
320,192,111544,1,0,0:0:0:30:kick.wav
64,192,111645,1,0,0:0:0:30:cym.wav
448,192,111645,1,0,0:0:0:30:kick.wav
192,192,111746,1,0,0:0:0:30:kick.wav
448,192,111846,1,0,0:0:0:30:kick.wav
320,192,111846,1,0,0:0:0:0:
64,192,111947,1,8,0:0:0:30:kick.wav
448,192,112048,1,0,0:0:0:30:kick.wav
192,192,112048,1,0,0:0:0:0:
320,192,112148,1,0,0:0:0:30:kick.wav
192,192,112249,1,0,0:0:0:30:kick.wav
64,192,112249,1,0,0:0:0:0:
320,192,112350,1,0,0:0:0:30:kick.wav
64,192,112450,1,0,0:0:0:30:kick.wav
192,192,112450,1,0,0:0:0:0:
448,192,112450,1,0,0:0:0:30:cym.wav
320,192,112551,1,0,0:0:0:30:kick.wav
192,192,112652,1,0,0:0:0:30:kick.wav
64,192,112652,1,0,0:0:0:0:
448,192,112752,1,0,0:0:0:30:kick.wav
320,192,112853,1,0,0:0:0:30:kick.wav
192,192,112853,1,0,0:0:0:0:
64,192,112954,1,0,0:0:0:30:kick.wav
192,192,113054,1,0,0:0:0:30:kick.wav
448,192,113054,1,0,0:0:0:0:
320,192,113155,1,0,0:0:0:30:kick.wav
64,192,113256,1,0,0:0:0:30:kick.wav
192,192,113256,1,0,0:0:0:30:cym.wav
448,192,113256,1,0,0:0:0:0:
320,192,113356,1,0,0:0:0:30:kick.wav
448,192,113457,1,0,0:0:0:30:kick.wav
64,192,113457,1,0,0:0:0:0:
192,192,113558,1,0,0:0:0:30:kick.wav
64,192,113658,1,0,0:0:0:0:
320,192,113658,1,0,0:0:0:30:kick.wav
448,192,113759,1,0,0:0:0:30:kick.wav
192,192,113860,1,0,0:0:0:30:kick.wav
64,192,113860,1,0,0:0:0:0:
320,192,113961,1,0,0:0:0:0:
64,192,114061,1,0,0:0:0:30:kick.wav
192,192,114061,1,0,0:0:0:30:cym_c_003.wav
320,192,114162,1,0,0:0:0:0:
448,192,114162,1,0,0:0:0:30:kick.wav
192,192,114263,1,0,0:0:0:0:
64,192,114263,1,0,0:0:0:30:kick.wav
320,192,114363,1,0,0:0:0:0:
448,192,114363,1,0,0:0:0:30:kick.wav
64,192,114464,1,0,0:0:0:30:kick.wav
192,192,114464,1,0,0:0:0:30:cym_c_003.wav
320,192,114565,1,0,0:0:0:0:
448,192,114565,1,0,0:0:0:30:kick.wav
192,192,114665,1,0,0:0:0:0:
64,192,114665,1,0,0:0:0:30:kick.wav
320,192,114766,1,0,0:0:0:0:
448,192,114766,1,0,0:0:0:30:kick.wav
192,192,114867,1,0,0:0:0:30:cym_c_003.wav
64,192,114867,1,0,0:0:0:30:kick.wav
320,192,114967,1,0,0:0:0:0:
448,192,114967,1,0,0:0:0:30:kick.wav
192,192,115068,1,0,0:0:0:0:
64,192,115068,1,0,0:0:0:30:kick.wav
320,192,115169,1,0,0:0:0:0:
448,192,115169,1,0,0:0:0:30:kick.wav
64,192,115269,1,0,0:0:0:30:kick.wav
192,192,115269,1,0,0:0:0:30:cym_c_003.wav
448,192,115320,1,0,0:0:0:30:kick.wav
320,192,115370,1,0,0:0:0:30:kick.wav
192,192,115420,1,0,0:0:0:30:kick.wav
64,192,115471,1,0,0:0:0:30:kick.wav
448,192,115471,1,0,0:0:0:0:
320,192,115571,1,0,0:0:0:30:kick.wav
192,192,115571,1,0,0:0:0:0:
448,192,115672,1,0,0:0:0:30:kick.wav
64,192,115672,128,0,118088:0:0:0:30:cym.wav
320,192,115672,1,0,0:0:0:0:
