osu file format v14

[General]
AudioFilename: audio.mp3
AudioLeadIn: 0
PreviewTime: 72182
Countdown: 0
SampleSet: Soft
StackLeniency: 0.7
Mode: 3
LetterboxInBreaks: 0
SpecialStyle: 1
WidescreenStoryboard: 1

[Editor]
DistanceSpacing: 0.8
BeatDivisor: 4
GridSize: 4
TimelineZoom: 3.999998

[Metadata]
Title:LiFE Garden
TitleUnicode:LiFE Garden
Artist:Yooh
ArtistUnicode:Yooh
Creator:pocket-Gao
Version:D's 8K Hyper
Source:
Tags:eutopia c86 Crystal critical_star dosyeru exneko
BeatmapID:1113636
BeatmapSetID:436217

[Difficulty]
HPDrainRate:7
CircleSize:8
OverallDifficulty:8
ApproachRate:5
SliderMultiplier:1.4
SliderTickRate:1

[Events]
//Background and Video events
0,0,"blue garden.jpg",0,0
//Break Periods
//Storyboard Layer 0 (Background)
//Storyboard Layer 1 (Fail)
//Storyboard Layer 2 (Pass)
//Storyboard Layer 3 (Foreground)
//Storyboard Sound Samples

[TimingPoints]
1310,402.684563758389,4,2,0,50,1,0
85068,-100,4,2,0,50,0,1
115672,-100,4,2,0,50,0,0

[HitObjects]
32,192,1310,5,0,0:0:0:30:cym.wav
96,192,1310,5,0,0:0:0:30:kick02.wav
224,192,1310,1,0,0:0:0:0:
288,192,1410,1,0,0:0:0:0:
416,192,1410,1,0,0:0:0:0:
288,192,1612,1,0,0:0:0:0:
416,192,1612,1,0,0:0:0:0:
96,192,1712,1,0,0:0:0:30:kick02.wav
224,192,1914,1,0,0:0:0:0:
352,192,1914,1,0,0:0:0:0:
96,192,2115,1,0,0:0:0:30:kick02.wav
480,192,2115,1,0,0:0:0:0:
224,192,2216,1,0,0:0:0:0:
352,192,2216,1,0,0:0:0:0:
288,192,2417,1,0,0:0:0:0:
416,192,2417,1,0,0:0:0:0:
96,192,2518,1,0,0:0:0:30:kick02.wav
224,192,2719,1,0,0:0:0:0:
352,192,2719,1,0,0:0:0:0:
96,192,2920,1,0,0:0:0:30:kick02.wav
288,192,2920,1,0,0:0:0:0:
160,192,3021,1,0,0:0:0:0:
416,192,3222,1,0,0:0:0:0:
96,192,3323,1,0,0:0:0:30:kick02.wav
352,192,3323,1,8,0:0:0:0:
224,192,3424,1,0,0:0:0:0:
480,192,3524,1,0,0:0:0:0:
288,192,3726,1,0,0:0:0:30:kick02.wav
96,192,3826,1,0,0:0:0:0:
160,192,3927,1,0,0:0:0:0:
224,192,4028,1,0,0:0:0:0:
288,192,4128,1,0,0:0:0:30:kick02.wav
352,192,4229,1,0,0:0:0:0:
416,192,4330,1,0,0:0:0:0:
480,192,4430,1,0,0:0:0:0:
96,192,4531,5,0,0:0:0:30:kick02.wav
288,192,4531,1,0,0:0:0:0:
416,192,4732,1,0,0:0:0:0:
160,192,4732,1,0,0:0:0:0:
480,192,4833,1,0,0:0:0:0:
224,192,4833,1,0,0:0:0:0:
96,192,4934,1,0,0:0:0:30:kick02.wav
288,192,5135,1,0,0:0:0:0:
416,192,5135,1,0,0:0:0:0:
96,192,5336,1,0,0:0:0:30:kick02.wav
480,192,5336,1,0,0:0:0:0:
224,192,5437,1,0,0:0:0:0:
352,192,5437,1,0,0:0:0:0:
160,192,5638,1,0,0:0:0:0:
288,192,5638,1,0,0:0:0:0:
96,192,5739,1,0,0:0:0:30:kick02.wav
288,192,5940,1,0,0:0:0:0:
416,192,5940,1,0,0:0:0:0:
96,192,6142,1,0,0:0:0:30:kick02.wav
352,192,6142,1,0,0:0:0:0:
224,192,6242,1,0,0:0:0:0:
416,192,6444,1,0,0:0:0:0:
96,192,6544,1,0,0:0:0:30:kick02.wav
288,192,6544,1,0,0:0:0:0:
160,192,6645,1,0,0:0:0:0:
416,192,6746,1,0,0:0:0:0:
480,192,6947,1,0,0:0:0:0:
352,192,6947,1,0,0:0:0:30:kick02.wav
96,192,7048,1,0,0:0:0:0:
224,192,7048,1,0,0:0:0:0:
160,192,7249,1,0,0:0:0:0:
416,192,7249,1,0,0:0:0:30:kick02.wav
288,192,7350,1,0,0:0:0:30:kick02.wav
352,192,7551,1,0,0:0:0:30:kick02.wav
224,192,7551,1,0,0:0:0:0:
96,192,7752,5,0,0:0:0:30:kick02.wav
480,192,7752,1,0,0:0:0:0:
288,192,7853,1,0,0:0:0:0:
160,192,7853,1,0,0:0:0:0:
160,192,8054,1,0,0:0:0:0:
288,192,8054,1,0,0:0:0:0:
96,192,8155,1,0,0:0:0:30:kick02.wav
480,192,8155,1,8,0:0:0:0:
352,192,8356,1,0,0:0:0:0:
224,192,8356,1,0,0:0:0:0:
96,192,8558,1,0,0:0:0:30:kick02.wav
480,192,8558,1,0,0:0:0:0:
160,192,8658,1,0,0:0:0:0:
416,192,8658,1,0,0:0:0:0:
224,192,8860,1,0,0:0:0:0:
352,192,8860,1,0,0:0:0:0:
480,192,8961,1,8,0:0:0:0:
96,192,8961,1,0,0:0:0:30:kick02.wav
160,192,9162,1,0,0:0:0:0:
416,192,9162,1,0,0:0:0:0:
480,192,9363,1,0,0:0:0:0:
224,192,9363,1,0,0:0:0:30:kick02.wav
96,192,9464,1,0,0:0:0:0:
288,192,9565,1,0,0:0:0:0:
160,192,9665,1,0,0:0:0:0:
480,192,9766,1,0,0:0:0:0:
352,192,9766,1,0,0:0:0:30:kick02.wav
160,192,9867,1,0,0:0:0:0:
288,192,9967,1,0,0:0:0:0:
480,192,10169,1,0,0:0:0:0:
224,192,10169,1,0,0:0:0:30:kick02.wav
96,192,10269,1,0,0:0:0:0:
160,192,10370,1,0,0:0:0:0:
224,192,10471,1,0,0:0:0:0:
480,192,10571,1,0,0:0:0:0:
288,192,10571,1,0,0:0:0:30:kick02.wav
160,192,10672,1,0,0:0:0:0:
224,192,10773,1,0,0:0:0:0:
288,192,10873,1,0,0:0:0:0:
352,192,10974,1,0,0:0:0:0:
96,192,10974,1,0,0:0:0:30:kick.wav
96,192,11175,1,0,0:0:0:30:kick.wav
352,192,11276,1,0,0:0:0:0:
96,192,11377,1,0,0:0:0:30:kick.wav
96,192,11578,1,0,0:0:0:30:kick.wav
352,192,11578,1,0,0:0:0:0:
224,192,11679,1,0,0:0:0:0:
352,192,11779,1,0,0:0:0:0:
96,192,11779,1,0,0:0:0:30:kick.wav
480,192,11880,1,0,0:0:0:0:
96,192,11981,1,0,0:0:0:30:kick.wav
288,192,12081,1,0,0:0:0:0:
96,192,12182,1,0,0:0:0:30:kick02.wav
224,192,12283,1,0,0:0:0:30:kick02.wav
352,192,12383,1,0,0:0:0:0:
96,192,12383,1,0,0:0:0:30:kick02.wav
224,192,12484,1,0,0:0:0:30:kick02.wav
480,192,12585,1,0,0:0:0:0:
96,192,12585,1,0,0:0:0:30:kick02.wav
288,192,12685,1,0,0:0:0:0:
160,192,12786,1,0,0:0:0:0:
416,192,12887,1,0,0:0:0:0:
96,192,12987,1,0,0:0:0:0:
224,192,13088,1,0,0:0:0:0:
288,192,13189,1,0,0:0:0:0:
416,192,13289,1,0,0:0:0:0:
32,192,13390,1,0,0:0:0:30:cym_c_003.wav
96,192,13390,1,0,0:0:0:30:kick.wav
480,192,13390,1,0,0:0:0:0:
160,192,13491,1,0,0:0:0:30:kick.wav
288,192,13591,1,0,0:0:0:0:
32,192,13692,1,0,0:0:0:30:cym_c_003.wav
96,192,13692,1,0,0:0:0:30:kick.wav
416,192,13692,1,0,0:0:0:0:
224,192,13793,1,0,0:0:0:0:
352,192,13893,1,0,0:0:0:30:kick.wav
32,192,13994,1,0,0:0:0:30:cym_c_003.wav
96,192,13994,1,0,0:0:0:30:kick.wav
288,192,13994,1,0,0:0:0:0:
416,192,14095,1,0,0:0:0:30:kick.wav
32,192,14195,1,0,0:0:0:40:cym.wav
224,192,14195,1,0,0:0:0:0:
96,192,14195,1,0,0:0:0:30:kick.wav
480,192,14296,1,0,0:0:0:0:
160,192,14397,1,0,0:0:0:0:
480,192,14497,1,0,0:0:0:0:
288,192,14497,1,0,0:0:0:0:
96,192,14598,1,0,0:0:0:30:kick02.wav
352,192,14699,1,0,0:0:0:0:
224,192,14799,1,0,0:0:0:0:
96,192,15001,1,0,0:0:0:30:kick02.wav
288,192,15001,1,0,0:0:0:0:
480,192,15101,1,0,0:0:0:0:
160,192,15202,1,0,0:0:0:0:
416,192,15303,1,0,0:0:0:0:
288,192,15303,1,8,0:0:0:0:
96,192,15403,1,0,0:0:0:30:kick02.wav
352,192,15504,1,0,0:0:0:0:
224,192,15605,1,0,0:0:0:0:
480,192,15605,1,0,0:0:0:0:
96,192,15806,1,0,0:0:0:30:kick02.wav
416,192,15806,1,0,0:0:0:0:
288,192,15907,1,0,0:0:0:0:
160,192,16007,1,0,0:0:0:0:
416,192,16108,1,0,0:0:0:0:
224,192,16108,1,8,0:0:0:0:
96,192,16209,1,0,0:0:0:30:kick02.wav
352,192,16309,1,0,0:0:0:0:
224,192,16410,1,0,0:0:0:0:
96,192,16612,1,0,0:0:0:30:kick02.wav
416,192,16612,1,0,0:0:0:0:
160,192,16712,1,0,0:0:0:0:
288,192,16813,1,0,0:0:0:0:
480,192,16914,1,8,0:0:0:0:
352,192,16914,1,0,0:0:0:0:
96,192,17014,1,0,0:0:0:30:kick02.wav
288,192,17115,1,0,0:0:0:0:
416,192,17216,1,0,0:0:0:0:
160,192,17216,1,0,0:0:0:0:
96,192,17417,1,0,0:0:0:30:kick02.wav
224,192,17417,1,0,0:0:0:0:
352,192,17518,1,0,0:0:0:0:
160,192,17618,1,0,0:0:0:0:
288,192,17719,1,0,0:0:0:0:
416,192,17719,1,8,0:0:0:0:
96,192,17820,1,0,0:0:0:30:kick02.wav
352,192,17920,1,0,0:0:0:0:
224,192,18021,1,0,0:0:0:0:
96,192,18222,1,0,0:0:0:30:kick02.wav
224,192,18222,1,0,0:0:0:0:
352,192,18323,1,0,0:0:0:0:
160,192,18424,1,0,0:0:0:0:
416,192,18524,1,8,0:0:0:0:
288,192,18524,1,0,0:0:0:0:
96,192,18625,1,0,0:0:0:30:kick02.wav
224,192,18726,1,0,0:0:0:0:
480,192,18826,1,0,0:0:0:0:
352,192,18826,1,0,0:0:0:0:
480,192,19028,1,0,0:0:0:0:
96,192,19028,1,0,0:0:0:30:kick02.wav
352,192,19128,1,0,0:0:0:0:
160,192,19229,1,0,0:0:0:0:
416,192,19330,1,8,0:0:0:0:
288,192,19330,1,0,0:0:0:0:
96,192,19430,1,0,0:0:0:30:kick02.wav
352,192,19531,1,0,0:0:0:0:
224,192,19632,1,0,0:0:0:0:
416,192,19833,1,0,0:0:0:0:
96,192,19833,1,0,0:0:0:30:kick02.wav
288,192,19934,1,0,0:0:0:0:
160,192,20034,1,0,0:0:0:0:
288,192,20135,1,0,0:0:0:0:
416,192,20135,1,8,0:0:0:0:
96,192,20236,1,0,0:0:0:30:kick02.wav
224,192,20336,1,0,0:0:0:0:
352,192,20437,1,0,0:0:0:0:
96,192,20437,1,0,0:0:0:30:kick02.wav
96,192,20638,1,0,0:0:0:30:kick02.wav
480,192,20638,1,0,0:0:0:0:
288,192,20739,1,0,0:0:0:0:
160,192,20840,1,0,0:0:0:0:
480,192,20940,1,8,0:0:0:0:
288,192,20940,1,0,0:0:0:0:
96,192,21041,1,0,0:0:0:30:kick02.wav
352,192,21142,1,0,0:0:0:0:
224,192,21242,1,0,0:0:0:0:
96,192,21444,1,0,0:0:0:30:kick02.wav
480,192,21444,1,0,0:0:0:0:
288,192,21544,1,0,0:0:0:0:
160,192,21645,1,0,0:0:0:0:
416,192,21746,1,8,0:0:0:0:
288,192,21746,1,0,0:0:0:0:
96,192,21846,1,0,0:0:0:30:kick02.wav
352,192,21947,1,0,0:0:0:0:
224,192,22048,1,0,0:0:0:0:
480,192,22048,1,0,0:0:0:0:
96,192,22249,1,0,0:0:0:30:kick02.wav
416,192,22249,1,0,0:0:0:0:
288,192,22350,1,0,0:0:0:0:
160,192,22450,1,0,0:0:0:0:
416,192,22551,1,8,0:0:0:0:
288,192,22551,1,0,0:0:0:0:
96,192,22652,1,0,0:0:0:30:kick02.wav
352,192,22752,1,0,0:0:0:0:
224,192,22853,1,0,0:0:0:0:
416,192,23054,1,0,0:0:0:0:
96,192,23054,1,0,0:0:0:30:kick02.wav
224,192,23155,1,0,0:0:0:0:
352,192,23256,1,0,0:0:0:0:
416,192,23356,1,0,0:0:0:0:
224,192,23356,1,8,0:0:0:0:
96,192,23457,1,0,0:0:0:30:kick02.wav
288,192,23558,1,0,0:0:0:0:
352,192,23658,1,0,0:0:0:0:
160,192,23658,1,0,0:0:0:0:
480,192,23860,1,0,0:0:0:0:
96,192,23860,1,0,0:0:0:30:kick02.wav
352,192,23961,1,0,0:0:0:0:
160,192,24061,1,0,0:0:0:0:
288,192,24162,1,0,0:0:0:0:
480,192,24162,1,8,0:0:0:0:
96,192,24263,1,0,0:0:0:30:kick02.wav
352,192,24363,1,0,0:0:0:0:
224,192,24464,1,0,0:0:0:0:
480,192,24665,1,0,0:0:0:0:
96,192,24665,1,0,0:0:0:30:kick02.wav
352,192,24766,1,0,0:0:0:0:
160,192,24867,1,0,0:0:0:0:
416,192,24967,1,8,0:0:0:0:
288,192,24967,1,0,0:0:0:0:
96,192,25068,1,0,0:0:0:30:kick02.wav
224,192,25169,1,0,0:0:0:0:
480,192,25269,1,0,0:0:0:0:
352,192,25269,1,0,0:0:0:0:
416,192,25471,1,0,0:0:0:0:
96,192,25471,1,0,0:0:0:30:kick02.wav
352,192,25571,1,0,0:0:0:0:
160,192,25672,1,0,0:0:0:0:
416,192,25773,1,8,0:0:0:0:
288,192,25773,1,0,0:0:0:0:
96,192,25873,1,0,0:0:0:30:kick02.wav
352,192,25974,1,0,0:0:0:0:
224,192,26075,1,0,0:0:0:0:
416,192,26276,1,0,0:0:0:0:
96,192,26276,1,0,0:0:0:30:kick02.wav
288,192,26377,1,0,0:0:0:0:
160,192,26477,1,0,0:0:0:0:
224,192,26578,1,0,0:0:0:0:
480,192,26578,1,8,0:0:0:0:
96,192,26679,1,0,0:0:0:30:kick02.wav
352,192,26679,1,0,0:0:0:0:
160,192,26779,1,0,0:0:0:0:
416,192,26880,1,0,0:0:0:0:
96,192,26880,1,0,0:0:0:30:kick02.wav
288,192,26880,1,0,0:0:0:0:
96,192,27081,5,0,0:0:0:30:kick02.wav
32,192,27081,1,0,0:0:0:30:cym.wav
288,192,27081,1,0,0:0:0:0:
416,192,27081,1,0,0:0:0:0:
224,192,27182,1,0,0:0:0:0:
352,192,27283,1,0,0:0:0:0:
224,192,27383,1,0,0:0:0:0:
96,192,27484,1,0,0:0:0:30:kick02.wav
352,192,27585,1,0,0:0:0:0:
224,192,27685,1,0,0:0:0:0:
96,192,27887,1,0,0:0:0:30:kick02.wav
352,192,27887,1,0,0:0:0:0:
480,192,27887,1,0,0:0:0:0:
224,192,27987,1,0,0:0:0:0:
416,192,28088,1,0,0:0:0:0:
224,192,28189,1,8,0:0:0:0:
96,192,28289,1,0,0:0:0:30:kick02.wav
352,192,28390,1,0,0:0:0:0:
224,192,28491,1,0,0:0:0:0:
96,192,28692,5,0,0:0:0:30:kick02.wav
416,192,28692,1,0,0:0:0:0:
288,192,28692,1,0,0:0:0:0:
224,192,28793,1,0,0:0:0:0:
352,192,28893,1,0,0:0:0:0:
224,192,28994,1,8,0:0:0:0:
96,192,29095,1,0,0:0:0:30:kick02.wav
352,192,29195,1,0,0:0:0:0:
224,192,29296,1,0,0:0:0:0:
288,192,29497,1,0,0:0:0:0:
160,192,29497,1,0,0:0:0:0:
96,192,29497,1,0,0:0:0:30:kick02.wav
416,192,29598,1,0,0:0:0:0:
224,192,29699,1,0,0:0:0:0:
480,192,29799,1,8,0:0:0:0:
96,192,29900,1,0,0:0:0:30:kick02.wav
480,192,30001,1,0,0:0:0:0:
224,192,30101,1,0,0:0:0:0:
96,192,30303,5,0,0:0:0:30:kick02.wav
288,192,30303,1,0,0:0:0:0:
416,192,30303,1,0,0:0:0:0:
224,192,30403,1,0,0:0:0:0:
352,192,30504,1,0,0:0:0:0:
224,192,30605,1,8,0:0:0:0:
96,192,30705,1,0,0:0:0:30:kick02.wav
352,192,30806,1,0,0:0:0:0:
224,192,30907,1,0,0:0:0:0:
160,192,31108,1,0,0:0:0:0:
288,192,31108,1,0,0:0:0:0:
96,192,31108,1,0,0:0:0:30:kick02.wav
416,192,31209,1,0,0:0:0:0:
224,192,31309,1,0,0:0:0:0:
352,192,31410,1,8,0:0:0:0:
96,192,31511,1,0,0:0:0:30:kick02.wav
224,192,31612,1,0,0:0:0:0:
480,192,31712,1,0,0:0:0:0:
96,192,31914,5,0,0:0:0:30:kick02.wav
288,192,31914,1,0,0:0:0:0:
416,192,31914,1,0,0:0:0:0:
224,192,32014,1,0,0:0:0:0:
352,192,32115,1,0,0:0:0:0:
224,192,32216,1,8,0:0:0:0:
96,192,32316,1,0,0:0:0:30:kick02.wav
352,192,32417,1,0,0:0:0:0:
224,192,32518,1,0,0:0:0:0:
96,192,32719,1,0,0:0:0:30:kick02.wav
352,192,32820,1,0,0:0:0:30:kick.wav
224,192,32920,1,0,0:0:0:0:
480,192,33021,1,0,0:0:0:30:kick.wav
96,192,33122,1,0,0:0:0:30:kick02.wav
480,192,33222,1,0,0:0:0:0:
224,192,33323,1,0,0:0:0:0:
96,192,33323,1,0,0:0:0:30:kick02.wav
32,192,33524,5,0,0:0:0:30:cym.wav
96,192,33524,5,0,0:0:0:30:kick02.wav
288,192,33524,1,0,0:0:0:0:
416,192,33524,1,0,0:0:0:0:
352,192,33625,1,0,0:0:0:0:
224,192,33726,1,0,0:0:0:30:kick02.wav
480,192,33826,1,8,0:0:0:0:
96,192,33927,1,0,0:0:0:30:kick02.wav
288,192,34028,1,0,0:0:0:0:
160,192,34128,1,0,0:0:0:0:
224,192,34330,1,0,0:0:0:30:kick.wav
352,192,34330,1,0,0:0:0:0:
96,192,34330,1,0,0:0:0:30:kick02.wav
288,192,34430,1,0,0:0:0:0:
160,192,34531,1,0,0:0:0:30:kick02.wav
416,192,34632,1,8,0:0:0:0:
96,192,34732,1,0,0:0:0:30:kick02.wav
352,192,34833,1,0,0:0:0:0:
224,192,34934,1,0,0:0:0:0:
96,192,35135,5,0,0:0:0:30:kick02.wav
32,192,35135,1,0,0:0:0:30:cym.wav
288,192,35135,1,0,0:0:0:0:
416,192,35135,1,0,0:0:0:0:
352,192,35236,1,0,0:0:0:0:
224,192,35336,1,0,0:0:0:30:kick02.wav
480,192,35437,1,8,0:0:0:0:
96,192,35538,1,0,0:0:0:30:kick02.wav
288,192,35638,1,0,0:0:0:0:
160,192,35739,1,0,0:0:0:0:
352,192,35940,1,0,0:0:0:0:
480,192,35940,1,0,0:0:0:0:
96,192,35940,1,0,0:0:0:30:kick02.wav
288,192,36041,1,0,0:0:0:0:
160,192,36142,1,0,0:0:0:30:kick02.wav
416,192,36242,1,8,0:0:0:0:
96,192,36343,1,0,0:0:0:30:kick02.wav
224,192,36444,1,0,0:0:0:0:
352,192,36544,1,0,0:0:0:0:
96,192,36544,1,0,0:0:0:30:kick02.wav
32,192,36746,1,0,0:0:0:30:cym.wav
288,192,36746,1,0,0:0:0:0:
416,192,36746,1,0,0:0:0:0:
96,192,36746,1,0,0:0:0:30:kick02.wav
96,192,36947,1,0,0:0:0:30:kick.wav
224,192,37148,1,0,0:0:0:0:
96,192,37148,1,0,0:0:0:30:kick.wav
288,192,37249,1,0,0:0:0:0:
352,192,37350,1,0,0:0:0:0:
96,192,37350,1,0,0:0:0:30:kick.wav
416,192,37450,1,0,0:0:0:0:
32,192,37551,1,0,0:0:0:30:cym.wav
480,192,37551,1,8,0:0:0:0:
160,192,37551,1,0,0:0:0:0:
96,192,37551,1,0,0:0:0:30:kick.wav
96,192,37752,1,0,0:0:0:30:kick.wav
224,192,37954,1,0,0:0:0:0:
96,192,37954,1,0,0:0:0:30:kick.wav
288,192,38054,1,0,0:0:0:0:
352,192,38155,1,0,0:0:0:0:
96,192,38155,1,0,0:0:0:30:kick.wav
416,192,38256,1,0,0:0:0:0:
32,192,38356,1,0,0:0:0:30:cym.wav
480,192,38356,1,8,0:0:0:0:
224,192,38356,1,0,0:0:0:0:
96,192,38356,1,0,0:0:0:30:kick.wav
288,192,38457,1,0,0:0:0:30:kick.wav
160,192,38558,1,0,0:0:0:30:kick.wav
352,192,38658,1,0,0:0:0:30:kick.wav
224,192,38759,1,0,0:0:0:30:kick.wav
416,192,38860,1,0,0:0:0:30:kick.wav
288,192,38961,1,0,0:0:0:30:kick.wav
480,192,39061,1,0,0:0:0:30:kick.wav
352,192,39162,1,0,0:0:0:30:kick.wav
224,192,39263,1,0,0:0:0:30:kick.wav
288,192,39363,1,0,0:0:0:0:
160,192,39464,1,0,0:0:0:30:kick.wav
416,192,39565,1,0,0:0:0:0:
352,192,39665,1,0,0:0:0:0:
224,192,39665,1,0,0:0:0:30:kick.wav
288,192,39766,1,0,0:0:0:0:
160,192,39766,1,0,0:0:0:0:
480,192,39867,1,0,0:0:0:0:
352,192,39867,1,0,0:0:0:0:
96,192,39967,5,0,0:0:0:0:
32,192,39967,1,0,0:0:0:30:cym.wav
224,192,39967,1,0,0:0:0:30:kick.wav
160,192,41175,1,0,0:0:0:0:
288,192,41578,1,0,0:0:0:0:
224,192,43189,1,0,0:0:0:0:
288,192,43994,1,0,0:0:0:0:
352,192,44799,1,0,0:0:0:0:
416,192,45605,1,0,0:0:0:0:
352,192,46410,1,0,0:0:0:0:
480,192,47216,1,0,0:0:0:0:
288,192,48021,1,0,0:0:0:0:
352,192,49632,1,0,0:0:0:0:
288,192,50437,1,0,0:0:0:0:
224,192,51242,1,0,0:0:0:0:
416,192,52048,1,0,0:0:0:0:
32,192,52048,1,0,0:0:0:30:cym.wav
288,192,52350,1,0,0:0:0:0:
160,192,52652,1,0,0:0:0:0:
32,192,52853,1,0,0:0:0:30:cym.wav
352,192,52853,1,0,0:0:0:0:
96,192,53457,1,0,0:0:0:0:
224,192,53558,1,0,0:0:0:0:
416,192,53658,1,0,0:0:0:0:
160,192,54263,1,0,0:0:0:0:
288,192,54363,1,0,0:0:0:0:
480,192,54464,1,0,0:0:0:0:
416,192,55269,1,0,0:0:0:0:
224,192,55571,1,0,0:0:0:0:
96,192,55873,1,0,0:0:0:0:
288,192,56075,1,0,0:0:0:0:
160,192,56377,1,0,0:0:0:0:
416,192,56679,1,0,0:0:0:0:
352,192,56880,1,0,0:0:0:0:
224,192,57182,1,0,0:0:0:0:
480,192,57484,1,0,0:0:0:0:
416,192,57685,1,0,0:0:0:0:
352,192,58491,1,0,0:0:0:0:
288,192,58692,1,0,0:0:0:0:
416,192,58793,1,0,0:0:0:0:
224,192,58893,1,0,0:0:0:0:
160,192,59095,1,0,0:0:0:0:
96,192,59296,1,0,0:0:0:30:kick02.wav
352,192,59397,1,0,0:0:0:30:kick02.wav
160,192,59497,1,0,0:0:0:30:kick02.wav
416,192,59598,1,0,0:0:0:30:kick02.wav
224,192,59699,1,0,0:0:0:30:kick02.wav
480,192,59799,1,0,0:0:0:30:kick02.wav
160,192,59900,1,0,0:0:0:30:kick02.wav
416,192,60001,1,0,0:0:0:30:kick02.wav
96,192,60101,1,0,0:0:0:30:kick02.wav
480,192,60202,1,0,0:0:0:30:kick02.wav
160,192,60303,1,0,0:0:0:30:kick02.wav
416,192,60403,1,0,0:0:0:30:kick02.wav
224,192,60504,1,0,0:0:0:30:kick02.wav
352,192,60605,1,0,0:0:0:30:kick02.wav
160,192,60705,1,0,0:0:0:30:kick02.wav
416,192,60806,1,0,0:0:0:30:kick02.wav
96,192,60907,1,0,0:0:0:30:kick02.wav
288,192,61007,1,0,0:0:0:30:kick02.wav
160,192,61108,1,0,0:0:0:30:kick02.wav
352,192,61209,1,0,0:0:0:30:kick02.wav
224,192,61309,1,0,0:0:0:30:kick02.wav
416,192,61410,1,0,0:0:0:30:kick02.wav
288,192,61511,1,0,0:0:0:30:kick02.wav
480,192,61612,1,0,0:0:0:30:kick02.wav
352,192,61712,1,0,0:0:0:30:kick02.wav
160,192,61813,1,0,0:0:0:30:kick02.wav
288,192,61914,1,0,0:0:0:30:kick02.wav
416,192,62014,1,0,0:0:0:30:kick02.wav
224,192,62115,1,0,0:0:0:30:kick02.wav
480,192,62216,1,0,0:0:0:30:kick02.wav
160,192,62316,1,0,0:0:0:30:kick02.wav
416,192,62417,1,0,0:0:0:30:kick02.wav
96,192,62518,1,0,0:0:0:30:kick02.wav
288,192,62618,1,0,0:0:0:30:kick02.wav
96,192,62719,1,0,0:0:0:30:kick02.wav
288,192,62820,1,0,0:0:0:30:kick02.wav
160,192,62920,1,0,0:0:0:30:kick02.wav
352,192,63021,5,0,0:0:0:30:kick02.wav
160,192,63122,1,0,0:0:0:30:kick02.wav
352,192,63222,1,0,0:0:0:30:kick02.wav
224,192,63323,1,0,0:0:0:30:kick02.wav
416,192,63424,1,0,0:0:0:30:kick02.wav
224,192,63524,1,0,0:0:0:30:kick02.wav
416,192,63625,1,0,0:0:0:30:kick02.wav
288,192,63726,1,0,0:0:0:30:kick02.wav
480,192,63826,1,0,0:0:0:30:kick02.wav
288,192,63927,1,0,0:0:0:30:kick02.wav
480,192,64028,1,0,0:0:0:30:kick02.wav
32,192,64128,5,0,0:0:0:0:
352,192,64128,1,0,0:0:0:30:kick02.wav
224,192,64934,1,0,0:0:0:0:
32,192,65739,1,0,0:0:0:30:cym.wav
480,192,65739,1,2,0:0:0:0:
352,192,65739,1,0,0:0:0:0:
96,192,65739,1,0,0:0:0:30:kick.wav
96,192,65940,1,0,0:0:0:30:kick.wav
288,192,66041,1,2,0:0:0:0:
160,192,66041,1,0,0:0:0:0:
96,192,66142,1,0,0:0:0:30:kick.wav
352,192,66343,1,0,0:0:0:0:
480,192,66343,1,2,0:0:0:0:
96,192,66343,1,0,0:0:0:30:kick.wav
352,192,66544,1,0,0:0:0:0:
480,192,66544,1,2,0:0:0:0:
96,192,66544,1,0,0:0:0:30:kick.wav
96,192,66746,1,0,0:0:0:30:kick.wav
160,192,66846,1,2,0:0:0:0:
288,192,66846,1,0,0:0:0:0:
96,192,66947,1,0,0:0:0:30:kick.wav
352,192,67148,1,0,0:0:0:0:
480,192,67148,1,2,0:0:0:0:
96,192,67148,1,0,0:0:0:30:kick.wav
32,192,67350,1,0,0:0:0:30:cym.wav
96,192,67350,1,2,0:0:0:0:
224,192,67350,1,0,0:0:0:0:
480,192,67350,1,0,0:0:0:30:kick.wav
480,192,67551,1,0,0:0:0:30:kick.wav
416,192,67652,1,0,0:0:0:0:
288,192,67652,1,2,0:0:0:0:
480,192,67752,1,0,0:0:0:30:kick.wav
96,192,67954,1,0,0:0:0:0:
224,192,67954,1,2,0:0:0:0:
480,192,67954,1,0,0:0:0:30:kick.wav
96,192,68155,1,0,0:0:0:0:
224,192,68155,1,2,0:0:0:0:
480,192,68155,1,0,0:0:0:30:kick.wav
480,192,68356,1,0,0:0:0:30:kick.wav
288,192,68457,1,2,0:0:0:0:
416,192,68457,1,0,0:0:0:0:
480,192,68558,1,0,0:0:0:30:kick.wav
96,192,68759,1,0,0:0:0:0:
224,192,68759,1,2,0:0:0:0:
480,192,68759,1,0,0:0:0:30:kick.wav
224,192,68961,1,2,0:0:0:0:
32,192,68961,1,0,0:0:0:30:cym_c_003.wav
96,192,68961,1,0,0:0:0:30:kick.wav
352,192,69061,1,0,0:0:0:30:kick.wav
160,192,69162,1,0,0:0:0:30:kick.wav
352,192,69263,1,0,0:0:0:30:kick.wav
288,192,69363,1,0,0:0:0:0:
32,192,69363,1,0,0:0:0:30:cym_c_003.wav
160,192,69363,1,0,0:0:0:30:kick.wav
416,192,69464,1,0,0:0:0:30:kick.wav
224,192,69565,1,0,0:0:0:30:kick.wav
416,192,69665,1,0,0:0:0:30:kick.wav
224,192,69766,1,0,0:0:0:0:
32,192,69766,1,0,0:0:0:30:cym_c_003.wav
96,192,69766,1,0,0:0:0:30:kick.wav
480,192,69867,1,0,0:0:0:30:kick.wav
160,192,69967,1,0,0:0:0:30:kick.wav
480,192,70068,1,0,0:0:0:30:kick.wav
288,192,70169,1,0,0:0:0:0:
32,192,70169,1,0,0:0:0:30:cym.wav
160,192,70169,1,0,0:0:0:30:kick.wav
416,192,70269,1,0,0:0:0:30:kick.wav
224,192,70370,1,0,0:0:0:30:kick.wav
416,192,70471,1,0,0:0:0:30:kick.wav
224,192,70571,1,0,0:0:0:30:kick.wav
352,192,70672,1,0,0:0:0:0:
96,192,70773,1,0,0:0:0:0:
352,192,70873,1,0,0:0:0:0:
96,192,71075,5,0,0:0:0:0:
352,192,71175,1,0,0:0:0:0:
224,192,71377,1,0,0:0:0:0:
96,192,71477,1,0,0:0:0:0:
352,192,71578,1,0,0:0:0:0:
480,192,71679,1,0,0:0:0:0:
416,192,71880,1,0,0:0:0:0:
288,192,71981,1,0,0:0:0:0:
160,192,72081,1,0,0:0:0:0:
32,192,72182,5,0,0:0:0:30:cym.wav
96,192,72182,1,0,0:0:0:30:kick02.wav
480,192,72182,1,0,0:0:0:0:
224,192,72283,1,0,0:0:0:0:
352,192,72283,1,0,0:0:0:0:
96,192,72484,1,0,0:0:0:0:
480,192,72484,1,0,0:0:0:0:
224,192,72585,1,0,0:0:0:30:kick02.wav
352,192,72585,1,0,0:0:0:0:
224,192,72786,1,0,0:0:0:0:
352,192,72786,1,0,0:0:0:0:
96,192,72987,1,0,0:0:0:30:kick02.wav
480,192,72987,1,0,0:0:0:0:
224,192,73088,1,0,0:0:0:0:
352,192,73088,1,0,0:0:0:0:
96,192,73289,1,0,0:0:0:0:
480,192,73289,1,0,0:0:0:0:
224,192,73390,1,0,0:0:0:30:kick02.wav
352,192,73390,1,0,0:0:0:0:
224,192,73591,1,0,0:0:0:0:
352,192,73591,1,0,0:0:0:0:
160,192,73793,1,0,0:0:0:30:kick02.wav
416,192,73793,1,0,0:0:0:0:
480,192,73893,1,0,0:0:0:0:
96,192,73893,1,0,0:0:0:0:
416,192,74095,1,0,0:0:0:0:
160,192,74095,1,0,0:0:0:0:
96,192,74195,1,0,0:0:0:30:kick02.wav
480,192,74195,1,0,0:0:0:0:
352,192,74397,1,0,0:0:0:0:
224,192,74397,1,0,0:0:0:0:
160,192,74598,1,0,0:0:0:30:kick02.wav
416,192,74598,1,0,0:0:0:0:
480,192,74699,1,0,0:0:0:0:
96,192,74699,1,0,0:0:0:0:
416,192,74900,1,0,0:0:0:0:
160,192,74900,1,0,0:0:0:0:
96,192,75001,1,0,0:0:0:30:kick02.wav
480,192,75001,1,0,0:0:0:0:
352,192,75202,1,0,0:0:0:0:
224,192,75202,1,0,0:0:0:0:
160,192,75403,1,0,0:0:0:30:kick02.wav
288,192,75403,1,0,0:0:0:0:
96,192,75504,1,0,0:0:0:0:
352,192,75504,1,0,0:0:0:0:
96,192,75705,1,0,0:0:0:0:
352,192,75705,1,0,0:0:0:0:
160,192,75806,1,0,0:0:0:30:kick02.wav
288,192,75806,1,0,0:0:0:0:
352,192,76007,1,0,0:0:0:0:
96,192,76007,1,0,0:0:0:0:
224,192,76209,1,0,0:0:0:30:kick02.wav
416,192,76209,1,0,0:0:0:0:
480,192,76309,1,0,0:0:0:0:
160,192,76309,1,0,0:0:0:0:
160,192,76511,1,0,0:0:0:0:
480,192,76511,1,0,0:0:0:0:
224,192,76612,1,0,0:0:0:30:kick02.wav
416,192,76612,1,0,0:0:0:0:
160,192,76813,1,0,0:0:0:0:
352,192,76813,1,0,0:0:0:0:
96,192,77014,1,0,0:0:0:30:kick02.wav
224,192,77014,1,0,0:0:0:0:
352,192,77115,1,0,0:0:0:0:
480,192,77115,1,0,0:0:0:0:
480,192,77316,1,0,0:0:0:0:
352,192,77316,1,0,0:0:0:0:
96,192,77417,1,0,0:0:0:30:kick02.wav
224,192,77417,1,0,0:0:0:0:
352,192,77618,1,0,0:0:0:0:
480,192,77618,1,0,0:0:0:0:
160,192,77820,1,0,0:0:0:30:kick02.wav
288,192,77820,1,0,0:0:0:0:
224,192,77920,1,0,0:0:0:0:
352,192,77920,1,0,0:0:0:0:
224,192,78122,1,0,0:0:0:0:
352,192,78122,1,0,0:0:0:0:
160,192,78222,1,0,0:0:0:30:kick02.wav
288,192,78222,1,0,0:0:0:0:
224,192,78424,1,0,0:0:0:0:
352,192,78424,1,0,0:0:0:0:
96,192,78625,1,0,0:0:0:30:kick02.wav
480,192,78625,1,0,0:0:0:0:
224,192,78726,1,0,0:0:0:0:
352,192,78726,1,0,0:0:0:0:
96,192,78927,1,0,0:0:0:0:
480,192,78927,1,0,0:0:0:0:
224,192,79028,1,0,0:0:0:30:kick02.wav
352,192,79028,1,0,0:0:0:0:
352,192,79229,1,0,0:0:0:0:
224,192,79229,1,0,0:0:0:0:
96,192,79430,1,0,0:0:0:30:kick02.wav
480,192,79430,1,0,0:0:0:0:
352,192,79531,1,0,0:0:0:0:
224,192,79531,1,0,0:0:0:0:
96,192,79732,1,0,0:0:0:0:
480,192,79732,1,0,0:0:0:0:
160,192,79833,1,0,0:0:0:30:kick02.wav
352,192,79833,1,0,0:0:0:0:
160,192,80034,1,0,0:0:0:0:
352,192,80034,1,0,0:0:0:0:
224,192,80236,1,0,0:0:0:30:kick02.wav
416,192,80236,1,0,0:0:0:0:
96,192,80336,1,0,0:0:0:0:
480,192,80336,1,0,0:0:0:0:
224,192,80538,1,0,0:0:0:0:
416,192,80538,1,0,0:0:0:0:
96,192,80638,1,0,0:0:0:30:kick02.wav
480,192,80638,1,0,0:0:0:0:
160,192,80840,1,0,0:0:0:0:
288,192,80840,1,0,0:0:0:0:
224,192,81041,1,0,0:0:0:30:kick02.wav
416,192,81041,1,0,0:0:0:0:
96,192,81142,1,0,0:0:0:0:
480,192,81142,1,0,0:0:0:0:
416,192,81343,1,0,0:0:0:0:
224,192,81343,1,0,0:0:0:0:
96,192,81444,1,0,0:0:0:30:kick02.wav
480,192,81444,1,0,0:0:0:0:
224,192,81645,1,0,0:0:0:0:
352,192,81645,1,0,0:0:0:0:
96,192,81846,1,0,0:0:0:30:kick02.wav
288,192,81846,1,0,0:0:0:0:
160,192,81947,1,0,0:0:0:0:
416,192,81947,1,0,0:0:0:0:
160,192,82148,1,0,0:0:0:0:
416,192,82148,1,0,0:0:0:0:
96,192,82249,1,0,0:0:0:30:kick02.wav
288,192,82249,1,0,0:0:0:0:
160,192,82450,1,0,0:0:0:0:
416,192,82450,1,0,0:0:0:0:
224,192,82652,1,0,0:0:0:30:kick02.wav
352,192,82652,1,0,0:0:0:0:
480,192,82752,1,0,0:0:0:0:
96,192,82752,1,0,0:0:0:0:
352,192,82954,1,0,0:0:0:0:
480,192,82954,1,0,0:0:0:0:
96,192,83054,1,0,0:0:0:30:kick02.wav
224,192,83054,1,0,0:0:0:0:
480,192,83256,1,0,0:0:0:0:
352,192,83256,1,0,0:0:0:0:
160,192,83457,1,0,0:0:0:30:kick02.wav
288,192,83457,1,0,0:0:0:0:
352,192,83558,1,0,0:0:0:0:
480,192,83558,1,0,0:0:0:0:
352,192,83759,1,0,0:0:0:0:
480,192,83759,1,0,0:0:0:0:
160,192,83860,1,0,0:0:0:30:kick02.wav
288,192,83860,1,0,0:0:0:0:
352,192,84061,1,0,0:0:0:0:
480,192,84061,1,0,0:0:0:0:
96,192,84263,1,0,0:0:0:30:kick02.wav
224,192,84263,1,0,0:0:0:0:
288,192,84363,1,0,0:0:0:0:
416,192,84363,1,0,0:0:0:0:
288,192,84565,1,0,0:0:0:0:
416,192,84565,1,0,0:0:0:0:
96,192,84665,1,0,0:0:0:30:kick02.wav
224,192,84665,1,0,0:0:0:0:
224,192,84867,1,0,0:0:0:0:
96,192,84867,1,0,0:0:0:30:kick02.wav
32,192,85068,1,0,0:0:0:30:cym.wav
352,192,85068,1,0,0:0:0:0:
224,192,85068,1,0,0:0:0:0:
96,192,85068,1,0,0:0:0:30:kick02.wav
96,192,85471,1,0,0:0:0:30:kick02.wav
416,192,85873,1,0,0:0:0:0:
288,192,85873,1,0,0:0:0:0:
96,192,85873,1,0,0:0:0:30:kick02.wav
96,192,86276,1,0,0:0:0:30:kick02.wav
480,192,86477,1,0,0:0:0:0:
352,192,86477,1,0,0:0:0:0:
288,192,86679,1,0,0:0:0:0:
160,192,86679,1,0,0:0:0:0:
96,192,86679,1,0,0:0:0:30:kick02.wav
96,192,87081,1,0,0:0:0:30:kick02.wav
352,192,87484,1,0,0:0:0:0:
224,192,87484,1,0,0:0:0:0:
96,192,87484,1,0,0:0:0:30:kick02.wav
288,192,87685,1,0,0:0:0:0:
160,192,87685,1,0,0:0:0:0:
352,192,87887,1,0,0:0:0:0:
224,192,87887,1,0,0:0:0:0:
96,192,87887,1,0,0:0:0:30:kick02.wav
416,192,88088,1,0,0:0:0:0:
288,192,88088,1,0,0:0:0:0:
480,192,88289,1,0,0:0:0:0:
352,192,88289,1,0,0:0:0:0:
96,192,88289,1,0,0:0:0:30:kick02.wav
96,192,88692,1,0,0:0:0:30:kick02.wav
224,192,88893,1,0,0:0:0:0:
352,192,88893,1,0,0:0:0:0:
480,192,89095,1,0,0:0:0:0:
352,192,89095,1,0,0:0:0:0:
96,192,89095,1,0,0:0:0:30:kick02.wav
416,192,89296,1,0,0:0:0:0:
288,192,89296,1,0,0:0:0:0:
352,192,89497,1,0,0:0:0:0:
224,192,89497,1,0,0:0:0:0:
96,192,89497,1,0,0:0:0:30:kick02.wav
288,192,89699,1,0,0:0:0:0:
160,192,89699,1,0,0:0:0:0:
224,192,89900,1,0,0:0:0:0:
352,192,89900,1,0,0:0:0:0:
96,192,89900,1,0,0:0:0:30:kick02.wav
96,192,90303,1,0,0:0:0:30:kick02.wav
416,192,90504,1,0,0:0:0:0:
288,192,90504,1,0,0:0:0:0:
352,192,90705,1,0,0:0:0:0:
224,192,90705,1,0,0:0:0:0:
96,192,90705,1,0,0:0:0:30:kick02.wav
96,192,91108,1,0,0:0:0:30:kick02.wav
96,192,91309,1,0,0:0:0:30:kick02.wav
224,192,91511,1,0,0:0:0:0:
352,192,91511,1,0,0:0:0:0:
96,192,91511,1,0,0:0:0:30:kick02.wav
32,192,91511,1,0,0:0:0:30:cym.wav
96,192,91914,1,0,0:0:0:30:kick02.wav
288,192,92316,1,0,0:0:0:0:
416,192,92316,1,0,0:0:0:0:
96,192,92316,1,0,0:0:0:30:kick02.wav
96,192,92719,1,0,0:0:0:30:kick02.wav
224,192,92920,1,0,0:0:0:0:
352,192,92920,1,0,0:0:0:0:
480,192,93122,1,0,0:0:0:0:
288,192,93122,1,0,0:0:0:0:
96,192,93122,1,0,0:0:0:30:kick02.wav
32,192,93122,1,0,0:0:0:30:cym.wav
96,192,93524,1,0,0:0:0:30:kick02.wav
288,192,93726,1,0,0:0:0:0:
416,192,93726,1,0,0:0:0:0:
480,192,93927,1,0,0:0:0:0:
352,192,93927,1,0,0:0:0:0:
96,192,93927,1,0,0:0:0:30:kick02.wav
224,192,94128,1,0,0:0:0:0:
352,192,94128,1,0,0:0:0:0:
96,192,94128,1,0,0:0:0:30:kick02.wav
480,192,94330,1,0,0:0:0:0:
352,192,94330,1,0,0:0:0:0:
96,192,94330,1,0,0:0:0:30:kick02.wav
416,192,94531,1,0,0:0:0:0:
288,192,94531,1,0,0:0:0:0:
96,192,94531,1,0,0:0:0:30:kick02.wav
224,192,94732,1,0,0:0:0:0:
352,192,94732,1,0,0:0:0:0:
32,192,94732,1,0,0:0:0:30:cym.wav
96,192,94732,1,0,0:0:0:30:kick02.wav
96,192,94934,1,0,0:0:0:30:kick02.wav
96,192,95135,1,0,0:0:0:30:kick02.wav
480,192,95336,1,0,0:0:0:0:
352,192,95336,1,0,0:0:0:0:
96,192,95336,1,0,0:0:0:30:kick02.wav
480,192,95538,1,0,0:0:0:0:
352,192,95538,1,0,0:0:0:0:
32,192,95538,1,0,0:0:0:30:cym.wav
96,192,95538,1,0,0:0:0:30:kick02.wav
416,192,95739,1,0,0:0:0:0:
288,192,95739,1,0,0:0:0:0:
96,192,95739,1,0,0:0:0:30:kick02.wav
224,192,95940,1,0,0:0:0:0:
352,192,95940,1,0,0:0:0:0:
96,192,95940,1,0,0:0:0:30:kick02.wav
160,192,96142,1,0,0:0:0:0:
288,192,96142,1,0,0:0:0:0:
96,192,96142,1,0,0:0:0:30:kick02.wav
480,192,96343,1,0,0:0:0:0:
352,192,96343,1,0,0:0:0:0:
32,192,96343,1,0,0:0:0:30:cym.wav
96,192,96343,1,0,0:0:0:30:kick.wav
96,192,96544,1,0,0:0:0:30:kick.wav
288,192,96645,1,0,0:0:0:30:kick.wav
32,192,96746,1,0,0:0:0:30:cym.wav
96,192,96746,1,0,0:0:0:30:kick.wav
96,192,96947,1,0,0:0:0:30:kick.wav
288,192,97048,1,0,0:0:0:30:kick.wav
224,192,97148,1,0,0:0:0:0:
352,192,97148,1,0,0:0:0:0:
32,192,97148,1,0,0:0:0:30:cym.wav
96,192,97148,1,0,0:0:0:30:kick.wav
480,192,97249,1,0,0:0:0:30:kick.wav
96,192,97350,1,0,0:0:0:30:kick.wav
480,192,97450,1,0,0:0:0:30:kick.wav
32,192,97551,1,0,0:0:0:30:cym.wav
96,192,97551,1,0,0:0:0:30:kick.wav
480,192,97652,1,0,0:0:0:30:kick.wav
96,192,97752,1,0,0:0:0:30:kick.wav
480,192,97853,1,0,0:0:0:30:kick.wav
32,192,97954,1,0,0:0:0:30:cym.wav
96,192,97954,1,0,0:0:0:30:kick.wav
160,192,98054,1,0,0:0:0:0:
224,192,98155,1,0,0:0:0:0:
288,192,98256,1,0,0:0:0:0:
352,192,98356,1,8,0:0:0:0:
96,192,98356,1,0,0:0:0:30:kick02.wav
224,192,98457,1,0,0:0:0:0:
288,192,98558,1,0,0:0:0:0:
416,192,98658,1,0,0:0:0:0:
96,192,98759,1,0,0:0:0:30:kick02.wav
160,192,98860,1,0,0:0:0:0:
224,192,98961,1,0,0:0:0:0:
288,192,99061,1,0,0:0:0:0:
352,192,99162,1,8,0:0:0:0:
96,192,99162,1,0,0:0:0:30:kick02.wav
224,192,99263,1,0,0:0:0:0:
288,192,99363,1,0,0:0:0:0:
416,192,99464,1,0,0:0:0:0:
96,192,99565,1,0,0:0:0:30:kick02.wav
160,192,99665,1,0,0:0:0:0:
288,192,99766,1,0,0:0:0:0:
416,192,99867,1,0,0:0:0:0:
480,192,99967,1,8,0:0:0:0:
96,192,99967,1,0,0:0:0:30:kick02.wav
224,192,100068,1,0,0:0:0:0:
352,192,100169,1,0,0:0:0:0:
480,192,100269,1,0,0:0:0:0:
96,192,100370,1,0,0:0:0:30:kick02.wav
160,192,100471,1,0,0:0:0:0:
288,192,100571,1,0,0:0:0:0:
416,192,100672,1,0,0:0:0:0:
480,192,100773,1,8,0:0:0:0:
96,192,100773,1,0,0:0:0:30:kick02.wav
224,192,100873,1,0,0:0:0:0:
352,192,100974,1,0,0:0:0:0:
480,192,101075,1,0,0:0:0:0:
96,192,101175,1,0,0:0:0:30:kick02.wav
160,192,101276,1,0,0:0:0:0:
288,192,101377,1,0,0:0:0:0:
352,192,101477,1,0,0:0:0:0:
224,192,101578,1,8,0:0:0:0:
96,192,101578,1,0,0:0:0:30:kick02.wav
288,192,101679,1,0,0:0:0:0:
352,192,101779,1,0,0:0:0:0:
480,192,101880,1,0,0:0:0:0:
96,192,101981,1,0,0:0:0:30:kick02.wav
224,192,102081,1,0,0:0:0:0:
352,192,102182,1,0,0:0:0:0:
416,192,102283,1,0,0:0:0:0:
224,192,102383,1,8,0:0:0:0:
96,192,102383,1,0,0:0:0:30:kick02.wav
288,192,102484,1,0,0:0:0:0:
416,192,102585,1,0,0:0:0:0:
480,192,102685,1,0,0:0:0:0:
96,192,102786,1,0,0:0:0:30:kick02.wav
480,192,102987,1,0,0:0:0:0:
352,192,103088,1,0,0:0:0:0:
416,192,103189,1,8,0:0:0:0:
96,192,103189,1,0,0:0:0:30:kick02.wav
288,192,103289,1,0,0:0:0:0:
160,192,103390,1,0,0:0:0:0:
352,192,103491,1,0,0:0:0:0:
224,192,103491,1,0,0:0:0:0:
96,192,103591,1,0,0:0:0:30:kick02.wav
288,192,103692,1,0,0:0:0:0:
416,192,103793,1,0,0:0:0:0:
288,192,103893,1,0,0:0:0:0:
160,192,103893,1,0,0:0:0:0:
224,192,103994,1,8,0:0:0:0:
96,192,103994,1,0,0:0:0:30:kick02.wav
288,192,104095,1,0,0:0:0:0:
352,192,104195,1,0,0:0:0:0:
96,192,104195,1,0,0:0:0:30:kick02.wav
416,192,104296,1,0,0:0:0:0:
32,192,104397,1,0,0:0:0:30:cym.wav
96,192,104397,1,0,0:0:0:30:kick02.wav
160,192,104497,1,0,0:0:0:0:
288,192,104598,1,0,0:0:0:0:
352,192,104699,1,0,0:0:0:0:
480,192,104799,1,8,0:0:0:0:
96,192,104799,1,0,0:0:0:30:kick02.wav
224,192,104900,1,0,0:0:0:0:
288,192,105001,1,0,0:0:0:0:
416,192,105101,1,0,0:0:0:0:
32,192,105202,1,0,0:0:0:30:cym.wav
96,192,105202,1,0,0:0:0:30:kick02.wav
160,192,105303,1,0,0:0:0:0:
288,192,105403,1,0,0:0:0:0:
416,192,105504,1,0,0:0:0:0:
480,192,105605,1,8,0:0:0:0:
96,192,105605,1,0,0:0:0:30:kick02.wav
224,192,105705,1,0,0:0:0:0:
352,192,105806,1,0,0:0:0:0:
480,192,105907,1,0,0:0:0:0:
32,192,106007,1,0,0:0:0:30:cym.wav
96,192,106007,1,0,0:0:0:30:kick02.wav
160,192,106108,1,0,0:0:0:0:
288,192,106209,1,0,0:0:0:0:
416,192,106309,1,0,0:0:0:0:
480,192,106410,1,8,0:0:0:0:
96,192,106410,1,0,0:0:0:30:kick02.wav
224,192,106511,1,0,0:0:0:0:
288,192,106612,1,0,0:0:0:0:
416,192,106712,1,0,0:0:0:0:
288,192,106813,1,0,0:0:0:0:
32,192,106813,1,0,0:0:0:30:cym.wav
96,192,106813,1,0,0:0:0:30:kick02.wav
224,192,106914,1,0,0:0:0:0:
352,192,107014,1,0,0:0:0:0:
224,192,107115,1,0,0:0:0:0:
288,192,107216,1,8,0:0:0:0:
96,192,107216,1,0,0:0:0:30:kick02.wav
352,192,107316,1,0,0:0:0:0:
416,192,107417,1,0,0:0:0:0:
96,192,107417,1,0,0:0:0:30:kick02.wav
480,192,107518,1,0,0:0:0:0:
32,192,107618,1,0,0:0:0:30:cym.wav
96,192,107618,1,0,0:0:0:30:kick02.wav
224,192,107820,1,0,0:0:0:0:
352,192,107920,1,0,0:0:0:0:
224,192,108021,1,8,0:0:0:0:
96,192,108021,1,0,0:0:0:30:kick02.wav
288,192,108122,1,0,0:0:0:0:
352,192,108222,1,0,0:0:0:0:
416,192,108323,1,0,0:0:0:0:
96,192,108424,1,0,0:0:0:30:kick02.wav
224,192,108625,1,0,0:0:0:0:
352,192,108726,1,0,0:0:0:0:
224,192,108826,1,8,0:0:0:0:
96,192,108826,1,0,0:0:0:30:kick02.wav
288,192,108927,1,0,0:0:0:0:
352,192,109028,1,0,0:0:0:0:
416,192,109128,1,0,0:0:0:0:
32,192,109229,1,0,0:0:0:30:cym.wav
96,192,109229,1,0,0:0:0:30:kick02.wav
288,192,109430,1,0,0:0:0:0:
416,192,109531,1,0,0:0:0:0:
288,192,109632,1,0,0:0:0:0:
96,192,109632,1,0,0:0:0:30:kick02.wav
352,192,109732,1,0,0:0:0:0:
416,192,109833,1,0,0:0:0:0:
480,192,109934,1,0,0:0:0:0:
224,192,109934,1,0,0:0:0:30:kick02.wav
96,192,110034,1,0,0:0:0:30:kick02.wav
288,192,110236,1,0,0:0:0:0:
96,192,110236,1,0,0:0:0:30:kick02.wav
416,192,110336,1,0,0:0:0:0:
224,192,110437,1,0,0:0:0:0:
96,192,110437,1,0,0:0:0:30:kick02.wav
480,192,110538,1,0,0:0:0:0:
352,192,110538,1,0,0:0:0:30:kick02.wav
224,192,110638,1,0,0:0:0:0:
96,192,110638,1,0,0:0:0:30:kick02.wav
480,192,110739,1,0,0:0:0:0:
352,192,110739,1,0,0:0:0:30:kick02.wav
32,192,110840,1,0,0:0:0:30:cym.wav
96,192,110840,1,0,0:0:0:30:kick02.wav
480,192,111041,1,0,0:0:0:30:kick.wav
224,192,111242,1,0,0:0:0:0:
96,192,111242,1,0,0:0:0:30:kick.wav
352,192,111343,1,0,0:0:0:0:
288,192,111444,1,0,0:0:0:0:
160,192,111444,1,0,0:0:0:30:kick.wav
416,192,111544,1,0,0:0:0:30:kick.wav
32,192,111645,1,0,0:0:0:30:cym.wav
96,192,111645,1,0,0:0:0:30:kick.wav
480,192,111846,1,0,0:0:0:30:kick.wav
224,192,112048,1,0,0:0:0:0:
96,192,112048,1,0,0:0:0:30:kick.wav
352,192,112148,1,0,0:0:0:0:
288,192,112249,1,0,0:0:0:0:
160,192,112249,1,0,0:0:0:30:kick.wav
480,192,112350,1,0,0:0:0:0:
352,192,112350,1,0,0:0:0:30:kick.wav
32,192,112450,1,0,0:0:0:30:cym.wav
96,192,112450,1,0,0:0:0:30:kick.wav
480,192,112652,1,0,0:0:0:30:kick.wav
224,192,112853,1,0,0:0:0:0:
96,192,112853,1,0,0:0:0:30:kick.wav
352,192,112954,1,0,0:0:0:0:
288,192,113054,1,0,0:0:0:0:
160,192,113054,1,0,0:0:0:30:kick.wav
416,192,113155,1,0,0:0:0:30:kick.wav
32,192,113256,1,0,0:0:0:30:cym.wav
96,192,113256,1,0,0:0:0:30:kick.wav
480,192,113457,1,0,0:0:0:30:kick.wav
288,192,113658,1,0,0:0:0:0:
96,192,113658,1,0,0:0:0:30:kick.wav
352,192,113759,1,0,0:0:0:0:
224,192,113759,1,0,0:0:0:30:kick.wav
416,192,113860,1,0,0:0:0:0:
96,192,113860,1,0,0:0:0:30:kick.wav
480,192,113961,1,0,0:0:0:0:
224,192,113961,1,0,0:0:0:30:kick.wav
96,192,114061,1,0,0:0:0:30:kick.wav
32,192,114061,1,0,0:0:0:30:cym_c_003.wav
288,192,114162,1,0,0:0:0:30:kick.wav
96,192,114263,1,0,0:0:0:30:kick.wav
352,192,114363,1,0,0:0:0:30:kick.wav
96,192,114464,1,0,0:0:0:30:kick.wav
224,192,114464,1,0,0:0:0:0:
32,192,114464,1,0,0:0:0:30:cym_c_003.wav
480,192,114565,1,0,0:0:0:0:
352,192,114565,1,0,0:0:0:30:kick.wav
288,192,114665,1,0,0:0:0:0:
96,192,114665,1,0,0:0:0:30:kick.wav
416,192,114766,1,0,0:0:0:30:kick.wav
160,192,114766,1,0,0:0:0:0:
96,192,114867,1,0,0:0:0:30:kick.wav
32,192,114867,1,0,0:0:0:30:cym_c_003.wav
352,192,114967,1,0,0:0:0:30:kick.wav
224,192,115068,1,0,0:0:0:30:kick.wav
96,192,115068,1,0,0:0:0:0:
480,192,115169,1,0,0:0:0:0:
352,192,115169,1,0,0:0:0:30:kick.wav
224,192,115269,1,0,0:0:0:30:kick.wav
96,192,115269,1,0,0:0:0:0:
32,192,115269,1,0,0:0:0:30:cym_c_003.wav
288,192,115370,1,0,0:0:0:30:kick.wav
416,192,115471,1,0,0:0:0:0:
160,192,115471,1,0,0:0:0:30:kick.wav
352,192,115571,1,0,0:0:0:0:
224,192,115571,1,0,0:0:0:30:kick.wav
32,192,115672,1,0,0:0:0:30:cym.wav
96,192,115672,1,0,0:0:0:30:kick.wav
480,192,115672,1,0,0:0:0:30:kick.wav
