osu file format v14

[General]
AudioFilename: LegenD.mp3
AudioLeadIn: 0
PreviewTime: 61460
Countdown: 0
SampleSet: Soft
StackLeniency: 0.7
Mode: 0
LetterboxInBreaks: 0
WidescreenStoryboard: 0

[Editor]
DistanceSpacing: 0.8
BeatDivisor: 8
GridSize: 4
TimelineZoom: 5.699996

[Metadata]
Title:LegenD.
TitleUnicode:LegenD.
Artist:Yooh
ArtistUnicode:Yooh
Creator:toybot
Version:captin's GRAVITY
Source:SOUND VOLTEX III GRAVITY WARS
Tags:sdvx bemani the 4th kac mikii skinnyjommy gokugohan12468 kittyadventure sionkotori captin1 fort ciyus miapah
BeatmapID:796311
BeatmapSetID:359821

[Difficulty]
HPDrainRate:7
CircleSize:4.2
OverallDifficulty:9
ApproachRate:9.5
SliderMultiplier:1.9
SliderTickRate:2

[Events]
//Background and Video events
0,0,"legend.jpg",0,0
//Break Periods
//Storyboard Layer 0 (Background)
//Storyboard Layer 1 (Fail)
//Storyboard Layer 2 (Pass)
//Storyboard Layer 3 (Foreground)
//Storyboard Sound Samples

[TimingPoints]
880,292.682926829268,4,2,2,70,1,0
880,-133.333333333333,4,2,2,50,0,0
5270,-83.3333333333333,4,2,2,50,0,0
5562,-133.333333333333,4,2,2,50,0,0
9221,-83.3333333333333,4,2,2,50,0,0
10245,-100,4,2,2,70,0,0
16684,-100,4,2,2,50,0,0
16977,-100,4,2,2,60,0,0
17270,-100,4,2,2,5,0,0
17562,-100,4,2,2,10,0,0
17855,-100,4,2,2,20,0,0
18148,-100,4,2,2,30,0,0
18440,-100,4,2,2,40,0,0
18733,-100,4,2,2,50,0,0
19026,-100,4,2,2,60,0,0
19319,-100,4,2,2,70,0,0
19611,-100,4,2,2,60,0,0
24001,-100,4,2,2,50,0,0
24294,-100,4,2,2,60,0,0
26636,-83.3333333333333,4,2,2,60,0,0
28977,-100,4,2,2,70,0,0
33367,-100,4,2,2,50,0,0
33660,-100,4,2,2,70,0,0
40392,-133.333333333333,4,2,2,50,0,0
40684,-100,4,2,2,70,0,0
42148,-100,4,2,2,50,0,0
42440,-133.333333333333,4,2,2,50,0,0
43026,-100,4,2,2,70,0,0
44782,-100,4,2,2,50,0,0
45367,-100,4,2,2,70,0,0
47416,-100,4,2,2,50,0,0
47709,-100,4,2,2,70,0,0
52392,-100,4,2,2,50,0,0
52684,-100,4,2,2,70,0,0
54440,-133.333333333333,4,2,2,50,0,0
54733,-100,4,2,2,70,0,0
58245,-100,4,1,2,20,0,0
58831,-100,4,1,2,30,0,0
59416,-100,4,1,2,40,0,0
60001,-100,4,1,2,50,0,0
60587,291.26213592233,4,1,2,60,1,0
61169,-100,4,1,2,70,0,0
61460,-100,4,2,2,80,0,0
61752,-90.9090909090909,4,2,2,80,0,1
80392,-90.9090909090909,4,2,2,70,0,0
99033,-83.3333333333333,4,2,2,70,0,0

[Colours]
Combo1 : 0,176,176
Combo2 : 128,0,128
Combo3 : 0,81,179
Combo4 : 128,128,128

[HitObjects]
70,193,587,6,0,L|189:200,1,95
269,164,880,6,0,P|280:109|281:85,2,71.2500027179719,0|0|0,1:0|0:0|0:0,0:0:0:0:
251,273,1319,2,0,P|284:312|393:304,1,142.500005435944,2|0,0:0|0:0,0:0:0:0:
482,195,1758,1,2,0:0:0:0:
370,212,1904,1,0,0:0:0:0:
492,72,2050,6,0,L|419:62,1,71.2500027179719,2|0,0:0|0:0,0:0:0:0:
313,32,2343,1,0,0:0:0:0:
157,181,2489,2,0,B|207:199|207:199|302:187,1,142.500005435944,2|0,0:0|0:0,0:0:0:0:
138,86,2928,1,2,0:0:0:0:
19,140,3075,1,0,0:0:0:0:
180,286,3221,6,0,P|219:296|249:308,1,71.2500027179719,2|0,0:0|0:0,0:0:0:0:
69,213,3514,1,0,0:0:0:0:
281,215,3660,2,0,L|296:367,1,142.500005435944,2|0,0:0|0:0,0:0:0:0:
424,152,4099,1,2,0:0:0:0:
389,258,4245,1,0,0:0:0:0:
206,37,4392,6,0,P|215:83|220:121,1,71.2500027179719,2|0,0:0|0:0,0:0:0:0:
170,202,4684,1,0,0:0:0:0:
424,66,4831,2,0,B|326:47|326:47|274:68,1,142.500005435944,2|0,0:0|0:0,0:0:0:0:
327,279,5270,6,0,L|396:284,1,56.9999982604981,8|0,0:0|0:0,0:0:0:0:
481,228,5416,1,0,1:0:0:0:
481,228,5489,1,0,0:0:0:0:
481,228,5562,6,0,L|491:312,2,71.2500027179719,2|0|0,0:0|0:0|0:0,0:0:0:0:
286,200,6001,2,0,P|252:239|263:339,1,142.500005435944,2|0,0:0|0:0,0:0:0:0:
402,178,6440,1,2,0:0:0:0:
424,66,6587,1,0,0:0:0:0:
236,121,6733,6,0,P|282:129|317:129,1,71.2500027179719,2|0,0:0|0:0,0:0:0:0:
320,15,7026,1,0,0:0:0:0:
375,202,7172,2,0,P|331:210|221:215,1,142.500005435944,2|0,0:0|0:0,0:0:0:0:
55,216,7611,1,2,0:0:0:0:
144,316,7758,1,0,0:0:0:0:
134,52,7904,6,0,P|142:93|148:133,1,71.2500027179719,2|0,0:0|0:0,0:0:0:0:
224,298,8197,1,0,0:0:0:0:
41,131,8343,2,0,P|93:145|179:194,1,142.500005435944,2|0,0:0|0:0,0:0:0:0:
286,352,8782,1,2,0:0:0:0:
398,190,8928,1,0,0:0:0:0:
158,259,9075,5,2,0:0:0:0:
354,290,9221,1,0,1:0:0:0:
354,290,9294,1,0,0:0:0:0:
354,290,9367,2,0,L|438:295,1,56.9999982604981,8|0,0:0|0:0,0:0:0:0:
255,202,9514,2,0,L|316:192,1,56.9999982604981,0|0,1:0|0:0,0:0:0:0:
445,98,9660,1,0,1:0:0:0:
458,135,9733,1,8,0:0:0:0:
469,173,9806,2,0,L|456:237,1,56.9999982604981,0|0,1:0|0:0,0:0:0:0:
271,326,9953,5,8,0:0:0:0:
237,304,10026,1,0,1:0:0:0:
197,297,10099,1,0,1:0:0:0:
157,304,10172,1,8,0:0:0:0:
124,324,10245,6,0,P|131:266|135:216,1,95,4|0,1:0|0:0,0:0:0:0:
51,183,10465,1,0,0:0:0:0:
51,183,10538,2,0,L|1:193,2,47.5,8|0|0,0:0|0:0|0:0,0:0:0:0:
292,257,10831,2,0,P|289:189|284:147,1,95,0|0,1:0|0:0,0:0:0:0:
366,120,11050,1,0,0:0:0:0:
366,120,11123,2,0,L|361:178,2,47.5,8|0|0,0:0|0:0|0:0,0:0:0:0:
145,96,11416,6,0,P|203:102|244:103,1,95,0|0,1:0|0:0,0:0:0:0:
316,22,11636,1,0,0:0:0:0:
316,22,11709,2,0,L|262:34,2,47.5,8|0|0,0:0|0:0|0:0,0:0:0:0:
478,239,12001,2,0,P|429:232|371:218,1,95,0|0,1:0|0:0,0:0:0:0:
455,321,12221,1,0,0:0:0:0:
455,321,12294,2,0,L|462:375,2,47.5,8|0|0,0:0|0:0|0:0,0:0:0:0:
294,310,12514,5,8,0:0:0:0:
227,342,12587,2,0,P|172:358|113:357,1,95,0|0,1:0|0:0,0:0:0:0:
76,314,12806,1,0,0:0:0:0:
77,295,12879,1,8,0:0:0:0:
78,275,12953,1,0,0:0:0:0:
79,256,13026,1,0,0:0:0:0:
175,74,13172,2,0,P|169:126|161:177,1,95,0|0,1:0|0:0,0:0:0:0:
185,238,13392,1,0,0:0:0:0:
202,246,13465,1,8,0:0:0:0:
220,249,13538,1,0,0:0:0:0:
238,249,13611,1,0,0:0:0:0:
448,127,13758,6,0,P|403:137|338:169,1,95,0|0,1:0|0:0,0:0:0:0:
335,226,13977,1,0,0:0:0:0:
337,245,14050,1,8,0:0:0:0:
339,263,14123,1,0,0:0:0:0:
342,281,14197,1,0,0:0:0:0:
122,295,14343,2,0,L|126:241,1,47.5,0|8,1:0|0:0,0:0:0:0:
131,160,14489,1,0,1:0:0:0:
223,292,14636,5,8,0:0:0:0:
244,260,14709,1,0,1:0:0:0:
254,223,14782,1,0,1:0:0:0:
246,185,14855,1,8,0:0:0:0:
228,151,14928,5,0,1:0:0:0:
47,219,15075,1,0,1:0:0:0:
334,252,15221,1,8,0:0:0:0:
179,81,15367,1,0,1:0:0:0:
207,79,15440,1,8,0:0:0:0:
235,77,15514,5,0,1:0:0:0:
416,145,15661,1,0,1:0:0:0:
129,178,15807,1,8,0:0:0:0:
378,59,15953,1,0,1:0:0:0:
378,59,16026,1,8,0:0:0:0:
378,59,16099,1,0,1:0:0:0:
385,227,16245,2,0,L|390:259,2,23.75
302,108,16392,1,0,1:0:0:0:
309,276,16538,2,0,L|314:308,2,23.75
219,162,16684,5,0,1:0:0:0:
192,150,16758,1,0,1:0:0:0:
163,148,16831,1,0,1:0:0:0:
136,157,16904,1,0,1:0:0:0:
114,175,16977,5,0,1:0:0:0:
87,187,17051,1,0,1:0:0:0:
58,189,17124,1,0,1:0:0:0:
31,180,17197,1,0,1:0:0:0:
256,192,17270,12,0,19465,0:0:0:0:
180,240,19611,6,0,B|110:236|110:236|78:249,1,95,4|0,1:0|0:0,0:0:0:0:
213,329,19904,1,0,1:0:0:0:
25,296,20050,1,0,0:0:0:0:
224,155,20197,1,0,1:0:0:0:
36,188,20343,1,0,0:0:0:0:
278,257,20489,2,0,B|326:263|326:263|374:248,1,95,0|0,1:0|0:0,0:0:0:0:
353,33,20782,5,0,1:0:0:0:
320,174,20928,1,0,0:0:0:0:
510,77,21075,1,0,1:0:0:0:
369,110,21221,1,0,0:0:0:0:
481,274,21367,1,0,1:0:0:0:
448,133,21513,1,0,0:0:0:0:
322,250,21660,2,0,B|311:298|311:298|324:344,1,95,0|0,1:0|0:0,0:0:0:0:
207,131,21953,5,0,1:0:0:0:
188,303,22099,1,0,0:0:0:0:
138,66,22245,1,0,1:0:0:0:
119,238,22391,1,0,0:0:0:0:
284,174,22538,2,0,L|391:168,1,95,0|0,1:0|0:0,0:0:0:0:
481,26,22831,2,0,B|434:32|434:32|395:67,1,95,0|0,1:0|0:0,0:0:0:0:
349,333,23123,5,0,1:0:0:0:
448,133,23270,1,0,0:0:0:0:
254,284,23416,1,0,1:0:0:0:
418,252,23562,1,0,0:0:0:0:
284,174,23709,2,0,L|177:180,1,95,0|0,1:0|0:0,0:0:0:0:
46,191,24001,1,0,0:0:0:0:
46,191,24148,1,0,0:0:0:0:
159,76,24294,5,0,1:0:0:0:
135,283,24440,1,0,0:0:0:0:
284,174,24587,2,0,L|278:67,1,95,0|0,1:0|0:0,0:0:0:0:
254,284,24879,1,0,1:0:0:0:
448,133,25026,1,0,0:0:0:0:
191,160,25172,2,0,L|194:207,1,47.5,0|0,1:0|0:0,0:0:0:0:
379,259,25319,2,0,L|375:211,1,47.5,0|0,1:0|0:0,0:0:0:0:
327,31,25465,6,0,L|214:28,1,95,0|0,1:0|0:0,0:0:0:0:
72,159,25758,1,0,1:0:0:0:
194,207,25904,1,0,0:0:0:0:
118,54,26050,1,0,1:0:0:0:
102,275,26197,1,0,0:0:0:0:
102,275,26270,1,0,0:0:0:0:
102,275,26343,2,0,B|131:291|131:291|202:295,1,95,0|0,1:0|1:0,0:0:0:0:
448,133,26636,5,4,1:2:0:0:
228,117,26782,1,4,1:2:0:0:
355,53,26928,2,0,L|431:50,2,75.9999976806641,8|0|0,0:0|0:0|0:0,0:0:0:0:
395,253,27221,5,4,1:2:0:0:
175,237,27367,1,4,1:2:0:0:
302,173,27513,2,0,L|378:170,2,75.9999976806641,8|0|0,0:0|0:0|0:0,0:0:0:0:
286,331,27806,6,0,P|219:368|144:340,1,151.999995361328,0|0,1:0|1:0,0:0:0:0:
3,200,28099,2,0,P|76:201|127:255,1,151.999995361328,0|0,1:0|1:0,0:0:0:0:
39,288,28392,5,0,1:0:0:0:
41,212,28489,1,0,1:0:0:0:
44,135,28587,1,0,1:0:0:0:
47,59,28684,2,0,B|40:28,7,28.4999991302491
114,98,28977,6,0,P|119:138|121:198,1,95,4|0,1:0|0:0,0:0:0:0:
94,311,29197,1,0,0:0:0:0:
94,311,29270,2,0,P|151:302|199:299,1,95,8|0,1:0|0:0,0:0:0:0:
389,348,29562,1,0,1:0:0:0:
258,187,29709,1,0,0:0:0:0:
262,224,29782,1,0,0:0:0:0:
266,261,29855,2,0,B|270:310|270:310|251:361,1,95,8|0,1:0|0:0,0:0:0:0:
465,233,30148,6,0,P|403:237|366:252,1,95,0|0,1:0|0:0,0:0:0:0:
137,205,30440,1,8,1:0:0:0:
156,207,30514,1,0,0:0:0:0:
174,209,30587,1,0,0:0:0:0:
192,211,30660,1,0,0:0:0:0:
208,201,30733,1,0,1:0:0:0:
68,115,30879,1,0,0:0:0:0:
268,130,31026,1,8,1:0:0:0:
94,311,31172,1,0,0:0:0:0:
170,131,31319,6,0,L|165:34,1,95,0|0,1:0|0:0,0:0:0:0:
272,134,31538,1,0,0:0:0:0:
272,134,31611,2,0,P|325:144|379:149,1,95,8|0,1:0|0:0,0:0:0:0:
489,62,31904,1,0,1:0:0:0:
320,225,32050,1,0,0:0:0:0:
322,253,32123,1,0,0:0:0:0:
325,281,32197,2,0,B|280:298|280:298|208:285,1,95,8|0,1:0|0:0,0:0:0:0:
19,226,32489,6,0,P|76:218|120:217,1,95,0|0,1:0|0:0,0:0:0:0:
268,98,32782,1,8,1:0:0:0:
270,116,32855,1,0,0:0:0:0:
272,134,32928,1,0,0:0:0:0:
266,152,33001,1,0,0:0:0:0:
260,170,33075,1,0,1:0:0:0:
171,124,33221,1,0,0:0:0:0:
285,14,33367,5,0,1:0:0:0:
322,17,33440,1,0,1:0:0:0:
360,20,33514,1,0,1:0:0:0:
397,23,33587,1,0,1:0:0:0:
434,28,33660,6,0,L|444:135,1,95,4|0,1:0|0:0,0:0:0:0:
361,227,33879,1,0,0:0:0:0:
361,227,33953,2,0,P|405:250|458:255,1,95,8|0,1:0|0:0,0:0:0:0:
334,97,34245,1,0,1:0:0:0:
232,239,34392,1,0,0:0:0:0:
228,267,34465,1,0,0:0:0:0:
224,295,34538,2,0,B|229:349,1,47.5,8|0,1:0|0:0,0:0:0:0:
101,237,34684,2,0,B|96:291,1,47.5,0|0,1:0|0:0,0:0:0:0:
36,131,34831,6,0,P|20:74|12:17,1,95,4|0,1:0|0:0,0:0:0:0:
325,155,35123,2,0,L|276:143,1,47.5,8|0,1:0|0:0,0:0:0:0:
120,201,35270,2,0,L|169:189,1,47.5,0|0,1:0|0:0,0:0:0:0:
341,66,35416,5,4,1:2:0:0:
379,286,35562,1,0,0:0:0:0:
379,286,35635,1,4,1:2:0:0:
379,286,35709,1,0,0:0:0:0:
169,208,35855,1,4,1:2:0:0:
444,147,36001,5,4,1:0:0:0:
459,340,36148,1,0,1:0:0:0:
296,174,36294,1,8,0:0:0:0:
314,169,36367,1,0,1:0:0:0:
332,169,36440,1,0,1:0:0:0:
350,175,36514,1,0,0:0:0:0:
363,188,36587,1,0,1:0:0:0:
170,339,36733,2,0,L|175:283,1,47.5,0|0,1:0|1:0,0:0:0:0:
220,143,36879,1,8,0:0:0:0:
218,123,36953,1,0,1:0:0:0:
216,104,37026,1,0,1:0:0:0:
214,85,37099,1,0,0:0:0:0:
212,66,37172,6,0,L|157:71,1,47.5,8|0,0:0|0:0,0:0:0:0:
50,81,37319,1,0,1:0:0:0:
318,197,37465,6,0,L|263:192,1,47.5,8|0,0:0|0:0,0:0:0:0:
156,182,37612,1,0,1:0:0:0:
490,78,37758,6,0,L|435:83,1,47.5,8|0,0:0|0:0,0:0:0:0:
328,93,37905,1,0,1:0:0:0:
260,315,38050,5,8,0:0:0:0:
302,335,38123,1,8,0:0:0:0:
349,337,38197,1,8,0:0:0:0:
389,311,38270,1,8,0:0:0:0:
408,267,38343,6,0,L|398:149,1,95,4|0,1:0|0:0,0:0:0:0:
175,316,38636,2,0,L|185:198,1,95,8|0,0:0|0:0,0:0:0:0:
140,163,38855,1,0,0:0:0:0:
140,163,38928,2,0,P|93:170|40:184,1,95,0|0,1:0|0:0,0:0:0:0:
13,258,39148,1,0,1:0:0:0:
13,258,39221,1,8,0:0:0:0:
115,49,39367,1,0,1:0:0:0:
273,220,39514,6,0,L|259:321,1,95,0|0,1:0|0:0,0:0:0:0:
414,167,39806,1,8,1:0:0:0:
381,132,39879,1,0,1:0:0:0:
334,118,39953,1,0,1:0:0:0:
287,125,40026,1,0,1:0:0:0:
245,148,40099,1,0,1:0:0:0:
207,365,40245,1,0,1:0:0:0:
108,253,40392,6,0,P|149:240|200:275,1,106.875004076958
139,326,40684,6,0,L|40:330,1,95,0|0,1:0|0:0,0:0:0:0:
247,208,40977,1,8,0:0:0:0:
267,228,41050,1,0,0:0:0:0:
278,254,41123,1,0,0:0:0:0:
280,282,41197,1,0,0:0:0:0:
272,310,41270,2,0,L|373:332,1,95,0|0,1:0|0:0,0:0:0:0:
453,319,41489,1,0,1:0:0:0:
453,319,41562,1,8,0:0:0:0:
324,80,41709,1,0,1:0:0:0:
353,243,41855,6,0,L|379:245,6,23.75,0|0|0|0|0|0|0,1:0|0:0|0:0|0:0|0:0|0:0|0:0,0:0:0:0:
277,196,42148,1,2,0:1:0:0:
267,242,42221,1,2,0:1:0:0:
247,208,42294,1,2,0:1:0:0:
239,250,42367,1,2,0:1:0:0:
210,222,42440,6,0,B|169:229|147:198|147:198|168:280|113:316|64:299|53:258,1,249.375009512902,8|0,0:0|0:0,0:0:0:0:
14,193,43026,6,0,P|24:153|29:95,1,95,0|0,1:0|0:0,0:0:0:0:
225,315,43319,2,0,P|215:275|210:217,1,95,8|0,0:0|0:0,0:0:0:0:
243,137,43538,1,0,0:0:0:0:
243,137,43611,2,0,L|362:142,1,95,0|0,1:0|0:0,0:0:0:0:
425,101,43831,1,0,1:0:0:0:
425,101,43904,1,8,0:0:0:0:
187,57,44050,2,0,L|139:66,1,47.5,0|0,1:0|0:0,0:0:0:0:
349,241,44197,5,0,1:0:0:0:
314,53,44343,1,0,1:0:0:0:
172,184,44489,1,8,1:0:0:0:
143,180,44562,1,0,1:0:0:0:
114,177,44636,1,0,1:0:0:0:
85,174,44709,1,0,1:0:0:0:
56,171,44782,6,0,L|51:122,1,47.5
110,278,44928,2,0,L|105:327,1,47.5
233,238,45075,1,0,0:0:0:0:
269,250,45148,1,0,0:0:0:0:
269,288,45221,1,0,0:0:0:0:
233,299,45294,1,0,0:0:0:0:
210,269,45367,6,0,B|200:247|200:247|203:156,1,95,0|0,1:0|0:0,0:0:0:0:
453,99,45660,1,8,0:0:0:0:
435,121,45733,1,0,0:0:0:0:
409,132,45806,1,0,0:0:0:0:
380,132,45879,1,0,0:0:0:0:
353,120,45953,2,0,B|306:103|306:103|245:116,1,95,0|0,1:0|0:0,0:0:0:0:
180,149,46172,1,0,1:0:0:0:
180,149,46245,1,8,0:0:0:0:
351,267,46392,1,0,1:0:0:0:
393,50,46538,6,0,L|397:20,1,23.75,0|0,1:0|0:0,0:0:0:0:
238,218,46758,6,0,L|275:223,1,23.75,0|0,1:0|0:0,0:0:0:0:
492,340,46977,6,0,L|455:345,1,23.75,0|0,1:0|0:0,0:0:0:0:
418,149,47197,6,0,L|413:186,1,23.75,0|0,1:0|0:0,0:0:0:0:
248,341,47416,5,0,1:0:0:0:
210,343,47489,1,0,1:0:0:0:
172,345,47562,1,0,1:0:0:0:
133,347,47636,1,0,1:0:0:0:
95,349,47709,5,4,1:0:0:0:
43,121,47855,1,0,0:0:0:0:
163,233,48001,2,0,L|89:232,1,47.5,8|0,0:0|0:0,0:0:0:0:
16,351,48148,2,0,L|90:350,1,47.5,0|0,1:0|0:0,0:0:0:0:
224,285,48294,2,0,P|237:196|200:158,1,142.5,0|0,1:0|1:0,0:0:0:0:
205,161,48587,1,8,0:0:0:0:
133,347,48733,1,0,1:0:0:0:
311,182,48879,5,0,1:0:0:0:
355,332,49026,1,0,1:0:0:0:
163,233,49172,1,8,1:0:0:0:
159,195,49245,1,0,1:0:0:0:
154,156,49319,1,0,1:0:0:0:
150,118,49392,1,0,1:0:0:0:
146,80,49465,1,0,1:0:0:0:
74,289,49611,1,0,1:0:0:0:
74,289,49684,1,0,0:0:0:0:
74,289,49758,1,8,0:0:0:0:
238,137,49904,1,0,1:0:0:0:
13,146,50050,6,0,L|118:154,1,95,0|0,1:0|0:0,0:0:0:0:
400,85,50343,2,0,L|381:135,1,47.5,8|0,0:0|0:0,0:0:0:0:
351,299,50489,2,0,L|317:257,1,47.5,0|0,1:0|0:0,0:0:0:0:
214,105,50636,2,0,P|280:118|309:196,1,142.5,0|0,1:0|1:0,0:0:0:0:
310,181,50928,1,8,0:0:0:0:
154,156,51075,1,0,1:0:0:0:
340,23,51221,5,8,0:0:0:0:
342,41,51294,1,0,0:0:0:0:
344,59,51367,1,0,1:0:0:0:
441,241,51514,1,8,0:0:0:0:
439,223,51587,1,0,0:0:0:0:
437,205,51660,1,0,1:0:0:0:
242,70,51806,1,8,0:0:0:0:
244,88,51879,1,0,0:0:0:0:
246,106,51952,1,0,1:0:0:0:
343,288,52099,1,8,0:0:0:0:
341,270,52172,1,0,0:0:0:0:
339,252,52245,1,0,0:0:0:0:
337,234,52319,1,0,0:0:0:0:
335,216,52392,6,0,L|339:132,2,63.3333333333333
235,185,52684,6,0,L|188:194,1,47.5,12|0,1:0|0:0,0:0:0:0:
437,205,52831,2,0,L|484:196,1,47.5,0|0,1:0|0:0,0:0:0:0:
141,127,52977,2,0,P|113:213|144:263,1,142.5,0|0,1:0|1:0,0:0:0:0:
221,358,53270,2,0,P|229:303|204:262,1,95,8|0,0:0|1:0,0:0:0:0:
84,315,53489,1,0,0:0:0:0:
84,315,53562,2,0,L|77:366,1,47.5,0|0,1:0|0:0,0:0:0:0:
18,181,53709,2,0,L|25:232,1,47.5,0|0,1:0|0:0,0:0:0:0:
99,56,53855,1,8,1:0:0:0:
135,44,53928,1,0,1:0:0:0:
172,47,54001,1,0,1:0:0:0:
202,70,54075,1,0,1:0:0:0:
221,102,54148,5,0,1:0:0:0:
192,335,54294,1,0,1:0:0:0:
125,259,54440,2,0,L|132:148,1,106.875004076958
244,197,54733,6,0,P|231:217|188:219,1,47.5,8|0,0:0|0:0,0:0:0:0:
46,161,54879,1,0,0:0:0:0:
46,161,54953,1,0,1:0:0:0:
46,161,55026,2,0,L|42:95,1,47.5,8|0,0:0|0:0,0:0:0:0:
126,292,55172,2,0,L|130:358,1,47.5,0|0,1:0|0:0,0:0:0:0:
292,270,55319,2,0,P|260:262|232:273,1,47.5,8|0,0:0|0:0,0:0:0:0:
141,150,55465,1,0,0:0:0:0:
141,150,55538,1,0,1:0:0:0:
141,150,55611,2,0,L|258:155,1,95,8|0,0:0|1:0,0:0:0:0:
322,54,55904,5,8,0:0:0:0:
366,252,56050,1,0,0:0:0:0:
171,79,56197,1,8,0:0:0:0:
369,123,56343,1,0,0:0:0:0:
224,276,56489,1,0,0:0:0:0:
197,285,56562,1,0,0:0:0:0:
168,287,56635,1,0,0:0:0:0:
140,284,56708,1,0,0:0:0:0:
113,277,56781,1,0,0:0:0:0:
85,271,56854,1,0,0:0:0:0:
56,268,56928,1,0,0:0:0:0:
28,272,57001,1,0,0:0:0:0:
1,280,57074,5,0,1:0:0:0:
208,72,58245,6,0,L|264:78,3,47.5,2|0|0|0,0:2|0:0|0:0|0:0,0:0:0:0:
317,142,58538,2,0,L|373:148,3,47.5,2|0|0|0,0:2|0:0|0:0|0:0,0:0:0:0:
440,102,58830,1,2,0:2:0:0:
452,127,58903,1,0,0:0:0:0:
456,155,58976,1,0,0:0:0:0:
449,182,59049,1,0,0:0:0:0:
430,204,59123,2,0,L|440:259,3,47.5,2|0|0|0,0:2|0:0|0:0|0:0,0:0:0:0:
401,332,59416,5,2,0:2:0:0:
375,319,59489,1,0,0:0:0:0:
347,311,59562,1,0,0:0:0:0:
318,308,59636,1,0,0:0:0:0:
289,312,59709,1,2,0:2:0:0:
277,285,59782,1,0,0:0:0:0:
275,256,59855,1,0,0:0:0:0:
281,228,59928,1,0,0:0:0:0:
295,203,60001,6,0,L|290:147,3,47.5,2|0|0|0,0:2|0:0|0:0|0:0,0:0:0:0:
329,75,60294,2,0,L|324:19,1,47.5,2|0,0:2|0:0,0:0:0:0:
195,107,60440,2,0,L|200:51,1,47.5
71,32,60587,5,2,0:2:0:0:
43,57,60659,1,0,0:0:0:0:
33,93,60732,1,0,0:0:0:0:
37,130,60805,1,0,0:0:0:0:
58,161,60878,1,2,0:2:0:0:
83,188,60951,1,0,0:0:0:0:
92,224,61023,1,0,0:0:0:0:
86,261,61096,1,0,0:0:0:0:
64,292,61169,6,0,L|8:302,1,47.5,2|0,0:2|0:0,0:0:0:0:
181,179,61315,2,0,L|237:189,1,47.5
415,265,61460,1,10,0:2:0:0:
370,301,61533,1,0,0:0:0:0:
325,337,61606,1,0,0:0:0:0:
270,321,61679,1,0,0:0:0:0:
215,305,61752,6,0,B|163:300|163:300|115:336,1,104.500003189087,0|0,1:0|0:0,0:0:0:0:
283,109,62043,1,8,1:0:0:0:
309,247,62188,1,0,0:0:0:0:
153,34,62334,2,0,B|121:75|121:75|126:127,1,104.500003189087,0|0,1:0|0:0,0:0:0:0:
366,175,62625,1,8,1:0:0:0:
242,31,62771,1,0,0:0:0:0:
56,197,62917,6,0,B|97:228|97:228|149:223,1,104.500003189087,0|0,1:0|0:0,0:0:0:0:
335,114,63208,2,0,B|283:109|283:109|241:140,1,104.500003189087,8|0,1:0|0:0,0:0:0:0:
139,294,63499,1,0,1:0:0:0:
121,331,63571,1,0,0:0:0:0:
103,368,63644,1,0,0:0:0:0:
143,354,63717,1,0,0:0:0:0:
183,339,63790,1,8,1:0:0:0:
425,214,63936,1,0,0:0:0:0:
173,203,64082,6,0,B|98:200|98:200|68:218,1,104.500003189087,0|0,1:0|0:0,0:0:0:0:
335,114,64373,2,0,B|260:117|260:117|230:99,1,104.500003189087,8|0,1:0|0:0,0:0:0:0:
465,70,64664,1,0,1:0:0:0:
330,214,64810,1,0,0:0:0:0:
380,42,64955,2,0,L|318:39,1,52.2500015945435,8|0,1:0|0:0,0:0:0:0:
245,186,65101,2,0,L|183:183,1,52.2500015945435
54,88,65247,5,0,1:0:0:0:
233,82,65392,1,0,0:0:0:0:
233,82,65465,1,0,0:0:0:0:
233,82,65538,2,0,L|245:193,1,104.500003189087,8|0,1:0|0:0,0:0:0:0:
61,350,65829,1,0,1:0:0:0:
55,171,65974,1,0,0:0:0:0:
55,171,66047,1,0,0:0:0:0:
55,171,66120,1,8,1:0:0:0:
206,171,66266,1,0,1:0:0:0:
283,298,66412,5,0,1:0:0:0:
255,329,66485,1,0,1:0:0:0:
217,312,66557,1,0,1:0:0:0:
189,343,66630,1,0,1:0:0:0:
151,326,66703,1,8,1:0:0:0:
297,159,66849,1,0,0:0:0:0:
376,365,66994,1,0,1:0:0:0:
172,243,67140,2,0,L|175:187,1,52.2500015945435
218,97,67286,1,8,1:0:0:0:
283,298,67431,1,0,1:0:0:0:
96,210,67577,5,0,1:0:0:0:
65,182,67650,1,0,1:0:0:0:
82,144,67722,1,0,1:0:0:0:
51,116,67795,1,0,1:0:0:0:
68,78,67868,1,8,1:0:0:0:
297,159,68014,1,0,1:0:0:0:
150,48,68159,1,0,1:0:0:0:
247,256,68305,2,0,L|238:189,1,52.2500015945435
253,19,68451,1,8,1:0:0:0:
172,243,68596,1,0,1:0:0:0:
333,70,68742,6,0,L|451:73,1,104.500003189087,0|0,1:0|0:0,0:0:0:0:
479,144,68960,1,0,1:0:0:0:
479,144,69033,2,0,L|468:210,1,52.2500015945435,8|0,0:0|0:0,0:0:0:0:
380,330,69179,2,0,L|369:264,1,52.2500015945435,0|0,1:0|0:0,0:0:0:0:
164,106,69324,6,0,L|282:109,1,104.500003189087,0|0,1:0|0:0,0:0:0:0:
310,180,69542,1,0,1:0:0:0:
310,180,69615,2,0,L|299:246,1,52.2500015945435,8|0,0:0|0:0,0:0:0:0:
211,366,69761,2,0,L|200:300,1,52.2500015945435,0|0,1:0|0:0,0:0:0:0:
19,206,69907,6,0,P|78:179|125:174,1,104.500003189087,0|0,1:0|0:0,0:0:0:0:
201,188,70125,1,0,1:0:0:0:
201,188,70198,2,0,L|190:253,1,52.2500015945435,8|0,1:0|0:0,0:0:0:0:
117,303,70344,2,0,L|128:368,1,52.2500015945435,0|0,1:0|0:0,0:0:0:0:
310,317,70489,5,8,1:0:0:0:
337,285,70562,1,0,0:0:0:0:
350,245,70635,1,0,1:0:0:0:
341,204,70708,1,0,0:0:0:0:
315,170,70781,5,8,1:0:0:0:
303,130,70853,1,0,1:0:0:0:
308,88,70926,1,8,1:0:0:0:
335,56,70999,1,0,1:0:0:0:
369,81,71072,6,0,B|417:102|417:102|477:85,1,104.500003189087,4|0,1:0|0:0,0:0:0:0:
244,17,71363,1,8,1:0:0:0:
201,188,71509,1,0,0:0:0:0:
30,82,71654,2,0,B|78:61|78:61|138:78,1,104.500003189087,0|0,1:0|0:0,0:0:0:0:
220,284,71946,1,8,1:0:0:0:
85,154,72091,1,0,0:0:0:0:
305,241,72237,6,0,B|319:291|319:291|298:339,1,104.500003189087,0|0,1:0|0:0,0:0:0:0:
32,223,72528,2,0,B|17:273|17:273|38:321,1,104.500003189087,8|0,1:0|0:0,0:0:0:0:
281,155,72820,1,0,1:0:0:0:
300,118,72892,1,0,0:0:0:0:
319,81,72965,1,0,0:0:0:0:
277,88,73038,1,0,0:0:0:0:
235,96,73111,1,8,1:0:0:0:
145,268,73256,1,0,0:0:0:0:
366,179,73402,6,0,B|444:187|444:187|477:173,1,104.500003189087,0|0,1:0|0:0,0:0:0:0:
196,327,73693,2,0,B|274:319|274:319|307:333,1,104.500003189087,8|0,1:0|0:0,0:0:0:0:
124,170,73985,1,0,1:0:0:0:
89,359,74130,1,0,0:0:0:0:
183,108,74276,2,0,L|206:160,1,52.2500015945435,8|0,1:0|0:0,0:0:0:0:
10,348,74421,2,0,L|33:296,1,52.2500015945435
136,44,74567,6,0,P|197:32|241:57,1,104.500003189087,0|0,1:0|0:0,0:0:0:0:
376,340,74858,2,0,P|315:352|271:327,1,104.500003189087,8|0,1:0|0:0,0:0:0:0:
124,170,75150,1,8,1:0:0:0:
283,123,75295,1,0,0:0:0:0:
199,313,75441,1,8,1:0:0:0:
167,309,75514,1,0,0:0:0:0:
135,305,75587,1,0,1:0:0:0:
104,301,75659,1,0,0:0:0:0:
72,297,75732,5,4,1:0:0:0:
97,251,75804,1,0,1:0:0:0:
103,200,75877,1,0,1:0:0:0:
87,150,75950,1,0,1:0:0:0:
53,111,76023,1,8,1:0:0:0:
256,168,76169,1,0,1:0:0:0:
206,28,76315,2,0,L|197:89,1,52.2500015945435,0|0,1:0|0:0,0:0:0:0:
347,74,76460,2,0,L|356:135,1,52.2500015945435,0|0,1:0|0:0,0:0:0:0:
249,309,76606,1,8,1:0:0:0:
249,309,76679,1,0,0:0:0:0:
249,309,76752,1,0,1:0:0:0:
162,186,76897,5,0,1:0:0:0:
207,160,76969,1,0,1:0:0:0:
258,154,77042,1,0,1:0:0:0:
308,170,77115,1,0,1:0:0:0:
347,204,77188,1,8,1:0:0:0:
134,352,77334,1,0,1:0:0:0:
30,202,77480,2,0,L|33:147,1,52.2500015945435,0|0,1:0|0:0,0:0:0:0:
171,99,77625,2,0,L|168:44,1,52.2500015945435,0|0,1:0|0:0,0:0:0:0:
314,76,77771,1,8,1:0:0:0:
345,79,77844,1,0,0:0:0:0:
376,82,77917,1,0,1:0:0:0:
406,85,77989,1,0,0:0:0:0:
437,88,78062,6,0,L|448:197,1,104.500003189087,4|0,1:2|0:0,0:0:0:0:
395,281,78281,1,0,1:0:0:0:
395,281,78353,2,0,L|462:303,1,52.2500015945435,8|0,0:0|0:0,0:0:0:0:
232,255,78499,2,0,L|299:233,1,52.2500015945435,0|0,1:0|0:0,0:0:0:0:
323,45,78645,6,0,L|334:154,1,104.500003189087,4|0,1:2|0:0,0:0:0:0:
281,238,78864,1,0,1:0:0:0:
281,238,78936,2,0,L|348:260,1,52.2500015945435,8|0,0:0|0:0,0:0:0:0:
118,212,79082,2,0,L|185:190,1,52.2500015945435,0|0,1:0|0:0,0:0:0:0:
179,28,79227,6,0,B|205:74|205:74|192:132,1,104.500003189087,12|0,1:2|0:0,0:0:0:0:
152,340,79519,2,0,B|179:295|179:295|236:277,1,104.500003189087,12|0,1:2|0:0,0:0:0:0:
436,207,79810,2,0,B|383:206|383:206|339:166,1,104.500003189087,12|0,1:2|0:0,0:0:0:0:
496,49,80101,1,0,1:0:0:0:
492,101,80174,1,0,1:0:0:0:
489,153,80247,1,0,1:0:0:0:
486,205,80320,1,0,1:0:0:0:
483,256,80392,5,4,1:0:0:0:
463,248,80465,1,0,0:0:0:0:
442,245,80538,1,0,0:0:0:0:
421,244,80611,1,0,0:0:0:0:
400,246,80684,1,8,0:0:0:0:
380,252,80756,1,0,0:0:0:0:
360,260,80829,1,0,0:0:0:0:
339,263,80902,1,0,0:0:0:0:
318,264,80975,6,0,P|270:241|212:232,1,104.500003189087,0|0,1:0|0:0,0:0:0:0:
145,202,81193,1,0,0:0:0:0:
145,202,81266,2,0,L|150:264,1,52.2500015945435,8|0,0:0|0:0,0:0:0:0:
201,359,81412,2,0,L|206:297,1,52.2500015945435
199,131,81557,6,0,P|143:113|87:129,1,104.500003189087,0|0,1:0|0:0,0:0:0:0:
18,146,81776,1,0,0:0:0:0:
18,146,81849,2,0,L|23:208,1,52.2500015945435,8|0,0:0|0:0,0:0:0:0:
74,303,81995,2,0,L|79:241,1,52.2500015945435
63,36,82140,5,0,1:0:0:0:
291,161,82286,1,0,0:0:0:0:
86,106,82431,1,8,0:0:0:0:
267,90,82577,1,0,0:0:0:0:
155,260,82722,5,0,1:0:0:0:
172,272,82795,1,0,0:0:0:0:
191,279,82868,1,0,0:0:0:0:
211,282,82941,1,0,0:0:0:0:
243,311,83014,1,8,0:0:0:0:
260,299,83087,1,0,0:0:0:0:
279,292,83160,1,0,0:0:0:0:
299,289,83233,1,0,0:0:0:0:
331,260,83305,6,0,L|341:137,1,104.500003189087,0|0,1:0|0:0,0:0:0:0:
433,144,83523,1,0,0:0:0:0:
433,144,83596,2,0,L|422:64,1,52.2500015945435,8|0,0:0|0:0,0:0:0:0:
274,38,83742,2,0,L|263:118,1,52.2500015945435
124,197,83887,6,0,B|175:209|175:209|228:196,1,104.500003189087,0|0,1:0|0:0,0:0:0:0:
22,101,84179,1,8,0:0:0:0:
199,123,84324,1,0,0:0:0:0:
34,280,84470,2,0,B|84:268|84:268|138:280,1,104.500003189087,0|0,1:0|0:0,0:0:0:0:
325,177,84761,1,8,0:0:0:0:
148,199,84906,1,0,1:0:0:0:
391,321,85053,5,0,1:0:0:0:
417,304,85125,1,0,0:0:0:0:
432,276,85198,1,0,0:0:0:0:
434,244,85271,1,0,0:0:0:0:
424,214,85344,1,8,0:0:0:0:
414,183,85417,1,0,0:0:0:0:
416,151,85490,1,0,0:0:0:0:
431,123,85563,1,0,0:0:0:0:
457,106,85635,6,0,B|490:146|490:146|495:206,1,104.500003189087,0|0,1:0|0:0,0:0:0:0:
354,252,85853,1,0,0:0:0:0:
354,252,85926,2,0,L|284:246,1,52.2500015945435,8|0,1:0|0:0,0:0:0:0:
204,304,86072,2,0,L|134:298,1,52.2500015945435,0|0,1:0|0:0,0:0:0:0:
55,161,86218,6,0,B|107:165|107:165|147:198,1,104.500003189087,0|0,1:0|0:0,0:0:0:0:
68,309,86436,1,0,1:0:0:0:
68,309,86509,2,0,L|74:239,1,52.2500015945435,8|0,0:0|0:0,0:0:0:0:
124,133,86654,2,0,L|130:63,1,52.2500015945435,0|0,1:0|0:0,0:0:0:0:
264,23,86800,6,0,B|259:75|259:75|226:115,1,104.500003189087,0|0,1:0|0:0,0:0:0:0:
194,207,87019,1,0,1:0:0:0:
194,207,87092,2,0,L|200:277,1,52.2500015945435,8|0,0:0|0:0,0:0:0:0:
306,316,87237,2,0,L|312:386,1,52.2500015945435,0|0,1:0|0:0,0:0:0:0:
367,178,87383,6,0,B|262:171|262:171|222:204,1,156.750004783631,0|0,1:0|0:0,0:0:0:0:
79,274,87674,2,0,P|129:291|177:269,1,104.500003189087,8|0,0:0|0:0,0:0:0:0:
429,225,87965,5,0,1:0:0:0:
297,159,88110,1,0,0:0:0:0:
297,159,88183,1,0,0:0:0:0:
297,159,88256,1,8,0:0:0:0:
222,341,88402,1,0,1:0:0:0:
431,193,88548,5,0,1:0:0:0:
434,162,88620,1,0,0:0:0:0:
437,130,88693,1,0,0:0:0:0:
440,98,88766,1,0,0:0:0:0:
443,66,88839,1,8,0:0:0:0:
184,108,88985,1,0,1:0:0:0:
278,244,89130,1,0,1:0:0:0:
313,43,89276,1,0,1:0:0:0:
118,47,89421,1,8,1:0:0:0:
101,73,89494,1,0,1:0:0:0:
94,103,89567,1,0,1:0:0:0:
97,134,89640,1,0,1:0:0:0:
109,163,89713,5,4,1:0:0:0:
325,174,89858,2,0,L|378:168,2,52.2500015945435
77,262,90150,1,4,1:2:0:0:
208,123,90295,1,0,0:0:0:0:
208,123,90368,1,0,0:0:0:0:
208,123,90441,1,0,0:0:0:0:
200,346,90586,5,4,1:0:0:0:
366,243,90732,2,0,L|419:249,2,52.2500015945435
305,59,91023,1,4,1:2:0:0:
252,244,91169,1,0,0:0:0:0:
252,244,91242,1,0,0:0:0:0:
252,244,91315,1,0,0:0:0:0:
401,112,91460,5,4,1:0:0:0:
216,56,91606,1,0,0:0:0:0:
139,231,91752,1,8,0:0:0:0:
141,261,91824,1,0,0:0:0:0:
143,292,91897,1,0,0:0:0:0:
146,323,91970,1,0,0:0:0:0:
173,338,92043,5,4,1:0:0:0:
265,169,92188,2,0,L|257:111,2,52.2500015945435
58,133,92480,1,4,1:2:0:0:
224,282,92625,1,0,0:0:0:0:
224,282,92698,1,0,0:0:0:0:
224,282,92771,1,0,0:0:0:0:
179,70,92917,5,4,1:0:0:0:
38,264,93062,2,0,L|42:321,2,52.2500015945435
265,169,93353,1,4,1:2:0:0:
438,356,93499,1,0,0:0:0:0:
438,356,93572,1,0,0:0:0:0:
438,356,93645,1,0,0:0:0:0:
202,247,93790,5,4,1:0:0:0:
396,251,93936,1,0,0:0:0:0:
163,338,94082,1,8,0:0:0:0:
136,155,94227,1,0,1:0:0:0:
136,155,94300,1,0,0:0:0:0:
136,155,94373,6,0,L|129:94,3,52.2500015945435,8|0|0|0,0:0|0:0|1:0|0:0,0:0:0:0:
203,39,94664,1,8,0:0:0:0:
227,72,94737,1,0,0:0:0:0:
264,90,94810,1,0,1:0:0:0:
305,92,94883,1,0,0:0:0:0:
344,80,94955,2,0,L|412:71,3,52.2500015945435,8|0|0|0,0:0|0:0|1:0|0:0,0:0:0:0:
294,166,95247,1,8,0:0:0:0:
292,207,95320,1,0,0:0:0:0:
291,248,95392,1,0,1:0:0:0:
290,289,95465,1,0,0:0:0:0:
252,306,95538,6,0,L|183:294,3,52.2500015945435,8|0|0|0,0:0|0:0|1:0|0:0,0:0:0:0:
365,231,95829,1,8,0:0:0:0:
405,221,95902,1,0,0:0:0:0:
445,232,95975,1,0,1:0:0:0:
473,264,96048,1,0,0:0:0:0:
475,305,96120,2,0,L|466:360,3,52.2500015945435,8|0|0|0,0:0|0:0|1:0|0:0,0:0:0:0:
380,329,96412,2,0,P|327:325|271:334,1,104.500003189087,8|0,0:0|1:0,0:0:0:0:
74,320,96703,5,8,0:0:0:0:
42,292,96776,1,0,1:0:0:0:
30,251,96849,1,8,0:0:0:0:
33,209,96921,1,0,1:0:0:0:
50,170,96994,1,8,0:0:0:0:
87,150,97067,1,0,1:0:0:0:
128,157,97140,1,8,0:0:0:0:
164,177,97213,1,0,1:0:0:0:
205,181,97286,5,8,1:0:0:0:
241,161,97358,1,0,1:0:0:0:
255,121,97431,1,0,1:0:0:0:
247,79,97504,1,0,1:0:0:0:
214,53,97577,2,0,L|149:62,1,52.2500015945435,0|0,1:0|1:0,0:0:0:0:
327,133,97722,2,0,L|392:142,1,52.2500015945435,0|0,1:0|1:0,0:0:0:0:
256,192,97868,12,0,98960,0:0:0:0:
160,231,99033,6,0,B|218:231|218:231|266:261,1,113.999996520996,4|0,1:0|0:0,0:0:0:0:
91,328,99324,1,8,0:0:0:0:
62,124,99470,1,4,1:0:0:0:
107,128,99543,1,0,0:0:0:0:
152,132,99616,2,0,B|189:140|189:140|274:117,1,113.999996520996,0|8,0:0|0:0,0:0:0:0:
484,78,99907,1,4,1:0:0:0:
450,71,99980,1,0,0:0:0:0:
416,64,100053,1,0,0:0:0:0:
382,57,100125,1,0,0:0:0:0:
348,51,100198,6,0,L|366:175,1,113.999996520996,8|4,0:0|1:0,0:0:0:0:
307,349,100489,2,0,P|280:303|297:218,1,113.999996520996,0|8,0:0|0:0,0:0:0:0:
474,165,100781,1,4,1:0:0:0:
477,209,100853,1,0,0:0:0:0:
461,252,100926,1,8,0:0:0:0:
421,274,100999,1,8,0:0:0:0:
375,279,101072,2,0,L|300:269,1,56.9999982604981,8|8,0:0|0:0,0:0:0:0:
143,196,101218,2,0,L|208:191,1,56.9999982604981,8|8,0:0|0:0,0:0:0:0:
253,58,101363,5,8,1:0:0:0:
288,87,101436,1,0,1:0:0:0:
282,132,101509,1,0,1:0:0:0:
277,177,101582,1,0,1:0:0:0:
272,221,101654,1,8,1:0:0:0:
96,343,101800,1,0,1:0:0:0:
96,343,101873,1,0,0:0:0:0:
96,343,101946,1,0,1:0:0:0:
58,130,102091,1,8,0:0:0:0:
219,331,102237,5,0,1:0:0:0:
264,336,102310,1,0,1:0:0:0:
309,341,102383,1,0,1:0:0:0:
342,310,102455,1,0,1:0:0:0:
375,279,102528,6,0,L|367:158,1,113.999996520996,12|0,0:0|1:0,0:0:0:0:
108,247,102820,1,8,0:0:0:0:
111,201,102892,1,0,0:0:0:0:
114,155,102965,1,0,1:0:0:0:
405,301,103111,2,0,L|397:180,1,113.999996520996,8|0,0:0|1:0,0:0:0:0:
138,269,103403,1,8,0:0:0:0:
141,223,103475,1,0,0:0:0:0:
144,177,103548,1,0,1:0:0:0:
363,38,103693,5,4,1:0:0:0:
407,50,103766,1,0,1:0:0:0:
451,62,103839,1,0,1:0:0:0:
415,91,103912,1,0,1:0:0:0:
380,120,103985,1,8,1:0:0:0:
88,110,104130,1,0,1:0:0:0:
291,19,104276,1,0,1:0:0:0:
53,35,104421,2,0,L|122:30,1,56.9999982604981,8|0,0:0|0:0,0:0:0:0:
269,98,104567,5,0,1:0:0:0:
274,143,104640,1,0,1:0:0:0:
278,188,104713,1,0,1:0:0:0:
282,233,104786,1,0,1:0:0:0:
286,277,104858,5,4,1:0:0:0:
246,257,104931,1,0,1:0:0:0:
205,239,105003,1,0,1:0:0:0:
243,214,105077,1,0,1:0:0:0:
278,188,105149,1,8,1:0:0:0:
416,304,105295,1,0,1:0:0:0:
206,346,105441,1,0,1:0:0:0:
274,143,105586,2,0,L|287:206,1,56.9999982604981,8|0,0:0|0:0,0:0:0:0:
334,340,105732,1,0,1:0:0:0:
164,221,105878,1,0,1:0:0:0:
312,71,106023,5,12,0:0:0:0:
334,71,106096,1,8,0:0:0:0:
356,75,106169,1,8,0:0:0:0:
376,85,106242,1,8,0:0:0:0:
392,101,106315,1,8,1:0:0:0:
286,277,106460,1,0,1:0:0:0:
133,138,106606,2,0,L|141:23,1,113.999996520996,8|0,0:0|1:0,0:0:0:0:
51,178,106824,1,0,0:0:0:0:
51,178,106897,2,0,L|55:243,1,56.9999982604981,0|0,1:0|0:0,0:0:0:0:
157,358,107043,2,0,L|161:302,1,56.9999982604981,8|0,1:0|0:0,0:0:0:0:
304,145,107188,6,0,L|312:30,1,113.999996520996,4|0,1:0|0:0,0:0:0:0:
222,185,107406,1,0,1:0:0:0:
222,185,107479,2,0,L|226:250,1,56.9999982604981,8|0,0:0|0:0,0:0:0:0:
328,365,107625,2,0,L|331:308,1,56.9999982604981,0|0,1:0|0:0,0:0:0:0:
397,166,107771,1,4,1:0:0:0:
99,97,107917,1,0,1:0:0:0:
230,279,108062,1,8,1:0:0:0:
275,273,108135,1,0,1:0:0:0:
320,267,108208,1,0,1:0:0:0:
365,262,108281,1,0,1:0:0:0:
409,257,108353,5,4,1:0:0:0:
128,215,108499,1,0,0:0:0:0:
113,245,108572,1,0,0:0:0:0:
109,279,108645,1,8,0:0:0:0:
312,186,108790,1,4,1:2:0:0:
132,109,108936,1,0,0:0:0:0:
98,113,109009,1,0,0:0:0:0:
68,128,109082,1,8,0:0:0:0:
264,345,109227,5,4,1:0:0:0:
224,200,109373,1,0,0:0:0:0:
226,165,109446,1,0,0:0:0:0:
228,130,109519,1,8,0:0:0:0:
352,333,109664,1,0,1:2:0:0:
392,93,109810,1,0,0:0:0:0:
394,128,109883,1,0,0:0:0:0:
396,163,109955,2,0,L|400:238,1,56.9999982604981,8|8,0:0|0:0,0:0:0:0:
275,266,110101,5,0,1:0:0:0:
68,189,110247,1,8,0:0:0:0:
53,158,110320,1,0,1:0:0:0:
60,124,110392,1,0,1:0:0:0:
85,100,110465,1,8,0:0:0:0:
118,92,110538,1,8,0:0:0:0:
151,99,110611,1,8,0:0:0:0:
168,128,110684,6,0,L|173:199,1,56.9999982604981,4|0,1:0|1:0,0:0:0:0:
87,342,110829,2,0,L|92:271,1,56.9999982604981,0|0,1:0|1:0,0:0:0:0:
260,181,110975,1,8,1:0:0:0:
352,333,111120,1,0,1:0:0:0:
184,292,111266,1,0,1:0:0:0:
396,163,111412,1,8,0:0:0:0:
252,40,111557,1,0,1:0:0:0:
217,43,111630,1,0,1:0:0:0:
182,46,111703,1,0,1:0:0:0:
147,50,111776,1,0,1:0:0:0:
113,54,111849,5,8,0:0:0:0:
334,117,111994,2,0,L|449:105,1,113.999996520996,0|8,1:0|0:0,0:0:0:0:
180,205,112286,1,0,1:0:0:0:
352,333,112431,1,8,0:0:0:0:
252,40,112577,1,0,1:0:0:0:
94,137,112722,1,8,0:0:0:0:
286,218,112868,1,0,1:0:0:0:
160,83,113014,5,8,0:0:0:0:
113,54,113086,1,8,0:0:0:0:
56,59,113159,2,0,L|10:105,1,56.9999982604981,0|0,1:0|1:0,1:0:0:0:
156,309,113305,1,8,0:0:0:0:
185,262,113377,1,8,0:0:0:0:
180,205,113450,2,0,L|134:159,1,56.9999982604981,0|0,1:0|1:0,1:0:0:0:
248,309,113596,5,8,0:0:0:0:
295,338,113668,1,8,0:0:0:0:
352,333,113741,2,0,L|398:287,1,56.9999982604981,0|0,1:0|1:0,1:0:0:0:
298,61,113887,1,8,0:0:0:0:
269,108,113959,1,8,0:0:0:0:
274,165,114032,2,0,L|320:211,1,56.9999982604981,0|0,1:0|1:0,1:0:0:0:
414,90,114179,5,8,1:0:0:0:
94,137,114324,1,8,1:0:0:0:
426,291,114470,5,8,1:0:0:0:
106,244,114615,1,8,1:0:0:0:
298,61,114761,5,8,1:0:0:0:
320,113,114834,1,8,1:0:0:0:
334,168,114907,1,8,1:0:0:0:
322,224,114980,1,8,1:0:0:0:
276,258,115053,1,8,1:0:0:0:
219,253,115125,1,8,1:0:0:0:
189,204,115198,1,8,1:0:0:0:
214,152,115271,1,8,1:0:0:0:
256,192,115344,5,4,1:0:0:0:
256,192,115926,5,4,1:0:0:0:
256,192,116509,5,4,1:0:0:0:
256,192,117091,5,4,1:0:0:0:
256,192,117674,12,0,120004,0:0:0:0:
