osu file format v14

[General]
AudioFilename: LegenD.mp3
AudioLeadIn: 0
PreviewTime: 61460
Countdown: 0
SampleSet: Normal
StackLeniency: 0.7
Mode: 0
LetterboxInBreaks: 0
WidescreenStoryboard: 0

[Editor]
DistanceSpacing: 1.1
BeatDivisor: 4
GridSize: 4
TimelineZoom: 1.7

[Metadata]
Title:LegenD.
TitleUnicode:LegenD.
Artist:Yooh
ArtistUnicode:Yooh
Creator:toybot
Version:Mikii's BASIC
Source:SOUND VOLTEX III GRAVITY WARS
Tags:sdvx bemani the 4th kac mikii skinnyjommy gokugohan12468 kittyadventure sionkotori captin1 fort ciyus miapah
BeatmapID:799333
BeatmapSetID:359821

[Difficulty]
HPDrainRate:2
CircleSize:3
OverallDifficulty:2
ApproachRate:3
SliderMultiplier:0.8
SliderTickRate:1

[Events]
//Background and Video events
0,0,"legend.jpg",0,0
//Break Periods
2,57275,60020
//Storyboard Layer 0 (Background)
//Storyboard Layer 1 (Fail)
//Storyboard Layer 2 (Pass)
//Storyboard Layer 3 (Foreground)
//Storyboard Sound Samples

[TimingPoints]
880,292.682926829268,4,2,1,40,1,0
880,-100,4,2,1,40,0,0
5562,-100,4,2,1,50,0,0
7904,-100,4,2,1,60,0,0
10245,-100,4,2,1,70,0,0
19611,-100,4,2,1,50,0,0
28977,-100,4,2,1,60,0,0
54733,-100,4,2,1,70,0,0
60587,291.26213592233,4,2,1,70,1,0
61752,-100,4,1,1,70,0,1
70781,-100,4,2,1,70,0,0
71072,-100,4,1,1,70,0,1
80392,-100,4,2,1,70,0,0
88548,-100,4,2,1,80,0,0
89713,-100,4,2,1,70,0,0
99033,-100,4,1,1,70,0,1
115344,-100,4,2,1,70,0,0
116509,-100,4,2,1,60,0,0
117674,-100,4,2,1,50,0,0

[Colours]
Combo1 : 0,176,176
Combo2 : 128,0,128
Combo3 : 0,81,179
Combo4 : 128,128,128

[HitObjects]
325,219,880,6,0,P|333:165|337:91,2,120,2|2|0,0:0|0:0|0:0,0:0:0:0:
289,291,2050,2,0,P|202:328|97:228,1,240,2|0,0:0|0:0,0:0:0:0:
25,212,3221,6,0,P|17:267|13:333,2,120,2|2|0,0:0|0:0|0:0,0:0:0:0:
88,162,4392,2,0,L|344:147,1,240,2|8,0:0|0:0,0:0:0:0:
388,200,5562,6,0,P|408:152|361:75,2,120,2|2|0,0:0|0:0|0:0,0:0:0:0:
338,263,6733,1,2,0:0:0:0:
218,248,7172,2,0,L|86:253,1,120,2|0,0:0|0:0,0:0:0:0:
101,332,7904,6,0,L|237:326,2,120,2|2|0,0:0|0:0|0:0,0:0:0:0:
37,283,9075,2,0,L|44:188,1,80,2|8,0:0|0:0,0:0:0:0:
106,156,9660,2,0,P|96:115|111:66,1,80,2|8,0:0|0:0,0:0:0:0:
177,115,10245,6,0,L|258:112,1,80,4|8,0:0|0:0,0:0:0:0:
313,169,10831,2,0,L|401:165,1,80,0|8,0:0|0:0,0:0:0:0:
458,119,11416,2,0,P|453:163|453:214,1,80,0|8,0:0|0:0,0:0:0:0:
460,278,12001,2,0,L|372:274,1,80,0|8,0:0|0:0,0:0:0:0:
313,317,12587,6,0,L|147:334,1,160
90,284,13465,1,8,0:0:0:0:
121,210,13758,2,0,L|119:118,1,80,0|8,0:0|0:0,0:0:0:0:
39,130,14343,2,0,L|41:219,1,80,0|8,0:0|0:0,0:0:0:0:
90,284,14928,6,0,P|153:290|199:210,1,160,4|0,0:0|0:0,0:0:0:0:
243,148,15806,1,8,0:0:0:0:
290,212,16099,2,0,P|283:263|280:300,2,80,0|8|8,0:0|0:0|0:0,0:0:0:0:
256,192,16831,12,4,18440,0:0:0:0:
300,291,19611,6,0,L|294:202,1,80,2|0,0:0|0:0,0:0:0:0:
215,193,20197,2,0,P|220:154|223:100,1,80,2|0,0:0|0:0,0:0:0:0:
181,45,20782,2,0,P|220:32|272:24,2,80,2|0|2,0:0|0:0|0:0,0:0:0:0:
107,14,21660,1,0,0:0:0:0:
46,66,21953,6,0,L|48:162,1,80,2|0,0:0|0:0,0:0:0:0:
126,159,22538,2,0,L|119:253,1,80,2|0,0:0|0:0,0:0:0:0:
42,260,23123,2,0,P|113:325|175:298,1,160,2|0,0:0|0:0,0:0:0:0:
293,212,24294,6,0,L|202:207,1,80,2|0,0:0|0:0,0:0:0:0:
219,287,24879,2,0,L|315:291,1,80,2|0,0:0|0:0,0:0:0:0:
373,253,25465,2,0,P|378:218|367:156,2,80,2|0|2,0:0|0:0|0:0,0:0:0:0:
366,332,26343,1,0,0:0:0:0:
286,290,26636,5,8,1:0:0:0:
454,302,27221,1,8,0:0:0:0:
286,290,27806,6,0,L|123:293,1,160,2|8,1:0|0:0,0:0:0:0:
62,145,28977,6,0,L|159:151,1,80,4|8,0:0|0:0,0:0:0:0:
195,209,29562,2,0,L|285:208,1,80,0|8,0:0|0:0,0:0:0:0:
352,229,30148,2,0,B|358:187|358:187|345:137,2,80,0|8|0,0:0|0:0|0:0,0:0:0:0:
286,290,31026,1,8,0:0:0:0:
355,330,31319,6,0,P|399:324|443:320,2,80,0|8|0,0:0|0:0|0:0,0:0:0:0:
286,290,32197,1,8,0:0:0:0:
211,318,32489,2,0,P|167:312|123:308,2,80,0|8|0,0:0|0:0|0:0,0:0:0:0:
53,347,33660,6,0,P|52:302|48:252,1,80,4|8,0:0|0:0,0:0:0:0:
31,189,34245,2,0,P|38:140|37:100,1,80,0|8,0:0|0:0,0:0:0:0:
14,31,34831,2,0,B|65:19|97:53|97:53|136:26|177:40,1,160
242,33,35709,1,8,0:0:0:0:
209,105,36001,6,0,L|216:192,1,80,4|8,0:0|0:0,0:0:0:0:
295,186,36587,2,0,L|302:95,1,80,4|8,0:0|0:0,0:0:0:0:
363,47,37172,2,0,P|410:38|453:56,2,80,0|8|0,0:0|0:0|0:0,0:0:0:0:
401,117,38050,1,8,0:0:0:0:
377,192,38343,6,0,L|383:285,1,80,4|8,0:0|0:0,0:0:0:0:
319,321,38928,2,0,P|261:308|193:302,2,120,0|0|8,0:0|1:0|0:0,0:0:0:0:
392,352,40099,1,4,0:0:0:0:
457,187,40684,6,0,L|375:193,1,80,0|8,0:0|0:0,0:0:0:0:
312,239,41270,2,0,P|291:197|269:117,2,120,0|0|8,0:0|1:0|0:0,0:0:0:0:
383,275,42440,1,4,0:0:0:0:
231,354,43026,6,0,L|238:257,1,80,0|8,0:0|0:0,0:0:0:0:
175,223,43611,2,0,P|110:246|57:218,1,120,0|0,0:0|1:0,0:0:0:0:
36,110,44489,1,8,0:0:0:0:
114,87,44782,2,0,L|118:167,1,80,2|0,0:0|0:0,0:0:0:0:
175,223,45367,6,0,P|200:188|238:159,1,80,0|8,0:0|0:0,0:0:0:0:
298,204,45953,2,0,P|308:164|295:118,1,80,0|8,0:0|0:0,0:0:0:0:
338,56,46538,2,0,L|475:42,2,120,0|0|8,0:0|1:0|0:0,0:0:0:0:
346,135,47709,6,0,L|435:127,1,80,4|8,0:0|0:0,0:0:0:0:
472,192,48294,2,0,P|479:244|452:278,1,80,0|8,0:0|0:0,0:0:0:0:
386,271,48879,2,0,P|388:312|390:355,2,80,0|8|0,0:0|0:0|0:0,0:0:0:0:
327,215,49758,1,8,0:0:0:0:
262,261,50050,6,0,L|181:251,1,80,0|8,0:0|0:0,0:0:0:0:
109,284,50636,2,0,P|102:236|126:193,1,80,0|8,0:0|0:0,0:0:0:0:
187,169,51221,2,0,L|180:83,2,80,0|8|0,0:0|0:0|0:0,0:0:0:0:
195,248,52099,1,8,0:0:0:0:
330,333,52684,6,0,L|503:314,1,160,4|8,0:0|0:0,0:0:0:0:
426,265,53562,2,0,P|432:222|432:178,2,80,0|8|0,0:0|0:0|0:0,0:0:0:0:
347,248,54440,1,0,1:0:0:0:
286,195,54733,6,0,L|279:115,1,80,8|8,0:0|0:0,0:0:0:0:
203,87,55319,2,0,L|196:179,1,80,8|8,0:0|0:0,0:0:0:0:
120,189,55904,2,0,L|112:108,1,80,8|8,0:0|0:0,0:0:0:0:
33,95,56489,2,0,L|23:181,1,80,8|8,0:0|0:0,0:0:0:0:
60,245,57075,1,4,0:0:0:0:
306,178,61460,5,0,0:0:0:0:
236,137,61752,2,0,P|196:144|156:156,1,80,4|8,0:0|0:0,0:0:0:0:
100,100,62334,2,0,L|108:196,1,80,0|8,0:0|0:0,0:0:0:0:
46,232,62917,2,0,P|44:274|36:313,1,80,0|8,0:0|0:0,0:0:0:0:
116,315,63499,2,0,P|178:355|256:308,1,160
185,271,64373,5,8,0:0:0:0:
257,236,64664,2,0,L|345:226,1,80,0|8,0:0|0:0,0:0:0:0:
407,264,65247,2,0,P|416:222|395:172,2,80,0|8|0,0:0|0:0|0:0,0:0:0:0:
463,319,66120,1,8,0:0:0:0:
495,245,66412,6,0,L|491:151,1,80,0|8,0:0|0:0,0:0:0:0:
456,93,66994,2,0,P|412:95|366:105,1,80,0|8,0:0|0:0,0:0:0:0:
310,57,67577,2,0,P|277:29|236:4,2,80,0|8|0,0:0|0:0|0:0,0:0:0:0:
303,136,68451,1,8,0:0:0:0:
369,181,68742,6,0,P|376:227|357:269,2,80,0|8|0,0:0|0:0|0:0,0:0:0:0:
303,136,69616,1,8,0:0:0:0:
229,166,69907,6,0,P|225:121|242:80,2,80,0|8|0,0:0|0:0|0:0,0:0:0:0:
295,212,70781,1,8,0:0:0:0:
277,289,71072,6,0,L|117:293,1,160,4|0,0:0|0:0,0:0:0:0:
40,268,71946,1,8,0:0:0:0:
93,208,72237,2,0,P|106:171|116:129,2,80,0|8|0,0:0|0:0|0:0,0:0:0:0:
40,268,73111,1,8,0:0:0:0:
117,286,73402,6,0,P|166:275|213:274,1,80,0|8,0:0|0:0,0:0:0:0:
256,325,73985,2,0,L|347:326,1,80,0|8,0:0|0:0,0:0:0:0:
412,348,74567,2,0,L|423:263,1,80,0|8,0:0|0:0,0:0:0:0:
473,207,75150,2,0,P|432:190|388:196,1,80,0|8,0:0|0:0,0:0:0:0:
344,251,75732,6,0,L|330:170,2,80,0|8|0,0:0|0:0|0:0,0:0:0:0:
280,299,76606,1,8,0:0:0:0:
215,252,76897,6,0,L|198:337,2,80,0|8|0,0:0|0:0|0:0,0:0:0:0:
136,266,77771,1,8,0:0:0:0:
72,217,78062,6,0,P|63:169|43:113,1,80,8|8,0:0|1:0,0:0:0:0:
44,59,78645,2,0,P|84:67|150:70,1,80,8|8,2:0|2:0,2:0:0:0:
185,119,79227,2,0,P|162:160|141:213,2,80,8|8|8,2:0|2:0|2:0,2:0:0:0:
245,66,80101,1,8,0:0:0:0:
284,136,80392,6,0,P|360:153|411:75,1,160,4|0,0:0|1:0,0:0:0:0:
429,19,81266,1,8,0:0:0:0:
492,67,81557,2,0,P|487:109|485:157,1,80,0|8,0:0|0:0,0:0:0:0:
498,225,82140,2,8,P|459:224|391:227,1,80,0|8,0:0|0:0,0:0:0:0:
385,298,82722,6,0,P|461:281|516:360,1,160,4|0,0:0|1:0,0:0:0:0:
437,362,83596,1,8,0:0:0:0:
358,375,83887,2,0,L|268:363,1,80,0|8,0:0|0:0,0:0:0:0:
242,292,84470,2,0,L|158:310,1,80,0|8,0:0|0:0,0:0:0:0:
87,333,85053,6,0,P|71:253|60:151,1,160,4|0,0:0|0:0,0:0:0:0:
59,95,85926,1,8,0:0:0:0:
129,55,86218,2,0,P|178:47|223:29,2,80,0|8|0,0:0|0:0|0:0,0:0:0:0:
127,134,87091,1,8,0:0:0:0:
204,153,87383,6,0,P|248:155|307:162,1,80,4|8,0:0|0:0,0:0:0:0:
279,238,87965,2,0,L|367:229,1,80,4|8,0:0|0:0,0:0:0:0:
437,245,88548,6,0,P|436:205|432:145,1,80,4|8,0:0|0:0,0:0:0:0:
362,129,89130,2,0,L|374:36,1,80,4|8,0:0|0:0,0:0:0:0:
292,55,89713,6,0,P|242:55|144:39,3,120,4|8|8|8,0:1|0:0|0:0|0:0,0:0:0:0:
61,90,91460,2,0,L|69:174,1,80,0|8,1:0|0:0,0:0:0:0:
122,229,92043,6,0,P|106:292|102:355,3,120,4|8|8|8,1:0|0:0|0:0|0:0,0:0:0:0:
221,347,93790,2,0,L|324:344,1,80,0|8,0:0|0:0,0:0:0:0:
256,192,94373,12,4,97868,0:0:0:0:
256,192,99033,6,0,P|301:183|352:178,2,80,4|8|0,0:0|0:0|0:0,0:0:0:0:
183,226,99907,1,8,0:0:0:0:
111,190,100198,2,0,P|109:154|104:87,1,80,0|8,0:0|0:0,0:0:0:0:
26,98,100781,2,0,L|32:189,1,80,0|8,0:0|0:0,0:0:0:0:
52,252,101363,6,0,P|93:249|230:260,1,160
252,325,102237,1,8,0:0:0:0:
290,255,102528,2,0,P|293:208|299:157,1,80,0|8,0:0|0:0,0:0:0:0:
374,150,103111,2,0,P|368:106|364:57,1,80,0|8,0:0|0:0,0:0:0:0:
287,49,103693,6,0,P|231:113|152:93,1,160,4|0,0:0|0:0,0:0:0:0:
205,34,104567,1,8,0:0:0:0:
125,40,104858,6,0,L|109:218,1,160,4|0,0:0|0:0,0:0:0:0:
52,254,105732,1,8,0:0:0:0:
70,331,106023,6,0,L|158:319,1,80,0|8,0:0|0:0,0:0:0:0:
229,321,106606,2,0,P|272:326|308:331,1,80,0|8,0:0|0:0,0:0:0:0:
386,348,107188,2,0,P|383:305|379:249,1,80,0|8,0:0|0:0,0:0:0:0:
302,249,107771,2,0,L|324:172,1,80,0|8,0:0|0:0,0:0:0:0:
299,96,108353,6,0,P|361:99|402:155,2,120,4|8|8,0:0|0:0|0:0,0:0:0:0:
205,37,109664,1,8,0:0:0:0:
109,110,110101,2,0,L|115:191,2,80,0|8|4,0:0|0:0|0:0,0:0:0:0:
26,197,111120,6,0,P|31:253|30:334,2,120,8|8|8,0:0|0:0|0:0,0:0:0:0:
120,271,112431,2,0,L|227:280,1,80,0|8,0:0|0:0,0:0:0:0:
278,262,113014,6,0,P|295:218|301:175,1,80,0|8,0:0|0:0,0:0:0:0:
235,139,113596,2,0,P|218:95|212:52,1,80,0|8,0:0|0:0,0:0:0:0:
264,1,114179,2,0,P|303:6|341:19,1,80,0|8,2:0|0:0,2:0:0:0:
370,94,114761,2,0,P|340:130|306:157,1,80,0|8,0:0|2:0,2:0:0:0:
269,84,115344,6,0,P|195:104|104:68,4,160,8|8|8|8|4,0:0|0:0|0:0|0:0|0:0,0:0:0:0:
256,192,117965,12,0,120004,0:0:0:0:
