osu file format v14

[General]
AudioFilename: LegenD.mp3
AudioLeadIn: 0
PreviewTime: 61460
Countdown: 0
SampleSet: Normal
StackLeniency: 0.3
Mode: 0
LetterboxInBreaks: 0
WidescreenStoryboard: 0

[Editor]
Bookmarks: 28977,47709,61752,89713
DistanceSpacing: 0.5
BeatDivisor: 4
GridSize: 4
TimelineZoom: 2.699999

[Metadata]
Title:LegenD.
TitleUnicode:LegenD.
Artist:Yooh
ArtistUnicode:Yooh
Creator:toybot
Version:LEGEND
Source:SOUND VOLTEX III GRAVITY WARS
Tags:sdvx bemani the 4th kac mikii skinnyjommy gokugohan12468 kittyadventure sionkotori captin1 fort ciyus miapah
BeatmapID:1083583
BeatmapSetID:359821

[Difficulty]
HPDrainRate:8
CircleSize:4
OverallDifficulty:9
ApproachRate:9.5
SliderMultiplier:2
SliderTickRate:1

[Events]
//Background and Video events
0,0,"legend.jpg",0,0
//Break Periods
//Storyboard Layer 0 (Background)
//Storyboard Layer 1 (Fail)
//Storyboard Layer 2 (Pass)
//Storyboard Layer 3 (Foreground)
//Storyboard Sound Samples

[TimingPoints]
880,292.682926829268,4,2,1,70,1,0
880,-133.333333333333,4,2,1,70,0,0
1172,-133.333333333333,4,2,1,50,0,0
5270,-100,4,2,1,70,0,0
5562,-133.333333333333,4,2,1,50,0,0
9075,-133.333333333333,4,2,1,70,0,0
9221,-76.9230769230769,4,2,1,70,0,0
9367,-90.9090909090909,4,2,1,70,0,0
10245,-111.111111111111,4,2,1,70,0,0
12294,-83.3333333333333,4,2,1,70,0,0
12587,-111.111111111111,4,2,1,70,0,0
14050,-83.3333333333333,4,2,1,70,0,0
15367,-76.9230769230769,4,2,1,70,0,0
15953,-71.4285714285714,4,2,1,70,0,0
16684,-71.4285714285714,4,1,1,40,0,0
16977,-71.4285714285714,4,1,1,50,0,0
17270,-71.4285714285714,4,2,1,60,0,0
18294,-71.4285714285714,4,2,1,60,0,0
18440,-90.9090909090909,4,2,1,60,0,0
18733,-90.9090909090909,4,2,1,50,0,0
19026,-166.666666666667,4,2,1,40,0,0
19319,-166.666666666667,4,2,1,60,0,0
19611,-125,4,2,1,70,0,0
23855,-166.666666666667,4,2,1,60,0,0
24294,-125,4,2,1,70,0,0
26636,-83.3333333333333,4,2,1,80,0,0
26928,-83.3333333333333,4,2,1,70,0,0
27806,-100,4,2,1,70,0,0
28684,-100,4,2,1,70,0,0
28977,-76.9230769230769,4,2,1,80,0,0
33440,-76.9230769230769,4,2,1,60,0,0
33660,-76.9230769230769,4,2,1,80,0,0
40245,-200,4,2,1,80,0,0
40684,-76.9230769230769,4,2,1,80,0,0
41855,-142.857142857143,4,2,1,80,0,0
42148,-66.6666666666667,4,2,0,80,0,0
42440,-133.333333333333,4,2,1,80,0,0
42733,-200,4,2,1,80,0,0
43026,-76.9230769230769,4,2,1,80,0,0
44782,-166.666666666667,4,2,1,80,0,0
45367,-76.9230769230769,4,2,1,80,0,0
46538,-66.6666666666667,4,2,1,80,0,0
47416,-66.6666666666667,4,1,1,60,0,0
47709,-66.6666666666667,4,2,1,80,0,0
52245,-100,4,2,1,80,0,0
52392,-142.857142857143,4,2,1,60,0,0
52684,-66.6666666666667,4,2,1,80,0,0
54440,-100,4,2,1,80,0,0
54733,-66.6666666666667,4,2,1,80,0,0
55904,-83.3333333333333,4,2,1,70,0,0
56489,-83.3333333333333,4,2,1,60,0,0
56782,-83.3333333333333,4,1,1,50,0,0
57111,-83.3333333333333,4,2,1,5,0,0
57953,-83.3333333333333,4,3,1,10,0,0
58245,-83.3333333333333,4,3,1,30,0,0
60001,-83.3333333333333,4,3,1,40,0,0
60587,291.26213592233,4,1,1,50,1,0
61752,-76.9230769230769,4,1,1,80,0,1
64955,-71.4285714285714,4,1,1,80,0,1
65247,-76.9230769230769,4,1,1,80,0,1
66412,-100,4,1,1,80,0,1
68742,-86.9565217391304,4,1,1,80,0,1
71072,-76.9230769230769,4,1,1,80,0,1
74276,-71.4285714285714,4,1,1,80,0,1
78062,-83.3333333333333,4,1,1,80,0,1
79227,-100,4,1,1,80,0,1
79519,-83.3333333333333,4,1,1,80,0,1
79810,-71.4285714285714,4,1,1,80,0,1
80101,-71.4285714285714,4,2,1,90,0,1
80392,-76.9230769230769,4,1,1,80,0,0
86800,-71.4285714285714,4,1,1,80,0,0
87383,-76.9230769230769,4,1,1,80,0,0
89713,-71.4285714285715,4,1,1,80,0,0
94373,-71.4285714285715,4,1,1,60,0,0
97868,-71.4285714285715,4,2,1,40,0,0
99033,-71.4285714285715,4,1,1,80,0,1
113014,-71.4285714285715,4,1,1,70,0,1
115344,-71.4285714285715,4,1,1,70,0,0
115489,-71.4285714285715,4,1,1,30,0,0
115926,-71.4285714285715,4,1,1,70,0,0
116072,-71.4285714285715,4,1,1,30,0,0
116509,-71.4285714285715,4,1,1,70,0,0
116654,-71.4285714285715,4,1,1,30,0,0
117091,-71.4285714285715,4,1,1,70,0,0
117237,-71.4285714285715,4,1,1,30,0,0
117674,-71.4285714285715,4,1,1,70,0,0
120077,-71.4285714285715,4,2,1,5,0,0

[Colours]
Combo1 : 0,176,176
Combo2 : 128,0,128
Combo3 : 0,81,179
Combo4 : 128,128,128

[HitObjects]
52,144,587,6,0,L|148:156,1,50,8|0,0:0|0:0,0:0:0:0:
176,200,733,2,0,L|264:192,1,50,0|0,0:0|0:0,0:0:0:0:
340,132,880,6,0,P|296:92|208:132,1,150.000005722046,4|0,0:0|0:0,0:0:0:0:
292,343,1319,2,0,L|299:193,1,150.000005722046,2|0,0:0|0:0,0:0:0:0:
299,193,1758,1,2,0:0:0:0:
216,280,1904,1,0,0:0:0:0:
368,256,2050,6,0,B|416:248|456:260|456:260|444:240|428:192,1,150.000005722046,2|0,0:0|0:0,0:0:0:0:
356,120,2489,2,0,L|372:40,1,75.0000028610231,2|0,0:0|0:0,0:0:0:0:
440,104,2782,1,0,0:0:0:0:
299,193,2928,2,0,P|248:194|208:196,1,75.0000028610231,2|0,0:0|0:0,0:0:0:0:
84,140,3221,6,0,P|136:152|200:72,1,150.000005722046,2|0,0:0|0:0,0:0:0:0:
28,88,3660,2,0,P|8:132|16:172,1,75.0000028610231,2|0,0:0|0:0,0:0:0:0:
64,236,3953,1,0,0:0:0:0:
128,80,4099,2,0,L|120:-16,1,75.0000028610231,2|0,0:0|0:0,0:0:0:0:
10,157,4392,6,0,B|98:137|70:177|168:152,1,150.000005722046,2|0,0:0|0:0,0:0:0:0:
248,92,4831,1,2,0:0:0:0:
272,208,4977,2,0,P|272:248|268:300,1,75.0000028610231,0|0,0:0|0:0,0:0:0:0:
248,92,5270,6,0,L|304:96,1,50,8|0,0:0|0:0,0:0:0:0:
400,180,5416,2,0,L|340:184,1,50,0|0,0:0|0:0,0:0:0:0:
188,244,5562,6,0,P|160:216|180:112,1,150.000005722046,2|0,0:0|0:0,0:0:0:0:
76,144,6001,2,0,P|37:146|1:146,1,75.0000028610231,2|0,0:0|0:0,0:0:0:0:
150,182,6294,1,0,0:0:0:0:
64,304,6440,2,0,P|64:274|68:228,1,75.0000028610231,2|0,0:0|0:0,0:0:0:0:
144,332,6733,6,0,B|236:320|200:352|308:340,1,150.000005722046,2|0,0:0|0:0,0:0:0:0:
424,264,7172,2,0,B|384:244|384:244|272:272,1,150.000005722046,2|0,0:0|0:0,0:0:0:0:
160,200,7611,2,0,L|236:212,1,75.0000028610231,2|0,0:0|0:0,0:0:0:0:
360,168,7904,6,0,P|354:136|352:88,1,75.0000028610231,2|0,0:0|0:0,0:0:0:0:
352,12,8197,1,0,0:0:0:0:
244,152,8343,2,0,P|255:121|277:78,1,75.0000028610231,2|0,0:0|0:0,0:0:0:0:
359,16,8636,1,0,0:0:0:0:
152,80,8782,2,0,P|177:59|217:33,1,75.0000028610231,2|0,0:0|0:0,0:0:0:0:
366,20,9075,1,2,0:0:0:0:
280,224,9221,6,0,B|248:232|248:232|208:224,1,64.9999970245363,8|0,0:0|0:0,0:0:0:0:
135,153,9367,2,0,B|200:144|200:144|259:153,1,110.000003356934,8|0,0:0|0:0,0:0:0:0:
400,264,9660,5,8,0:0:0:0:
399,269,9733,1,8,0:0:0:0:
398,274,9806,2,0,L|391:193,1,55.0000016784668,8|0,0:0|0:0,0:0:0:0:
436,88,9953,5,8,0:0:0:0:
392,112,10026,1,8,0:0:0:0:
344,112,10099,1,8,0:0:0:0:
300,92,10172,1,8,0:0:0:0:
272,52,10245,6,0,L|180:56,1,89.9999972534181,4|0,0:0|0:0,0:0:0:0:
36,64,10538,1,8,0:0:0:0:
132,228,10684,1,0,0:0:0:0:
132,228,10758,1,0,0:0:0:0:
132,228,10831,2,0,B|140:192|140:192|128:124,1,89.9999972534181,0|0,1:0|0:0,0:0:0:0:
36,64,11123,1,8,0:0:0:0:
32,280,11270,1,0,0:0:0:0:
305,136,11416,6,0,L|216:140,1,89.9999972534181,0|0,1:0|0:0,0:0:0:0:
24,152,11709,1,8,0:0:0:0:
204,272,11855,1,0,0:0:0:0:
204,272,11928,1,0,0:0:0:0:
204,272,12001,2,0,B|212:248|212:248|208:208,1,44.999998626709,0|0,1:0|0:0,0:0:0:0:
152,88,12148,1,0,0:0:0:0:
12,256,12294,5,8,0:0:0:0:
4,264,12367,2,0,B|51:260|51:260|72:267|72:267|128:263,1,119.999996337891,0|8,0:0|0:0,0:0:0:0:
292,300,12587,6,0,L|280:184,1,89.9999972534181,4|0,0:0|0:0,0:0:0:0:
264,56,12879,1,8,0:0:0:0:
444,176,13026,1,0,0:0:0:0:
446,179,13099,1,0,0:0:0:0:
448,182,13172,2,0,B|412:192|412:192|352:184,1,89.9999972534181,0|0,1:0|0:0,0:0:0:0:
264,56,13465,1,8,0:0:0:0:
452,80,13611,1,0,0:0:0:0:
280,312,13758,6,0,P|272:242|264:164,1,134.999995880127,0|0,1:0|0:0,0:0:0:0:
196,144,14050,2,0,B|192:176|192:176|200:224,1,59.9999981689454,8|0,0:0|0:0,0:0:0:0:
337,185,14197,2,0,B|334:157|334:157|323:127,1,59.9999981689454,0|8,0:0|0:0,0:0:0:0:
128,116,14343,5,0,1:0:0:0:
112,172,14416,1,0,0:0:0:0:
128,228,14489,1,0,0:0:0:0:
360,268,14636,1,8,0:0:0:0:
280,68,14782,5,8,0:0:0:0:
275,57,14855,1,8,0:0:0:0:
270,46,14928,2,0,L|192:52,1,59.9999981689454,4|0,0:0|0:0,0:0:0:0:
36,120,15075,2,0,L|96:124,1,59.9999981689454,0|0,0:0|0:0,0:0:0:0:
176,128,15221,1,8,0:0:0:0:
16,244,15367,5,0,0:0:0:0:
21,232,15440,1,0,0:0:0:0:
26,219,15514,2,0,L|108:224,1,64.9999970245363,12|0,0:0|0:0,0:0:0:0:
288,304,15660,2,0,L|217:308,1,64.9999970245363,0|0,0:0|0:0,0:0:0:0:
128,316,15806,1,8,0:0:0:0:
356,264,15953,5,0,0:0:0:0:
356,264,16026,1,0,0:0:0:0:
356,264,16099,2,0,B|365:296|365:296|353:356,1,69.9999978637696,12|0,0:0|0:0,0:0:0:0:
240,236,16245,2,0,B|231:204|231:204|243:144,1,69.9999978637696,0|0,0:0|0:0,0:0:0:0:
344,100,16392,6,0,L|432:104,1,69.9999978637696,12|0,0:0|0:0,0:0:0:0:
504,224,16538,2,0,L|424:220,1,69.9999978637696,0|0,0:0|0:0,0:0:0:0:
240,236,16684,5,4,0:0:0:0:
260,208,16758,1,0,0:0:0:0:
272,176,16831,1,0,0:0:0:0:
276,140,16904,1,0,0:0:0:0:
272,104,16977,1,0,0:0:0:0:
256,72,17050,1,0,0:0:0:0:
232,44,17123,1,0,0:0:0:0:
200,28,17197,1,0,0:0:0:0:
256,192,17270,12,0,18294,0:0:0:0:
132,128,18440,5,2,0:0:0:0:
192,176,18587,1,0,0:0:0:0:
268,188,18733,1,2,0:0:0:0:
340,164,18879,1,0,0:0:0:0:
384,100,19026,2,0,P|382:64|380:36,1,59.9999981689454,2|0,0:0|0:0,0:0:0:0:
268,188,19319,2,0,P|269:223|272:252,1,59.9999981689454,2|0,0:0|0:0,0:0:0:0:
412,312,19611,6,0,L|504:308,1,80,6|0,0:1|0:0,0:0:0:0:
320,320,19904,1,2,0:1:0:0:
444,208,20050,1,0,0:0:0:0:
310,320,20197,5,2,0:1:0:0:
396,384,20343,1,0,0:0:0:0:
352,236,20489,1,2,0:1:0:0:
224,320,20636,1,0,0:0:0:0:
356,244,20782,5,2,0:1:0:0:
152,188,20928,1,0,0:0:0:0:
260,248,21075,2,0,P|258:209|256:152,1,80,2|0,0:1|0:0,0:0:0:0:
252,56,21367,5,2,0:1:0:0:
156,196,21514,1,0,0:0:0:0:
336,160,21660,1,2,0:1:0:0:
188,104,21806,1,0,0:0:0:0:
148,284,21953,5,2,0:1:0:0:
256,168,22099,1,0,0:0:0:0:
104,92,22245,1,2,0:1:0:0:
160,204,22392,1,0,0:0:0:0:
331,63,22538,6,0,B|290:64|290:64|239:52,1,80,0|0,0:1|0:0,0:0:0:0:
68,291,22831,2,0,B|106:282|106:282|147:283,1,80,0|0,0:1|0:0,0:0:0:0:
404,344,23123,5,2,0:1:0:0:
368,156,23270,1,0,0:0:0:0:
320,328,23416,1,2,0:1:0:0:
360,148,23562,1,0,0:0:0:0:
472,296,23709,1,2,0:1:0:0:
356,240,23855,6,0,L|224:232,1,119.999996337891,0|0,0:0|0:0,0:0:0:0:
136,308,24294,5,2,0:1:0:0:
80,156,24440,1,0,0:0:0:0:
4,232,24587,2,0,P|45:235|104:236,1,80,2|0,0:1|0:0,0:0:0:0:
228,152,24879,1,2,0:1:0:0:
136,308,25026,1,0,0:0:0:0:
440,292,25172,5,2,0:1:0:0:
264,256,25319,1,2,0:1:0:0:
336,156,25465,5,0,0:1:0:0:
352,320,25611,1,0,0:0:0:0:
404,212,25758,1,2,0:1:0:0:
264,256,25904,1,0,0:0:0:0:
152,176,26050,2,0,P|144:120|148:64,1,80,2|0,0:1|0:0,0:0:0:0:
264,256,26343,2,0,P|263:295|256:335,1,80,2|0,0:1|0:0,0:0:0:0:
136,308,26636,5,6,0:1:0:0:
248,132,26782,1,2,0:1:0:0:
432,244,26928,2,0,B|393:248|393:248|384:246|384:246|336:248,1,79.9999975585938,8|2,0:0|0:1,0:0:0:0:
264,256,27123,1,2,0:1:0:0:
396,156,27221,5,6,0:1:0:0:
292,352,27367,1,2,0:1:0:0:
108,184,27514,2,0,B|146:185|146:185|157:187|157:187|204:188,1,79.9999975585938,8|2,0:0|0:1,0:0:0:0:
312,192,27709,1,2,0:1:0:0:
192,256,27806,6,0,L|184:120,1,133.333333333333,2|0,1:0|0:0,0:0:0:0:
264,46,28099,2,0,L|272:180,1,133.333333333333,2|0,1:0|0:0,0:0:0:0:
352,244,28392,2,0,B|384:252|384:252|428:244,1,66.6666666666667,2|2,1:0|0:1,0:0:0:0:
496,188,28587,1,2,1:0:0:0:
388,104,28684,6,0,L|386:146,4,33.3333333333333,0|0|0|0|0,3:0|3:0|3:0|3:0|3:0,0:0:0:0:
400,84,28977,6,0,L|252:68,1,129.999994049073,6|0,0:1|0:0,0:0:0:0:
64,304,29270,2,0,L|212:288,1,129.999994049073,8|0,0:0|0:0,0:0:0:0:
456,260,29562,1,2,0:1:0:0:
228,160,29709,1,0,0:0:0:0:
344,348,29855,1,8,0:0:0:0:
376,128,30001,1,0,0:0:0:0:
128,96,30148,6,0,L|120:232,1,129.999994049073,2|0,0:1|0:0,0:0:0:0:
368,368,30440,2,0,L|360:238,1,129.999994049073,8|0,0:0|0:0,0:0:0:0:
244,24,30733,1,2,0:1:0:0:
208,284,30879,1,0,0:0:0:0:
356,100,31026,1,8,0:0:0:0:
168,360,31172,1,0,0:0:0:0:
24,128,31319,6,0,L|188:108,1,129.999994049073,2|0,0:1|0:0,0:0:0:0:
473,363,31611,2,0,L|309:343,1,129.999994049073,8|0,0:0|0:0,0:0:0:0:
48,264,31904,1,2,0:1:0:0:
344,76,32050,1,0,0:0:0:0:
240,308,32197,1,8,0:0:0:0:
208,12,32343,1,0,0:0:0:0:
424,160,32489,6,0,L|440:304,1,129.999994049073,2|0,0:1|0:0,0:0:0:0:
168,160,32782,2,0,L|184:16,1,129.999994049073,8|0,0:0|0:0,0:0:0:0:
248,332,33075,2,0,B|296:320|296:320|348:328|348:328|316:304|272:308,1,129.999994049073,2|0,1:0|0:0,0:0:0:0:
152,244,33367,1,8,0:0:0:0:
112,224,33440,1,0,1:0:0:0:
84,188,33514,1,0,1:0:0:0:
76,144,33587,1,0,1:0:0:0:
92,104,33660,6,0,B|136:108|136:108|168:104|168:104|276:116,1,129.999994049073,6|0,0:1|0:0,0:0:0:0:
440,132,33953,1,8,0:0:0:0:
192,248,34099,1,0,0:0:0:0:
392,264,34245,2,0,B|424:296|428:344|428:344|436:316|476:292,1,129.999994049073,2|0,0:1|0:0,0:0:0:0:
228,88,34538,2,0,B|192:104|176:152|176:152|176:120|184:104,1,129.999994049073,8|2,0:0|0:1,0:0:0:0:
256,164,34758,1,0,0:0:0:0:
292,136,34831,6,0,P|308:92|272:20,1,129.999994049073,6|0,0:1|0:0,0:0:0:0:
68,228,35123,1,8,0:0:0:0:
328,208,35270,1,0,0:0:0:0:
148,32,35416,5,0,1:0:0:0:
232,344,35562,1,0,0:0:0:0:
20,144,35709,5,0,0:0:0:0:
364,304,35855,1,0,1:0:0:0:
108,336,36001,6,0,L|88:208,1,129.999994049073,6|2,0:1|0:1,0:0:0:0:
104,192,36221,1,0,0:0:0:0:
124,172,36294,2,0,L|112:96,1,64.9999970245363,8|0,0:0|0:0,0:0:0:0:
248,272,36440,2,0,L|240:352,1,64.9999970245363,0|0,0:0|0:0,0:0:0:0:
112,80,36587,1,6,0:1:0:0:
252,240,36733,1,2,0:1:0:0:
416,108,36879,2,0,P|420:80|416:48,6,32.4999985122681,8|0|0|0|0|0|0,0:0|0:0|0:0|0:0|0:0|0:0|0:0,0:0:0:0:
400,132,37172,6,0,P|392:160|396:216,1,64.9999970245363,6|0,1:1|0:0,0:0:0:0:
304,68,37319,2,0,L|216:56,1,64.9999970245363,0|0,0:0|0:0,0:0:0:0:
420,288,37465,2,0,L|508:276,1,64.9999970245363,4|0,1:0|0:0,0:0:0:0:
156,156,37611,1,0,0:0:0:0:
336,360,37758,1,4,1:0:0:0:
488,172,37904,1,0,0:0:0:0:
232,304,38050,1,4,1:0:0:0:
202,317,38123,1,0,0:0:0:0:
170,323,38196,1,0,0:0:0:0:
138,321,38269,1,0,0:0:0:0:
108,310,38343,6,0,B|84:292|84:292|72:172|72:172|96:120,1,194.999991073609,2|0,0:1|0:0,0:0:0:0:
104,104,38636,1,8,0:0:0:0:
44,368,38782,1,0,0:0:0:0:
128,80,38928,2,0,L|-4:72,1,129.999994049073,2|0,0:1|0:0,0:0:0:0:
184,152,39148,1,2,0:1:0:0:
184,152,39221,2,0,L|196:224,1,64.9999970245363,8|0,0:0|0:0,0:0:0:0:
312,360,39367,2,0,L|324:284,1,64.9999970245363,2|0,0:1|0:0,0:0:0:0:
260,72,39514,6,0,P|280:124|392:68,1,194.999991073609,2|0,0:1|0:0,0:0:0:0:
400,64,39806,2,0,L|392:8,2,32.4999985122681,8|0|0,0:1|0:0|0:1,0:0:0:0:
488,272,39953,2,0,L|480:344,1,64.9999970245363,0|0,0:1|0:1,0:0:0:0:
276,220,40099,1,2,0:1:0:0:
504,156,40245,6,0,P|504:136|496:108,2,50,2|0|0,0:1|0:0|0:0,0:0:0:0:
504,184,40684,6,0,P|464:184|400:312,1,194.999991073609,2|0,0:1|0:0,0:0:0:0:
408,324,40977,1,8,0:0:0:0:
408,88,41123,1,0,0:0:0:0:
248,240,41270,2,0,L|264:376,1,129.999994049073,2|0,0:1|0:0,0:0:0:0:
316,136,41489,1,2,0:1:0:0:
316,136,41562,2,0,L|244:128,1,64.9999970245363,8|0,0:0|0:0,0:0:0:0:
152,276,41709,2,0,L|80:268,1,64.9999970245363,2|0,0:1|0:0,0:0:0:0:
128,40,41855,6,0,P|140:88|136:112,1,69.9999978637696,2|0,0:1|0:0,0:0:0:0:
68,118,42148,6,0,P|84:106|156:126,1,75.0000028610231,2|0,0:1|0:0,0:0:0:0:
336,224,42294,2,0,P|352:236|424:216,1,75.0000028610231,2|0,0:1|0:0,0:0:0:0:
228,24,42440,6,0,P|228:56|252:100,1,75.0000028610231,8|0,0:0|0:0,0:0:0:0:
320,320,42733,6,0,L|309:379,1,50,0|0,0:0|0:0,0:0:0:0:
288,376,43026,6,0,P|316:344|460:364,1,194.999991073609,2|0,0:1|0:0,0:0:0:0:
464,368,43319,2,0,B|480:328|480:328|476:236,1,129.999994049073,8|0,0:0|0:0,0:0:0:0:
340,32,43611,2,0,P|360:76|456:96,1,129.999994049073,2|0,0:1|0:0,0:0:0:0:
376,224,43831,1,2,0:1:0:0:
360,248,43904,2,0,B|360:284|360:284|364:320,1,64.9999970245363,8|0,0:0|0:0,0:0:0:0:
268,84,44050,2,0,P|256:44|260:12,1,64.9999970245363,2|0,0:1|0:0,0:0:0:0:
280,200,44197,6,0,P|256:240|176:240,1,129.999994049073,2|0,0:1|0:0,0:0:0:0:
168,236,44416,1,0,0:0:0:0:
152,228,44489,2,0,P|116:220|80:224,3,64.9999970245363,8|2|2|2,0:0|0:1|0:1|0:1,0:0:0:0:
76,236,44782,6,0,L|64:168,1,59.9999981689454,0|0,0:0|0:0,0:0:0:0:
480,120,45075,2,0,L|476:188,1,59.9999981689454,0|0,0:0|0:0,0:0:0:0:
464,208,45367,6,0,P|464:156|328:112,1,194.999991073609,2|0,0:1|0:0,0:0:0:0:
336,112,45660,1,8,0:0:0:0:
428,344,45806,1,0,0:0:0:0:
360,80,45953,2,0,P|316:96|220:64,1,129.999994049073,2|0,0:1|0:0,0:0:0:0:
276,176,46172,1,2,0:1:0:0:
276,176,46245,2,0,P|284:212|284:252,1,64.9999970245363,8|0,0:0|0:0,0:0:0:0:
148,108,46392,2,0,P|136:72|140:36,1,64.9999970245363,2|0,0:1|0:0,0:0:0:0:
200,216,46538,6,0,B|192:256|192:256|208:324|208:324|176:268,1,150.000005722046,2|0,1:0|0:0,0:0:0:0:
112,200,46758,6,0,B|81:173|81:173|14:152|14:152|78:153,1,150.000005722046,2|0,1:0|0:0,0:0:0:0:
172,124,46977,6,0,B|210:110|210:110|261:63|261:63|229:118,1,150.000005722046,2|0,1:0|0:0,0:0:0:0:
88,288,47197,6,0,P|56:264|44:248,4,37.5000014305115,2|0|0|0|0,1:0|0:0|0:0|0:0|0:0,0:0:0:0:
284,268,47416,6,0,P|296:312|296:348,1,75.0000028610231,0|0,0:0|0:0,0:0:0:0:
360,160,47562,2,0,L|456:124,1,75.0000028610231,0|0,0:0|0:0,0:0:0:0:
136,44,47709,5,6,0:1:0:0:
396,256,47855,1,0,0:0:0:0:
152,348,48001,1,8,0:0:0:0:
360,48,48148,1,2,0:1:0:0:
112,200,48294,2,0,B|64:180|28:188|28:188|56:144|104:160,1,150.000005722046,2|0,0:1|0:0,0:0:0:0:
292,352,48514,1,2,0:1:0:0:
340,332,48587,2,0,P|360:304|364:248,1,75.0000028610231,8|0,0:0|0:0,0:0:0:0:
220,112,48733,2,0,P|220:64|228:20,1,75.0000028610231,0|0,0:0|0:0,0:0:0:0:
440,220,48879,5,2,0:1:0:0:
168,324,49026,1,2,0:1:0:0:
408,144,49172,1,8,0:0:0:0:
460,136,49245,1,0,0:0:0:0:
508,160,49319,1,0,0:0:0:0:
488,112,49392,1,0,0:0:0:0:
484,60,49465,5,2,0:1:0:0:
460,352,49611,1,0,0:0:0:0:
312,72,49758,5,8,0:0:0:0:
504,280,49904,1,2,0:1:0:0:
220,248,50050,6,0,B|176:240|176:240|56:260,1,150.000005722046,2|0,0:1|0:0,0:0:0:0:
128,40,50343,1,8,0:0:0:0:
176,348,50489,1,2,0:1:0:0:
316,120,50636,2,0,B|340:68|376:56|376:56|340:56|320:32,1,150.000005722046,2|0,0:1|0:0,0:0:0:0:
272,316,50855,1,2,0:1:0:0:
300,272,50928,2,0,P|300:228|280:192,1,75.0000028610231,8|0,0:0|0:0,0:0:0:0:
104,128,51075,2,0,P|148:148|188:144,1,75.0000028610231,0|0,0:0|0:0,0:0:0:0:
368,336,51221,6,0,L|452:320,1,75.0000028610231,8|0,0:0|0:0,0:0:0:0:
180,248,51367,1,0,0:0:0:0:
400,228,51514,2,0,L|480:232,1,75.0000028610231,8|0,0:0|0:0,0:0:0:0:
140,256,51660,1,0,0:0:0:0:
440,128,51806,2,0,L|528:156,1,75.0000028610231,8|0,0:0|0:0,0:0:0:0:
104,264,51953,1,0,0:0:0:0:
412,24,52099,6,0,L|496:56,1,75.0000028610231,8|0,0:0|0:0,0:0:0:0:
72,276,52245,2,0,L|16:264,1,50,0|0,0:0|0:0,0:0:0:0:
244,136,52392,6,0,P|280:144|304:164,2,46.6666652425131,0|0|0,0:0|0:0|0:0,0:0:0:0:
220,156,52684,6,0,B|208:112|216:32|216:32|168:36,1,150.000005722046,8|0,0:0|0:0,0:0:0:0:
256,352,52977,2,0,P|268:312|360:336,1,150.000005722046,2|0,0:1|0:0,0:0:0:0:
352,76,53197,1,2,0:1:0:0:
372,124,53270,2,0,P|376:168|352:216,1,75.0000028610231,8|0,0:0|0:0,0:0:0:0:
204,252,53416,2,0,L|124:244,1,75.0000028610231,2|0,0:1|0:0,0:0:0:0:
440,264,53562,5,2,0:1:0:0:
140,88,53709,1,0,0:0:0:0:
177,372,53855,1,8,0:0:0:0:
184,320,53928,1,2,0:1:0:0:
188,268,54001,1,2,0:1:0:0:
192,216,54075,1,2,0:1:0:0:
200,164,54148,2,0,L|184:12,1,150.000005722046,2|2,0:1|0:1,0:0:0:0:
48,216,54440,2,0,L|60:320,1,100,0|0,0:0|0:0,0:0:0:0:
336,224,54733,6,0,L|488:204,1,150.000005722046,2|0,0:1|0:0,0:0:0:0:
104,68,55026,1,8,0:0:0:0:
320,344,55172,1,2,0:1:0:0:
440,112,55319,6,0,L|291:131,1,150.000005722046,2|0,0:1|0:0,0:0:0:0:
59,315,55611,2,0,L|207:334,1,150.000005722046,8|2,0:0|0:1,0:0:0:0:
472,320,55904,6,0,B|480:288|480:288|464:196,1,119.999996337891,2|0,0:1|0:0,0:0:0:0:
200,24,56197,2,0,B|192:56|192:56|208:148,1,119.999996337891,2|0,1:2|0:0,0:0:0:0:
244,244,56489,5,2,0:0:0:0:
276,216,56562,1,0,0:0:0:0:
320,220,56636,1,0,0:0:0:0:
352,248,56709,1,0,0:0:0:0:
364,288,56782,1,0,0:0:0:0:
348,328,56855,1,0,0:0:0:0:
312,348,56928,1,0,0:0:0:0:
272,344,57001,1,0,0:0:0:0:
240,316,57075,6,0,L|232:280,30,29.9999990844727,6|0|0|0|0|0|0|0|0|0|0|0|0|0|0|0|0|0|0|0|0|0|0|0|0|0|0|0|0|0|0,0:1|0:0|0:0|0:0|0:0|0:0|0:0|0:0|0:0|0:0|0:0|0:0|0:0|0:0|0:0|0:0|0:0|0:0|0:0|0:0|0:0|0:0|0:0|0:0|0:0|0:0|0:0|0:0|0:0|0:0|0:0,0:0:0:0:
168,224,58245,6,0,L|180:152,1,59.9999981689454,0|0,3:0|3:0,0:0:0:0:
104,304,58392,2,0,L|116:368,1,59.9999981689454,0|0,3:0|3:0,0:0:0:0:
72,208,58538,1,4,3:0:0:0:
66,213,58611,1,0,3:0:0:0:
61,218,58684,1,0,3:0:0:0:
56,223,58757,1,0,3:0:0:0:
50,229,58831,1,4,3:0:0:0:
51,214,58904,1,0,3:0:0:0:
53,199,58977,1,0,3:0:0:0:
54,184,59050,1,0,3:0:0:0:
55,169,59123,1,4,3:0:0:0:
68,196,59196,1,0,3:0:0:0:
82,222,59269,1,0,3:0:0:0:
96,249,59342,1,0,3:0:0:0:
110,276,59415,5,4,1:3:0:0:
124,228,59489,1,0,1:0:0:0:
160,196,59562,1,0,1:0:0:0:
208,188,59636,1,0,1:0:0:0:
256,196,59709,1,4,1:3:0:0:
296,224,59782,1,0,1:0:0:0:
316,268,59855,1,0,1:0:0:0:
344,304,59928,1,0,1:0:0:0:
388,324,60001,1,4,1:3:0:0:
436,324,60075,1,4,1:3:0:0:
468,288,60148,1,4,1:3:0:0:
480,244,60221,1,4,1:3:0:0:
472,196,60294,1,8,1:3:0:0:
440,160,60367,1,8,1:3:0:0:
392,160,60440,1,8,1:3:0:0:
352,188,60514,1,8,1:3:0:0:
313,202,60587,5,0,0:0:0:0:
273,195,60659,1,0,0:0:0:0:
241,168,60732,1,0,0:0:0:0:
226,130,60805,1,0,0:0:0:0:
234,90,60878,1,0,0:0:0:0:
259,58,60950,1,0,0:0:0:0:
298,44,61023,1,0,0:0:0:0:
339,51,61096,1,0,0:0:0:0:
371,77,61169,1,0,0:0:0:0:
384,115,61241,1,0,0:0:0:0:
377,155,61314,1,0,0:0:0:0:
352,188,61387,1,0,0:0:0:0:
313,202,61460,2,0,L|252:196,1,50,8|0,0:0|0:0,0:0:0:0:
20,140,61606,5,0,0:0:0:0:
60,144,61679,1,0,0:0:0:0:
100,148,61752,2,0,P|152:112|80:24,1,194.999991073609,6|0,0:0|2:0,0:0:0:0:
20,140,62043,2,0,L|32:288,1,129.999994049073,8|0,0:0|0:0,0:0:0:0:
304,132,62334,5,2,0:0:0:0:
208,88,62480,1,0,0:0:0:0:
208,88,62553,1,0,0:0:0:0:
208,88,62625,2,0,L|200:172,1,64.9999970245363,8|0,0:0|0:0,0:0:0:0:
156,288,62771,2,0,L|148:204,1,64.9999970245363,0|0,0:0|0:0,0:0:0:0:
88,76,62917,5,2,0:0:0:0:
256,232,63062,1,0,0:0:0:0:
400,40,63208,2,0,P|319:38|260:36,1,129.999994049073,8|0,0:0|0:0,0:0:0:0:
80,204,63499,5,2,0:0:0:0:
116,188,63572,1,0,0:0:0:0:
156,184,63645,1,0,0:0:0:0:
192,192,63718,1,0,0:0:0:0:
224,212,63790,1,8,0:0:0:0:
388,136,63936,1,0,0:0:0:0:
352,344,64082,6,0,L|340:208,1,129.999994049073,2|0,0:0|0:0,0:0:0:0:
288,100,64373,1,8,0:0:0:0:
456,224,64519,1,0,0:0:0:0:
256,308,64664,6,0,P|232:312|168:312,1,64.9999970245363,2|0,0:0|2:0,0:0:0:0:
388,136,64810,2,0,P|412:132|476:132,1,64.9999970245363,0|0,0:0|2:0,0:0:0:0:
224,232,64955,6,0,B|212:208|212:208|204:176|212:144,1,69.9999978637696,10|0,0:0|2:0,0:0:0:0:
420,212,65101,2,0,B|432:236|432:236|440:268|432:300,1,69.9999978637696,0|0,0:0|2:0,0:0:0:0:
140,244,65247,5,2,0:0:0:0:
468,148,65392,1,0,0:0:0:0:
284,36,65538,2,0,B|288:84|288:84|284:96|284:96|284:108|292:140|284:188,1,129.999994049073,8|0,0:0|0:0,0:0:0:0:
184,80,65829,5,2,0:0:0:0:
468,148,65975,1,0,0:0:0:0:
256,308,66120,2,0,P|252:268|260:224,1,64.9999970245363,8|0,0:0|0:0,0:0:0:0:
386,71,66266,2,0,P|390:111|382:155,1,64.9999970245363,0|0,0:0|0:0,0:0:0:0:
190,191,66412,5,2,0:0:0:0:
225,165,66485,1,0,0:0:0:0:
267,162,66557,1,0,0:0:0:0:
308,179,66630,1,0,0:0:0:0:
333,216,66703,6,0,L|344:276,1,50,8|0,0:0|2:0,0:0:0:0:
112,168,66849,2,0,L|102:118,1,50,0|0,0:0|2:0,0:0:0:0:
248,32,66994,6,0,L|376:44,1,100,2|0,0:0|0:0,0:0:0:0:
164,52,67286,1,8,0:0:0:0:
436,28,67431,1,0,0:0:0:0:
328,272,67577,5,2,0:0:0:0:
304,236,67650,1,0,0:0:0:0:
300,192,67722,1,0,0:0:0:0:
316,152,67795,1,0,0:0:0:0:
352,128,67868,6,0,P|386:122|428:120,1,50,8|0,0:0|2:0,0:0:0:0:
160,128,68014,2,0,P|124:124|84:112,1,50,0|0,0:0|2:0,0:0:0:0:
392,208,68159,6,0,P|422:210|464:216,1,50,2|0,0:0|2:0,0:0:0:0:
120,208,68305,2,0,P|88:212|48:212,1,50,0|0,0:0|2:0,0:0:0:0:
328,272,68451,6,0,P|340:312|344:344,1,50,8|0,0:0|0:0,0:0:0:0:
236,88,68596,2,0,P|224:48|220:16,1,50
224,312,68742,6,0,P|172:352|96:332,1,115.000002193451,6|0,0:0|0:0,0:0:0:0:
60,312,68960,1,0,0:0:0:0:
60,312,69033,2,0,L|48:196,1,115.000002193451,8|0,0:0|0:0,0:0:0:0:
40,120,69252,1,0,0:0:0:0:
44,116,69324,5,2,0:0:0:0:
280,192,69470,1,0,0:0:0:0:
284,196,69543,1,0,0:0:0:0:
288,200,69616,1,8,0:0:0:0:
180,20,69761,1,2,0:0:0:0:
152,272,69907,5,0,0:0:0:0:
384,208,70053,1,0,0:0:0:0:
389,206,70125,1,0,0:0:0:0:
394,204,70198,2,0,P|416:140|388:84,1,115.000002193451,8|0,0:0|0:0,0:0:0:0:
276,24,70489,5,2,0:0:0:0:
328,308,70635,1,8,0:0:0:0:
488,188,70781,5,8,0:0:0:0:
84,96,70926,1,8,0:0:0:0:
200,288,71072,6,0,B|212:240|201:208|201:208|210:172|210:172|198:139|211:88,1,194.999991073609,6|0,0:0|2:0,0:0:0:0:
276,24,71363,2,0,P|306:79|297:143,1,129.999994049073,8|0,0:0|0:0,0:0:0:0:
92,136,71582,5,0,0:0:0:0:
94,128,71654,2,0,P|158:88|246:128,1,129.999994049073,2|0,0:0|0:0,0:0:0:0:
428,360,71946,5,8,0:0:0:0:
376,40,72091,1,0,0:0:0:0:
148,252,72237,5,2,0:0:0:0:
316,200,72383,1,0,0:0:0:0:
140,156,72528,1,8,0:0:0:0:
292,344,72674,1,0,0:0:0:0:
244,32,72820,5,2,0:0:0:0:
240,76,72892,1,0,0:0:0:0:
236,120,72965,1,0,0:0:0:0:
232,164,73038,1,0,0:0:0:0:
228,208,73111,2,0,L|232:284,1,64.9999970245363,8|0,0:0|0:0,0:0:0:0:
392,180,73256,2,0,L|388:104,1,64.9999970245363,0|0,0:0|0:0,0:0:0:0:
156,52,73402,5,2,0:0:0:0:
304,272,73548,1,0,0:0:0:0:
503,156,73693,2,0,P|455:140|383:208,1,129.999994049073,8|0,0:0|0:0,0:0:0:0:
384,260,73912,1,0,0:0:0:0:
396,284,73985,6,0,P|429:287|480:292,1,64.9999970245363,2|0,0:0|2:0,0:0:0:0:
352,108,74130,2,0,P|321:111|287:114,1,64.9999970245363,0|0,0:0|2:0,0:0:0:0:
192,328,74276,6,0,P|228:330|296:336,1,69.9999978637696,8|0,0:0|2:0,0:0:0:0:
148,88,74421,2,0,P|111:90|44:96,1,69.9999978637696,0|0,0:0|2:0,0:0:0:0:
8,272,74567,5,2,0:0:0:0:
272,160,74713,1,0,0:0:0:0:
0,56,74858,2,0,B|-1:87|4:104|4:104|4:148|4:148|0:176|12:200|8:216,1,139.999995727539,8|0,0:0|0:0,0:0:0:0:
192,328,75150,2,0,B|192:297|196:280|196:280|196:236|196:236|192:208|204:184|200:168,1,139.999995727539,2|0,0:0|0:0,0:0:0:0:
420,48,75441,2,0,P|421:87|424:128,1,69.9999978637696,8|0,0:0|0:0,0:0:0:0:
364,268,75587,2,0,P|362:228|359:187,1,69.9999978637696,0|0,0:0|0:0,0:0:0:0:
288,84,75732,5,6,0:0:0:0:
244,64,75805,1,0,0:0:0:0:
196,64,75878,1,0,0:0:0:0:
152,84,75951,1,0,0:0:0:0:
124,124,76023,1,8,0:0:0:0:
432,192,76169,1,0,0:0:0:0:
80,248,76315,5,2,0:0:0:0:
328,20,76460,1,8,0:0:0:0:
288,344,76606,5,2,0:0:0:0:
216,156,76752,1,8,0:0:0:0:
504,264,76897,5,6,0:0:0:0:
460,284,76970,1,0,0:0:0:0:
412,284,77043,1,0,0:0:0:0:
368,264,77116,1,0,0:0:0:0:
340,224,77188,1,8,0:0:0:0:
476,56,77334,1,0,0:0:0:0:
448,364,77480,5,8,0:0:0:0:
284,120,77625,1,2,0:0:0:0:
508,180,77771,5,8,0:0:0:0:
268,312,77917,1,8,0:0:0:0:
84,120,78062,6,0,P|83:54|177:95,1,179.999994506836,2|0,0:0|0:0,0:0:0:0:
160,188,78353,2,0,B|128:184|128:184|88:208|40:188,1,119.999996337891,8|0,0:0|0:0,0:0:0:0:
173,65,78645,6,0,B|205:69|205:69|245:45|293:65,1,119.999996337891,2|0,0:0|0:0,0:0:0:0:
356,108,78863,1,0,0:0:0:0:
356,108,78936,2,0,L|368:240,1,119.999996337891,8|0,0:0|0:0,0:0:0:0:
180,277,79227,6,0,P|152:209|180:165,1,100,8|0,0:0|2:0,0:0:0:0:
180,277,79519,6,0,P|252:286|282:354,1,119.999996337891,8|0,0:0|2:0,0:0:0:0:
180,277,79810,6,0,P|135:335|56:328,1,139.999995727539,8|0,0:0|2:0,0:0:0:0:
76,184,80101,6,2,L|328:196,1,209.999993591309,0|0,2:0|0:0,0:1:0:0:
400,200,80392,5,6,0:0:0:0:
416,156,80465,1,0,0:0:0:0:
412,112,80538,1,0,0:0:0:0:
388,72,80611,1,0,0:0:0:0:
348,52,80684,1,8,0:0:0:0:
304,48,80756,1,0,0:0:0:0:
260,64,80829,1,0,0:0:0:0:
232,100,80902,1,0,0:0:0:0:
224,144,80975,6,0,L|236:296,1,129.999994049073,2|0,0:0|0:0,0:0:0:0:
328,344,81193,1,0,0:0:0:0:
344,328,81266,2,0,P|352:284|344:248,1,64.9999970245363,8|0,0:0|0:0,0:0:0:0:
304,48,81412,2,0,P|296:92|304:128,1,64.9999970245363,0|0,0:0|0:0,0:0:0:0:
504,88,81557,6,0,B|448:68|448:68|356:88,1,129.999994049073,2|0,0:0|0:0,0:0:0:0:
224,144,81776,1,0,0:0:0:0:
200,152,81849,2,0,L|120:156,1,64.9999970245363,8|0,0:0|0:0,0:0:0:0:
288,240,81994,2,0,L|368:244,1,64.9999970245363,0|0,0:0|0:0,0:0:0:0:
440,152,82140,5,2,0:0:0:0:
156,256,82286,1,0,0:0:0:0:
379,82,82431,5,8,0:0:0:0:
464,368,82577,1,0,0:0:0:0:
236,128,82722,5,2,0:0:0:0:
260,76,82795,1,0,0:0:0:0:
306,42,82868,1,0,0:0:0:0:
363,36,82941,1,0,0:0:0:0:
415,59,83014,1,8,0:0:0:0:
448,105,83086,1,0,0:0:0:0:
454,162,83159,1,0,0:0:0:0:
431,214,83232,1,0,0:0:0:0:
385,248,83305,6,0,B|320:251|320:251|307:248|307:248|296:252|296:252|248:255,1,129.999994049073,2|0,0:0|0:0,0:0:0:0:
88,208,83523,1,0,0:0:0:0:
64,172,83596,2,0,P|56:140|64:96,1,64.9999970245363,8|0,0:0|0:0,0:0:0:0:
152,296,83742,2,0,P|155:328|147:359,1,64.9999970245363,0|0,0:0|0:0,0:0:0:0:
144,132,83887,5,2,0:0:0:0:
144,132,84179,5,8,0:0:0:0:
368,108,84324,1,0,0:0:0:0:
112,48,84470,5,2,0:0:0:0:
280,272,84616,1,0,0:0:0:0:
296,0,84761,5,8,0:0:0:0:
192,348,84907,1,0,0:0:0:0:
392,260,85053,5,2,0:0:0:0:
404,232,85125,1,0,0:0:0:0:
408,200,85198,1,0,0:0:0:0:
404,168,85271,1,0,0:0:0:0:
392,136,85344,1,8,0:0:0:0:
386,132,85417,1,0,0:0:0:0:
380,128,85489,1,0,0:0:0:0:
374,124,85562,1,0,0:0:0:0:
368,120,85635,6,0,B|312:116|312:116|300:120|300:120|224:116,1,129.999994049073,2|0,0:0|0:0,0:0:0:0:
168,164,85853,2,0,P|200:192|256:196,1,64.9999970245363,0|8,0:0|0:0,0:0:0:0:
228,8,86072,1,0,0:0:0:0:
92,108,86218,6,0,P|72:180|136:252,1,129.999994049073,2|0,0:0|0:0,0:0:0:0:
184,296,86436,2,0,L|332:280,1,129.999994049073,0|0,0:0|0:0,0:0:0:0:
356,276,86654,1,0,0:0:0:0:
312,20,86800,6,0,B|296:64|308:108|308:108|288:132|288:132|312:164|304:196|296:220|272:208,2,209.999993591309,2|0|0,0:0|0:0|0:0,0:0:0:0:
168,164,87383,5,2,0:0:0:0:
392,72,87528,1,0,0:0:0:0:
392,72,87601,1,0,0:0:0:0:
392,72,87674,1,8,0:0:0:0:
128,40,87820,1,0,0:0:0:0:
264,300,87965,5,2,0:0:0:0:
424,200,88111,1,0,0:0:0:0:
424,200,88184,2,0,L|432:104,1,64.9999970245363,0|8,0:0|0:0,0:0:0:0:
233,43,88402,2,0,L|228:108,1,64.9999970245363
332,176,88548,5,2,0:0:0:0:
288,180,88620,1,0,0:0:0:0:
244,184,88693,1,0,0:0:0:0:
200,188,88766,1,0,0:0:0:0:
156,192,88839,1,8,0:0:0:0:
308,24,88985,1,8,0:0:0:0:
404,248,89130,5,2,0:0:0:0:
0,92,89276,1,10,0:0:0:0:
216,368,89421,5,2,0:0:0:0:
232,12,89567,1,8,0:0:0:0:
136,336,89713,6,0,B|120:304|83:299|83:299|72:272|88:231|88:231|76:220|76:220|100:152|68:84,1,279.999991455078,6|0,0:0|0:0,0:0:0:0:
216,292,90150,2,0,B|214:272|197:262|197:262|197:246|214:229|214:229|210:220|210:220|237:191|235:150,1,139.999995727539,6|0,0:0|2:0,0:0:0:0:
152,24,90441,1,0,0:0:0:0:
296,348,90586,6,0,B|316:320|312:292|312:292|344:292|344:292|344:248|392:196|476:216|488:296,1,279.999991455078,6|0,0:0|0:0,0:0:0:0:
352,136,91023,2,0,B|390:119|415:125|415:125|426:120|426:120|468:131|515:118,1,139.999995727539,6|0,0:0|2:0,0:0:0:0:
280,52,91315,1,0,0:0:0:0:
416,296,91460,5,2,0:0:0:0:
84,120,91606,1,0,0:0:0:0:
464,44,91752,5,8,0:0:0:0:
92,312,91897,1,0,2:0:0:0:
192,64,92043,6,0,B|224:44|260:60|260:60|224:68|180:112|180:112|156:36|76:20,1,279.999991455078,6|0,0:0|0:0,0:0:0:0:
268,168,92480,2,0,B|296:140|412:172|412:172|364:216|340:192,1,209.999993591309,6|0,0:0|2:0,0:0:0:0:
348,196,92771,1,0,0:0:0:0:
124,232,92917,2,0,B|76:248|76:248|128:268|128:268|136:256|136:256|168:280|220:268|220:268|232:296|224:344,1,279.999991455078,6|0,0:0|0:0,0:0:0:0:
316,52,93353,2,0,B|372:28|412:48|412:48|392:60|380:80,1,139.999995727539,6|0,0:0|2:0,0:0:0:0:
228,352,93645,1,2,0:0:0:0:
456,120,93790,5,2,0:0:0:0:
188,192,93936,1,0,0:0:0:0:
432,348,94082,5,8,0:0:0:0:
80,48,94227,1,0,0:0:0:0:
84,60,94300,1,0,0:0:0:0:
88,72,94373,6,0,L|80:148,1,69.9999978637696,2|0,0:0|0:0,0:0:0:0:
340,324,94519,2,0,L|352:244,1,69.9999978637696
140,300,94664,2,0,L|56:308,1,69.9999978637696,2|0,0:0|0:0,0:0:0:0:
392,156,94810,2,0,L|476:164,1,69.9999978637696,0|0,0:0|0:0,0:0:0:0:
88,224,94955,2,0,L|8:212,1,69.9999978637696,2|0,0:0|0:0,0:0:0:0:
336,88,95101,2,0,P|376:60|404:16,1,69.9999978637696,0|0,0:0|0:0,0:0:0:0:
180,148,95247,2,0,P|172:196|180:236,1,69.9999978637696,2|0,0:0|0:0,0:0:0:0:
232,52,95392,2,0,P|208:24|168:8,1,69.9999978637696,0|0,0:0|0:0,0:0:0:0:
260,196,95538,5,2,0:0:0:0:
280,240,95611,1,0,0:0:0:0:
324,264,95684,1,0,0:0:0:0:
372,272,95756,1,0,0:0:0:0:
416,252,95829,1,2,0:0:0:0:
464,260,95902,1,0,0:0:0:0:
492,300,95975,1,0,0:0:0:0:
484,348,96048,1,0,0:0:0:0:
444,376,96120,1,2,0:0:0:0:
396,372,96193,1,0,0:0:0:0:
364,336,96266,1,0,0:0:0:0:
352,288,96339,1,0,0:0:0:0:
360,240,96412,1,2,0:0:0:0:
376,192,96485,1,0,0:0:0:0:
368,144,96557,1,0,0:0:0:0:
336,108,96630,1,0,0:0:0:0:
288,96,96703,5,2,0:0:0:0:
244,112,96776,1,0,2:0:0:0:
196,128,96849,1,0,0:0:0:0:
148,132,96921,1,0,2:0:0:0:
100,116,96994,1,2,0:0:0:0:
56,96,97067,1,0,2:0:0:0:
28,56,97140,1,0,0:0:0:0:
56,16,97213,1,0,2:0:0:0:
104,4,97286,1,2,0:0:0:0:
152,8,97358,1,0,0:0:0:0:
196,28,97431,1,0,0:0:0:0:
228,64,97504,1,0,0:0:0:0:
244,112,97577,1,0,0:0:0:0:
240,160,97650,1,0,0:0:0:0:
256,204,97722,1,0,0:0:0:0:
296,232,97795,1,0,0:0:0:0:
340,248,97868,1,0,0:0:0:0:
256,192,97941,12,2,98742,0:0:0:0:
176,348,99033,6,0,P|172:316|72:280,1,139.999995727539,6|0,0:0|0:0,0:0:0:0:
60,316,99252,1,0,0:0:0:0:
40,360,99324,2,0,L|116:340,1,69.9999978637696,8|0,0:0|0:0,0:0:0:0:
120,124,99470,2,0,L|200:132,1,69.9999978637696,2|0,0:0|0:0,0:0:0:0:
296,352,99616,1,0,0:0:0:0:
12,184,99761,1,0,0:0:0:0:
416,248,99907,5,10,0:0:0:0:
32,188,100053,1,0,0:0:0:0:
480,192,100198,6,0,P|500:236|384:328,1,209.999993591309,0|0,0:0|0:0,0:0:0:0:
352,320,100489,2,0,B|296:308|296:308|200:320,1,139.999995727539,8|0,0:0|0:0,0:0:0:0:
373,137,100708,1,0,0:0:0:0:
373,137,100781,2,0,P|367:102|372:67,1,69.9999978637696,2|0,0:0|0:0,0:0:0:0:
264,216,100926,2,0,L|184:228,1,69.9999978637696,0|2,0:0|0:0,0:0:0:0:
460,100,101072,1,8,0:0:0:0:
116,276,101218,1,0,0:0:0:0:
260,32,101363,5,2,0:0:0:0:
276,76,101436,1,0,0:0:0:0:
272,124,101509,1,0,0:0:0:0:
224,140,101582,1,0,0:0:0:0:
192,176,101654,1,8,0:0:0:0:
180,224,101727,1,0,0:0:0:0:
200,268,101800,1,0,0:0:0:0:
240,296,101873,1,0,0:0:0:0:
288,300,101946,2,0,B|392:280|392:280|440:280,1,139.999995727539,2|0,0:0|0:0,0:0:0:0:
456,320,102164,1,0,0:0:0:0:
423,348,102237,2,0,P|419:304|431:268,1,69.9999978637696,8|0,0:0|0:0,0:0:0:0:
488,124,102383,2,0,P|456:152|416:160,1,69.9999978637696,2|0,0:0|0:0,0:0:0:0:
128,112,102528,6,0,P|104:148|96:256,1,139.999995727539,2|0,0:0|0:0,0:0:0:0:
344,372,102820,5,8,0:0:0:0:
420,80,102965,1,0,0:0:0:0:
164,356,103111,5,8,0:0:0:0:
496,216,103256,1,0,0:0:0:0:
52,248,103402,5,8,0:0:0:0:
496,360,103548,1,0,0:0:0:0:
48,136,103693,5,6,0:0:0:0:
48,88,103766,1,0,0:0:0:0:
76,48,103839,1,0,0:0:0:0:
124,32,103912,1,0,0:0:0:0:
172,40,103985,2,0,P|208:52|244:48,1,69.9999978637696,8|0,0:0|0:0,0:0:0:0:
168,196,104130,2,0,P|164:248|168:288,1,69.9999978637696,0|0,0:0|0:0,0:0:0:0:
360,164,104276,6,0,B|372:124|372:124|360:24,1,139.999995727539,2|8,0:0|0:0,0:0:0:0:
408,28,104494,1,0,0:0:0:0:
448,56,104567,2,0,L|460:136,1,69.9999978637696,2|0,0:0|0:0,0:0:0:0:
284,216,104713,2,0,L|296:296,1,69.9999978637696,8|0,0:0|0:0,0:0:0:0:
128,128,104858,5,6,0:0:0:0:
94,166,104930,1,0,0:0:0:0:
90,218,105003,1,0,0:0:0:0:
119,260,105076,1,0,0:0:0:0:
164,280,105150,2,0,P|180:320|188:360,1,69.9999978637696,8|0,0:0|0:0,0:0:0:0:
232,132,105295,2,0,P|208:88|200:56,1,69.9999978637696,0|0,0:0|0:0,0:0:0:0:
380,200,105441,2,0,L|364:344,1,139.999995727539,2|8,0:0|0:0,0:0:0:0:
296,64,105732,1,2,0:0:0:0:
92,340,105878,1,8,0:0:0:0:
456,248,106023,5,2,0:0:0:0:
461,231,106095,1,0,0:0:0:0:
463,213,106168,1,0,0:0:0:0:
463,196,106242,1,0,0:0:0:0:
460,179,106315,2,0,P|448:136|448:104,1,69.9999978637696,8|0,0:0|0:0,0:0:0:0:
272,236,106460,1,0,0:0:0:0:
484,332,106606,1,2,0:0:0:0:
172,200,106752,1,0,0:0:0:0:
380,200,106897,1,8,0:0:0:0:
104,360,107043,1,0,0:0:0:0:
152,24,107188,6,0,L|176:176,1,139.999995727539,2|0,0:0|0:0,0:0:0:0:
172,200,107407,2,0,P|180:156|288:116,1,139.999995727539,2|0,0:0|0:0,0:0:0:0:
284,116,107625,2,0,B|296:80|296:80|292:24,1,69.9999978637696,0|0,0:0|0:0,0:0:0:0:
88,196,107771,5,2,0:0:0:0:
100,244,107844,1,0,2:0:0:0:
140,276,107917,1,2,0:0:0:0:
188,284,107989,1,0,2:0:0:0:
232,264,108062,1,8,0:0:0:0:
268,228,108135,1,0,0:0:0:0:
316,212,108208,1,8,0:0:0:0:
364,220,108281,1,0,0:0:0:0:
404,248,108353,6,0,B|416:260|424:280|424:280|448:224|420:172|420:172|440:184|440:184|416:112|448:52,1,279.999991455078,6|0,0:0|0:0,0:0:0:0:
340,300,108790,2,0,B|360:340|328:372|328:372|312:336|312:300,1,139.999995727539,6|0,0:0|0:0,0:0:0:0:
304,80,109082,1,0,0:0:0:0:
304,80,109154,1,0,0:0:0:0:
304,80,109227,2,0,P|272:128|132:92,1,209.999993591309,6|0,0:0|0:0,0:0:0:0:
124,88,109519,5,0,0:0:0:0:
388,140,109664,2,0,B|408:120|412:92|412:92|424:136|408:176,1,139.999995727539,6|0,0:0|0:0,0:0:0:0:
212,268,109955,1,0,0:0:0:0:
212,268,110028,1,0,0:0:0:0:
212,268,110101,6,0,B|172:260|172:260|208:248,1,69.9999978637696,6|0,0:0|0:0,0:0:0:0:
432,276,110247,2,0,B|444:300|436:320|436:320|432:300|416:292,1,69.9999978637696,0|0,0:0|0:0,0:0:0:0:
176,348,110392,2,0,L|76:332,1,69.9999978637696,6|0,0:0|0:0,0:0:0:0:
336,216,110538,2,0,B|360:208|380:212|380:212|364:220|356:240,1,69.9999978637696,0|0,0:0|0:0,0:0:0:0:
96,172,110684,6,0,B|52:188|52:188|60:152|60:152|80:156|80:156|112:160|112:160|128:172|128:172|148:172|148:172|152:164|152:164|176:164|176:164|196:172|196:172|220:164|220:164|244:168|244:168|264:156,1,279.999991455078,6|0,0:0|0:0,0:0:0:0:
472,80,111120,1,6,0:0:0:0:
120,268,111266,1,0,0:0:0:0:
356,336,111412,1,0,0:0:0:0:
292,56,111557,2,0,L|244:52,6,34.9999989318848,6|0|0|0|0|0|0,0:0|0:0|0:0|0:0|0:0|0:0|0:0,0:0:0:0:
316,76,111849,5,0,0:0:0:0:
192,360,111994,1,6,0:0:0:0:
144,80,112140,1,0,0:0:0:0:
448,324,112286,1,0,0:0:0:0:
80,276,112431,5,6,0:0:0:0:
460,236,112577,1,0,0:0:0:0:
24,164,112722,5,6,0:0:0:0:
424,156,112868,1,0,0:0:0:0:
212,336,113014,5,10,0:0:0:0:
160,356,113086,1,0,0:0:0:0:
104,348,113159,1,0,0:0:0:0:
56,316,113232,1,0,0:0:0:0:
40,264,113305,1,8,0:0:0:0:
52,208,113378,1,0,0:0:0:0:
96,176,113451,1,0,0:0:0:0:
152,176,113523,1,0,0:0:0:0:
204,200,113596,1,10,0:0:0:0:
244,240,113669,1,0,0:0:0:0:
292,268,113742,1,0,0:0:0:0:
348,280,113815,1,0,0:0:0:0:
396,252,113887,1,8,0:0:0:0:
424,204,113960,1,0,0:0:0:0:
416,148,114033,1,0,0:0:0:0:
380,108,114106,1,0,0:0:0:0:
324,96,114179,5,10,0:0:0:0:
276,125,114252,1,0,0:0:0:0:
221,116,114324,1,8,0:0:0:0:
189,69,114397,1,0,0:0:0:0:
209,16,114470,1,10,0:0:0:0:
263,2,114543,1,0,0:0:0:0:
315,23,114616,1,8,0:0:0:0:
338,73,114688,1,0,0:0:0:0:
380,108,114761,5,10,0:0:0:0:
433,124,114834,1,0,0:0:0:0:
481,95,114907,1,8,0:0:0:0:
488,39,114980,1,0,0:0:0:0:
440,9,115053,1,10,0:0:0:0:
384,6,115125,1,0,0:0:0:0:
337,36,115198,1,8,0:0:0:0:
320,89,115271,1,0,0:0:0:0:
323,145,115344,6,0,B|322:179|337:204|337:204|340:244|340:244|310:288,1,139.999995727539,2|0,0:0|2:0,0:0:0:0:
316,297,115926,2,0,B|299:291|299:291|254:296|254:296|209:274|209:274|168:275,1,139.999995727539,2|0,0:0|2:0,0:0:0:0:
168,289,116509,2,0,B|168:229|168:229|163:217|163:217|186:194|182:135,1,139.999995727539,2|0,0:0|2:0,0:0:0:0:
164,131,117091,2,0,P|216:144|245:67,1,139.999995727539,2|0,0:0|2:0,0:0:0:0:
240,55,117674,1,6,0:0:0:0:
256,192,117747,12,0,120077,0:0:0:0:
