osu file format v14

[General]
AudioFilename: LegenD.mp3
AudioLeadIn: 0
PreviewTime: 61460
Countdown: 0
SampleSet: Normal
StackLeniency: 0.7
Mode: 0
LetterboxInBreaks: 0
WidescreenStoryboard: 0

[Editor]
DistanceSpacing: 0.5
BeatDivisor: 4
GridSize: 4
TimelineZoom: 1.699999

[Metadata]
Title:LegenD.
TitleUnicode:LegenD.
Artist:Yooh
ArtistUnicode:Yooh
Creator:toybot
Version:Kotori's EXTREME
Source:SOUND VOLTEX III GRAVITY WARS
Tags:sdvx bemani the 4th kac mikii skinnyjommy gokugohan12468 kittyadventure sionkotori captin1 fort ciyus miapah
BeatmapID:818685
BeatmapSetID:359821

[Difficulty]
HPDrainRate:7
CircleSize:4
OverallDifficulty:7
ApproachRate:9.2
SliderMultiplier:1.7
SliderTickRate:1

[Events]
//Background and Video events
0,0,"legend.jpg",0,0
//Break Periods
2,57275,58553
//Storyboard Layer 0 (Background)
//Storyboard Layer 1 (Fail)
//Storyboard Layer 2 (Pass)
//Storyboard Layer 3 (Foreground)
//Storyboard Sound Samples

[TimingPoints]
880,292.682926829268,4,1,1,25,1,0
880,-142.857142857143,4,1,1,25,0,0
5270,-90.9090909090909,4,1,1,25,0,0
5562,-125,4,1,1,25,0,0
6733,-111.111111111111,4,1,1,25,0,0
7904,-99.9999999999999,4,1,1,25,0,0
9221,-83.3333333333333,4,1,1,50,0,0
14928,-68.9655172413793,4,1,1,50,0,0
17270,-142.857142857143,4,2,1,50,0,0
19026,-111.111111111111,4,2,1,50,0,0
19611,-90.9090909090908,4,1,1,50,0,0
25245,-90.9090909090908,4,1,1,10,0,0
25319,-90.9090909090908,4,1,1,50,0,0
25392,-90.9090909090908,4,1,1,10,0,0
25465,-90.9090909090908,4,1,1,50,0,0
26928,-125,4,1,1,50,0,0
27221,-90.9090909090909,4,1,1,50,0,0
27514,-125,4,1,1,50,0,0
27806,-76.9230769230769,4,1,1,50,0,0
28684,-76.9230769230769,4,1,1,32,0,0
28782,-76.9230769230769,4,1,1,24,0,0
28879,-76.9230769230769,4,1,1,16,0,0
28977,-90.9090909090909,4,1,1,50,0,0
36075,-90.9090909090909,4,1,1,10,0,0
36148,-90.9090909090909,4,1,1,50,0,0
36221,-90.9090909090909,4,1,1,10,0,0
36294,-90.9090909090909,4,1,1,50,0,0
36660,-90.9090909090909,4,1,1,10,0,0
36733,-90.9090909090909,4,1,1,50,0,0
36806,-90.9090909090909,4,1,1,10,0,0
36879,-90.9090909090909,4,1,1,50,0,0
37172,-83.3333333333333,4,1,1,50,0,0
38343,-90.9090909090909,4,1,1,50,0,0
40245,-166.666666666667,4,1,1,50,0,0
40611,-166.666666666667,4,1,1,15,0,0
40684,-90.9090909090909,4,1,1,50,0,0
42148,-66.6666666666667,4,1,1,50,0,0
42440,-142.857142857143,4,1,1,50,0,0
42953,-142.857142857143,4,1,1,15,0,0
43026,-90.9090909090909,4,1,1,50,0,0
44782,-100,4,1,1,50,0,0
45367,-90.9090909090909,4,1,1,50,0,0
46538,-80,4,1,1,70,0,0
46684,-80,4,1,1,20,0,0
46758,-80,4,1,1,70,0,0
46904,-80,4,1,1,20,0,0
46977,-80,4,1,1,70,0,0
47123,-80,4,1,1,20,0,0
47197,-80,4,1,1,70,0,0
47343,-80,4,1,1,20,0,0
47416,-76.9230769230769,4,1,1,60,0,0
47489,-76.9230769230769,4,1,1,20,0,0
47562,-76.9230769230769,4,1,1,60,0,0
47636,-76.9230769230769,4,1,1,20,0,0
47709,-86.9565217391304,4,1,1,50,0,0
52392,-133.333333333333,4,1,1,45,0,0
52684,-86.9565217391304,4,1,1,50,0,0
54440,-133.333333333333,4,1,1,40,0,0
54733,-86.9565217391303,4,1,1,60,0,0
55904,-86.9565217391303,4,1,1,52,0,0
56489,-86.9565217391303,4,1,1,44,0,0
57075,-100,4,1,1,10,0,0
59416,-95.2380952380952,4,1,1,15,0,0
59709,-90.9090909090909,4,1,1,20,0,0
60001,-86.9565217391304,4,1,1,25,0,0
60294,-83.3333333333333,4,1,1,30,0,0
60587,291.26213592233,4,1,1,40,1,0
60587,-80,4,1,1,40,0,0
60878,-76.9230769230769,4,1,1,45,0,0
61169,-74.0740740740741,4,1,1,50,0,0
61460,-71.4285714285714,4,1,1,65,0,0
61679,-71.4285714285714,4,1,1,15,0,0
61752,-83.3333333333333,4,1,1,58,0,1
64737,-83.3333333333333,4,1,1,18,0,1
64810,-83.3333333333333,4,1,1,58,0,1
64883,-83.3333333333333,4,1,1,18,0,1
64955,-83.3333333333333,4,1,1,58,0,1
65028,-83.3333333333333,4,1,1,18,0,1
65101,-83.3333333333333,4,1,1,58,0,1
65174,-83.3333333333333,4,1,1,18,0,1
65247,-83.3333333333333,4,1,1,58,0,1
70562,-83.3333333333333,4,1,1,18,0,1
70635,-83.3333333333333,4,1,1,58,0,1
70708,-83.3333333333333,4,1,1,18,0,1
70781,-83.3333333333333,4,1,1,58,0,1
70853,-83.3333333333333,4,1,1,18,0,1
70926,-83.3333333333333,4,1,1,58,0,1
70999,-83.3333333333333,4,1,1,18,0,1
71072,-83.3333333333333,4,1,1,58,0,1
74057,-83.3333333333333,4,1,1,18,0,1
74130,-83.3333333333333,4,1,1,58,0,1
74203,-83.3333333333333,4,1,1,18,0,1
74276,-83.3333333333333,4,1,1,58,0,1
74349,-83.3333333333333,4,1,1,18,0,1
74421,-83.3333333333333,4,1,1,58,0,1
74494,-83.3333333333333,4,1,1,18,0,1
74567,-83.3333333333333,4,1,1,58,0,1
79227,-111.111111111111,4,1,1,48,0,1
79519,-83.3333333333333,4,1,1,53,0,1
79810,-66.6666666666667,4,1,1,58,0,1
80101,-55.5555555555556,4,1,1,63,0,1
80392,-83.3333333333333,4,1,1,50,0,0
89713,-90.9090909090909,4,1,1,50,0,0
94373,-83.3333333333333,4,1,1,50,0,0
96703,-80,4,1,1,50,0,0
97868,-100,4,2,1,40,0,0
98742,-100,4,2,1,70,0,0
99033,-76.9230769230769,4,1,1,54,0,1
102019,-76.9230769230769,4,1,1,14,0,1
102091,-76.9230769230769,4,1,1,54,0,1
102164,-76.9230769230769,4,1,1,14,0,1
102237,-76.9230769230769,4,1,1,54,0,1
102310,-76.9230769230769,4,1,1,14,0,1
102383,-76.9230769230769,4,1,1,54,0,1
102455,-76.9230769230769,4,1,1,14,0,1
102528,-76.9230769230769,4,1,1,54,0,1
115344,-76.9230769230769,4,1,1,54,0,0
120004,-76.9230769230769,4,1,1,30,0,0

[Colours]
Combo1 : 0,176,176
Combo2 : 128,0,128
Combo3 : 0,81,179
Combo4 : 128,128,128

[HitObjects]
215,134,587,6,0,L|307:126,1,85,0|8,0:0|0:0,0:0:0:0:
359,43,880,6,0,P|392:99|358:209,2,178.499994552612,8|0|0,0:0|0:0|0:0,0:0:0:0:
299,126,2050,2,0,B|232:137|232:137|194:116|194:116|119:127,2,178.499994552612
289,230,3221,2,0,B|358:244|358:244|427:223|427:223|390:193,2,178.499994552612
127,125,4392,2,0,B|102:178|102:178|127:303,1,178.499994552612
125,295,5270,6,0,L|103:188,1,93.5000028533936,8|8,0:0|0:0,0:0:0:0:
61,128,5562,2,0,P|103:118|133:128,2,68,4|0|0,0:0|0:0|0:0,0:0:0:0:
147,50,6001,2,0,P|183:72|197:100,2,68
263,56,6440,2,0,P|272:97|263:127,1,68
198,186,6733,5,0,0:0:0:0:
276,246,6879,2,0,L|371:241,1,76.4999976654053
188,293,7172,1,0,0:0:0:0:
266,353,7318,2,0,L|361:348,1,76.4999976654053
460,265,7611,2,0,L|455:170,1,76.4999976654053
319,96,7904,6,0,P|303:135|314:179,1,85
388,143,8197,1,0,0:0:0:0:
306,17,8343,2,0,P|267:33|243:72,2,85
396,59,8782,2,0,L|485:53,1,85
456,189,9075,5,0,0:0:0:0:
456,189,9221,2,0,L|460:162,1,25.4999992218018,8|0,0:0|0:0,0:0:0:0:
305,207,9367,2,0,L|288:185,1,25.4999992218018,8|0,0:0|0:0,0:0:0:0:
255,341,9514,2,0,L|228:337,1,25.4999992218018,8|0,0:0|0:0,0:0:0:0:
404,329,9660,2,0,L|483:324,2,50.9999984436036,8|0|0,0:0|0:0|0:0,0:0:0:0:
147,352,9953,1,2,0:0:0:0:
143,316,10026,1,2,0:0:0:0:
139,280,10099,1,2,0:0:0:0:
135,244,10172,1,2,0:0:0:0:
130,208,10245,6,0,L|15:216,1,101.999996887207,2|0,0:0|0:0,0:0:0:0:
103,31,10538,1,2,0:0:0:0:
185,97,10684,1,0,0:0:0:0:
91,133,10831,2,0,L|35:130,2,50.9999984436036,2|0|0,0:0|0:0|0:0,0:0:0:0:
271,61,11123,2,0,L|386:69,1,101.999996887207,2|0,0:0|0:0,0:0:0:0:
296,259,11416,6,0,P|287:207|297:158,1,101.999996887207,2|0,0:0|0:0,0:0:0:0:
477,221,11709,1,2,0:0:0:0:
411,303,11855,1,0,0:0:0:0:
375,209,12002,2,0,L|378:153,2,50.9999984436036,2|0|0,0:0|0:0|0:0,0:0:0:0:
332,353,12294,2,0,L|164:359,1,152.999995330811,2|0,0:0|0:0,0:0:0:0:
142,368,12587,6,0,L|138:264,1,101.999996887207,2|0,0:0|0:0,0:0:0:0:
167,117,12879,1,2,0:0:0:0:
199,217,13025,1,0,0:0:0:0:
101,196,13172,2,0,L|43:202,2,50.9999984436036,2|0|0,0:0|0:0|0:0,0:0:0:0:
275,150,13465,2,0,P|290:199|286:253,1,101.999996887207,2|0,0:0|0:0,0:0:0:0:
205,355,13758,6,0,L|142:351,2,50.9999984436036,2|0|0,0:0|0:0|0:0,0:0:0:0:
321,328,14050,2,0,L|384:332,2,50.9999984436036,2|0|0,0:0|0:0|0:0,0:0:0:0:
217,264,14343,1,2,0:0:0:0:
213,228,14416,1,0,0:0:0:0:
211,192,14489,1,0,0:0:0:0:
357,99,14636,1,2,0:0:0:0:
355,135,14709,1,2,0:0:0:0:
351,171,14782,1,2,0:0:0:0:
347,207,14855,1,2,0:0:0:0:
343,243,14928,6,0,B|370:255|370:255|403:240|403:240|469:240,2,123.250003761292,2|2|0,0:0|0:0|0:0,0:0:0:0:
217,264,15367,1,0,0:0:0:0:
217,264,15440,1,0,0:0:0:0:
217,264,15514,2,0,B|190:252|190:252|157:267|157:267|91:267,2,123.250003761292,2|2|0,0:0|0:0|0:0,0:0:0:0:
406,297,15953,1,2,0:0:0:0:
406,297,16026,6,0,P|421:268|420:232,1,61.6250018806458,2|0,0:0|0:0,0:0:0:0:
277,369,16245,1,2,0:0:0:0:
277,369,16318,2,0,P|309:367|340:349,1,61.6250018806458,2|0,0:0|0:0,0:0:0:0:
146,309,16538,1,2,0:0:0:0:
146,309,16611,1,2,0:0:0:0:
146,309,16684,2,0,P|163:335|194:353,3,61.6250018806458
109,232,16977,2,0,P|82:249|64:280,3,61.6250018806458
193,239,17270,5,0,0:0:0:0:
198,154,17416,1,0,0:0:0:0:
220,232,17562,5,0,0:0:0:0:
225,147,17708,1,0,0:0:0:0:
241,226,17855,5,0,0:0:0:0:
246,141,18001,1,0,0:0:0:0:
268,219,18147,5,0,0:0:0:0:
273,134,18293,1,0,0:0:0:0:
293,212,18440,6,0,L|294:287,1,59.4999981842042,2|2,0:0|0:0,0:0:0:0:
387,324,18733,2,0,L|386:249,1,59.4999981842042,2|0,0:0|0:0,0:0:0:0:
340,117,19026,1,2,0:0:0:0:
428,112,19172,1,0,0:0:0:0:
252,122,19319,2,0,L|155:129,1,76.4999976654053,2|0,0:0|0:0,0:0:0:0:
297,201,19611,6,0,P|309:251|296:300,1,93.5000028533936,6|0,0:0|0:0,0:0:0:0:
189,325,19904,1,2,0:0:0:0:
225,247,20050,1,0,0:0:0:0:
264,369,20197,2,0,L|164:365,1,93.5000028533936,2|0,0:0|0:0,0:0:0:0:
348,360,20489,2,0,L|448:364,1,93.5000028533936,2|0,0:0|0:0,0:0:0:0:
97,322,20782,6,0,B|77:277|77:277|93:224,1,93.5000028533936,2|0,0:0|0:0,0:0:0:0:
154,112,21075,1,2,0:0:0:0:
226,175,21221,1,0,0:0:0:0:
141,204,21367,2,0,L|38:199,1,93.5000028533936,2|0,0:0|0:0,0:0:0:0:
249,85,21660,2,0,L|352:90,1,93.5000028533936,2|0,0:0|0:0,0:0:0:0:
141,204,21953,6,0,B|121:163|121:163|133:113,1,93.5000028533936,2|0,0:0|0:0,0:0:0:0:
226,175,22245,1,2,0:0:0:0:
213,266,22392,1,0,0:0:0:0:
302,235,22538,2,0,L|318:139,1,93.5000028533936,2|0,0:0|0:0,0:0:0:0:
176,25,22831,2,0,L|160:121,1,93.5000028533936,2|0,0:0|0:0,0:0:0:0:
185,346,23123,6,0,P|238:350|271:326,1,93.5000028533936,2|0,0:0|0:0,0:0:0:0:
206,175,23416,2,0,B|199:233|199:233|215:271,1,93.5000028533936,2|0,0:0|0:0,0:0:0:0:
303,234,23709,1,2,0:0:0:0:
303,234,24001,2,0,L|399:233,1,93.5000028533936
431,140,24294,5,2,0:0:0:0:
431,140,24440,1,0,0:0:0:0:
351,64,24587,1,2,0:0:0:0:
351,64,24733,1,0,0:0:0:0:
496,92,24879,2,0,P|512:135|500:184,1,93.5000028533936,2|0,0:0|0:0,0:0:0:0:
272,104,25172,2,0,P|263:81|262:59,1,46.7500014266968,2|0,0:0|0:0,0:0:0:0:
216,165,25319,2,0,P|193:155|177:140,1,46.7500014266968
212,250,25465,6,0,L|218:351,1,93.5000028533936,2|0,0:0|0:0,0:0:0:0:
356,263,25758,1,2,0:0:0:0:
356,263,25904,1,0,0:0:0:0:
346,364,26050,1,2,0:0:0:0:
265,308,26197,1,0,0:0:0:0:
444,325,26343,2,0,L|438:224,1,93.5000028533936,2|0,0:0|0:0,0:0:0:0:
305,57,26636,6,0,L|309:108,1,46.7500014266968,2|0,0:0|0:0,0:0:0:0:
393,85,26782,2,0,L|397:136,1,46.7500014266968,2|0,0:0|0:0,0:0:0:0:
482,111,26928,2,0,B|486:167|486:167|466:213,1,90.6666666666667,12|0,0:0|0:0,0:0:0:0:
386,260,27221,6,0,L|317:256,1,46.7500014266968,2|0,0:0|0:0,0:0:0:0:
245,217,27367,2,0,L|241:286,1,46.7500014266968,2|0,0:0|0:0,0:0:0:0:
298,342,27514,2,0,L|406:351,1,90.6666666666667,12|0,0:0|0:0,0:0:0:0:
406,360,27806,6,0,P|349:322|271:345,1,147.333326588949,2|8,0:0|0:0,0:0:0:0:
165,307,28099,2,0,P|96:326|36:288,1,147.333326588949,2|8,0:0|0:0,0:0:0:0:
45,202,28392,1,2,0:0:0:0:
58,122,28489,1,2,0:0:0:0:
71,42,28587,2,0,L|61:-13,1,36.8333316472372,2|0,0:0|0:0,0:0:0:0:
135,96,28684,2,0,L|187:114,5,36.8333316472372,2|2|2|2|2|2,0:0|0:0|0:0|0:0|0:0|0:0,0:0:0:0:
122,88,28977,6,0,L|226:86,1,93.5000028533936,6|0,0:0|0:0,0:0:0:0:
384,181,29270,2,0,L|280:183,1,93.5000028533936,2|0,0:0|0:0,0:0:0:0:
105,210,29562,1,2,0:0:0:0:
121,307,29709,1,0,0:0:0:0:
203,252,29855,2,0,B|219:209|219:209|203:158,1,93.5000028533936,2|0,0:0|0:0,0:0:0:0:
68,369,30148,6,0,P|107:387|159:377,1,93.5000028533936,2|0,0:0|0:0,0:0:0:0:
326,337,30440,2,0,P|287:319|235:329,1,93.5000028533936,2|0,0:0|0:0,0:0:0:0:
426,350,30733,1,2,0:0:0:0:
498,272,30879,1,0,0:0:0:0:
393,247,31026,2,0,L|297:243,1,93.5000028533936,2|0,0:0|0:0,0:0:0:0:
152,58,31319,6,0,L|150:162,1,93.5000028533936,2|0,0:0|0:0,0:0:0:0:
245,320,31612,2,0,L|247:216,1,93.5000028533936,2|0,0:0|0:0,0:0:0:0:
274,41,31904,1,2,0:0:0:0:
371,57,32051,1,0,0:0:0:0:
316,139,32197,2,0,B|273:155|273:155|222:139,1,93.5000028533936,2|0,0:0|0:0,0:0:0:0:
436,3,32490,6,0,P|454:42|444:94,1,93.5000028533936,2|0,0:0|0:0,0:0:0:0:
394,262,32782,2,0,P|376:223|386:171,1,93.5000028533936,2|0,0:0|0:0,0:0:0:0:
486,256,33075,1,2,0:0:0:0:
458,361,33221,1,0,0:0:0:0:
354,358,33368,2,0,L|272:366,3,46.7500014266968,2|2|2|2,0:0|0:0|0:0|0:0,0:0:0:0:
312,278,33660,6,0,L|207:285,1,93.5000028533936,2|0,0:0|0:0,0:0:0:0:
22,359,33953,2,0,L|127:352,1,93.5000028533936,2|0,0:0|0:0,0:0:0:0:
142,268,34172,1,0,0:0:0:0:
142,268,34245,2,0,B|157:224|157:224|140:178,1,93.5000028533936,2|0,0:0|0:0,0:0:0:0:
30,30,34538,2,0,B|15:74|15:74|32:120,1,93.5000028533936,2|0,0:0|0:0,0:0:0:0:
225,273,34831,6,0,P|269:282|315:260,1,93.5000028533936,2|0,0:0|0:0,0:0:0:0:
438,308,35123,1,2,0:0:0:0:
262,193,35270,1,0,0:0:0:0:
460,129,35416,2,0,P|472:172|463:224,1,93.5000028533936,10|0,0:0|0:0,0:0:0:0:
347,245,35636,2,0,P|335:202|344:150,1,93.5000028533936,10|0,0:0|0:0,0:0:0:0:
390,77,35855,1,10,0:0:0:0:
266,123,36001,6,0,L|204:116,1,46.7500014266968,2|0,0:0|0:0,0:0:0:0:
199,28,36148,2,0,L|137:21,1,46.7500014266968,2|0,0:0|0:0,0:0:0:0:
66,91,36294,1,12,0:0:0:0:
68,123,36367,1,0,0:0:0:0:
70,155,36440,1,0,0:0:0:0:
72,187,36514,1,0,0:0:0:0:
132,241,36587,6,0,L|194:234,1,46.7500014266968,2|0,0:0|0:0,0:0:0:0:
199,146,36734,2,0,L|261:139,1,46.7500014266968,2|0,0:0|0:0,0:0:0:0:
332,209,36880,1,12,0:0:0:0:
330,241,36953,1,0,0:0:0:0:
328,273,37026,1,0,0:0:0:0:
326,305,37100,1,0,0:0:0:0:
253,347,37172,6,0,P|206:362|151:348,1,101.999996887207,8|0,0:0|0:0,0:0:0:0:
67,294,37392,1,0,0:0:0:0:
67,294,37465,2,0,P|52:247|66:192,1,101.999996887207,8|0,0:0|0:0,0:0:0:0:
152,142,37684,1,0,0:0:0:0:
152,142,37758,2,0,L|260:147,1,101.999996887207,8|0,0:0|0:0,0:0:0:0:
469,34,38050,2,0,L|361:39,1,101.999996887207,12|0,0:0|0:0,0:0:0:0:
202,235,38343,6,0,P|191:281|201:328,1,93.5000028533936,6|0,0:0|0:0,0:0:0:0:
435,286,38636,1,2,0:0:0:0:
274,289,38782,2,0,L|279:348,2,46.7500014266968,0|0|2,0:0|0:0|0:0,0:0:0:0:
437,255,39075,2,0,L|442:196,1,46.7500014266968
352,130,39221,2,0,L|343:223,1,93.5000028533936,2|0,0:0|0:0,0:0:0:0:
115,250,39514,6,0,P|161:256|201:235,1,93.5000028533936,2|0,0:0|0:0,0:0:0:0:
43,104,39806,2,0,L|37:203,1,93.5000028533936,2|0,0:0|0:0,0:0:0:0:
265,164,40099,2,0,L|267:116,1,46.7500014266968,2|0,0:0|0:0,0:0:0:0:
357,74,40245,6,0,L|362:209,1,127.499996109009,2|0,0:0|0:0,0:0:0:0:
419,257,40684,6,0,P|389:279|321:267,1,93.5000028533936,2|0,0:0|0:0,0:0:0:0:
151,245,40977,1,2,0:0:0:0:
235,314,41123,2,0,L|238:369,2,46.7500014266968,0|0|2,0:0|0:0|0:0,0:0:0:0:
42,321,41416,2,0,L|45:266,1,46.7500014266968
11,199,41562,1,2,0:0:0:0:
36,177,41636,1,0,0:0:0:0:
49,147,41709,1,0,0:0:0:0:
50,114,41782,1,0,0:0:0:0:
41,82,41855,1,2,0:0:0:0:
20,52,42148,6,0,B|43:44|43:44|59:49|59:49|88:44,1,63.7500024318696
241,129,42294,2,0,B|218:137|218:137|202:132|202:132|173:137,1,63.7500024318696
20,52,42440,6,0,B|67:28|123:27|167:53|167:53|114:79,1,208.249993644715,12|0,0:0|0:0,0:0:0:0:
74,159,43026,6,0,P|63:202|81:257,1,93.5000028533936,2|0,0:0|0:0,0:0:0:0:
198,355,43319,2,0,L|302:352,1,93.5000028533936,2|0,0:0|0:0,0:0:0:0:
381,358,43538,1,0,0:0:0:0:
381,358,43611,2,0,B|371:323|371:323|386:257,1,93.5000028533936,2|0,0:0|0:0,0:0:0:0:
469,266,43831,2,0,L|458:320,1,46.7500014266968,0|2,0:0|0:0,0:0:0:0:
298,271,44050,1,0,0:0:0:0:
396,86,44197,5,2,0:0:0:0:
419,193,44343,1,0,0:0:0:0:
311,163,44489,1,2,0:0:0:0:
54,124,44782,2,0,L|49:215,1,85
168,304,45075,1,0,0:0:0:0:
167,274,45148,1,0,0:0:0:0:
166,244,45221,1,0,0:0:0:0:
165,214,45294,1,0,0:0:0:0:
130,157,45367,6,0,L|227:148,1,93.5000028533936,2|0,0:0|0:0,0:0:0:0:
373,202,45660,1,2,0:0:0:0:
338,71,45806,1,0,0:0:0:0:
282,225,45953,2,0,P|273:271|288:320,1,93.5000028533936,2|0,0:0|0:0,0:0:0:0:
375,356,46172,1,0,0:0:0:0:
375,356,46245,2,0,P|419:340|454:303,1,93.5000028533936,2|0,0:0|0:0,0:0:0:0:
451,158,46538,6,0,L|338:153,1,106.25,2|0,0:0|0:0,0:0:0:0:
421,74,46758,2,0,L|308:69,1,106.25,2|0,0:0|0:0,0:0:0:0:
235,154,46977,6,0,L|240:267,1,106.25,2|0,0:0|0:0,0:0:0:0:
151,124,47196,2,0,L|156:237,1,106.25,2|0,0:0|0:0,0:0:0:0:
117,326,47416,6,0,P|147:334|179:328,1,55.2499974708558,2|0,0:0|0:0,0:0:0:0:
291,319,47562,2,0,P|314:316|344:324,1,55.2499974708558,2|0,0:0|0:0,0:0:0:0:
459,357,47709,6,0,L|464:255,1,97.7500018644333,6|0,0:0|0:0,0:0:0:0:
337,54,48001,2,0,B|323:100|323:100|341:146,1,97.7500018644333,2|0,0:0|0:0,0:0:0:0:
413,204,48221,1,0,0:0:0:0:
413,204,48294,2,0,L|526:201,1,97.7500018644333,2|0,0:0|0:0,0:0:0:0:
459,357,48587,2,0,L|346:354,1,97.7500018644333,2|0,0:0|0:0,0:0:0:0:
125,201,48879,6,0,P|175:190|225:215,1,97.7500018644333,2|0,0:0|0:0,0:0:0:0:
164,283,49099,1,0,0:0:0:0:
164,283,49172,2,0,B|129:300|129:300|57:293,1,97.7500018644333,2|0,0:0|0:0,0:0:0:0:
269,159,49465,2,0,L|272:270,1,97.7500018644333,2|0,0:0|0:0,0:0:0:0:
30,212,49758,2,0,L|33:101,1,97.7500018644333,2|0,0:0|0:0,0:0:0:0:
191,36,50050,6,0,P|239:46|286:26,1,97.7500018644333,2|0,0:0|0:0,0:0:0:0:
369,74,50270,1,0,0:0:0:0:
369,74,50343,2,0,P|413:56|461:66,1,97.7500018644333,2|0,0:0|0:0,0:0:0:0:
499,237,50636,2,0,L|494:345,1,97.7500018644333,2|0,0:0|0:0,0:0:0:0:
405,360,50855,2,0,L|408:308,1,48.8750009322167,0|2,0:0|0:0,0:0:0:0:
423,139,51075,1,0,0:0:0:0:
302,277,51221,6,0,P|260:294|202:280,1,97.7500018644333,6|0,0:0|0:0,0:0:0:0:
64,78,51514,2,0,P|106:61|164:75,1,97.7500018644333,6|0,0:0|0:0,0:0:0:0:
253,213,51806,1,4,0:0:0:0:
113,142,51953,1,2,0:0:0:0:
346,75,52099,2,0,L|343:175,1,97.7500018644333,4|0,0:0|0:0,0:0:0:0:
376,327,52392,6,0,P|400:321|422:322,2,42.5000016212464,0|2|0,0:0|0:0|0:0,0:0:0:0:
488,358,52684,6,0,P|494:303|472:261,1,97.7500018644333,6|0,0:0|0:0,0:0:0:0:
396,198,52904,1,0,0:0:0:0:
396,198,52977,2,0,B|361:209|361:209|293:207,1,97.7500018644333,2|0,0:0|0:0,0:0:0:0:
147,40,53270,2,0,L|249:43,1,97.7500018644333,2|0,0:0|0:0,0:0:0:0:
355,255,53562,6,0,P|366:301|352:354,1,97.7500018644333,2|0,0:0|0:0,0:0:0:0:
234,326,53782,1,0,0:0:0:0:
234,326,53855,2,0,P|223:280|237:227,1,97.7500018644333,2|0,0:0|0:0,0:0:0:0:
346,51,54148,5,2,0:0:0:0:
436,148,54294,1,2,0:0:0:0:
304,184,54440,2,0,L|298:112,1,63.7500024318696
198,53,54733,6,0,L|208:160,1,97.7500018644333,2|0,0:0|0:0,0:0:0:0:
40,24,55026,2,0,L|50:131,1,97.7500018644333,2|0,0:0|0:0,0:0:0:0:
49,342,55319,6,0,P|95:358|156:341,1,97.7500018644333,2|0,0:0|0:0,0:0:0:0:
114,184,55611,2,0,P|161:175|207:191,1,97.7500018644333,2|0,0:0|0:0,0:0:0:0:
487,264,55904,6,0,L|479:378,1,97.7500018644333,2|0,0:0|0:0,0:0:0:0:
273,347,56197,2,0,L|265:233,1,97.7500018644333,2|0,0:0|0:0,0:0:0:0:
272,32,56489,6,0,P|254:67|234:31,1,97.7500018644333,2|0,0:0|0:0,0:0:0:0:
367,81,56782,1,0,0:0:0:0:
255,193,56928,1,0,0:0:0:0:
143,81,57075,5,6,0:0:0:0:
396,323,59123,6,0,L|445:316,3,42.5,2|2|2|2,0:0|0:0|0:0|0:0,0:0:0:0:
294,271,59416,6,0,L|242:278,3,44.6249986381531,2|2|2|2,0:0|0:0|0:0|0:0,0:0:0:0:
390,201,59709,6,0,P|396:168|394:151,3,46.7500014266968,2|2|2|2,0:0|0:0|0:0|0:0,0:0:0:0:
285,155,60001,6,0,P|284:131|290:106,3,48.8750009322167,2|2|2|2,0:0|0:0|0:0|0:0,0:0:0:0:
192,38,60294,6,0,P|193:65|188:89,3,50.9999984436036,2|2|2|2,0:0|0:0|0:0|0:0,0:0:0:0:
92,74,60587,5,2,0:0:0:0:
79,109,60659,1,2,0:0:0:0:
77,146,60732,2,0,P|78:179|89:204,1,53.125,2|2,0:0|0:0,0:0:0:0:
187,291,60878,5,2,0:0:0:0:
223,284,60950,1,2,0:0:0:0:
256,267,61023,2,0,P|284:249|301:227,1,55.2499974708558,2|2,0:0|0:0,0:0:0:0:
327,100,61170,5,2,0:0:0:0:
303,72,61242,1,2,0:0:0:0:
272,52,61315,2,0,P|242:36|209:34,1,57.3750002188683,2|2,0:0|0:0,0:0:0:0:
163,158,61460,6,0,P|235:181|210:115,1,178.499994552612,10|0,0:0|0:0,0:0:0:0:
204,157,61752,6,0,L|325:154,1,101.999996887207,6|0,0:0|0:0,0:0:0:0:
413,94,62043,1,10,0:0:0:0:
398,222,62188,1,0,0:0:0:0:
492,146,62334,2,0,P|507:94|494:46,1,101.999996887207,2|0,0:0|0:0,0:0:0:0:
308,226,62625,1,10,0:0:0:0:
480,259,62771,1,0,0:0:0:0:
263,178,62917,6,0,L|268:291,1,101.999996887207,2|0,0:0|0:0,0:0:0:0:
476,336,63208,2,0,L|481:223,1,101.999996887207,10|0,0:0|0:0,0:0:0:0:
405,59,63499,1,2,0:0:0:0:
407,66,63572,1,0,0:0:0:0:
409,73,63645,1,0,0:0:0:0:
411,80,63718,1,0,0:0:0:0:
413,86,63790,2,0,P|374:110|312:90,1,101.999996887207,10|0,0:0|0:0,0:0:0:0:
94,76,64082,6,0,P|133:52|195:72,1,101.999996887207,2|0,0:0|0:0,0:0:0:0:
301,189,64373,2,0,L|294:302,1,101.999996887207,10|0,0:0|0:0,0:0:0:0:
42,360,64664,2,0,L|37:299,1,50.9999984436036,2|0,0:0|0:0,0:0:0:0:
143,301,64810,2,0,L|138:240,1,50.9999984436036
25,227,64955,2,0,L|20:166,1,50.9999984436036,10|0,0:0|0:0,0:0:0:0:
126,168,65101,2,0,L|121:107,1,50.9999984436036
51,40,65247,6,0,P|94:55|151:38,1,101.999996887207,2|0,0:0|0:0,0:0:0:0:
257,74,65465,1,0,0:0:0:0:
257,74,65538,2,0,P|305:59|353:74,1,101.999996887207,10|0,0:0|0:0,0:0:0:0:
433,146,65756,1,0,0:0:0:0:
433,154,65829,2,0,L|428:224,2,50.9999984436036,2|0|0,0:0|0:0|0:0,0:0:0:0:
381,351,66120,2,0,P|358:340|338:317,1,50.9999984436036,10|0,0:0|0:0,0:0:0:0:
291,249,66266,2,0,P|282:224|284:194,1,50.9999984436036,2|0,0:0|0:0,0:0:0:0:
284,107,66412,5,2,0:0:0:0:
319,103,66485,1,2,0:0:0:0:
354,99,66557,1,2,0:0:0:0:
389,95,66631,1,2,0:0:0:0:
424,91,66703,1,10,0:0:0:0:
340,23,66849,5,2,0:0:0:0:
370,178,66994,1,2,0:0:0:0:
495,86,67140,1,0,0:0:0:0:
310,16,67286,2,0,L|318:124,1,101.999996887207,10|0,0:0|0:0,0:0:0:0:
280,250,67577,5,2,0:0:0:0:
245,246,67650,1,2,0:0:0:0:
210,242,67722,1,2,0:0:0:0:
175,238,67796,1,2,0:0:0:0:
140,234,67868,1,10,0:0:0:0:
224,166,68014,5,2,0:0:0:0:
194,321,68159,1,2,0:0:0:0:
69,229,68305,1,0,0:0:0:0:
254,159,68451,2,0,L|246:267,1,101.999996887207,10|0,0:0|0:0,0:0:0:0:
434,337,68742,6,0,B|380:361|322:336|322:336|351:332|376:323,1,152.999995330811,2|0,0:0|0:0,0:0:0:0:
438,253,69033,2,0,P|486:261|515:306,1,101.999996887207,10|0,0:0|0:0,0:0:0:0:
347,234,69324,6,0,B|331:180|351:147|351:147|331:73,1,152.999995330811,2|0,0:0|0:0,0:0:0:0:
253,144,69616,2,0,P|244:191|254:245,1,101.999996887207,10|0,0:0|0:0,0:0:0:0:
147,341,69907,6,0,P|73:351|23:283,1,152.999995330811,2|0,0:0|0:0,0:0:0:0:
104,271,70198,2,0,B|133:255|133:255|212:263,1,101.999996887207,10|0,0:0|0:0,0:0:0:0:
319,341,70489,6,0,P|297:312|290:286,1,50.9999984436036,10|0,0:0|0:0,0:0:0:0:
275,208,70635,2,0,P|280:172|292:149,1,50.9999984436036,2|0,0:0|0:0,0:0:0:0:
379,272,70781,6,0,P|374:235|381:209,1,50.9999984436036,10|0,0:0|0:0,0:0:0:0:
407,134,70927,2,0,P|429:105|451:91,1,50.9999984436036,2|0,0:0|0:0,0:0:0:0:
340,58,71072,6,0,L|228:61,1,101.999996887207,6|0,0:0|0:0,0:0:0:0:
116,124,71363,1,10,0:0:0:0:
220,187,71509,1,0,0:0:0:0:
132,45,71654,2,0,P|81:46|43:79,1,101.999996887207,2|0,0:0|0:0,0:0:0:0:
128,221,71946,1,10,0:0:0:0:
210,86,72091,1,0,0:0:0:0:
27,187,72237,6,0,L|34:294,1,101.999996887207,2|0,0:0|0:0,0:0:0:0:
210,354,72528,2,0,L|217:247,1,101.999996887207,10|0,0:0|0:0,0:0:0:0:
210,86,72820,1,2,0:0:0:0:
208,79,72893,1,0,0:0:0:0:
206,72,72966,1,0,0:0:0:0:
204,65,73039,1,0,0:0:0:0:
202,59,73111,2,0,P|241:35|303:55,1,101.999996887207,10|0,0:0|0:0,0:0:0:0:
483,200,73402,6,0,L|378:195,1,101.999996887207,2|0,0:0|0:0,0:0:0:0:
211,149,73693,2,0,P|198:194|215:252,1,101.999996887207,10|0,0:0|0:0,0:0:0:0:
397,361,73985,2,0,L|402:301,1,50.9999984436036,2|0,0:0|0:0,0:0:0:0:
295,312,74130,2,0,L|300:252,1,50.9999984436036
410,226,74276,2,0,L|415:166,1,50.9999984436036,10|0,0:0|0:0,0:0:0:0:
308,177,74421,2,0,L|313:117,1,50.9999984436036
397,57,74567,6,0,B|368:38|368:38|296:45,1,101.999996887207,2|0,0:0|0:0,0:0:0:0:
212,63,74786,1,0,0:0:0:0:
212,63,74858,2,0,B|144:69|144:69|115:50,1,101.999996887207,10|0,0:0|0:0,0:0:0:0:
80,220,75150,2,0,L|89:331,1,101.999996887207,2|0,0:0|0:0,0:0:0:0:
295,349,75441,2,0,L|304:238,1,101.999996887207,10|0,0:0|0:0,0:0:0:0:
221,114,75732,5,2,0:0:0:0:
186,110,75805,1,2,0:0:0:0:
151,106,75877,1,2,0:0:0:0:
116,102,75951,1,2,0:0:0:0:
81,98,76023,1,10,0:0:0:0:
165,30,76169,5,0,0:0:0:0:
135,185,76314,1,2,0:0:0:0:
10,93,76460,1,0,0:0:0:0:
195,23,76606,2,0,L|187:131,1,101.999996887207,10|0,0:0|0:0,0:0:0:0:
196,264,76897,5,2,0:0:0:0:
231,260,76970,1,2,0:0:0:0:
266,256,77042,1,2,0:0:0:0:
301,252,77116,1,2,0:0:0:0:
336,248,77188,1,10,0:0:0:0:
252,179,77334,5,0,0:0:0:0:
282,335,77479,1,2,0:0:0:0:
407,243,77625,1,0,0:0:0:0:
222,173,77771,2,0,L|230:281,1,101.999996887207,10|0,0:0|0:0,0:0:0:0:
367,356,78062,6,0,P|445:356|478:294,1,152.999995330811,2|0,0:0|0:0,0:0:0:0:
407,243,78353,2,0,B|396:200|396:200|409:136,1,101.999996887207,10|0,0:0|0:0,0:0:0:0:
268,35,78645,6,0,P|190:35|157:97,1,152.999995330811,10|0,0:0|0:0,0:0:0:0:
228,148,78936,2,0,B|239:191|239:191|226:255,1,101.999996887207,10|0,0:0|0:0,0:0:0:0:
117,331,79227,6,0,L|22:336,1,76.4999976654053,6|0,0:0|0:0,0:0:0:0:
143,339,79519,6,0,L|39:335,1,101.999996887207,6|0,0:0|0:0,0:0:0:0:
167,350,79810,6,0,L|28:333,1,127.500004863739,6|0,0:0|0:0,0:0:0:0:
182,359,80101,6,0,P|141:320|202:323,1,152.999995330811,6|0,0:0|0:0,0:0:0:0:
410,257,80392,5,6,0:0:0:0:
375,254,80465,1,0,0:0:0:0:
340,252,80538,1,0,0:0:0:0:
305,249,80611,1,0,0:0:0:0:
270,247,80684,2,0,L|246:194,3,50.9999984436036,2|0|0|0,0:0|0:0|0:0|0:0,0:0:0:0:
167,169,80975,6,0,P|213:123|301:136,2,152.999995330811,2|2|2,0:0|0:0|0:0,0:0:0:0:
170,310,81557,2,0,L|17:308,2,152.999995330811,2|2|2,0:0|0:0|0:0,0:0:0:0:
311,350,82140,1,2,0:0:0:0:
386,226,82286,1,0,0:0:0:0:
287,251,82431,1,2,0:0:0:0:
410,325,82577,1,0,0:0:0:0:
316,159,82722,5,2,0:0:0:0:
284,142,82795,1,0,0:0:0:0:
248,142,82868,1,0,0:0:0:0:
215,156,82941,1,0,0:0:0:0:
193,184,83014,2,0,L|205:248,3,50.9999984436036,2|0|0|0,0:0|0:0|0:0|0:0,0:0:0:0:
100,172,83305,6,0,L|128:336,2,152.999995330811,2|2|2,0:0|0:0|0:0,0:0:0:0:
12,47,83887,2,0,P|68:62|115:47,1,101.999996887207,2|0,0:0|0:0,0:0:0:0:
336,67,84179,2,0,P|280:52|233:67,1,101.999996887207,2|0,0:0|0:0,0:0:0:0:
275,234,84470,2,0,L|284:124,1,101.999996887207,2|0,0:0|0:0,0:0:0:0:
100,172,84761,2,0,L|109:282,1,101.999996887207,2|0,0:0|0:0,0:0:0:0:
292,314,85053,5,2,0:0:0:0:
327,317,85126,1,0,0:0:0:0:
362,319,85199,1,0,0:0:0:0:
397,322,85272,1,0,0:0:0:0:
432,324,85345,2,0,L|456:377,3,50.9999984436036,2|0|0|0,0:0|0:0|0:0|0:0,0:0:0:0:
479,252,85635,6,0,B|459:205|459:205|477:97,2,152.999995330811,2|2|2,0:0|0:0|0:0,0:0:0:0:
292,192,86218,2,0,L|119:182,2,152.999995330811,2|2|2,0:0|0:0|0:0,0:0:0:0:
246,334,86800,2,0,P|317:350|383:302,2,152.999995330811,2|2|2,0:0|0:0|0:0,0:0:0:0:
53,346,87383,6,0,L|46:286,1,50.9999984436036,2|0,0:0|0:0,0:0:0:0:
131,149,87601,1,0,0:0:0:0:
139,183,87674,2,0,L|153:287,1,101.999996887207,2|0,0:0|0:0,0:0:0:0:
292,241,87965,6,0,L|352:234,1,50.9999984436036,2|0,0:0|0:0,0:0:0:0:
466,142,88184,1,0,0:0:0:0:
432,134,88257,2,0,L|328:120,1,101.999996887207,2|0,0:0|0:0,0:0:0:0:
140,29,88548,5,2,0:0:0:0:
120,58,88620,1,2,0:0:0:0:
112,93,88693,1,2,0:0:0:0:
117,128,88766,1,2,0:0:0:0:
138,156,88839,1,2,0:0:0:0:
256,96,88985,1,0,0:0:0:0:
38,47,89130,2,0,P|27:95|40:148,1,101.999996887207,2|0,0:0|0:0,0:0:0:0:
152,253,89421,1,2,0:0:0:0:
187,250,89494,1,2,0:0:0:0:
222,247,89567,1,2,0:0:0:0:
257,244,89640,1,2,0:0:0:0:
292,241,89713,6,0,P|349:211|323:286,1,187.000005706787,6|0,0:0|0:0,0:0:0:0:
226,121,90150,6,0,P|169:91|195:166,1,187.000005706787,6|0,0:0|0:0,0:0:0:0:
332,247,90586,6,0,B|374:249|395:275|395:275|423:247|406:154,1,187.000005706787,6|0,0:0|0:0,0:0:0:0:
186,127,91023,6,0,B|144:129|123:155|123:155|95:127|112:34,1,187.000005706787,6|0,0:0|0:0,0:0:0:0:
333,25,91460,6,0,P|346:75|338:121,1,93.5000028533936,4|0,0:0|0:0,0:0:0:0:
231,209,91752,2,0,L|168:202,3,46.7500014266968,6|2|2|2,0:0|0:0|0:0|0:0,0:0:0:0:
289,291,92043,6,0,L|103:268,1,187.000005706787,6|0,0:0|0:0,0:0:0:0:
300,160,92480,6,0,P|335:212|449:199,1,187.000005706787,6|0,0:0|0:0,0:0:0:0:
210,88,92917,6,0,P|175:140|61:127,1,187.000005706787,6|0,0:0|0:0,0:0:0:0:
287,30,93353,6,0,P|345:22|380:148,1,187.000005706787,6|0,0:0|0:0,0:0:0:0:
209,306,93790,6,0,L|201:200,1,93.5000028533936,6|0,0:0|0:0,0:0:0:0:
325,98,94082,1,14,0:0:0:0:
426,229,94227,1,2,0:0:0:0:
428,237,94300,1,2,0:0:0:0:
430,244,94373,6,0,P|375:271|295:232,1,152.999995330811,10|0,0:0|0:0,0:0:0:0:
220,174,94664,2,0,L|112:178,1,101.999996887207,10|0,0:0|0:0,0:0:0:0:
98,333,94955,6,0,L|273:327,1,152.999995330811,10|0,0:0|0:0,0:0:0:0:
350,347,95247,2,0,B|303:319|303:319|285:204,1,152.999995330811,10|0,0:0|0:0,0:0:0:0:
420,60,95538,6,0,B|362:65|362:65|332:51|332:51|271:55,1,152.999995330811,10|0,0:0|0:0,0:0:0:0:
243,142,95829,2,0,B|309:139|309:139|350:162,1,101.999996887207,10|0,0:0|0:0,0:0:0:0:
152,234,96120,6,0,B|37:226|37:226|79:200,1,152.999995330811,10|0,0:0|0:0,0:0:0:0:
173,161,96412,2,0,B|179:204|179:204|171:233|171:233|174:276,1,101.999996887207,10|0,0:0|0:0,0:0:0:0:
301,345,96703,6,0,P|332:340|367:316,1,53.125,10|0,0:0|0:0,0:0:0:0:
422,249,96849,2,0,P|433:219|429:177,1,53.125,10|0,0:0|0:0,0:0:0:0:
399,96,96994,2,0,P|379:71|340:53,1,53.125,10|0,0:0|0:0,0:0:0:0:
254,39,97140,2,0,P|222:44|188:68,1,53.125,10|0,0:0|0:0,0:0:0:0:
219,166,97286,5,2,0:0:0:0:
212,203,97358,1,2,0:0:0:0:
232,234,97431,1,2,0:0:0:0:
269,241,97503,1,2,0:0:0:0:
300,221,97576,1,2,0:0:0:0:
307,184,97649,1,2,0:0:0:0:
287,153,97722,1,2,0:0:0:0:
250,146,97795,1,2,0:0:0:0:
219,166,97868,6,0,L|166:161,11,42.5
231,154,98742,5,2,0:0:0:0:
227,128,98815,1,2,0:0:0:0:
223,102,98887,1,2,0:0:0:0:
219,76,98960,1,2,0:0:0:0:
216,54,99033,6,0,L|344:64,1,110.499994941712,14|0,0:0|0:0,0:0:0:0:
468,241,99324,2,0,P|415:249|367:218,1,110.499994941712,2|12,0:0|0:0,0:0:0:0:
40,335,99761,2,0,P|93:343|141:312,1,110.499994941712,2|12,0:0|0:0,0:0:0:0:
255,27,100198,5,2,0:0:0:0:
333,141,100344,2,0,P|233:139|233:40,1,220.999989883423,12|2,0:0|0:0,0:0:0:0:
448,89,100781,2,0,B|387:81|387:81|353:98|353:98|287:88,1,165.749992412568,14|0,0:0|0:0,0:0:0:0:
229,166,101072,2,0,L|237:234,1,55.2499974708558,14|0,0:0|0:0,0:0:0:0:
329,288,101218,2,0,L|337:220,1,55.2499974708558,2|0,0:0|0:0,0:0:0:0:
140,140,101363,5,6,0:0:0:0:
146,178,101436,1,2,0:0:0:0:
152,217,101509,1,2,0:0:0:0:
158,255,101581,1,2,0:0:0:0:
164,294,101654,1,2,0:0:0:0:
325,363,101800,1,6,0:0:0:0:
335,364,101873,1,2,0:0:0:0:
345,365,101946,6,0,P|380:350|396:323,1,55.2499974708558,10|0,0:0|0:0,0:0:0:0:
464,274,102091,2,0,P|468:236|453:208,1,55.2499974708558,2|0,0:0|0:0,0:0:0:0:
329,288,102237,6,0,P|343:252|335:222,1,55.2499974708558,14|0,0:0|0:0,0:0:0:0:
348,138,102382,2,0,P|324:108|294:99,1,55.2499974708558,2|0,0:0|0:0,0:0:0:0:
208,45,102528,6,0,L|67:41,1,110.499994941712,14|0,0:0|0:0,0:0:0:0:
43,142,102747,1,0,0:0:0:0:
45,152,102820,2,0,L|186:156,1,110.499994941712,10|0,0:0|0:0,0:0:0:0:
257,205,103038,1,0,0:0:0:0:
266,216,103111,2,0,P|277:270|267:326,1,110.499994941712,10|0,0:0|0:0,0:0:0:0:
152,356,103329,1,0,0:0:0:0:
143,345,103402,2,0,P|132:291|142:235,1,110.499994941712,10|0,0:0|0:0,0:0:0:0:
269,112,103693,5,2,0:0:0:0:
307,113,103766,1,2,0:0:0:0:
345,114,103839,1,2,0:0:0:0:
383,115,103912,1,2,0:0:0:0:
421,116,103985,1,2,0:0:0:0:
338,39,104130,5,12,0:0:0:0:
381,195,104276,1,2,0:0:0:0:
497,83,104421,1,0,0:0:0:0:
304,36,104567,2,0,L|314:154,1,110.499994941712,14|0,0:0|0:0,0:0:0:0:
253,276,104858,5,2,0:0:0:0:
215,277,104931,1,2,0:0:0:0:
177,278,105004,1,2,0:0:0:0:
139,279,105077,1,2,0:0:0:0:
101,280,105150,1,2,0:0:0:0:
184,203,105295,5,12,0:0:0:0:
141,359,105441,1,2,0:0:0:0:
25,247,105586,1,0,0:0:0:0:
218,200,105732,2,0,L|208:318,1,110.499994941712,14|0,0:0|0:0,0:0:0:0:
399,346,106023,5,2,0:0:0:0:
433,329,106096,1,2,0:0:0:0:
449,293,106169,1,2,0:0:0:0:
451,254,106242,1,2,0:0:0:0:
436,218,106315,1,2,0:0:0:0:
334,132,106460,2,0,L|268:136,1,55.2499974708558,2|2,0:0|0:0,0:0:0:0:
218,59,106606,6,0,L|391:49,1,165.749992412568,12|0,0:0|0:0,0:0:0:0:
334,132,106897,2,0,B|321:187|321:187|337:247,1,110.499994941712,2|0,0:0|0:0,0:0:0:0:
184,344,107188,6,0,L|11:354,1,165.749992412568,12|0,0:0|0:0,0:0:0:0:
68,271,107479,2,0,B|81:216|81:216|65:156,1,110.499994941712,2|0,0:0|0:0,0:0:0:0:
279,55,107772,5,14,0:0:0:0:
188,178,107917,1,2,0:0:0:0:
188,25,108063,1,14,0:0:0:0:
279,150,108208,1,2,0:0:0:0:
133,102,108354,5,6,0:0:0:0:
131,109,108426,1,2,0:0:0:0:
130,116,108499,2,0,L|254:110,1,110.499994941712,2|0,0:0|0:0,0:0:0:0:
411,226,108790,5,6,0:0:0:0:
413,233,108862,1,2,0:0:0:0:
414,240,108935,2,0,L|290:234,1,110.499994941712,2|0,0:0|0:0,0:0:0:0:
74,278,109227,5,6,0:0:0:0:
69,284,109300,1,2,0:0:0:0:
65,291,109373,2,0,P|121:306|167:283,1,110.499994941712,2|0,0:0|0:0,0:0:0:0:
284,45,109664,5,6,0:0:0:0:
290,40,109737,1,2,0:0:0:0:
297,36,109810,2,0,P|312:92|289:138,1,110.499994941712,2|0,0:0|0:0,0:0:0:0:
83,208,110101,5,10,0:0:0:0:
125,83,110247,1,2,0:0:0:0:
219,183,110392,2,0,L|215:300,1,110.499994941712,14|0,0:0|0:0,0:0:0:0:
411,357,110684,5,14,0:0:0:0:
412,318,110756,1,2,0:0:0:0:
413,279,110829,1,2,0:0:0:0:
414,240,110902,1,2,0:0:0:0:
415,201,110975,1,2,0:0:0:0:
368,77,111120,1,14,0:0:0:0:
327,246,111266,1,2,0:0:0:0:
503,206,111412,1,2,0:0:0:0:
326,157,111557,5,14,0:0:0:0:
287,158,111629,1,2,0:0:0:0:
248,159,111702,1,2,0:0:0:0:
209,160,111775,1,2,0:0:0:0:
170,161,111848,1,2,0:0:0:0:
46,114,111993,1,14,0:0:0:0:
215,73,112139,1,2,0:0:0:0:
175,249,112285,1,2,0:0:0:0:
56,141,112431,2,0,P|36:84|54:37,1,110.499994941712,6|0,0:0|0:0,0:0:0:0:
300,106,112722,2,0,P|320:163|302:210,1,110.499994941712,6|0,0:0|0:0,0:0:0:0:
207,341,113014,6,0,L|326:358,1,110.499994941712,10|0,0:0|0:0,0:0:0:0:
331,359,113232,1,0,0:0:0:0:
396,290,113305,6,0,L|275:293,1,110.499994941712,10|0,0:0|0:0,0:0:0:0:
270,293,113523,1,0,0:0:0:0:
335,235,113596,6,0,L|452:210,1,110.499994941712,10|0,0:0|0:0,0:0:0:0:
457,209,113814,1,0,0:0:0:0:
495,122,113887,6,0,L|383:166,1,110.499994941712,10|0,0:0|0:0,0:0:0:0:
253,272,114179,6,0,P|203:294|148:270,1,110.499994941712,2|2,0:0|0:0,0:0:0:0:
77,93,114470,1,2,0:0:0:0:
201,204,114616,1,2,0:0:0:0:
30,292,114761,5,2,0:0:0:0:
29,269,114834,1,2,0:0:0:0:
28,246,114907,1,2,0:0:0:0:
27,223,114980,1,2,0:0:0:0:
25,200,115053,6,2,P|65:208|95:202,1,55.2499974708558
163,158,115198,2,2,P|189:127|199:98,1,55.2499974708558
221,20,115344,5,2,0:0:0:0:
385,310,115926,1,2,0:0:0:0:
81,172,116509,1,2,0:0:0:0:
408,105,117091,1,2,0:0:0:0:
183,351,117674,1,2,0:0:0:0:
256,192,117747,12,4,120004,0:0:0:0:
