osu file format v14

[General]
AudioFilename: LegenD.mp3
AudioLeadIn: 0
PreviewTime: 61460
Countdown: 0
SampleSet: Normal
StackLeniency: 0.2
Mode: 0
LetterboxInBreaks: 0
WidescreenStoryboard: 0

[Editor]
DistanceSpacing: 0.9
BeatDivisor: 4
GridSize: 4
TimelineZoom: 3.799998

[Metadata]
Title:LegenD.
TitleUnicode:LegenD.
Artist:Yooh
ArtistUnicode:Yooh
Creator:toybot
Version:Kitty's HYPER
Source:SOUND VOLTEX III GRAVITY WARS
Tags:sdvx bemani the 4th kac mikii skinnyjommy gokugohan12468 kittyadventure sionkotori captin1 fort ciyus miapah
BeatmapID:827200
BeatmapSetID:359821

[Difficulty]
HPDrainRate:6
CircleSize:3.8
OverallDifficulty:7
ApproachRate:8
SliderMultiplier:1.39999990463257
SliderTickRate:2

[Events]
//Background and Video events
0,0,"legend.jpg",0,0
//Break Periods
//Storyboard Layer 0 (Background)
//Storyboard Layer 1 (Fail)
//Storyboard Layer 2 (Pass)
//Storyboard Layer 3 (Foreground)
//Storyboard Sound Samples

[TimingPoints]
880,292.682926829268,4,2,1,50,1,0
880,-133.333333333333,4,2,1,50,0,0
5270,-100,4,2,1,70,0,0
5562,-133.333333333333,4,2,1,50,0,0
9221,-111.111111111111,4,2,1,70,0,0
16684,-111.111111111111,4,1,1,40,0,0
17270,-111.111111111111,4,1,1,15,0,0
18440,-111.111111111111,4,2,1,60,0,0
18733,-125,4,2,1,50,0,0
19611,-100,4,2,1,70,0,0
23855,-133.333333333333,4,2,1,50,0,0
24294,-100,4,2,1,70,0,0
26636,-100,4,2,1,70,0,0
27221,-83.3333333333333,4,2,1,70,0,0
27806,-111.111111111111,4,2,1,70,0,0
28684,-100,4,2,1,70,0,0
28977,-100,4,2,1,70,0,0
33367,-100,4,2,1,40,0,0
33660,-100,4,2,1,70,0,0
36587,-83.3333333333333,4,2,1,70,0,0
37172,-100,4,2,1,70,0,0
37758,-111.111111111111,4,2,1,70,0,0
38050,-133.333333333333,4,2,1,70,0,0
38343,-100,4,2,1,70,0,0
40099,-100,4,2,1,70,0,0
40684,-100,4,2,1,70,0,0
42148,-100,4,2,0,70,0,0
42440,-200,4,2,1,70,0,0
43026,-100,4,2,1,70,0,0
44782,-125,4,2,1,50,0,0
45367,-100,4,2,1,70,0,0
47416,-100,4,2,1,50,0,0
47709,-100,4,2,1,75,0,0
52684,-83.3333333333333,4,2,1,75,0,0
52977,-100,4,2,1,75,0,0
54294,-125,4,2,1,70,0,0
54733,-100,4,2,1,70,0,0
55904,-111.111111111111,4,2,1,70,0,0
56489,-111.111111111111,4,2,1,50,0,0
57075,-111.111111111111,4,2,1,70,0,0
57660,-111.111111111111,4,3,1,15,0,0
58245,-111.111111111111,4,3,1,30,0,0
59416,-111.111111111111,4,3,1,35,0,0
60587,291.26213592233,4,1,1,50,1,0
61169,-100,4,1,1,60,0,0
61460,-100,4,1,1,80,0,0
61752,-100,4,1,1,80,0,1
69033,-100,4,1,1,80,0,1
69616,-111.111111111111,4,1,1,80,0,1
71036,-111.111111111111,4,1,1,80,0,0
71072,-100,4,1,1,80,0,1
79227,-125,4,1,1,80,0,1
79519,-111.111111111111,4,1,1,80,0,1
79810,-100,4,1,1,80,0,1
80101,-100,4,2,1,60,0,1
80356,-100,4,2,1,60,0,0
80392,-100,4,1,1,80,0,1
84179,-100,4,1,1,80,0,1
85053,-100,4,1,1,80,0,1
89640,-100,4,1,1,80,0,0
89713,-100,4,1,1,80,0,1
94373,-117.647058823529,4,1,1,70,0,1
96120,-117.647058823529,4,1,1,60,0,1
96703,-111.111111111111,4,1,1,60,0,1
97868,-166.666666666667,4,2,1,60,0,0
99033,-100,4,1,1,80,0,1
107771,-100,4,1,1,80,0,1
108353,-100,4,1,1,80,0,1
113014,-111.111111111111,4,1,1,70,0,1
114179,-100,4,1,1,70,0,1
115344,-100,4,1,1,70,0,0
117674,-100,4,1,1,80,0,0
120077,-100,4,2,1,5,0,0

[Colours]
Combo1 : 0,176,176
Combo2 : 128,0,128
Combo3 : 0,81,179
Combo4 : 128,128,128

[HitObjects]
432,52,587,5,0,0:0:0:0:
432,52,880,6,0,B|372:52|372:52|344:64|344:64|264:64,2,157.499995279312,4|2|2,0:0|0:0|0:0,0:0:0:0:
156,136,2050,2,0,B|216:136|216:136|244:148|244:148|324:148,2,157.499995279312,2|2|2,0:0|0:0|0:0,0:0:0:0:
428,224,3221,2,0,B|368:224|368:224|340:236|340:236|260:236,2,157.499995279312,2|2|2,0:0|0:0|0:0,0:0:0:0:
152,308,4391,2,0,B|212:308|212:308|240:320|240:320|320:320,2,157.499995279312,2|2|8,0:0|0:0|0:0,0:0:0:0:
80,356,5416,1,0,0:0:0:0:
20,292,5562,6,0,P|0:248|64:160,2,157.499995279312,2|2|2,0:0|0:0|0:0,0:0:0:0:
81,239,6733,2,0,L|261:235,2,157.499995279312,2|2|2,0:0|0:0|0:0,0:0:0:0:
140,324,7904,2,0,L|320:320,2,157.499995279312,2|2|2,0:0|0:0|0:0,0:0:0:0:
68,368,9075,5,2,0:0:0:0:
16,296,9221,2,0,L|8:204,1,62.9999937858584,8|8,0:0|0:0,0:0:0:0:
68,164,9514,1,0,0:0:0:0:
68,164,9660,2,0,P|116:208|192:204,1,125.999987571717,8|8,0:0|0:0,0:0:0:0:
248,164,10099,1,8,0:0:0:0:
324,204,10245,6,0,L|336:292,1,62.9999937858584,4|0,0:0|0:0,0:0:0:0:
412,324,10538,2,0,L|420:261,1,62.9999937858584,8|0,0:0|0:0,0:0:0:0:
300,352,10831,2,0,B|272:340|272:340|168:340,1,125.999987571717,0|8,1:0|0:0,0:0:0:0:
104,284,11270,1,0,0:0:0:0:
104,284,11416,6,0,P|168:292|228:232,1,125.999987571717,0|8,1:0|0:0,0:0:0:0:
196,84,11855,1,0,0:0:0:0:
138,149,12001,2,0,L|150:225,1,62.9999937858584,0|0,1:0|0:0,0:0:0:0:
215,258,12294,2,0,L|203:334,1,62.9999937858584,8|0,0:0|0:0,0:0:0:0:
144,376,12587,6,0,B|188:364|188:364|296:364,1,125.999987571717,4|8,0:0|0:0,0:0:0:0:
320,296,13026,2,0,P|384:312|448:268,1,125.999987571717,0|0,0:0|0:0,0:0:0:0:
356,168,13465,2,0,L|380:256,1,62.9999937858584,8|0,0:0|0:0,0:0:0:0:
320,296,13758,6,0,P|284:264|192:276,1,125.999987571717,0|8,1:0|0:0,0:0:0:0:
120,348,14197,2,0,L|256:336,1,125.999987571717,0|0,0:0|0:0,0:0:0:0:
320,296,14636,1,8,0:0:0:0:
320,296,14928,6,0,P|356:304|408:288,1,62.9999937858584,4|0,0:0|0:0,0:0:0:0:
240,248,15221,2,0,P|240:200|228:164,1,62.9999937858584,8|0,0:0|0:0,0:0:0:0:
245,336,15514,2,0,P|197:348|173:368,1,62.9999937858584,12|0,0:0|0:0,0:0:0:0:
104,328,15806,2,0,P|88:284|100:228,2,94.4999906787876,8|0|0,0:0|0:0|0:0,0:0:0:0:
228,248,16392,2,0,L|152:280,1,62.9999937858584,12|0,0:0|0:0,0:0:0:0:
95,237,16684,6,0,L|103:193,3,31.4999968929292,4|0|0|0,0:0|0:0|0:0|0:0,0:0:0:0:
84,180,16977,2,0,L|76:136,3,31.4999968929292,0|0|0|0,0:0|0:0|0:0|0:0,0:0:0:0:
56,124,17270,6,0,L|136:108,1,62.9999937858584,2|0,2:0|2:0,2:0:0:0:
160,36,17562,2,0,L|221:48,1,62.9999937858584,2|0,2:0|2:0,2:0:0:0:
212,144,17855,2,0,L|292:128,1,62.9999937858584,2|0,2:0|2:0,2:0:0:0:
316,56,18147,2,0,L|377:68,1,62.9999937858584,2|0,2:0|2:0,2:0:0:0:
464,36,18440,5,2,0:0:0:0:
377,68,18587,1,0,0:0:0:0:
408,156,18733,1,2,0:0:0:0:
504,128,18879,1,0,0:0:0:0:
408,156,19026,2,0,P|392:208|416:272,1,111.999992370606,2|2,0:0|0:0,0:0:0:0:
420,276,19611,6,0,L|320:256,1,69.9999952316285,6|0,0:1|0:0,0:0:0:0:
280,304,19904,2,0,P|272:260|284:224,1,69.9999952316285,2|0,0:1|0:0,0:0:0:0:
320,164,20197,2,0,P|326:129|317:96,1,69.9999952316285,2|0,0:1|0:0,0:0:0:0:
246,137,20490,2,0,L|177:123,1,69.9999952316285,2|0,0:1|0:0,0:0:0:0:
104,224,20782,6,0,L|204:204,1,69.9999952316285,2|0,0:1|0:0,0:0:0:0:
28,188,21075,2,0,P|20:236|36:284,1,69.9999952316285,2|0,0:1|0:0,0:0:0:0:
88,312,21367,2,0,L|188:292,1,69.9999952316285,2|0,0:1|0:0,0:0:0:0:
220,352,21660,2,0,P|236:304|228:260,1,69.9999952316285,2|0,0:1|0:0,0:0:0:0:
184,216,21953,5,2,0:1:0:0:
152,132,22099,1,0,0:0:0:0:
60,136,22245,1,2,0:1:0:0:
20,220,22392,1,0,0:0:0:0:
104,285,22538,1,0,0:1:0:0:
104,204,22684,1,0,0:0:0:0:
24,313,22831,2,0,P|48:349|92:369,1,69.9999952316285,0|0,0:1|0:0,0:0:0:0:
173,281,23123,6,0,L|81:285,1,69.9999952316285,2|0,0:1|0:0,0:0:0:0:
21,243,23416,2,0,L|24:337,1,69.9999952316285,2|0,0:1|0:0,0:0:0:0:
96,200,23709,1,2,0:1:0:0:
96,200,24001,2,0,P|64:168|16:160,1,78.7499976396561,0|0,0:0|0:0,0:0:0:0:
12,160,24294,6,0,P|72:144|124:56,1,139.999990463257,2|2,0:1|0:1,0:0:0:0:
184,32,24733,1,0,0:0:0:0:
184,32,24879,2,0,L|272:24,1,69.9999952316285,2|0,0:1|0:0,0:0:0:0:
256,108,25172,2,0,L|325:114,1,69.9999952316285,2|2,0:1|0:1,0:0:0:0:
408,72,25465,6,0,P|360:116|376:200,1,139.999990463257,0|2,0:1|0:1,0:0:0:0:
456,288,25904,1,0,0:0:0:0:
456,288,26050,2,0,L|436:136,1,139.999990463257,2|2,0:1|0:1,0:0:0:0:
364,112,26489,1,0,0:0:0:0:
292,76,26636,6,0,P|284:120|300:164,1,69.9999952316285,6|2,0:1|0:1,0:0:0:0:
364,112,26928,1,8,0:0:0:0:
272,68,27221,6,0,P|260:112|280:168,1,83.9999917144779,6|2,0:1|0:1,0:0:0:0:
364,112,27514,1,8,0:0:0:0:
364,112,27806,6,0,L|452:104,1,83.9999917144779,2|0,1:0|0:0,0:0:0:0:
512,192,28099,6,0,L|424:184,1,83.9999917144779,2|0,1:0|0:0,0:0:0:0:
364,228,28392,6,0,L|376:284,2,41.999995857239,2|2|2,1:0|0:1|1:0,0:0:0:0:
292,192,28684,6,0,P|264:232|196:248,1,104.999992847443,0|0,3:0|0:0,0:0:0:0:
200,240,28977,6,0,L|220:72,1,139.999990463257,6|8,0:1|0:0,0:0:0:0:
220,16,29416,1,0,0:0:0:0:
138,5,29562,2,0,P|170:85|242:97,1,139.999990463257,2|8,0:1|0:0,0:0:0:0:
220,16,30148,6,0,L|364:8,1,139.999990463257,2|8,0:1|0:0,0:0:0:0:
380,16,30733,2,0,P|356:48|352:88,1,69.9999952316285,2|0,0:1|0:0,0:0:0:0:
488,116,31026,2,0,P|452:84|400:76,1,69.9999952316285,8|0,0:0|0:0,0:0:0:0:
400,296,31319,6,0,L|416:136,1,139.999990463257,2|8,0:1|0:0,0:0:0:0:
432,76,31758,1,0,0:0:0:0:
413,156,31904,2,0,B|360:156|360:156|332:164|332:164|252:164,1,139.999990463257,2|8,0:1|0:0,0:0:0:0:
156,210,32489,6,0,P|216:214|280:142,1,139.999990463257,2|8,0:1|0:0,0:0:0:0:
184,64,33075,2,0,L|200:156,1,69.9999952316285,2|0,1:0|0:0,0:0:0:0:
156,210,33367,2,0,L|112:198,1,34.9999976158143,8|0,0:0|1:0,0:0:0:0:
64,268,33514,2,0,L|97:277,1,34.9999976158143,0|0,1:0|1:0,0:0:0:0:
140,348,33660,6,0,B|176:336|176:336|280:336,1,139.999990463257,6|8,0:1|0:0,0:0:0:0:
344,284,34099,1,0,0:0:0:0:
416,332,34245,2,0,P|424:252|368:200,1,139.999990463257,2|8,0:1|0:0,0:0:0:0:
306,149,34684,1,2,0:1:0:0:
306,149,34831,2,0,L|346:293,1,139.999990463257,6|8,0:1|0:0,0:0:0:0:
344,284,35416,2,0,P|312:268|252:272,2,93.3333269755047,0|0|0,1:0|0:0|0:0,0:0:0:0:
416,344,36001,6,0,L|432:268,1,69.9999952316285,6|2,0:1|0:1,0:0:0:0:
496,224,36294,2,0,P|512:232|536:236,2,34.9999976158143,8|0|0,0:0|0:0|0:0,0:0:0:0:
392,344,36587,6,0,L|416:240,1,83.9999917144779,6|2,0:1|0:1,0:0:0:0:
496,196,36879,2,0,P|520:208|556:208,2,41.999995857239,8|0|0,0:0|0:0|0:0,0:0:0:0:
432,136,37172,6,0,P|380:168|344:168,1,69.9999952316285,6|0,1:1|0:0,0:0:0:0:
304,52,37465,2,0,P|344:64|376:104,1,69.9999952316285,4|0,1:0|0:0,0:0:0:0:
228,144,37758,2,0,L|308:132,1,62.9999937858584,4|0,1:0|0:0,0:0:0:0:
308,226,38050,2,0,L|264:218,3,26.2499992132187,4|0|0|0,1:0|0:0|0:0|0:0,0:0:0:0:
264,218,38343,6,0,L|312:294,1,69.9999952316285,2|0,0:1|0:0,0:0:0:0:
248,344,38636,2,0,L|210:284,1,69.9999952316285,8|0,0:0|0:0,0:0:0:0:
140,324,38928,2,0,P|132:260|184:208,1,139.999990463257,2|8,0:1|0:0,0:0:0:0:
236,140,39367,1,2,0:1:0:0:
264,218,39514,6,0,L|348:206,1,69.9999952316285,2|0,0:1|0:0,0:0:0:0:
376,284,39806,2,0,L|306:293,1,69.9999952316285,8|0,0:1|0:1,0:0:0:0:
284,380,40099,2,0,P|248:352|208:348,1,69.9999952316285,2|2,0:1|0:1,0:0:0:0:
140,292,40392,2,0,P|180:280|212:248,1,69.9999952316285,0|0,0:0|0:0,0:0:0:0:
140,208,40684,6,0,L|308:224,1,139.999990463257,2|8,0:1|0:0,0:0:0:0:
348,168,41123,1,0,0:0:0:0:
348,168,41270,2,0,P|316:220|348:308,1,139.999990463257,2|8,0:1|0:0,0:0:0:0:
400,352,41709,1,2,0:1:0:0:
400,352,41855,5,2,0:1:0:0:
400,352,42148,6,0,L|440:348,3,34.9999976158143,2|0|2|0,0:1|0:0|0:1|0:0,0:0:0:0:
452,348,42440,6,0,P|428:304|488:312,1,122.49999165535,8|0,0:0|0:0,0:0:0:0:
496,308,43026,6,0,L|472:144,1,139.999990463257,2|8,0:1|0:0,0:0:0:0:
472,152,43611,2,0,P|416:184|352:164,2,104.999992847443,2|2|2,0:1|0:1|0:1,0:0:0:0:
393,32,44197,2,0,L|413:128,1,69.9999952316285,2|0,0:1|0:0,0:0:0:0:
377,179,44489,2,0,L|336:160,3,34.9999976158143,8|2|2|2,0:0|0:1|0:1|0:1,0:0:0:0:
336,160,44782,6,0,L|348:236,1,55.9999961853028,0|0,0:0|0:0,0:0:0:0:
264,216,45075,2,0,L|272:271,1,55.9999961853028,0|0,0:0|0:0,0:0:0:0:
344,320,45367,6,0,B|312:304|276:320|276:320|236:340|200:324,1,139.999990463257,2|8,0:1|0:0,0:0:0:0:
152,264,45806,1,0,0:0:0:0:
152,264,45953,2,0,L|160:136,2,104.999992847443,2|2|2,0:1|0:1|0:1,0:0:0:0:
108,340,46538,6,0,P|60:324|-8:348,2,104.999992847443,2|2|2,1:0|1:0|1:0,0:0:0:0:
188,368,47123,2,0,P|237:384|287:371,1,104.999992847443,0|0,0:0|0:0,0:0:0:0:
300,352,47416,2,0,L|308:296,1,34.9999976158143,0|0,0:0|0:0,0:0:0:0:
384,312,47562,2,0,L|376:256,1,34.9999976158143,0|0,0:0|0:0,0:0:0:0:
416,208,47709,6,0,P|376:240|276:224,1,139.999990463257,6|8,0:1|0:0,0:0:0:0:
292,152,48148,1,2,0:1:0:0:
292,152,48294,2,0,L|308:40,2,104.999992847443,2|2|0,0:1|0:1|0:0,0:0:0:0:
212,192,48879,6,0,P|180:180|136:188,1,69.9999952316285,2|2,0:1|0:1,0:0:0:0:
28,272,49172,2,0,L|184:260,1,139.999990463257,8|2,0:0|0:1,0:0:0:0:
236,308,49611,1,0,0:0:0:0:
308,356,49758,2,0,L|382:349,1,69.9999952316285,8|2,0:0|0:1,0:0:0:0:
408,264,50050,6,0,L|338:270,1,69.9999952316285,2|0,0:1|0:0,0:0:0:0:
284,208,50343,2,0,P|288:176|280:128,1,69.9999952316285,8|2,0:0|0:1,0:0:0:0:
188,68,50636,2,0,L|208:192,2,104.999992847443,2|2|0,0:1|0:1|0:0,0:0:0:0:
116,28,51221,6,0,P|92:48|40:52,1,69.9999952316285,8|0,0:0|0:0,0:0:0:0:
8,128,51514,2,0,P|40:136|76:172,1,69.9999952316285,8|0,0:0|0:0,0:0:0:0:
12,280,51806,2,0,L|0:196,1,69.9999952316285,8|0,0:0|0:0,0:0:0:0:
104,284,52099,2,0,L|94:353,1,69.9999952316285,8|0,0:0|0:0,0:0:0:0:
188,256,52392,6,0,P|156:212|84:204,1,104.999992847443,0|0,0:0|0:0,0:0:0:0:
92,200,52684,6,0,P|140:148|136:72,1,125.999987571717,8|0,0:0|0:0,0:0:0:0:
140,76,52977,6,0,L|272:68,2,104.999992847443,2|2|2,0:1|0:1|0:1,0:0:0:0:
64,40,53562,6,0,P|56:84|76:132,1,69.9999952316285,2|0,0:1|0:0,0:0:0:0:
144,228,53855,2,0,P|149:193|141:159,1,69.9999952316285,8|2,0:0|0:1,0:0:0:0:
0,200,54148,2,0,L|100:192,1,69.9999952316285,2|2,0:1|0:1,0:0:0:0:
141,159,54440,2,0,L|236:164,1,83.9999942779542,0|0,0:0|0:0,0:0:0:0:
244,160,54733,6,0,P|224:196|224:248,1,69.9999952316285,2|0,0:1|0:0,0:0:0:0:
284,312,55026,1,8,0:0:0:0:
304,220,55172,1,2,0:1:0:0:
368,276,55319,6,0,P|388:232|380:188,1,69.9999952316285,2|0,0:1|0:0,0:0:0:0:
328,136,55611,1,8,0:0:0:0:
304,220,55757,1,2,0:1:0:0:
284,312,55904,6,0,L|212:316,1,62.9999937858584,2|0,0:1|0:0,0:0:0:0:
160,380,56197,1,2,1:2:0:0:
168,248,56343,1,0,0:0:0:0:
92,212,56489,2,0,P|84:260|116:316,1,94.4999906787876,2|0,0:0|0:0,0:0:0:0:
112,312,56782,2,0,L|40:332,2,62.9999937858584,0|0|6,0:0|0:0|0:1,0:0:0:0:
212,128,57660,5,0,0:0:0:0:
316,340,58245,6,0,L|360:336,3,31.4999968929292,0|0|0|0,3:0|3:0|3:0|3:0,0:0:0:0:
352,308,58538,2,0,L|396:304,3,31.4999968929292,4|0|0|0,3:0|3:0|3:0|3:0,0:0:0:0:
380,276,58831,2,0,L|424:272,3,31.4999968929292,4|0|0|0,3:0|3:0|3:0|3:0,0:0:0:0:
416,244,59124,2,0,L|460:240,3,31.4999968929292,4|0|0|0,3:0|0:0|0:0|0:0,0:0:0:0:
464,224,59416,6,0,P|468:200|464:164,3,31.4999968929292,4|0|0|0,1:3|1:0|1:0|1:0,0:0:0:0:
460,168,59709,2,0,P|440:148|424:144,3,31.4999968929292,4|0|0|0,1:3|1:0|1:0|1:0,0:0:0:0:
400,144,60001,2,0,P|386:152|377:165,3,31.4999968929292,4|4|4|4,1:3|1:3|1:3|1:3,0:0:0:0:
368,192,60294,2,0,P|368:207|372:223,3,31.4999968929292,8|8|8|8,1:3|1:3|1:3|1:3,0:0:0:0:
392,244,60587,6,0,P|412:252|448:252,3,34.9999976158143,0|0|0|0,0:0|0:0|0:0|0:0,0:0:0:0:
456,256,60878,2,0,L|460:296,3,34.9999976158143,0|0|0|0,0:0|0:0|0:0|0:0,0:0:0:0:
488,296,61169,2,0,L|492:336,3,34.9999976158143,0|0|0|0,0:0|0:0|0:0|0:0,0:0:0:0:
504,356,61460,6,0,P|432:344|376:368,1,104.999992847443,8|0,0:0|0:0,0:0:0:0:
384,360,61752,6,0,B|384:304|384:304|372:272|372:272|372:192,1,139.999990463257,6|8,0:0|0:0,0:0:0:0:
440,180,62188,1,0,0:0:0:0:
440,180,62334,2,0,P|404:148|304:180,1,139.999990463257,2|8,0:0|0:0,0:0:0:0:
264,220,62771,1,0,0:0:0:0:
264,220,62917,6,0,L|284:72,1,139.999990463257,6|8,0:0|0:0,0:0:0:0:
212,24,63353,1,0,0:0:0:0:
128,40,63499,2,0,P|148:84|224:104,2,104.999992847443,2|0|0,0:0|0:0|0:0,0:0:0:0:
212,24,64082,6,0,L|304:16,1,69.9999952316285,6|0,0:0|0:0,0:0:0:0:
296,104,64373,2,0,L|365:110,1,69.9999952316285,8|0,0:0|0:0,0:0:0:0:
456,112,64664,1,2,0:0:0:0:
456,208,64810,1,0,0:0:0:0:
364,208,64955,1,10,0:0:0:0:
365,110,65101,1,0,0:0:0:0:
398,289,65247,6,0,P|322:285|278:221,1,139.999990463257,6|8,0:0|0:0,0:0:0:0:
352,68,65829,2,0,L|364:212,1,139.999990463257,2|8,0:0|0:0,0:0:0:0:
282,239,66266,1,0,0:0:0:0:
268,148,66412,6,0,L|265:113,3,34.9999976158143,6|0|0|0,0:0|0:0|0:0|0:0,0:0:0:0:
248,80,66703,2,0,P|204:116|116:108,1,139.999990463257,8|2,0:0|0:0,0:0:0:0:
68,52,67140,1,0,0:0:0:0:
124,112,67286,2,0,L|128:192,1,69.9999952316285,8|0,0:0|2:0,0:0:0:0:
80,268,67577,6,0,L|136:266,3,34.9999976158143,6|0|0|0,0:0|0:0|0:0|0:0,0:0:0:0:
136,264,67868,2,0,P|176:312|272:296,1,139.999990463257,8|0,0:0|0:0,0:0:0:0:
225,168,68305,1,0,0:0:0:0:
225,168,68451,2,0,L|213:252,1,69.9999952316285,8|0,0:0|0:0,0:0:0:0:
296,124,68742,6,0,P|260:92|196:92,2,104.999992847443,6|0|0,0:0|0:0|0:0,0:0:0:0:
244,271,69324,2,0,L|220:143,2,104.999992847443,2|0|0,0:0|0:0|0:0,0:0:0:0:
312,324,69907,2,0,B|332:312|364:328|364:328|392:340|420:316,2,94.4999906787876,8|0|0,0:0|0:0|0:0,0:0:0:0:
232,364,70489,2,0,P|204:348|164:348,1,62.9999937858584,8|2,0:0|0:0,0:0:0:0:
96,272,70781,2,0,P|148:264|176:244,1,62.9999937858584,8|2,0:0|0:0,0:0:0:0:
244,272,71072,6,0,L|232:116,1,139.999990463257,6|8,0:0|0:0,0:0:0:0:
312,96,71509,1,0,0:0:0:0:
312,96,71654,2,0,P|276:56|180:64,1,139.999990463257,2|8,0:0|0:0,0:0:0:0:
124,8,72091,1,0,0:0:0:0:
124,8,72237,6,0,P|112:84|168:140,1,139.999990463257,6|8,0:0|0:0,0:0:0:0:
128,208,72674,1,0,0:0:0:0:
128,208,72820,2,0,L|248:148,2,104.999992847443,2|0|0,0:0|0:0|0:0,0:0:0:0:
50,177,73402,6,0,P|46:233|110:293,1,139.999990463257,6|8,0:0|0:0,0:0:0:0:
164,356,73839,1,0,0:0:0:0:
188,276,73985,2,0,B|220:260|264:280|264:280|304:300|352:268,1,139.999990463257,2|8,0:0|0:0,0:0:0:0:
384,348,74421,1,0,0:0:0:0:
384,348,74567,2,0,L|360:188,2,139.999990463257,6|8|2,0:0|0:0|0:0,0:0:0:0:
416,148,75441,2,0,P|364:128|296:160,1,104.999992847443,8|0,0:0|0:0,0:0:0:0:
304,152,75732,6,0,L|300:104,3,34.9999976158143,6|0|0|0,0:0|0:0|0:0|0:0,0:0:0:0:
288,100,76023,2,0,L|140:112,1,139.999990463257,8|2,0:0|0:0,0:0:0:0:
72,80,76460,1,8,0:0:0:0:
72,80,76606,2,0,P|68:132|84:168,1,69.9999952316285,2|8,0:0|0:0,0:0:0:0:
148,111,76897,6,0,L|204:108,3,34.9999976158143,6|0|0|0,0:0|0:0|0:0|0:0,0:0:0:0:
208,108,77188,2,0,L|176:264,1,139.999990463257,8|8,0:0|0:0,0:0:0:0:
124,304,77625,1,2,0:0:0:0:
124,304,77771,2,0,P|164:324|204:320,1,69.9999952316285,8|8,0:0|0:0,0:0:0:0:
268,384,78062,6,0,B|268:344|268:344|272:324|272:324|272:248,2,104.999992847443,6|0|0,0:0|0:0|0:0,0:0:0:0:
188,304,78645,2,0,B|188:264|188:264|184:244|184:244|184:168,2,104.999992847443,2|0|0,0:0|0:0|0:0,0:0:0:0:
232,136,79227,2,0,P|204:120|176:120,1,55.9999961853028,8|0,0:0|2:0,0:0:0:0:
280,200,79519,2,0,P|308:160|308:124,1,62.9999937858584,8|0,0:0|2:0,0:0:0:0:
200,216,79810,2,0,P|228:264|260:280,1,69.9999952316285,8|0,0:0|2:0,0:0:0:0:
292,328,80101,2,0,L|156:320,1,104.999992847443,0|0,2:0|0:0,0:0:0:0:
168,324,80392,6,0,P|148:344|116:356,3,34.9999976158143,6|0|0|0,0:0|0:0|0:0|0:0,0:0:0:0:
124,352,80684,2,0,P|100:352|76:340,3,34.9999976158143,8|0|0|0,0:0|0:0|0:0|0:0,0:0:0:0:
72,340,80975,2,0,L|64:216,2,104.999992847443,2|0|0,0:0|0:0|0:0,0:0:0:0:
152,240,81557,2,0,L|158:135,2,104.999992847443,2|0|0,0:0|0:0|0:0,0:0:0:0:
76,152,82140,2,0,L|4:144,1,69.9999952316285,2|0,0:0|0:0,0:0:0:0:
0,56,82431,2,0,L|69:63,1,69.9999952316285,8|0,0:0|0:0,0:0:0:0:
144,24,82722,6,0,P|164:36|196:36,3,34.9999976158143,6|0|0|0,0:0|0:0|0:0|0:0,0:0:0:0:
200,40,83014,2,0,P|228:40|256:16,3,34.9999976158143,8|0|0|0,0:0|0:0|0:0|0:0,0:0:0:0:
256,24,83305,2,0,L|252:152,2,104.999992847443,2|0|0,0:0|0:0|0:0,0:0:0:0:
324,168,83887,2,0,P|264:212|188:180,1,139.999990463257,2|8,0:0|0:0,0:0:0:0:
140,136,84324,1,0,0:0:0:0:
204,197,84470,2,0,B|204:253|204:253|236:281|240:345,1,139.999990463257,2|8,0:0|0:0,0:0:0:0:
244,344,85053,6,0,P|272:328|304:332,3,34.9999976158143,6|0|0|0,0:0|0:0|0:0|0:0,0:0:0:0:
296,328,85344,2,0,P|328:332|352:356,3,34.9999976158143,8|0|0|0,0:0|0:0|0:0|0:0,0:0:0:0:
352,344,85635,2,0,L|340:224,2,104.999992847443,2|0|0,0:0|0:0|0:0,0:0:0:0:
428,284,86218,2,0,L|440:164,2,104.999992847443,2|0|0,0:0|0:0|0:0,0:0:0:0:
372,136,86800,2,0,P|416:104|476:112,2,104.999992847443,2|0|0,0:0|0:0|0:0,0:0:0:0:
344,216,87383,2,0,B|320:204|296:212|296:212|264:224|232:208,2,104.999992847443,2|0|0,0:0|0:0|0:0,0:0:0:0:
408,280,87965,2,0,B|432:268|456:276|456:276|488:288|520:272,2,104.999992847443,2|0|0,0:0|0:0|0:0,0:0:0:0:
368,356,88548,6,0,L|312:348,3,34.9999976158143,2|0|0|0,0:0|0:0|0:0|0:0,0:0:0:0:
308,344,88839,2,0,P|260:360|224:352,1,69.9999952316285,8|8,0:0|0:0,0:0:0:0:
248,208,89130,2,0,L|264:300,1,69.9999952316285,2|10,0:0|0:0,0:0:0:0:
156,228,89421,2,0,L|167:159,1,69.9999952316285,2|8,0:0|0:0,0:0:0:0:
172,144,89640,1,0,0:0:0:0:
180,128,89713,6,0,B|200:94|200:94|248:114|296:86,1,139.999990463257,6|0,0:0|0:0,0:0:0:0:
344,20,90150,2,0,B|352:56|352:56|344:84|344:84|336:136|388:156,1,139.999990463257,6|0,0:0|0:0,0:0:0:0:
444,204,90586,2,0,B|392:192|392:192|336:192|308:240,1,139.999990463257,6|0,0:0|0:0,0:0:0:0:
224,228,91023,2,0,B|204:192|148:192|148:192|96:204,1,139.999990463257,6|0,0:0|0:0,0:0:0:0:
0,248,91460,2,0,L|8:168,1,69.9999952316285,2|0,0:0|0:0,0:0:0:0:
90,133,91752,2,0,L|96:202,1,69.9999952316285,8|0,0:0|2:0,0:0:0:0:
12,96,92043,6,0,P|40:64|152:76,1,139.999990463257,6|0,0:0|0:0,0:0:0:0:
90,133,92480,2,0,L|222:89,1,139.999990463257,6|0,0:0|0:0,0:0:0:0:
252,8,92917,2,0,P|292:40|288:144,1,139.999990463257,6|0,0:0|0:0,0:0:0:0:
174,220,93353,2,0,L|230:68,1,139.999990463257,6|2,0:0|0:0,0:0:0:0:
220,292,93790,2,0,P|176:304|136:296,1,69.9999952316285,2|0,0:0|0:0,0:0:0:0:
260,220,94082,2,0,P|296:256|304:300,1,69.9999952316285,8|0,0:0|0:0,0:0:0:0:
300,300,94300,1,0,0:0:0:0:
296,324,94373,6,0,L|376:312,1,59.4999970817566,6|0,0:0|0:0,0:0:0:0:
428,352,94664,2,0,P|436:316|428:276,1,59.4999970817566,2|0,0:0|0:0,0:0:0:0:
468,220,94955,2,0,P|444:212|396:224,1,59.4999970817566,2|0,0:0|0:0,0:0:0:0:
337,179,95247,2,0,P|329:215|337:255,1,59.4999970817566,2|0,0:0|0:0,0:0:0:0:
297,311,95538,6,0,P|321:319|369:307,1,59.4999970817566,6|0,0:0|0:0,0:0:0:0:
228,260,95829,2,0,P|204:252|156:264,1,59.4999970817566,2|0,0:0|0:0,0:0:0:0:
92,296,96120,2,0,L|88:216,1,59.4999970817566,2|0,0:0|0:0,0:0:0:0:
0,264,96412,2,0,L|2:204,1,59.4999970817566,6|0,0:0|0:0,0:0:0:0:
56,136,96703,6,0,P|80:136|108:128,3,31.4999968929292,6|0|0|0,0:0|2:0|0:0|2:0,0:0:0:0:
112,124,96994,2,0,P|132:104|136:76,3,31.4999968929292,2|0|0|0,0:0|2:0|0:0|2:0,0:0:0:0:
144,76,97286,2,0,P|148:40|140:20,3,31.4999968929292,2|0|0|0,0:0|0:0|0:0|0:0,0:0:0:0:
144,16,97577,2,0,L|200:24,3,31.4999968929292,0|0|0|0,0:0|0:0|0:0|0:0,0:0:0:0:
196,28,97868,6,0,B|236:44|288:24|288:24|320:56|320:56|364:28|424:48,1,230.999977214814,2|2,0:0|0:0,0:0:0:0:
432,56,98742,6,0,L|436:92,3,20.9999979286195,2|0|0|0,0:0|0:0|0:0|0:0,0:0:0:0:
440,100,99033,6,0,P|404:96|356:124,1,69.9999952316285,6|0,0:0|0:0,0:0:0:0:
408,248,99324,1,8,0:0:0:0:
408,248,99470,2,0,L|420:168,1,69.9999952316285,2|0,0:0|0:0,0:0:0:0:
312,232,99761,1,0,0:0:0:0:
312,232,99907,2,0,L|322:301,1,69.9999952316285,10|0,0:0|0:0,0:0:0:0:
264,364,100198,5,4,0:0:0:0:
264,364,100344,2,0,B|232:344|196:360|196:360|152:380|104:348,1,139.999990463257
56,336,100781,2,0,P|112:320|144:272,2,104.999992847443,2|2|0,0:0|0:0|0:0,0:0:0:0:
96,208,101363,6,0,L|64:248,3,34.9999976158143,6|0|0|0,0:0|0:0|0:0|0:0,0:0:0:0:
64,252,101654,2,0,L|232:228,1,139.999990463257,8|2,0:0|0:0,0:0:0:0:
292,248,102091,1,0,0:0:0:0:
160,320,102237,1,8,0:0:0:0:
176,148,102383,1,2,0:0:0:0:
176,148,102455,1,0,0:0:0:0:
176,148,102528,6,0,L|256:136,1,69.9999952316285,6|0,0:0|0:0,0:0:0:0:
316,64,102820,2,0,L|246:53,1,69.9999952316285,8|0,0:0|0:0,0:0:0:0:
372,128,103111,2,0,P|396:92|396:44,1,69.9999952316285,8|0,0:0|0:0,0:0:0:0:
340,204,103402,2,0,P|384:208|428:188,1,69.9999952316285,8|0,0:0|0:0,0:0:0:0:
484,232,103693,6,0,L|504:292,3,34.9999976158143,6|0|0|0,0:0|0:0|0:0|0:0,0:0:0:0:
504,288,103985,2,0,B|472:268|436:284|436:284|392:304|344:272,1,139.999990463257,8|2,0:0|0:0,0:0:0:0:
304,332,104421,1,8,0:0:0:0:
304,332,104567,2,0,P|292:296|296:260,1,69.9999952316285,2|8,0:0|0:0,0:0:0:0:
312,136,104858,6,0,L|332:196,3,34.9999976158143,6|0|0|0,0:0|0:0|0:0|0:0,0:0:0:0:
332,192,105150,2,0,B|300:172|264:188|264:188|220:208|172:176,1,139.999990463257,8|2,0:0|0:0,0:0:0:0:
132,236,105586,1,8,0:0:0:0:
132,236,105732,2,0,P|120:200|124:164,1,69.9999952316285,2|8,0:0|0:0,0:0:0:0:
84,92,106023,6,0,P|72:96|32:96,3,34.9999976158143,6|0|0|0,0:0|0:0|0:0|0:0,0:0:0:0:
28,96,106315,2,0,L|44:16,1,69.9999952316285,8|0,0:0|0:0,0:0:0:0:
140,12,106606,1,2,0:0:0:0:
140,12,106752,1,0,0:0:0:0:
184,92,106897,1,8,0:0:0:0:
116,168,107043,1,0,0:0:0:0:
184,92,107188,6,0,L|308:80,2,104.999992847443,6|2|0,0:0|0:0|0:0,0:0:0:0:
116,168,107771,2,0,P|112:212|128:256,1,69.9999952316285,2|2,0:0|0:0,0:0:0:0:
268,236,108062,2,0,P|274:201|270:167,1,69.9999952316285,8|8,0:0|0:0,0:0:0:0:
192,200,108353,6,0,L|208:364,1,139.999990463257,6|0,0:0|0:0,0:0:0:0:
288,356,108790,2,0,B|318:336|354:352|354:352|398:372|421:354,1,139.999990463257,6|0,0:0|0:0,0:0:0:0:
496,336,109227,2,0,P|428:320|400:240,1,139.999990463257,6|0,0:0|0:0,0:0:0:0:
472,112,109664,2,0,B|472:160|472:160|480:196|480:196|480:252,1,139.999990463257,6|0,0:0|0:0,0:0:0:0:
398,261,110101,2,0,P|366:233|334:229,1,69.9999952316285,6|0,0:0|0:0,0:0:0:0:
256,228,110392,2,0,P|222:236|197:260,1,69.9999952316285,6|0,0:0|0:0,0:0:0:0:
160,336,110684,6,0,P|144:324|104:320,3,34.9999976158143,6|0|0|0,0:0|0:0|0:0|0:0,0:0:0:0:
96,320,110975,2,0,P|79:326|65:336,3,34.9999976158143,0|0|6|0,0:0|0:0|0:0|0:0,0:0:0:0:
44,352,111266,2,0,L|32:296,3,34.9999976158143,0|0|0|0,0:0|0:0|0:0|0:0,0:0:0:0:
28,292,111557,2,0,L|16:236,3,34.9999976158143,6|0|0|0,0:0|0:0|0:0|0:0,0:0:0:0:
16,232,111849,5,0,0:0:0:0:
8,154,111994,2,0,P|60:162|84:266,1,139.999990463257,6|0,0:0|0:0,0:0:0:0:
156,292,112431,2,0,L|244:280,1,69.9999952316285,6|0,0:0|0:0,0:0:0:0:
248,360,112722,2,0,L|336:348,1,69.9999952316285,6|0,0:0|0:0,0:0:0:0:
392,372,113014,6,0,P|392:328|376:296,1,62.9999937858584,14|0,0:0|0:0,0:0:0:0:
308,268,113305,1,8,0:0:0:0:
225,282,113451,1,0,0:0:0:0:
144,248,113596,6,0,P|135:217|137:186,1,62.9999937858584,14|0,0:0|0:0,0:0:0:0:
208,132,113887,1,8,0:0:0:0:
291,118,114033,1,0,0:0:0:0:
376,172,114179,6,0,P|384:184|424:204,3,34.9999976158143,14|0|8|0,0:0|0:0|0:0|0:0,0:0:0:0:
408,244,114470,2,0,P|394:254|384:268,3,34.9999976158143,10|0|8|0,0:0|0:0|0:0|0:0,0:0:0:0:
336,268,114761,2,0,P|325:253|312:243,3,34.9999976158143,10|0|8|0,0:0|0:0|0:0|0:0,0:0:0:0:
320,195,115052,2,0,P|333:184|343:170,3,34.9999976158143,10|0|8|0,0:0|0:0|0:0|0:0,0:0:0:0:
352,140,115344,5,6,0:0:0:0:
176,132,115926,5,6,0:0:0:0:
112,284,116509,5,6,0:0:0:0:
264,384,117091,5,6,0:0:0:0:
416,280,117674,5,6,0:0:0:0:
256,192,117747,12,2,120077,0:0:0:0:
