osu file format v14

[General]
AudioFilename: LegenD.mp3
AudioLeadIn: 0
PreviewTime: 61460
Countdown: 0
SampleSet: Normal
StackLeniency: 0.7
Mode: 0
LetterboxInBreaks: 0
WidescreenStoryboard: 0

[Editor]
DistanceSpacing: 1.1
BeatDivisor: 4
GridSize: 4
TimelineZoom: 5.699996

[Metadata]
Title:LegenD.
TitleUnicode:LegenD.
Artist:Yooh
ArtistUnicode:Yooh
Creator:toybot
Version:INFINITE
Source:SOUND VOLTEX III GRAVITY WARS
Tags:sdvx bemani the 4th kac mikii skinnyjommy gokugohan12468 kittyadventure sionkotori captin1 fort ciyus miapah
BeatmapID:799352
BeatmapSetID:359821

[Difficulty]
HPDrainRate:7
CircleSize:3.8
OverallDifficulty:8.5
ApproachRate:9.2
SliderMultiplier:1.8
SliderTickRate:1

[Events]
//Background and Video events
0,0,"legend.jpg",0,0
//Break Periods
//Storyboard Layer 0 (Background)
//Storyboard Layer 1 (Fail)
//Storyboard Layer 2 (Pass)
//Storyboard Layer 3 (Foreground)
//Storyboard Sound Samples

[TimingPoints]
880,292.682926829268,4,2,1,70,1,0
880,-133.333333333333,4,2,1,50,0,0
5270,-100,4,2,1,70,0,0
5562,-133.333333333333,4,2,1,50,0,0
9075,-111.111111111111,4,2,1,70,0,0
15221,-90.9090909090909,4,2,1,70,0,0
15514,-111.111111111111,4,2,1,70,0,0
15806,-90.9090909090909,4,2,1,70,0,0
16684,-90.9090909090909,4,1,1,40,0,0
16977,-90.9090909090909,4,1,1,50,0,0
17270,-200,4,2,1,60,0,0
18733,-166.666666666667,4,2,1,50,0,0
19026,-142.857142857143,4,2,1,40,0,0
19319,-111.111111111111,4,2,1,60,0,0
19611,-111.111111111111,4,2,1,70,0,0
21953,-100,4,2,1,70,0,0
23855,-133.333333333333,4,2,1,60,0,0
24294,-111.111111111111,4,2,1,70,0,0
26636,-90.9090909090909,4,2,1,80,0,0
26928,-100,4,2,1,70,0,0
27221,-90.9090909090909,4,2,1,70,0,0
27806,-111.111111111111,4,2,1,70,0,0
28977,-95.2380952380952,4,2,1,80,0,0
33075,-125,4,2,1,80,0,0
33440,-125,4,2,1,60,0,0
33660,-95.2380952380952,4,2,1,80,0,0
34831,-90.9090909090909,4,2,1,80,0,0
35416,-111.111111111111,4,2,1,80,0,0
36001,-90.9090909090909,4,2,1,80,0,0
37758,-83.3333333333333,4,2,1,80,0,0
38343,-100,4,2,1,80,0,0
41855,-125,4,2,1,80,0,0
42148,-83.3333333333333,4,2,0,80,0,0
42440,-142.857142857143,4,2,1,80,0,0
43026,-100,4,2,1,80,0,0
46538,-83.3333333333333,4,2,1,80,0,0
46977,-71.4285714285714,4,2,1,80,0,0
47416,-71.4285714285714,4,1,1,60,0,0
47709,-90.9090909090909,4,2,1,80,0,0
49758,-133.333333333333,4,2,1,80,0,0
50050,-90.9090909090909,4,2,1,80,0,0
52392,-90.9090909090909,4,2,1,60,0,0
52684,-90.9090909090909,4,2,1,80,0,0
54148,-111.111111111111,4,2,1,80,0,0
54440,-142.857142857143,4,2,1,80,0,0
54733,-90.9090909090909,4,2,1,80,0,0
55904,-111.111111111111,4,2,1,70,0,0
56489,-111.111111111111,4,2,1,60,0,0
56782,-111.111111111111,4,1,1,50,0,0
57953,-133.333333333333,4,3,1,30,0,0
60001,-100,4,3,1,40,0,0
60587,291.26213592233,4,1,1,50,1,0
61169,-100,4,1,1,60,0,0
61752,-83.3333333333333,4,1,1,80,0,1
64955,-71.4285714285714,4,1,1,80,0,1
65247,-83.3333333333333,4,1,1,80,0,1
69907,-76.9230769230769,4,1,1,80,0,1
71072,-83.3333333333333,4,1,1,80,0,1
74276,-71.4285714285714,4,1,1,80,0,1
74567,-83.3333333333333,4,1,1,80,0,1
78062,-90.9090909090909,4,1,1,80,0,1
79227,-100,4,1,1,80,0,1
79519,-95.2380952380952,4,1,1,80,0,1
79810,-90.9090909090909,4,1,1,80,0,1
80101,-86.9565217391304,4,2,1,90,0,1
80392,-100,4,1,1,80,0,0
89713,-133.333333333333,4,1,1,80,0,0
91460,-111.111111111111,4,1,1,80,0,0
92043,-125,4,1,1,80,0,0
93790,-111.111111111111,4,1,1,80,0,0
94373,-133.333333333333,4,1,1,60,0,0
95538,-117.647058823529,4,1,1,60,0,0
97868,-200,4,2,1,40,0,0
99033,-90.9090909090909,4,1,1,80,0,1
108062,-71.4285714285714,4,1,1,80,0,1
108353,-83.3333333333333,4,1,1,80,0,1
113014,-111.111111111111,4,1,1,70,0,1
113596,-100,4,1,1,70,0,1
114179,-90.9090909090909,4,1,1,70,0,1
114470,-83.3333333333333,4,1,1,70,0,1
115344,-83.3333333333333,4,1,1,70,0,0
120077,-83.3333333333333,4,2,1,5,0,0

[Colours]
Combo1 : 0,176,176
Combo2 : 128,0,128
Combo3 : 0,81,179
Combo4 : 128,128,128

[HitObjects]
336,64,587,6,0,L|332:160,1,90,8|0,0:0|0:0,0:0:0:0:
364,276,880,6,0,P|416:280|436:280,2,67.5000025749208,4|0|0,0:0|0:0|0:0,0:0:0:0:
268,228,1319,2,0,P|212:224|128:236,1,135.000005149842,2|0,0:0|0:0,0:0:0:0:
76,300,1758,2,0,P|72:340|72:376,1,67.5000025749208,2|0,0:0|0:0,0:0:0:0:
134,234,2050,6,0,P|133:200|129:166,1,67.5000025749208,2|0,0:0|0:0,0:0:0:0:
76,100,2343,1,0,0:0:0:0:
140,44,2489,2,0,P|188:28|276:24,1,135.000005149842,2|0,0:0|0:0,0:0:0:0:
432,68,2928,2,0,P|380:72|352:64,1,67.5000025749208,2|0,0:0|0:0,0:0:0:0:
244,136,3221,6,0,P|288:144|312:152,2,67.5000025749208,2|0|0,0:0|0:0|0:0,0:0:0:0:
164,176,3660,2,0,L|152:324,1,135.000005149842,2|0,0:0|0:0,0:0:0:0:
73,350,4099,2,0,P|29:342|5:334,1,67.5000025749208,2|0,0:0|0:0,0:0:0:0:
153,310,4392,6,0,P|197:318|221:326,1,67.5000025749208,2|0,0:0|0:0,0:0:0:0:
304,364,4684,1,0,0:0:0:0:
279,234,4831,2,0,P|304:296|304:364,1,135.000005149842,2|0,0:0|0:0,0:0:0:0:
184,224,5270,6,0,L|176:128,1,90,8|0,0:0|0:0,0:0:0:0:
320,60,5562,6,0,L|316:136,1,67.5000025749208,2|0,0:0|0:0,0:0:0:0:
360,204,5855,1,0,0:0:0:0:
449,125,6001,2,0,B|412:116|412:116|315:126,1,135.000005149842,2|0,0:0|0:0,0:0:0:0:
240,168,6440,2,0,L|164:160,1,67.5000025749208,2|0,0:0|0:0,0:0:0:0:
76,96,6733,6,0,P|60:136|56:164,1,67.5000025749208,2|0,0:0|0:0,0:0:0:0:
96,264,7026,1,0,0:0:0:0:
240,168,7172,2,0,P|212:136|128:164,1,135.000005149842,2|0,0:0|0:0,0:0:0:0:
216,256,7611,2,0,L|296:252,1,67.5000025749208,2|0,0:0|0:0,0:0:0:0:
400,144,7904,6,0,L|320:140,1,67.5000025749208,2|0,0:0|0:0,0:0:0:0:
332,140,8197,1,0,0:0:0:0:
456,236,8343,2,0,L|472:304,1,67.5000025749208,2|0,0:0|0:0,0:0:0:0:
508,160,8636,1,0,0:0:0:0:
456,84,8782,2,0,L|472:16,1,67.5000025749208,2|0,0:0|0:0,0:0:0:0:
508,160,9075,5,2,0:0:0:0:
324,56,9221,1,8,0:0:0:0:
372,236,9367,2,0,P|374:282|376:324,1,80.9999975280763,8|0,0:0|0:0,0:0:0:0:
256,144,9660,5,8,0:0:0:0:
258,128,9733,1,8,0:0:0:0:
260,112,9806,1,8,0:0:0:0:
372,236,9953,2,8,L|316:240,1,40.4999987640381
192,304,10099,2,8,L|248:308,1,40.4999987640381
456,320,10245,6,0,P|459:272|460:232,1,80.9999975280763,4|0,0:0|0:0,0:0:0:0:
464,136,10538,1,8,0:0:0:0:
380,244,10684,1,0,0:0:0:0:
380,244,10758,1,0,0:0:0:0:
380,244,10831,2,0,P|376:184|372:148,1,80.9999975280763,0|0,1:0|0:0,0:0:0:0:
272,188,11123,2,0,P|276:128|276:92,1,80.9999975280763,8|0,0:0|0:0,0:0:0:0:
64,192,11416,6,0,L|72:280,1,80.9999975280763,0|0,1:0|0:0,0:0:0:0:
84,368,11709,1,8,0:0:0:0:
160,232,11855,1,0,0:0:0:0:
160,232,11928,1,0,0:0:0:0:
160,232,12001,2,0,L|164:140,1,80.9999975280763,0|0,1:0|0:0,0:0:0:0:
44,60,12294,2,0,L|-4:64,2,40.4999987640381,8|0|0,0:0|0:0|0:0,0:0:0:0:
120,88,12514,1,8,0:0:0:0:
120,88,12587,6,0,B|160:76|160:76|212:84,1,80.9999975280763,4|0,0:0|0:0,0:0:0:0:
256,184,12879,1,8,0:0:0:0:
400,120,13026,1,0,0:0:0:0:
400,120,13099,1,0,0:0:0:0:
400,120,13172,2,0,L|308:116,1,80.9999975280763,0|0,1:0|0:0,0:0:0:0:
112,264,13465,2,0,L|204:268,1,80.9999975280763,8|0,0:0|0:0,0:0:0:0:
344,308,13758,6,0,L|336:220,1,80.9999975280763,0|0,1:0|0:0,0:0:0:0:
320,40,14050,1,8,0:0:0:0:
256,184,14197,2,0,L|244:232,1,40.4999987640381,0|8,0:0|0:0,0:0:0:0:
176,128,14343,1,0,1:0:0:0:
176,128,14416,1,0,0:0:0:0:
176,128,14489,2,0,L|168:32,1,80.9999975280763,0|8,0:0|0:0,0:0:0:0:
128,44,14709,1,8,0:0:0:0:
88,56,14782,1,8,0:0:0:0:
64,88,14855,1,8,0:0:0:0:
60,128,14928,6,0,P|64:169|68:212,1,80.9999975280763,4|0,0:0|0:0,0:0:0:0:
40,324,15221,2,0,B|135:304|96:346|200:326,1,148.50000453186,8|0,0:0|0:0,0:0:0:0:
152,252,15514,6,0,L|148:208,1,40.4999987640381,8|0,0:0|0:0,0:0:0:0:
232,128,15660,2,0,L|228:176,1,40.4999987640381
296,240,15806,6,0,P|328:196|308:92,1,148.50000453186,8|0,0:0|0:0,0:0:0:0:
248,48,16099,6,0,L|144:44,1,99.0000030212403,8|0,0:0|0:0,0:0:0:0:
40,176,16392,2,0,L|152:168,1,99.0000030212403,8|0,0:0|0:0,0:0:0:0:
408,136,16684,5,0,0:0:0:0:
409,126,16758,1,0,0:0:0:0:
410,116,16831,1,0,0:0:0:0:
411,106,16904,1,0,0:0:0:0:
412,96,16977,1,0,0:0:0:0:
413,86,17050,1,0,0:0:0:0:
414,76,17123,1,0,0:0:0:0:
415,66,17197,1,0,0:0:0:0:
256,192,17270,12,0,18294,0:0:0:0:
344,184,18440,6,0,L|340:244,1,45,2|0,0:0|0:0,0:0:0:0:
268,128,18733,2,0,L|264:52,1,53.9999983520508,2|0,0:0|0:0,0:0:0:0:
212,204,19026,2,0,L|208:276,1,62.9999980773926,2|0,0:0|0:0,0:0:0:0:
336,352,19319,6,0,L|340:266,1,80.9999975280763,2|0,0:0|0:0,0:0:0:0:
348,84,19611,5,6,0:1:0:0:
188,124,19758,1,0,0:0:0:0:
186,127,19831,1,0,0:0:0:0:
184,130,19904,1,2,0:1:0:0:
316,196,20050,1,0,0:0:0:0:
216,32,20197,5,2,0:1:0:0:
212,204,20343,1,0,0:0:0:0:
348,84,20489,2,0,P|353:33|345:-7,1,80.9999975280763,2|0,0:1|0:0,0:0:0:0:
96,48,20782,6,0,P|91:99|99:139,1,80.9999975280763,2|0,0:1|0:0,0:0:0:0:
98,131,21001,1,0,0:0:0:0:
100,134,21075,1,2,0:1:0:0:
228,44,21221,1,0,0:0:0:0:
212,208,21367,6,0,P|169:211|96:216,1,80.9999975280763,2|0,0:1|0:0,0:0:0:0:
312,272,21660,1,2,0:1:0:0:
184,130,21806,1,0,0:0:0:0:
328,164,21953,6,0,P|370:167|448:172,1,90,2|0,0:1|0:0,0:0:0:0:
312,272,22245,1,2,0:1:0:0:
304,80,22392,1,0,0:0:0:0:
408,248,22538,2,0,P|403:288|400:348,1,90,0|0,0:1|0:0,0:0:0:0:
111,337,22831,2,0,P|108:292|104:248,1,90,0|0,0:1|0:0,0:0:0:0:
96,224,23050,1,0,0:0:0:0:
88,204,23123,5,2,0:1:0:0:
184,130,23270,1,0,0:0:0:0:
200,260,23416,1,2,0:1:0:0:
182,115,23562,1,0,0:0:0:0:
308,188,23709,1,2,0:1:0:0:
180,100,23855,6,0,B|104:84|124:124|28:108,1,135.000005149842
248,172,24294,5,2,0:1:0:0:
412,132,24440,1,0,0:0:0:0:
248,172,24587,2,0,P|291:168|348:160,1,80.9999975280763,2|0,0:1|0:0,0:0:0:0:
432,44,24879,5,2,0:1:0:0:
392,220,25026,1,0,0:0:0:0:
496,104,25172,1,2,0:1:0:0:
320,64,25319,1,2,0:1:0:0:
392,220,25465,6,0,P|400:280|400:320,1,80.9999975280763,0|0,0:1|0:0,0:0:0:0:
292,272,25758,2,0,P|268:327|248:362,1,80.9999975280763,2|0,0:1|0:0,0:0:0:0:
179,267,26050,2,0,P|131:303|96:323,1,80.9999975280763,2|0,0:1|0:0,0:0:0:0:
106,318,26270,1,0,0:0:0:0:
99,322,26343,1,2,0:1:0:0:
292,272,26489,1,0,0:0:0:0:
120,176,26636,6,0,L|108:52,1,99.0000030212403,6|2,0:1|0:1,0:0:0:0:
244,152,26928,2,0,B|237:181|237:181|235:211,2,60,8|2|2,0:0|0:1|0:1,0:0:0:0:
336,80,27221,6,0,P|384:76|464:68,1,99.0000030212403,6|2,0:1|0:1,0:0:0:0:
488,224,27514,1,8,0:0:0:0:
412,204,27611,1,2,0:1:0:0:
348,252,27709,1,2,0:1:0:0:
272,232,27806,6,0,P|204:232|152:284,1,107.999996704102,2|0,1:0|0:0,0:0:0:0:
196,364,28099,2,0,P|264:364|316:312,1,107.999996704102,2|0,1:0|0:0,0:0:0:0:
348,252,28392,6,0,L|344:176,1,53.9999983520508,2|2,1:0|0:1,0:0:0:0:
336,88,28587,1,2,1:0:0:0:
264,144,28684,2,0,L|228:152,4,26.9999991760254,0|0|0|0|0,3:0|3:0|3:0|3:0|3:0,3:0:0:0:
264,144,28977,6,0,L|148:140,1,94.499997116089,6|0,0:1|0:0,0:0:0:0:
56,252,29270,2,0,P|98:249|168:248,1,94.499997116089,8|0,0:0|0:0,0:0:0:0:
264,280,29562,1,2,0:1:0:0:
364,168,29709,1,0,0:0:0:0:
400,332,29855,2,0,L|292:340,1,94.499997116089,8|0,0:0|0:0,0:0:0:0:
215,217,30148,6,0,P|268:202|326:228,1,94.499997116089,2|0,0:1|0:0,0:0:0:0:
184,336,30440,1,8,0:0:0:0:
128,240,30587,1,0,0:0:0:0:
130,231,30660,1,0,0:0:0:0:
132,222,30733,5,2,0:1:0:0:
264,280,30879,1,0,0:0:0:0:
72,312,31026,1,8,0:0:0:0:
324,190,31172,1,0,0:0:0:0:
108,140,31319,6,0,P|54:131|4:125,1,94.499997116089,2|0,0:1|0:0,0:0:0:0:
200,72,31611,1,8,0:0:0:0:
212,200,31758,1,0,0:0:0:0:
108,140,31904,2,0,P|104:97|97:45,1,94.499997116089,2|0,0:1|0:0,0:0:0:0:
304,124,32197,2,0,P|296:168|293:220,1,94.499997116089,8|0,0:0|0:0,0:0:0:0:
176,296,32489,6,0,P|112:312|74:303,1,94.499997116089,2|0,0:1|0:0,0:0:0:0:
293,217,32782,2,0,L|432:227,1,94.499997116089,8|0,0:0|0:0,0:0:0:0:
152,196,33075,2,0,P|149:154|148:101,1,72,2|0,1:0|0:0,0:0:0:0:
236,40,33367,5,8,0:0:0:0:
242,42,33440,1,0,1:0:0:0:
248,44,33514,1,0,1:0:0:0:
254,46,33587,1,0,1:0:0:0:
260,48,33660,6,0,L|382:39,1,94.499997116089,6|0,0:1|0:0,0:0:0:0:
232,144,33953,1,8,0:0:0:0:
368,48,34099,1,0,0:0:0:0:
376,208,34245,2,0,P|367:252|360:305,1,94.499997116089,2|0,0:1|0:0,0:0:0:0:
468,276,34538,1,8,0:0:0:0:
268,236,34684,1,2,0:1:0:0:
472,264,34831,6,0,L|462:148,1,99.0000030212403,6|0,0:1|0:0,0:0:0:0:
368,48,35123,2,0,L|357:166,1,99.0000030212403,8|0,0:0|0:0,0:0:0:0:
268,236,35416,6,0,P|212:228|164:240,1,80.9999975280763,0|0,1:0|0:0,0:0:0:0:
284,252,35636,2,0,P|278:181|272:100,1,121.499996292114,0|0,1:0|1:0,0:0:0:0:
276,44,36001,5,6,0:1:0:0:
180,148,36148,1,2,0:1:0:0:
60,80,36294,1,8,0:0:0:0:
57,75,36367,1,0,0:0:0:0:
54,70,36440,1,0,0:0:0:0:
51,65,36514,1,0,0:0:0:0:
48,60,36587,5,6,0:1:0:0:
196,20,36733,1,2,0:1:0:0:
108,220,36879,1,8,0:0:0:0:
104,229,36953,1,0,0:0:0:0:
100,238,37026,1,0,0:0:0:0:
96,247,37099,1,0,0:0:0:0:
92,256,37172,6,0,L|200:248,1,99.0000030212403,6|0,1:1|0:0,0:0:0:0:
420,128,37465,2,0,L|312:136,1,99.0000030212403,4|0,1:0|0:0,0:0:0:0:
84,276,37758,6,0,L|224:264,1,107.999996704102,4|0,1:0|0:0,0:0:0:0:
428,108,38050,2,0,L|288:120,1,107.999996704102,4|0,1:0|0:0,0:0:0:0:
232,68,38270,1,0,0:0:0:0:
216,60,38343,6,0,B|205:110|205:110|216:164,1,90,2|0,0:1|0:0,0:0:0:0:
324,232,38636,2,0,L|448:236,1,90,8|0,0:0|0:0,0:0:0:0:
196,300,38928,2,0,B|144:301|144:301|112:314|112:314|48:317,2,135,2|2|2,0:1|0:1|0:1,0:0:0:0:
324,232,39514,6,0,P|319:186|316:124,1,90,2|0,0:1|0:0,0:0:0:0:
184,88,39806,1,8,0:1:0:0:
182,110,39879,1,0,0:1:0:0:
180,132,39953,1,0,0:1:0:0:
179,154,40026,1,0,0:1:0:0:
178,176,40099,1,2,0:1:0:0:
292,328,40245,1,2,0:1:0:0:
292,328,40684,6,0,L|384:320,1,90,2|0,0:1|0:0,0:0:0:0:
180,284,40977,2,0,P|172:332|184:380,1,90,8|0,0:0|0:0,0:0:0:0:
312,220,41270,2,0,L|300:128,1,90,2|0,0:1|0:0,0:0:0:0:
240,80,41489,2,0,L|144:72,1,90,2|0,0:1|0:0,0:0:0:0:
36,152,41709,2,0,L|92:144,1,45,2|0,0:1|0:0,0:0:0:0:
236,188,41855,6,0,B|225:186|216:184|216:184|197:176|197:176|189:188|189:188|160:188|136:216,1,108,2|0,0:1|0:0,0:0:0:0:
104,296,42148,6,0,B|102:330|102:330|115:312,1,53.9999983520508,2|0,0:1|0:0,0:0:0:0:
136,124,42294,2,0,B|138:90|138:90|126:106,1,53.9999983520508,2|0,0:1|0:0,0:0:0:0:
16,228,42440,6,0,L|216:216,1,188.999994232178,8|0,0:0|0:0,0:0:0:0:
392,256,43026,6,0,L|288:248,1,90,2|0,0:1|0:0,0:0:0:0:
204,216,43319,1,8,0:0:0:0:
364,88,43465,1,0,0:0:0:0:
302,249,43611,2,0,P|294:297|294:345,1,90,2|0,0:1|0:0,0:0:0:0:
392,256,43831,2,0,P|377:195|306:158,1,135,2|2,0:1|0:1,0:0:0:0:
144,232,44197,6,0,P|87:236|44:240,1,90,2|0,0:1|0:0,0:0:0:0:
228,144,44489,1,8,0:0:0:0:
225,175,44562,1,2,0:1:0:0:
221,205,44636,1,2,0:1:0:0:
218,236,44709,1,2,0:1:0:0:
215,267,44782,5,0,0:0:0:0:
308,200,44928,1,0,0:0:0:0:
336,328,45075,1,0,0:0:0:0:
335,323,45148,1,0,0:0:0:0:
333,317,45221,1,0,0:0:0:0:
332,312,45294,1,0,0:0:0:0:
331,307,45367,6,0,P|328:261|326:204,1,90,2|0,0:1|0:0,0:0:0:0:
380,56,45660,2,0,P|388:104|368:152,1,90,8|0,0:0|0:0,0:0:0:0:
224,196,45953,2,0,P|196:176|132:180,1,90,2|0,0:1|0:0,0:0:0:0:
141,175,46172,1,2,0:1:0:0:
141,175,46245,1,8,0:0:0:0:
94,320,46392,1,2,0:1:0:0:
36,128,46538,6,0,P|40:104|44:60,1,53.9999983520508,2|0,1:0|0:0,0:0:0:0:
284,44,46758,2,0,P|285:74|292:108,1,53.9999983520508,2|0,1:0|0:0,0:0:0:0:
216,336,46977,2,0,P|224:300|224:256,1,62.9999980773926,2|0,1:0|0:0,0:0:0:0:
459,243,47197,2,0,P|460:274|468:305,1,62.9999980773926,2|0,1:0|0:0,0:0:0:0:
320,184,47416,5,0,0:0:0:0:
321,177,47489,1,0,0:0:0:0:
322,170,47562,1,0,0:0:0:0:
323,163,47636,1,0,0:0:0:0:
324,156,47709,6,0,P|372:154|430:147,1,99.0000030212403,6|0,0:1|0:0,0:0:0:0:
212,104,48001,2,0,B|200:152|200:152|212:212,1,99.0000030212403,8|2,0:0|0:1,0:0:0:0:
256,264,48221,1,0,0:0:0:0:
256,264,48294,2,0,P|324:240|400:300,1,148.50000453186,2|2,0:1|0:1,0:0:0:0:
287,335,48587,2,0,P|215:331|183:283,1,99.0000030212403,8|0,0:0|0:0,0:0:0:0:
212,104,48879,5,2,0:1:0:0:
256,264,49026,1,2,0:1:0:0:
104,184,49172,2,0,P|36:176|0:176,1,99.0000030212403,8|0,0:0|0:0,0:0:0:0:
120,288,49465,5,2,0:1:0:0:
196,192,49611,1,0,0:0:0:0:
120,96,49758,2,0,L|110:28,1,67.5000025749208,0|2,0:0|0:1,0:0:0:0:
336,120,50050,6,0,L|328:224,1,99.0000030212403,2|0,0:1|0:0,0:0:0:0:
348,292,50270,1,0,0:0:0:0:
348,292,50343,2,0,P|396:252|400:196,1,99.0000030212403,8|2,0:0|0:1,0:0:0:0:
240,168,50636,2,0,L|72:160,1,148.50000453186,2|2,0:1|0:1,0:0:0:0:
141,254,50928,2,0,P|169:206|153:146,1,99.0000030212403,8|0,0:0|0:0,0:0:0:0:
100,56,51221,6,0,L|-20:48,1,99.0000030212403,8|0,0:0|0:0,0:0:0:0:
240,168,51514,2,0,L|348:160,1,99.0000030212403,8|0,0:0|0:0,0:0:0:0:
502,86,51806,5,8,0:0:0:0:
325,49,51953,1,0,0:0:0:0:
447,183,52099,1,8,0:0:0:0:
427,2,52245,1,0,0:0:0:0:
338,160,52392,6,0,P|332:196|340:224,2,66.0000020141602
368,80,52684,6,0,P|301:84|232:88,1,99.0000030212403,8|0,0:0|0:0,0:0:0:0:
56,220,52977,2,0,P|120:216|168:244,1,99.0000030212403,2|0,0:1|0:0,0:0:0:0:
204,292,53197,1,2,0:1:0:0:
204,292,53270,1,8,0:0:0:0:
160,120,53416,1,2,0:1:0:0:
284,216,53562,6,0,P|320:218|408:224,1,99.0000030212403,2|0,0:1|0:0,0:0:0:0:
424,55,53855,1,8,0:0:0:0:
408,55,53928,1,2,0:1:0:0:
393,56,54001,1,2,0:1:0:0:
378,57,54075,1,2,0:1:0:0:
363,58,54148,6,0,P|347:101|353:141,1,80.9999975280763,2|2,0:1|0:1,0:0:0:0:
268,348,54440,6,0,P|268:308|248:276,1,62.9999980773926
168,224,54733,6,0,L|48:216,1,99.0000030212403,2|0,0:1|0:0,0:0:0:0:
176,336,55026,1,8,0:0:0:0:
268,184,55172,1,2,0:1:0:0:
69,217,55319,2,0,P|38:288|93:328,1,148.50000453186,2|0,0:1|0:0,0:0:0:0:
168,224,55611,2,0,L|160:112,1,99.0000030212403,8|2,0:0|0:1,0:0:0:0:
64,0,55904,6,0,P|50:78|96:116,1,121.499996292114,2|0,0:1|0:0,0:0:0:0:
160,125,56197,2,0,P|196:118|256:113,1,80.9999975280763,2|0,1:2|0:0,0:0:0:0:
356,251,56489,2,0,P|312:247|260:240,1,80.9999975280763,2|0,0:0|0:0,0:0:0:0:
412,88,56782,5,0,0:0:0:0:
415,99,56855,1,0,0:0:0:0:
418,110,56928,1,0,0:0:0:0:
421,121,57001,1,0,0:0:0:0:
424,132,57075,1,6,0:1:0:0:
424,132,57953,6,0,P|419:170|416:212,1,67.5000025749208
376,292,58245,2,0,L|384:340,3,33.7500012874604,0|0|0|0,3:0|3:0|3:0|3:0,3:0:0:0:
304,320,58538,2,0,L|260:342,3,33.7500012874604,4|0|0|0,3:0|3:0|3:0|3:0,3:0:0:0:
255,260,58831,2,0,L|220:225,3,33.7500012874604,4|0|0|0,3:0|3:0|3:0|3:0,3:0:0:0:
296,195,59123,2,0,L|317:151,3,33.7500012874604,4|0|0|0,3:0|3:0|3:0|3:0,3:0:0:0:
368,216,59416,5,4,1:3:0:0:
379,209,59489,1,0,1:0:0:0:
388,200,59562,1,0,1:0:0:0:
394,188,59636,1,0,1:0:0:0:
397,176,59709,1,4,1:3:0:0:
396,162,59781,1,0,1:0:0:0:
393,150,59854,1,0,1:0:0:0:
385,139,59928,1,0,1:0:0:0:
376,130,60001,5,4,1:3:0:0:
347,106,60075,1,4,1:3:0:0:
311,102,60148,1,4,1:3:0:0:
276,110,60221,1,4,1:3:0:0:
249,134,60294,1,8,1:3:0:0:
220,155,60367,1,8,1:3:0:0:
185,164,60440,1,8,1:3:0:0:
148,159,60514,1,8,1:3:0:0:
118,138,60587,6,0,P|96:120|84:100,3,45
8,76,60878,2,0,P|28:44|56:28,3,45
132,48,61169,5,0,0:0:0:0:
177,68,61242,1,0,0:0:0:0:
197,112,61315,1,0,0:0:0:0:
193,160,61387,1,0,0:0:0:0:
165,200,61460,2,0,L|105:208,1,45,8|0,0:0|0:0,0:0:0:0:
8,120,61606,5,0,0:0:0:0:
8,120,61679,1,0,0:0:0:0:
8,120,61752,2,0,L|145:131,1,107.999996704102,6|0,0:0|0:0,0:0:0:0:
293,91,62043,1,8,0:0:0:0:
218,221,62188,1,0,0:0:0:0:
376,317,62334,2,0,P|367:262|363:199,1,107.999996704102,2|0,0:0|0:0,0:0:0:0:
382,138,62553,1,0,0:0:0:0:
382,138,62625,1,8,0:0:0:0:
472,296,62771,1,0,0:0:0:0:
284,280,62917,6,0,P|221:276|147:273,1,107.999996704102,2|0,0:0|0:0,0:0:0:0:
382,138,63208,2,0,P|430:136|491:132,1,107.999996704102,8|0,0:0|0:0,0:0:0:0:
252,24,63499,1,2,0:0:0:0:
248,68,63572,1,0,0:0:0:0:
244,112,63645,1,0,0:0:0:0:
240,156,63718,1,0,0:0:0:0:
236,200,63790,1,8,0:0:0:0:
128,60,63936,1,0,0:0:0:0:
383,39,64082,6,0,P|401:88|382:138,1,107.999996704102,2|0,0:0|0:0,0:0:0:0:
320,180,64300,1,0,0:0:0:0:
320,180,64373,2,0,L|176:160,1,107.999996704102,8|0,0:0|0:0,0:0:0:0:
80,272,64664,6,0,P|104:267|144:264,1,53.9999983520508,2|0,0:0|2:0,0:0:0:0:
200,340,64810,2,0,P|175:344|136:348,1,53.9999983520508,0|0,0:0|2:0,0:0:0:0:
72,264,64955,6,0,P|96:259|144:256,1,62.9999980773926,10|0,0:0|2:0,0:0:0:0:
208,348,65101,2,0,P|183:352|136:356,1,62.9999980773926,0|0,0:0|2:0,0:0:0:0:
64,256,65247,6,0,L|68:144,1,107.999996704102,2|0,0:0|0:0,0:0:0:0:
219,98,65538,2,0,B|224:144|224:144|232:160|232:160|236:204,1,107.999996704102,8|0,0:0|0:0,0:0:0:0:
284,264,65756,1,0,0:0:0:0:
284,264,65829,2,0,P|349:295|432:208,1,161.999995056153,2|0,0:0|2:0,0:0:0:0:
428,176,66120,1,8,0:0:0:0:
208,272,66266,1,0,0:0:0:0:
416,340,66412,5,2,0:0:0:0:
417,318,66485,1,0,0:0:0:0:
418,296,66557,1,0,0:0:0:0:
419,274,66630,1,0,0:0:0:0:
421,252,66703,1,8,0:0:0:0:
304,148,66849,1,0,0:0:0:0:
208,272,66994,2,0,P|124:284|80:196,1,161.999995056153,2|0,0:0|2:0,0:0:0:0:
156,216,67286,1,8,0:0:0:0:
284,296,67431,2,0,L|280:364,1,53.9999983520508,0|0,2:0|2:0,2:0:0:0:
86,316,67577,5,2,0:0:0:0:
83,272,67650,1,0,0:0:0:0:
80,229,67722,1,0,0:0:0:0:
77,185,67795,1,0,0:0:0:0:
75,141,67868,1,8,0:0:0:0:
220,45,68014,1,0,0:0:0:0:
304,196,68159,2,0,P|372:212|436:136,1,161.999995056153,0|0,0:0|2:0,0:0:0:0:
356,136,68451,1,8,0:0:0:0:
204,248,68596,2,0,L|208:308,1,53.9999983520508,0|0,0:0|2:0,0:0:0:0:
304,196,68742,6,0,B|256:192|256:192|232:176|232:176|128:168,1,161.999995056153,2|0,0:0|0:0,0:0:0:0:
80,229,69033,2,0,P|68:296|112:344,1,107.999996704102,8|0,0:0|0:0,0:0:0:0:
304,196,69324,6,0,L|292:24,1,161.999995056153,2|0,0:0|0:0,0:0:0:0:
220,45,69616,2,0,P|246:91|297:105,1,107.999996704102,8|0,0:0|0:0,0:0:0:0:
409,38,69907,6,0,P|363:40|282:32,1,116.999994644165,8|0,0:0|0:0,0:0:0:0:
104,184,70198,2,0,P|162:177|220:180,1,116.999994644165,8|0,0:0|0:0,0:0:0:0:
452,264,70489,5,8,0:0:0:0:
284,128,70635,1,2,0:0:0:0:
436,112,70781,5,8,0:0:0:0:
300,280,70926,1,2,0:0:0:0:
104,184,71072,6,0,P|97:123|88:64,1,107.999996704102,6|0,0:0|0:0,0:0:0:0:
108,304,71363,1,8,0:0:0:0:
44,248,71509,1,0,0:0:0:0:
44,248,71582,1,0,0:0:0:0:
44,248,71654,2,0,P|128:224|192:296,1,161.999995056153,2|0,0:0|0:0,0:0:0:0:
192,344,71946,1,8,0:0:0:0:
304,200,72091,1,0,0:0:0:0:
404,352,72237,6,0,P|341:349|280:348,1,107.999996704102,2|0,0:0|0:0,0:0:0:0:
196,206,72528,2,0,P|236:204|303:199,1,107.999996704102,8|0,0:0|0:0,0:0:0:0:
472,172,72820,1,2,0:0:0:0:
464,220,72892,1,0,0:0:0:0:
436,260,72965,1,0,0:0:0:0:
388,276,73038,1,0,0:0:0:0:
340,268,73111,1,8,0:0:0:0:
292,100,73256,1,0,0:0:0:0:
124,156,73402,6,0,B|112:208|112:208|125:260,1,107.999996704102,2|0,0:0|0:0,0:0:0:0:
196,300,73620,1,0,0:0:0:0:
196,300,73693,2,0,L|320:296,1,107.999996704102,8|0,0:0|0:0,0:0:0:0:
416,80,73985,6,0,L|328:76,1,53.9999983520508,2|0,0:0|2:0,0:0:0:0:
248,128,74130,2,0,L|336:132,1,53.9999983520508,0|0,0:0|2:0,0:0:0:0:
424,68,74276,6,0,L|316:64,1,62.9999980773926,8|0,0:0|2:0,0:0:0:0:
240,140,74421,2,0,L|348:144,1,62.9999980773926,0|0,0:0|2:0,0:0:0:0:
456,216,74567,6,2,B|400:214|400:214|391:217|391:217|331:215,1,107.999996704102,2|0,0:0|0:0,0:0:0:0:
94,292,74858,2,2,P|146:280|195:299,1,107.999996704102,8|0,0:0|0:0,0:0:0:0:
308,384,75150,2,2,P|297:321|292:260,1,107.999996704102,2|0,0:0|0:0,0:0:0:0:
320,100,75441,1,8,0:0:0:0:
228,228,75587,1,0,0:0:0:0:
372,320,75732,5,6,0:0:0:0:
373,303,75805,1,0,0:0:0:0:
374,286,75878,1,0,0:0:0:0:
375,269,75951,1,0,0:0:0:0:
376,253,76023,1,8,0:0:0:0:
240,140,76169,1,0,0:0:0:0:
276,312,76315,5,2,0:0:0:0:
320,100,76460,1,8,0:0:0:0:
280,332,76606,5,2,0:0:0:0:
324,120,76752,1,8,0:0:0:0:
137,239,76897,5,6,0:0:0:0:
160,236,76970,1,0,0:0:0:0:
183,233,77043,1,0,0:0:0:0:
206,231,77116,1,0,0:0:0:0:
228,228,77188,1,8,0:0:0:0:
412,292,77334,1,0,0:0:0:0:
396,112,77480,5,8,0:0:0:0:
276,312,77625,1,2,0:0:0:0:
400,128,77771,5,8,0:0:0:0:
280,332,77917,2,0,L|333:329,1,53.9999983520508,2|0,0:0|0:0,0:0:0:0:
496,200,78062,6,0,B|444:201|444:201|420:214|420:214|320:218,1,148.50000453186,2|0,0:0|0:0,0:0:0:0:
284,168,78353,2,0,P|279:119|276:64,1,99.0000030212403,8|0,0:0|0:0,0:0:0:0:
128,176,78645,6,0,P|121:248|112:336,1,148.50000453186,2|0,0:0|0:0,0:0:0:0:
113,323,78936,1,8,0:0:0:0:
276,252,79082,1,0,0:0:0:0:
172,94,79227,6,0,P|129:83|85:93,1,90,8|0,0:0|2:0,0:0:0:0:
382,168,79519,2,0,P|413:136|416:80,1,94.499997116089,8|0,0:0|2:0,0:0:0:0:
213,313,79810,2,0,P|225:355|280:388,1,99.0000030212403,8|0,0:0|2:0,0:0:0:0:
256,90,80101,6,2,B|260:132|260:132|252:156|252:156|256:192,1,103.500001974106,0|0,0:0|0:0,0:1:0:0:
492,160,80392,5,6,0:0:0:0:
468,148,80465,1,0,0:0:0:0:
440,144,80538,1,0,0:0:0:0:
412,148,80611,1,0,0:0:0:0:
388,160,80684,2,0,P|368:192|368:220,1,45,8|0,0:0|0:0,0:0:0:0:
340,312,80829,2,0,P|360:280|360:252,1,45
284,192,80975,6,0,L|136:196,1,135,2|0,0:0|0:0,0:0:0:0:
88,240,81266,2,0,L|200:244,1,90,8|0,0:0|0:0,0:0:0:0:
60,48,81557,6,0,B|32:108|32:108|48:184,1,135,2|0,0:0|0:0,0:0:0:0:
88,240,81849,2,0,L|80:348,1,90,8|0,0:0|0:0,0:0:0:0:
8,276,82140,5,2,0:0:0:0:
160,124,82286,1,0,0:0:0:0:
60,48,82431,5,8,0:0:0:0:
88,240,82577,1,0,0:0:0:0:
244,116,82722,5,2,0:0:0:0:
276,100,82795,1,0,0:0:0:0:
312,96,82868,1,0,0:0:0:0:
348,104,82941,1,0,0:0:0:0:
380,124,83014,2,0,L|396:176,1,45,8|0,0:0|0:0,0:0:0:0:
304,308,83159,1,0,0:0:0:0:
302,312,83232,1,0,0:0:0:0:
300,316,83305,6,0,L|309:165,1,135,2|0,0:0|0:0,0:0:0:0:
312,96,83596,1,8,0:0:0:0:
400,276,83742,1,0,0:0:0:0:
216,216,83887,6,0,L|48:208,1,135,2|0,0:0|0:0,0:0:0:0:
24,252,84179,2,0,L|152:244,1,90,8|0,0:0|0:0,0:0:0:0:
256,112,84470,2,0,P|200:104|144:136,1,90,2|0,0:0|0:0,0:0:0:0:
300,316,84761,2,0,P|342:328|386:318,1,90,8|0,0:0|0:0,0:0:0:0:
480,184,85053,5,2,0:0:0:0:
478,161,85125,1,0,0:0:0:0:
476,138,85198,1,0,0:0:0:0:
474,115,85271,1,0,0:0:0:0:
473,92,85344,2,0,L|470:38,1,45,8|0,0:0|0:0,0:0:0:0:
388,168,85489,2,0,L|384:240,1,45
292,128,85635,6,0,B|240:124|240:124|208:132|208:132|144:128,1,135,2|0,0:0|0:0,0:0:0:0:
88,104,85926,1,8,0:0:0:0:
204,232,86072,1,0,0:0:0:0:
388,168,86218,6,0,L|224:176,1,135,2|0,0:0|0:0,0:0:0:0:
204,232,86509,1,8,0:0:0:0:
424,240,86654,1,0,0:0:0:0:
415,48,86800,6,0,P|377:102|388:168,1,135,2|0,0:0|0:0,0:0:0:0:
424,240,87091,2,0,P|440:304|420:352,1,90,8|0,0:0|0:0,0:0:0:0:
256,352,87383,6,0,L|144:340,1,90,2|0,0:0|0:0,0:0:0:0:
100,304,87601,1,0,0:0:0:0:
100,304,87674,1,8,0:0:0:0:
296,232,87820,1,0,0:0:0:0:
128,156,87965,1,2,0:0:0:0:
128,156,88038,2,0,B|116:116|116:116|128:44,1,90
184,16,88256,2,0,L|300:12,1,90,8|0,0:0|0:0,0:0:0:0:
216,236,88548,5,2,0:0:0:0:
176,233,88620,1,0,0:0:0:0:
136,231,88693,1,0,0:0:0:0:
96,229,88766,1,0,0:0:0:0:
56,227,88839,1,8,0:0:0:0:
296,240,88985,5,8,0:0:0:0:
152,120,89130,1,2,0:0:0:0:
232,336,89276,1,8,0:0:0:0:
328,132,89421,1,10,0:0:0:0:
330,127,89494,1,2,0:0:0:0:
332,122,89567,1,2,0:0:0:0:
334,117,89640,1,2,0:0:0:0:
336,112,89713,6,0,P|332:64|328:0,1,101.250003862381,6|0,0:0|2:0,0:0:0:0:
175,213,90150,2,0,P|180:162|181:112,1,101.250003862381,6|0,0:0|2:0,0:0:0:0:
189,297,90586,6,0,L|88:304,1,101.250003862381,6|0,0:0|2:0,0:0:0:0:
338,201,91023,2,0,L|440:208,1,101.250003862381,6|0,0:0|2:0,0:0:0:0:
100,115,91460,6,0,L|181:112,1,80.9999975280763,2|0,0:0|0:0,0:0:0:0:
280,292,91752,1,8,0:0:0:0:
279,296,91824,1,0,2:0:0:0:
278,300,91897,1,0,2:0:0:0:
278,304,91970,1,0,2:0:0:0:
278,308,92043,6,0,P|248:260|264:200,1,108,6|0,0:0|2:0,0:0:0:0:
432,116,92480,2,0,B|388:117|388:117|368:122|368:122|324:123,1,108,6|0,0:0|2:0,0:0:0:0:
72,208,92917,6,0,P|140:200|196:228,1,108,6|0,0:0|2:0,0:0:0:0:
428,232,93353,2,0,P|380:252|304:236,1,108,6|0,0:0|2:0,0:0:0:0:
256,211,93645,1,0,0:0:0:0:
320,42,93790,6,0,L|324:130,1,80.9999975280763,2|0,0:0|0:0,0:0:0:0:
175,213,94082,2,0,L|171:125,1,80.9999975280763,8|0,0:0|0:0,0:0:0:0:
332,288,94373,6,0,L|336:372,1,67.5000025749208,2|0,0:0|0:0,0:0:0:0:
335,355,94591,1,0,0:0:0:0:
335,355,94664,2,0,P|369:352|428:348,1,67.5000025749208,2|0,0:0|0:0,0:0:0:0:
472,192,94955,2,0,P|433:190|388:188,1,67.5000025749208,2|0,0:0|0:0,0:0:0:0:
404,189,95174,1,0,0:0:0:0:
412,196,95247,2,0,P|366:196|335:199,1,67.5000025749208,2|0,0:0|0:0,0:0:0:0:
216,144,95538,6,0,L|212:232,1,76.5000014591217,2|0,0:0|0:0,0:0:0:0:
212,220,95756,1,0,0:0:0:0:
212,220,95829,2,0,L|208:300,1,76.5000014591217,2|0,0:0|0:0,0:0:0:0:
132,168,96120,2,0,B|125:131|125:131|136:84,1,76.5000014591217,2|0,0:0|0:0,0:0:0:0:
138,82,96339,1,0,0:0:0:0:
142,71,96412,2,0,L|244:64,1,76.5000014591217,2|0,0:0|0:0,0:0:0:0:
364,136,96703,6,0,L|372:184,1,38.2500007295609,2|0,0:0|2:0,0:0:0:0:
448,240,96849,2,0,L|440:192,1,38.2500007295609,0|0,0:0|2:0,0:0:0:0:
376,120,96994,6,0,L|384:168,1,38.2500007295609,2|0,0:0|2:0,0:0:0:0:
460,224,97140,2,0,L|452:176,1,38.2500007295609,0|0,0:0|2:0,0:0:0:0:
388,108,97286,5,2,0:0:0:0:
356,96,97358,1,0,0:0:0:0:
320,96,97431,1,0,0:0:0:0:
288,108,97504,1,0,0:0:0:0:
260,128,97577,1,0,0:0:0:0:
228,140,97650,1,0,0:0:0:0:
192,140,97723,1,0,0:0:0:0:
160,128,97795,1,0,0:0:0:0:
136,104,97868,6,0,P|196:76|264:192,1,225,0|2,0:0|0:0,0:0:0:0:
200,264,98742,1,2,0:0:0:0:
197,263,98815,1,2,0:0:0:0:
194,262,98887,1,2,0:0:0:0:
191,261,98960,1,2,0:0:0:0:
121,279,99033,6,0,L|241:275,1,99.0000030212403,6|0,0:0|0:0,0:0:0:0:
344,268,99324,1,8,0:0:0:0:
464,180,99470,2,0,P|458:239|452:292,1,99.0000030212403,2|0,0:0|0:0,0:0:0:0:
328,148,99761,1,0,0:0:0:0:
396,64,99907,5,10,0:0:0:0:
344,268,100053,1,0,0:0:0:0:
232,92,100198,1,0,0:0:0:0:
328,148,100344,6,0,L|440:152,1,99.0000030212403,2|8,0:0|0:0,0:0:0:0:
308,36,100635,1,0,0:0:0:0:
192,176,100781,5,2,0:0:0:0:
194,200,100853,1,0,0:0:0:0:
196,224,100926,1,0,0:0:0:0:
198,248,100999,1,2,0:0:0:0:
201,272,101072,1,8,0:0:0:0:
328,148,101218,1,0,0:0:0:0:
148,88,101363,6,0,B|100:80|100:80|36:92,1,99.0000030212403,2|0,0:0|0:0,0:0:0:0:
27,109,101582,1,0,0:0:0:0:
12,134,101654,1,8,0:0:0:0:
8,163,101727,1,0,0:0:0:0:
12,192,101800,1,0,0:0:0:0:
26,218,101873,1,0,0:0:0:0:
52,236,101946,6,0,L|159:229,1,99.0000030212403,2|0,0:0|0:0,0:0:0:0:
224,188,102164,1,0,0:0:0:0:
224,188,102237,2,0,L|284:196,1,49.5000015106202,8|0,0:0|0:0,0:0:0:0:
356,272,102383,2,0,L|304:284,1,49.5000015106202,2|0,0:0|0:0,0:0:0:0:
165,323,102528,6,0,P|145:275|157:215,1,99.0000030212403,2|0,0:0|0:0,0:0:0:0:
264,104,102820,2,0,L|392:120,1,99.0000030212403,8|0,0:0|0:0,0:0:0:0:
448,251,103111,2,0,P|396:275|320:251,1,99.0000030212403,8|0,0:0|0:0,0:0:0:0:
288,236,103329,1,0,0:0:0:0:
288,236,103402,2,0,L|280:176,1,49.5000015106202,8|0,0:0|0:0,0:0:0:0:
184,80,103548,2,0,L|172:148,1,49.5000015106202
128,268,103693,5,6,0:0:0:0:
132,267,103766,1,0,0:0:0:0:
136,266,103839,1,0,0:0:0:0:
140,265,103912,1,0,0:0:0:0:
144,264,103985,1,8,0:0:0:0:
40,288,104130,5,0,0:0:0:0:
224,360,104276,2,0,P|222:329|232:248,1,99.0000030212403,2|8,0:0|0:0,0:0:0:0:
64,92,104567,2,0,P|72:150|76:196,1,99.0000030212403,2|8,0:0|0:0,0:0:0:0:
244,184,104858,5,6,0:0:0:0:
246,172,104931,1,0,0:0:0:0:
247,160,105004,1,0,0:0:0:0:
249,148,105077,1,0,0:0:0:0:
251,135,105150,1,8,0:0:0:0:
149,173,105295,5,0,0:0:0:0:
341,209,105441,1,2,0:0:0:0:
269,45,105586,1,8,0:0:0:0:
269,45,105659,1,0,0:0:0:0:
269,45,105732,2,0,L|165:57,1,99.0000030212403,2|8,0:0|0:0,0:0:0:0:
400,120,106023,5,2,0:0:0:0:
404,122,106096,1,0,0:0:0:0:
408,124,106169,1,0,0:0:0:0:
412,126,106242,1,0,0:0:0:0:
416,128,106315,2,0,P|424:184|428:228,1,99.0000030212403,8|0,0:0|0:0,0:0:0:0:
240,264,106606,6,0,P|300:256|352:304,1,99.0000030212403,2|0,0:0|0:0,0:0:0:0:
280,328,106824,1,0,0:0:0:0:
256,340,106897,2,0,P|200:332|164:288,1,99.0000030212403,8|0,0:0|0:0,0:0:0:0:
136,100,107188,5,2,0:0:0:0:
316,180,107334,1,0,0:0:0:0:
316,180,107407,1,2,0:0:0:0:
316,180,107480,1,8,0:0:0:0:
128,232,107625,1,0,0:0:0:0:
212,128,107771,6,0,P|216:92|216:60,1,49.5000015106202,2|0,0:0|2:0,0:0:0:0:
60,72,107917,2,0,P|56:108|56:140,1,49.5000015106202,2|0,0:0|2:0,0:0:0:0:
128,232,108062,6,0,L|224:220,1,62.9999980773926,8|0,0:0|0:0,0:0:0:0:
292,96,108208,2,0,L|396:116,1,62.9999980773926,8|0,0:0|0:0,0:0:0:0:
452,256,108353,6,0,P|384:284|316:252,1,107.999996704102,6|0,0:0|0:0,0:0:0:0:
347,275,108572,1,0,0:0:0:0:
342,272,108645,1,0,0:0:0:0:
492,184,108790,6,0,L|500:316,1,107.999996704102,6|0,0:0|0:0,0:0:0:0:
498,297,109009,1,0,0:0:0:0:
498,302,109082,1,0,0:0:0:0:
388,200,109227,6,0,B|372:148|372:148|392:84,1,107.999996704102,6|0,0:0|0:0,0:0:0:0:
392,86,109446,1,0,0:0:0:0:
395,75,109519,1,0,0:0:0:0:
492,184,109664,6,0,B|440:176|440:176|392:188|392:188|288:176,1,161.999995056153,6|0,0:0|0:0,0:0:0:0:
256,152,109955,2,0,L|252:88,1,53.9999983520508
216,232,110101,6,0,P|215:285|212:344,1,107.999996704102,6|0,0:0|0:0,0:0:0:0:
64,228,110392,2,0,P|58:187|52:112,1,107.999996704102,6|0,0:0|0:0,0:0:0:0:
196,32,110684,5,6,0:0:0:0:
214,58,110756,1,0,0:0:0:0:
223,89,110829,1,0,0:0:0:0:
222,121,110902,1,0,0:0:0:0:
209,150,110975,1,0,0:0:0:0:
32,92,111120,6,0,L|148:100,1,107.999996704102,6|0,0:0|0:0,0:0:0:0:
308,112,111412,1,0,0:0:0:0:
216,232,111557,6,0,P|197:268|188:300,1,53.9999983520508,6|0,0:0|0:0,0:0:0:0:
312,328,111703,2,0,P|330:291|340:260,1,53.9999983520508
300,200,111849,1,0,0:0:0:0:
224,352,111994,6,0,P|168:356|108:356,1,107.999996704102,6|0,0:0|0:0,0:0:0:0:
48,248,112286,1,0,0:0:0:0:
208,129,112431,6,0,P|226:179|216:232,1,107.999996704102,6|0,0:0|0:0,0:0:0:0:
48,248,112722,2,0,P|29:197|40:145,1,107.999996704102,6|0,0:0|0:0,0:0:0:0:
168,32,113014,6,0,L|272:36,1,80.9999975280763,10|0,0:0|0:0,0:0:0:0:
320,64,113232,1,0,0:0:0:0:
328,68,113305,2,0,P|336:148|324:172,1,80.9999975280763,8|0,0:0|0:0,0:0:0:0:
280,200,113523,1,0,0:0:0:0:
272,204,113596,2,0,L|168:208,1,90,10|0,0:0|0:0,0:0:0:0:
124,256,113815,1,0,0:0:0:0:
116,252,113887,2,0,L|71:249,1,45,8|0,0:0|0:0,0:0:0:0:
60,164,114033,2,0,L|128:168,1,45
196,288,114179,6,0,P|199:319|200:360,1,49.5000015106202,10|0,0:0|0:0,0:0:0:0:
228,110,114324,2,0,P|224:78|224:40,1,49.5000015106202,8|0,0:0|0:0,0:0:0:0:
320,232,114470,6,0,P|352:240|392:232,1,53.9999983520508,10|0,0:0|0:0,0:0:0:0:
104,166,114616,2,0,P|72:158|32:166,1,53.9999983520508,10|0,0:0|0:0,0:0:0:0:
284,8,114761,5,10,0:0:0:0:
312,16,114834,1,0,0:0:0:0:
336,32,114907,1,8,0:0:0:0:
352,52,114980,1,0,0:0:0:0:
364,76,115053,1,10,0:0:0:0:
368,104,115125,1,0,0:0:0:0:
364,132,115198,1,8,0:0:0:0:
352,156,115271,1,0,0:0:0:0:
336,176,115344,5,2,0:0:0:0:
176,208,115926,5,2,0:0:0:0:
420,236,116509,5,2,0:0:0:0:
92,148,117091,5,2,0:0:0:0:
256,192,117674,5,6,0:0:0:0:
256,192,117820,12,0,120077,0:0:0:0:
