osu file format v14

[General]
AudioFilename: LegenD.mp3
AudioLeadIn: 0
PreviewTime: 61460
Countdown: 0
SampleSet: Normal
StackLeniency: 0.7
Mode: 0
LetterboxInBreaks: 0
WidescreenStoryboard: 0

[Editor]
DistanceSpacing: 0.5
BeatDivisor: 8
GridSize: 4
TimelineZoom: 5.699996

[Metadata]
Title:LegenD.
TitleUnicode:LegenD.
Artist:Yooh
ArtistUnicode:Yooh
Creator:toybot
Version:EXHAUST
Source:SOUND VOLTEX III GRAVITY WARS
Tags:sdvx bemani the 4th kac mikii skinnyjommy gokugohan12468 kittyadventure sionkotori captin1 fort ciyus miapah
BeatmapID:799785
BeatmapSetID:359821

[Difficulty]
HPDrainRate:6
CircleSize:4
OverallDifficulty:7
ApproachRate:9
SliderMultiplier:1.6
SliderTickRate:1

[Events]
//Background and Video events
0,0,"legend.jpg",0,0
//Break Periods
//Storyboard Layer 0 (Background)
//Storyboard Layer 1 (Fail)
//Storyboard Layer 2 (Pass)
//Storyboard Layer 3 (Foreground)
//Storyboard Sound Samples

[TimingPoints]
880,292.682926829268,4,2,1,70,1,0
880,-133.333333333333,4,2,1,50,0,0
5270,-100,4,2,1,70,0,0
5562,-133.333333333333,4,2,1,50,0,0
9221,-111.111111111111,4,2,1,70,0,0
16684,-111.111111111111,4,1,1,40,0,0
18294,-111.111111111111,4,2,1,30,0,0
18440,-111.111111111111,4,2,1,60,0,0
18733,-125,4,2,1,50,0,0
19026,-142.857142857143,4,2,1,40,0,0
19319,-166.666666666667,4,2,1,50,0,0
19611,-100,4,2,1,70,0,0
23855,-133.333333333333,4,2,1,50,0,0
24294,-100,4,2,1,70,0,0
26636,-90.9090909090909,4,2,1,70,0,0
27806,-125,4,2,1,70,0,0
28684,-90.9090909090909,4,2,1,70,0,0
28977,-95.2380952380952,4,2,1,70,0,0
33367,-95.2380952380952,4,2,1,40,0,0
33660,-95.2380952380952,4,2,1,70,0,0
37758,-111.111111111111,4,2,1,70,0,0
38050,-133.333333333333,4,2,1,70,0,0
38343,-95.2380952380952,4,2,1,70,0,0
40099,-83.3333333333333,4,2,1,70,0,0
40684,-95.2380952380952,4,2,1,70,0,0
42148,-83.3333333333333,4,2,0,70,0,0
42440,-125,4,2,1,70,0,0
43026,-95.2380952380952,4,2,1,70,0,0
44782,-125,4,2,1,50,0,0
45367,-95.2380952380952,4,2,1,70,0,0
47416,-95.2380952380952,4,2,1,50,0,0
47709,-90.9090909090909,4,2,1,70,0,0
49465,-111.111111111111,4,2,1,70,0,0
50050,-90.9090909090909,4,2,1,70,0,0
54294,-125,4,2,1,70,0,0
54733,-100,4,2,1,70,0,0
55904,-111.111111111111,4,2,1,70,0,0
56489,-111.111111111111,4,2,1,50,0,0
57075,-111.111111111111,4,2,1,70,0,0
58245,-111.111111111111,4,3,1,30,0,0
59416,-111.111111111111,4,3,1,35,0,0
60587,291.26213592233,4,1,1,50,1,0
61169,-100,4,1,1,60,0,0
61460,-100,4,1,1,80,0,0
61752,-90.9090909090909,4,1,1,80,0,1
69033,-100,4,1,1,80,0,1
69616,-111.111111111111,4,1,1,80,0,1
71072,-90.9090909090909,4,1,1,80,0,1
79227,-125,4,1,1,80,0,1
79519,-111.111111111111,4,1,1,80,0,1
79810,-100,4,1,1,80,0,1
80101,-83.3333333333333,4,2,1,60,0,1
80392,-100,4,1,1,80,0,0
84179,-90.9090909090909,4,1,1,80,0,0
85053,-100,4,1,1,80,0,0
89713,-133.333333333333,4,1,1,80,0,0
94373,-117.647058823529,4,1,1,70,0,0
96120,-117.647058823529,4,1,1,60,0,0
96703,-111.111111111111,4,1,1,60,0,0
97868,-166.666666666667,4,2,1,60,0,0
99033,-90.9090909090909,4,1,1,80,0,1
107771,-83.3333333333333,4,1,1,80,0,1
108353,-100,4,1,1,80,0,1
113014,-111.111111111111,4,1,1,70,0,1
114179,-90.9090909090909,4,1,1,70,0,1
115344,-90.9090909090909,4,1,1,70,0,0
117674,-90.9090909090909,4,1,1,80,0,0
120077,-90.9090909090909,4,2,1,5,0,0

[Colours]
Combo1 : 0,176,176
Combo2 : 128,0,128
Combo3 : 0,81,179
Combo4 : 128,128,128

[HitObjects]
88,188,587,5,8,0:0:0:0:
88,188,880,2,0,L|220:180,1,120.000004577637,6|0,0:0|0:0,0:0:0:0:
280,212,1319,2,0,B|312:216|312:216|328:212|328:212|340:220|340:220|412:232,1,120.000004577637,2|0,0:0|0:0,0:0:0:0:
456,184,1758,2,0,P|460:144|452:116,1,60.0000022888184,2|0,0:0|0:0,0:0:0:0:
396,80,2050,6,0,P|372:104|272:84,1,120.000004577637,2|0,0:0|0:0,0:0:0:0:
212,56,2489,2,0,L|80:60,1,120.000004577637,2|0,0:0|0:0,0:0:0:0:
28,144,2928,2,0,L|108:148,1,60.0000022888184,2|0,0:0|0:0,0:0:0:0:
188,152,3221,5,2,0:0:0:0:
100,312,3514,1,0,0:0:0:0:
100,312,3660,1,2,0:0:0:0:
192,156,3953,1,0,0:0:0:0:
192,156,4099,2,0,L|188:84,1,60.0000022888184,2|0,0:0|0:0,0:0:0:0:
128,208,4392,6,0,P|184:204|272:200,1,120.000004577637,2|0,0:0|0:0,0:0:0:0:
352,220,4831,2,0,P|295:233|247:200,1,120.000004577637,2|0,0:0|0:0,0:0:0:0:
320,100,5270,6,0,L|412:108,1,80,8|0,0:0|0:0,0:0:0:0:
504,116,5562,6,0,B|488:184|488:184|500:248,1,120.000004577637,2|0,0:0|0:0,0:0:0:0:
480,308,6001,2,0,P|424:328|368:280,1,120.000004577637,2|0,0:0|0:0,0:0:0:0:
336,232,6440,2,0,L|332:160,1,60.0000022888184,2|0,0:0|0:0,0:0:0:0:
248,244,6733,6,0,L|240:376,1,120.000004577637,2|0,0:0|0:0,0:0:0:0:
164,296,7172,2,0,L|32:308,1,120.000004577637,2|0,0:0|0:0,0:0:0:0:
12,220,7611,2,0,L|84:228,1,60.0000022888184,2|0,0:0|0:0,0:0:0:0:
144,188,7904,6,0,P|152:152|144:112,2,60.0000022888184,2|0|0,0:0|0:0|0:0,0:0:0:0:
60,88,8343,2,0,P|58:117|65:146,2,60.0000022888184,2|0|0,0:0|0:0|0:0,0:0:0:0:
132,32,8782,2,0,L|204:36,1,60.0000022888184,2|0,0:0|0:0,0:0:0:0:
284,36,9075,5,2,0:0:0:0:
260,128,9221,2,0,P|255:169|252:228,1,71.9999978027344,8|2,0:0|0:1,0:0:0:0:
352,124,9514,1,8,0:0:0:0:
380,216,9660,2,0,L|392:264,2,35.9999989013672,8|8|2,0:0|0:0|0:1,0:0:0:0:
444,116,9953,5,8,0:0:0:0:
445,112,10026,1,8,0:0:0:0:
446,108,10099,1,8,0:0:0:0:
447,104,10172,1,8,0:0:0:0:
448,100,10245,6,0,L|438:20,1,71.9999978027344,6|0,0:1|0:0,0:0:0:0:
352,124,10538,2,0,L|344:208,1,71.9999978027344,8|0,0:0|0:0,0:0:0:0:
284,240,10758,1,0,0:0:0:0:
284,240,10831,2,0,B|216:256|240:224|160:240,1,107.999996704102,2|0,0:1|0:0,0:0:0:0:
120,280,11123,2,0,P|116:320|128:368,1,71.9999978027344,8|0,0:0|0:0,0:0:0:0:
192,164,11416,6,0,P|196:124|184:76,1,71.9999978027344,2|0,0:1|0:0,0:0:0:0:
92,40,11709,1,8,0:0:0:0:
12,128,11855,1,0,0:0:0:0:
12,128,11928,1,0,0:0:0:0:
12,128,12001,2,0,L|132:132,1,107.999996704102,2|0,0:1|0:0,0:0:0:0:
192,164,12294,1,8,0:0:0:0:
356,88,12514,5,8,0:0:0:0:
356,88,12587,2,0,L|360:164,1,71.9999978027344,6|0,0:1|0:0,0:0:0:0:
292,248,12879,2,0,L|284:332,1,71.9999978027344,8|0,0:0|0:0,0:0:0:0:
352,356,13099,1,0,0:0:0:0:
352,356,13172,2,0,P|408:292|400:244,1,107.999996704102,2|0,0:1|0:0,0:0:0:0:
364,216,13465,2,0,L|276:212,1,71.9999978027344,8|0,0:0|0:0,0:0:0:0:
156,188,13758,5,2,0:1:0:0:
120,280,13904,2,0,P|160:288|212:268,1,71.9999978027344,0|8,0:0|0:0,0:0:0:0:
192,96,14197,2,0,P|152:88|100:108,1,71.9999978027344,0|8,0:0|0:0,0:0:0:0:
117,99,14416,1,8,0:0:0:0:
112,104,14489,1,8,0:0:0:0:
156,188,14636,2,0,L|244:184,1,71.9999978027344,8|0,0:0|0:0,0:0:0:0:
360,176,14928,5,6,0:1:0:0:
296,92,15075,1,2,0:1:0:0:
312,248,15221,2,0,P|316:316|316:380,1,107.999996704102,8|0,0:0|0:0,0:0:0:0:
232,328,15514,6,0,L|236:240,1,71.9999978027344,2|2,0:1|0:1,0:0:0:0:
152,136,15806,2,0,P|140:192|176:240,1,107.999996704102,8|0,0:0|0:0,0:0:0:0:
235,256,16099,6,0,L|371:240,1,107.999996704102,8|0,0:0|0:0,0:0:0:0:
408,176,16392,2,0,L|272:160,1,107.999996704102,8|0,0:0|0:0,0:0:0:0:
228,120,16684,5,0,0:0:0:0:
226,112,16758,1,0,0:0:0:0:
224,105,16831,1,0,0:0:0:0:
222,98,16904,1,0,0:0:0:0:
220,91,16977,2,0,L|224:36,3,35.9999989013672
256,192,17270,12,0,18294,0:0:0:0:
352,192,18440,6,0,L|356:116,1,71.9999978027344,2|0,0:0|0:0,0:0:0:0:
279,148,18733,2,0,L|276:212,1,64,2|0,0:0|0:0,0:0:0:0:
127,239,19026,6,0,L|124:184,1,55.9999982910157,2|0,0:0|0:0,0:0:0:0:
200,200,19319,2,0,L|204:260,1,47.9999985351563,2|0,0:0|0:0,0:0:0:0:
48,164,19611,6,0,P|40:112|60:64,1,80,6|0,0:1|0:0,0:0:0:0:
136,32,19904,1,2,0:1:0:0:
208,112,20050,1,0,0:0:0:0:
296,72,20197,2,0,L|408:68,1,80,2|0,0:1|0:0,0:0:0:0:
208,112,20489,2,0,L|96:116,1,80,2|0,0:1|0:0,0:0:0:0:
272,176,20782,6,0,P|280:232|272:276,1,80,2|0,0:1|0:0,0:0:0:0:
160,312,21075,1,2,0:1:0:0:
176,212,21221,1,0,0:0:0:0:
277,254,21367,2,0,L|317:258|357:262,1,80,2|0,0:1|0:0,0:0:0:0:
380,168,21660,2,0,L|416:162|476:152,1,80,2|0,0:1|0:0,0:0:0:0:
384,40,21953,5,2,0:1:0:0:
300,96,22099,1,0,0:0:0:0:
216,48,22245,1,2,0:1:0:0:
228,164,22392,1,0,0:0:0:0:
140,128,22538,2,0,B|100:124|100:124|52:132,1,80,2|0,0:1|0:0,0:0:0:0:
20,232,22831,2,0,B|60:236|60:236|108:228,1,80,2|0,0:1|0:0,0:0:0:0:
228,164,23123,6,0,L|236:64,1,80,2|0,0:1|0:0,0:0:0:0:
99,229,23416,2,0,L|115:313,1,80,2|0,0:1|0:0,0:0:0:0:
228,356,23709,1,2,0:1:0:0:
352,264,23855,6,0,P|284:244|232:264,1,120.000004577637
216,276,24294,6,0,P|213:233|208:184,1,80,2|0,0:1|0:0,0:0:0:0:
188,92,24587,2,0,P|144:86|96:84,1,80,2|0,0:1|0:0,0:0:0:0:
284,120,24879,2,0,L|380:112,1,80,2|0,0:1|0:0,0:0:0:0:
484,68,25172,1,2,0:1:0:0:
476,184,25319,1,2,0:1:0:0:
363,113,25465,6,0,P|358:73|355:25,1,80,2|0,0:1|0:1,0:1:0:0:
344,200,25758,1,2,0:1:0:0:
277,141,25904,1,0,0:0:0:0:
277,141,26050,2,0,L|468:148,1,160,2|2,0:1|0:1,0:0:0:0:
476,252,26489,1,2,0:1:0:0:
384,308,26636,6,0,P|321:304|268:304,1,88.000002685547,6|6,0:1|0:1,0:0:0:0:
152,312,26928,2,0,P|150:341|144:380,2,58.6666684570313,8|2|2,0:0|0:1|0:1,0:0:0:0:
108,244,27221,5,6,0:1:0:0:
196,152,27367,1,6,0:1:0:0:
96,76,27514,2,0,B|72:72|72:72|64:76|64:76|45:77|16:80,2,58.6666684570313,8|2|2,0:0|0:1|0:1,0:0:0:0:
176,72,27806,6,0,L|284:64,1,85.3333333333333,2|2,0:1|0:1,0:0:0:0:
392,108,28099,2,0,P|344:124|292:108,1,85.3333333333333,2|2,0:1|0:1,0:0:0:0:
261,65,28392,2,0,L|265:9,2,42.6666666666667,2|2|2,0:1|0:1|0:1,0:0:0:0:
232,148,28684,6,0,L|228:192,3,29.3333342285157,0|0|0|0,3:0|3:0|3:0|3:0,3:0:0:0:
176,72,28977,6,0,L|88:64,1,83.9999974365235,6|0,0:1|0:1,0:1:0:0:
24,160,29270,2,0,L|112:152,1,83.9999974365235,8|0,0:0|0:0,0:0:0:0:
172,232,29562,2,0,P|176:276|160:328,1,83.9999974365235,0|0,0:1|0:0,0:0:0:0:
84,264,29855,1,8,0:0:0:0:
207,152,30001,1,0,0:0:0:0:
207,152,30148,6,0,P|249:149|291:148,1,83.9999974365235,2|0,0:1|0:0,0:0:0:0:
284,264,30440,2,0,P|325:262|367:260,1,83.9999974365235,8|0,0:0|0:0,0:0:0:0:
464,168,30733,1,2,0:1:0:0:
416,80,30879,1,0,0:0:0:0:
452,184,31026,2,0,P|460:224|468:280,1,83.9999974365235,8|0,0:0|0:0,0:0:0:0:
396,348,31319,6,0,P|356:360|296:308,1,125.999996154785,2|0,0:1|0:0,0:0:0:0:
296,310,31611,2,0,L|308:208,1,83.9999974365235,8|0,0:0|0:0,0:0:0:0:
200,80,31904,2,0,L|212:168,1,83.9999974365235,2|0,0:1|0:0,0:0:0:0:
160,232,32197,1,8,0:0:0:0:
88,176,32343,1,0,0:0:0:0:
4,264,32489,6,0,B|35:265|35:265|47:269|47:269|87:270,1,83.9999974365235,2|0,0:1|0:0,0:0:0:0:
168,336,32782,2,0,L|268:328,1,83.9999974365235,8|0,0:0|0:0,0:0:0:0:
332,264,33075,2,0,L|392:268,2,41.9999987182618,8|0|0,0:0|0:0|0:0,0:0:0:0:
232,208,33367,1,0,1:0:0:0:
240,116,33514,1,0,1:0:0:0:
240,116,33587,1,0,0:0:0:0:
240,116,33660,6,0,P|242:73|244:32,1,83.9999974365235,6|0,0:1|0:0,0:0:0:0:
360,84,33953,2,0,P|368:136|360:168,1,83.9999974365235,8|0,0:0|0:0,0:0:0:0:
256,196,34245,2,0,L|128:192,1,125.999996154785,2|0,0:1|0:0,0:0:0:0:
52,188,34538,1,8,0:0:0:0:
96,80,34684,1,2,0:1:0:0:
130,192,34831,6,0,P|133:233|131:275,1,83.9999974365235,6|0,0:1|0:0,0:0:0:0:
56,352,35123,2,0,L|152:348,1,83.9999974365235,8|2,0:0|0:1,0:0:0:0:
320,288,35416,2,0,P|280:296|204:248,2,125.999996154785,0|0|2,1:0|1:0|0:1,0:0:0:0:
396,228,36001,5,6,0:1:0:0:
396,228,36148,1,2,0:1:0:0:
320,140,36294,2,0,L|316:88,3,41.9999987182618,8|0|0|0,0:0|0:0|0:0|0:0,0:0:0:0:
264,196,36587,5,6,0:1:0:0:
264,196,36733,1,2,0:1:0:0:
388,92,36879,2,0,L|392:32,3,41.9999987182618,8|0|0|0,0:0|0:0|0:0|0:0,0:0:0:0:
320,16,37172,6,0,P|264:28|212:12,1,83.9999974365235,6|0,1:0|0:0,0:0:0:0:
96,80,37465,2,0,P|148:76|180:92,1,83.9999974365235,12|0,1:0|0:0,0:0:0:0:
320,140,37758,2,0,P|272:148|240:132,1,71.9999978027344,12|0,1:0|0:0,0:0:0:0:
120,240,38050,6,0,B|113:186|132:213|126:131,1,90.0000034332277,8|0,0:0|0:0,0:0:0:0:
96,80,38343,6,0,L|4:92,1,83.9999974365235,6|0,0:1|0:0,0:0:0:0:
127,151,38636,2,0,L|219:139,1,83.9999974365235,8|0,0:0|0:0,0:0:0:0:
304,72,38928,2,0,B|296:144|296:144|320:208,1,125.999996154785,2|2,0:1|0:1,0:0:0:0:
356,252,39221,2,0,P|308:264|260:240,1,83.9999974365235,8|0,0:1|0:1,0:1:0:0:
376,148,39514,6,0,P|424:136|472:160,1,83.9999974365235,2|0,0:1|0:1,0:1:0:0:
500,264,39806,2,0,L|436:268,1,41.9999987182618,8|0,0:0|0:0,0:0:0:0:
384,336,39953,2,0,L|304:328,1,41.9999987182618
260,280,40099,6,0,B|236:276|236:276|224:284|224:284|208:280|208:280|144:284,1,95.9999970703126,2|2,0:1|0:1,0:0:0:0:
140,288,40684,6,0,P|147:244|156:184,1,83.9999974365235,2|0,0:1|0:0,0:0:0:0:
80,92,40977,1,8,0:0:0:0:
60,204,41123,1,0,0:0:0:0:
160,124,41270,2,0,B|224:112|224:112|304:120,1,125.999996154785,2|2,0:1|0:1,0:0:0:0:
276,132,41562,2,0,L|368:124,1,83.9999974365235,8|0,0:0|0:0,0:0:0:0:
512,64,41855,6,0,P|448:40|388:68,1,125.999996154785,2|0,0:1|0:0,0:0:0:0:
359,124,42148,6,0,L|364:196,1,47.9999985351563,2|0,0:1|0:0,0:1:0:0:
452,240,42294,2,0,L|450:288,1,47.9999985351563,2|0,0:1|0:0,0:1:0:0:
352,360,42440,6,0,P|304:316|384:248,1,192,8|0,0:0|0:0,0:0:0:0:
416,320,43026,6,0,L|300:324,1,83.9999974365235,2|0,0:1|0:0,0:0:0:0:
232,256,43319,2,0,L|136:252,1,83.9999974365235,8|0,0:0|0:0,0:0:0:0:
28,348,43611,2,0,B|56:368|88:368|88:368|120:352|132:312,1,125.999996154785,2|2,0:1|0:1,0:0:0:0:
148,252,43904,2,0,P|144:205|136:148,1,83.9999974365235,8|2,0:0|0:1,0:0:0:0:
56,40,44197,5,2,0:1:0:0:
48,164,44343,1,2,0:1:0:0:
148,88,44489,2,0,L|204:80,3,41.9999987182618,8|2|2|2,0:0|0:1|0:1|0:1,0:0:0:0:
220,100,44782,5,0,0:0:0:0:
292,48,44928,1,0,0:0:0:0:
328,128,45075,2,0,L|332:164,2,32
420,108,45367,6,0,P|413:166|412:200,1,83.9999974365235,2|0,0:1|0:0,0:0:0:0:
420,320,45660,2,0,P|372:288|332:276,1,83.9999974365235,8|0,0:0|0:0,0:0:0:0:
256,240,45953,2,0,P|232:288|136:296,1,125.999996154785,2|2,0:1|0:1,0:0:0:0:
100,284,46245,1,8,0:0:0:0:
184,188,46392,1,0,0:0:0:0:
80,88,46538,6,0,B|81:139|81:139|90:163|90:163|93:235,1,125.999996154785,0|0,1:0|1:0,0:0:0:0:
419,212,46977,2,0,B|421:163|421:163|430:139|430:139|432:88,1,125.999996154785,0|0,1:0|1:0,0:0:0:0:
256,32,47416,1,0,1:0:0:0:
256,40,47489,1,0,1:0:0:0:
256,48,47562,1,0,1:0:0:0:
256,56,47636,1,0,1:0:0:0:
256,64,47709,6,0,P|260:102|264:164,1,88.000002685547,6|0,0:1|0:0,0:0:0:0:
192,252,48001,2,0,P|172:204|192:136,1,88.000002685547,8|2,0:0|0:1,0:0:0:0:
396,232,48294,2,0,B|344:231|344:231|327:238|327:238|312:230|312:230|260:229,1,132.00000402832,2|2,0:1|0:1,0:0:0:0:
192,252,48587,1,8,0:0:0:0:
312,312,48733,1,0,0:0:0:0:
328,160,48879,6,0,P|320:128|316:72,1,88.000002685547,2|2,0:1|0:1,0:0:0:0:
224,128,49172,2,0,L|216:184,2,44.0000013427735,8|0|0,0:0|0:0|0:0,0:0:0:0:
132,72,49465,6,0,P|129:47|128:0,1,71.9999978027344,2|2,0:1|0:1,0:0:0:0:
32,144,49758,2,0,P|34:124|36:64,1,71.9999978027344
164,176,50050,6,0,P|100:192|76:300,1,176.000005371094,2|8,0:1|0:0,0:0:0:0:
148,356,50489,1,0,0:0:0:0:
148,356,50562,1,0,0:0:0:0:
148,356,50636,2,0,L|300:364,1,132.00000402832,2|2,0:1|0:1,0:0:0:0:
344,328,50928,2,0,P|335:289|328:232,1,88.000002685547,8|0,0:0|0:0,0:0:0:0:
388,96,51221,6,0,P|396:134|404:192,1,88.000002685547,10|0,1:0|0:0,0:0:0:0:
328,241,51514,2,0,L|228:233,1,88.000002685547,8|0,1:0|0:0,0:0:0:0:
128,220,51806,1,8,1:0:0:0:
212,160,51953,1,0,0:0:0:0:
168,292,52099,2,0,P|164:332|168:384,1,88.000002685547,8|0,1:0|0:0,0:0:0:0:
304,336,52392,6,0,L|232:332,2,58.6666684570313,2|0|0,0:1|0:0|0:0,0:0:0:0:
380,308,52684,6,0,B|388:272|388:272|376:208,1,88.000002685547,8|0,0:0|0:0,0:0:0:0:
348,132,52977,2,0,P|304:108|220:140,1,132.00000402832,2|2,0:1|0:1,0:0:0:0:
192,194,53270,2,0,P|235:203|275:188,1,88.000002685547,8|0,0:0|0:0,0:0:0:0:
292,88,53562,6,0,L|280:-12,1,88.000002685547,2|2,0:1|0:1,0:0:0:0:
196,60,53855,2,0,P|149:67|104:72,1,88.000002685547,8|0,0:0|0:0,0:0:0:0:
4,48,54148,1,2,0:1:0:0:
16,152,54294,6,0,P|72:152|104:228,1,128,2|0,0:1|0:0,0:0:0:0:
106,208,54733,6,0,L|99:331,1,120,8|0,0:0|0:0,0:0:0:0:
96,364,55026,1,8,0:0:0:0:
24,248,55172,1,2,0:1:0:0:
184,288,55319,2,0,B|215:286|215:286|231:278|231:278|247:285|247:285|327:282,1,120,8|2,0:0|0:1,0:0:0:0:
300,283,55611,2,0,L|296:188,1,80,8|0,0:0|0:0,0:0:0:0:
374,164,55904,6,0,P|383:208|373:244,1,71.9999978027344,8|0,0:0|0:0,0:0:0:0:
219,243,56197,2,0,P|209:198|219:162,1,71.9999978027344,8|0,0:0|0:0,0:0:0:0:
276,104,56489,5,8,1:0:0:0:
280,100,56562,1,0,1:0:0:0:
284,96,56636,1,0,1:0:0:0:
288,92,56709,1,0,1:0:0:0:
292,88,56782,2,0,L|388:92,1,71.9999978027344,8|0,1:0|0:0,0:0:0:0:
488,96,57075,5,4,0:0:0:0:
488,96,58245,6,0,L|492:136,3,35.9999989013672
424,56,58538,2,0,L|420:16,3,35.9999989013672,4|0|0|0,0:0|0:0|0:0|0:0,0:0:0:0:
412,132,58831,2,0,L|416:172,3,35.9999989013672,4|0|0|0,0:0|0:0|0:0|0:0,0:0:0:0:
348,92,59124,2,0,L|344:52,3,35.9999989013672,4|0|0|0,0:0|0:0|0:0|0:0,0:0:0:0:
336,168,59416,5,4,1:3:0:0:
326,183,59489,1,0,1:0:0:0:
312,196,59562,1,0,1:0:0:0:
296,204,59636,1,0,1:0:0:0:
280,208,59709,2,0,L|236:204,3,35.9999989013672,4|0|0|0,1:3|1:0|1:0|1:0,1:0:0:0:
176,172,60001,5,4,1:3:0:0:
160,168,60075,1,0,1:0:0:0:
144,168,60148,1,0,1:0:0:0:
128,172,60221,1,0,1:0:0:0:
112,180,60294,2,0,L|68:216,3,35.9999989013672,4|0|0|0,1:3|1:0|1:0|1:0,1:0:0:0:
44,264,60587,6,4,P|42:303|40:348,1,80,4|4,0:3|0:3,0:3:0:0:
156,288,60878,2,4,P|158:325|160:372,1,80,4|4,0:3|0:3,0:3:0:0:
272,264,61169,1,0,0:0:0:0:
276,284,61242,1,0,0:0:0:0:
280,304,61315,1,0,0:0:0:0:
284,324,61387,1,0,0:0:0:0:
288,344,61460,1,8,0:0:0:0:
376,216,61606,6,0,L|400:276,1,40
440,316,61752,2,0,P|443:256|452:160,1,132.00000402832,6|0,0:0|2:0,0:0:0:0:
472,112,62043,2,0,L|456:24,1,88.000002685547,8|0,0:0|0:0,0:0:0:0:
372,104,62334,1,0,0:0:0:0:
288,60,62480,1,0,0:0:0:0:
288,60,62553,1,0,0:0:0:0:
288,60,62625,2,0,L|200:56,1,88.000002685547,8|0,0:0|0:0,0:0:0:0:
112,124,62917,6,0,P|160:152|256:120,1,132.00000402832,2|0,0:0|0:0,0:0:0:0:
232,140,63208,2,0,L|228:228,1,88.000002685547,8|0,0:0|0:0,0:0:0:0:
164,304,63499,1,2,0:0:0:0:
164,304,63572,1,0,0:0:0:0:
164,304,63645,2,0,L|88:308,2,44.0000013427735,0|0|8,0:0|0:0|0:0,0:0:0:0:
252,340,63936,1,0,0:0:0:0:
328,276,64082,6,0,P|327:231|324:176,1,88.000002685547,2|0,0:0|0:0,0:0:0:0:
232,140,64373,2,0,P|187:140|132:144,1,88.000002685547,8|0,0:0|0:0,0:0:0:0:
48,204,64664,1,2,0:0:0:0:
160,232,64810,1,0,0:0:0:0:
232,140,64955,2,0,L|236:24,1,88.000002685547,8|0,0:0|0:0,0:0:0:0:
336,116,65247,6,0,P|340:183|344:256,1,132.00000402832,2|0,0:0|2:0,0:0:0:0:
356,272,65538,2,0,P|354:319|352:368,1,88.000002685547,8|0,0:0|0:0,0:0:0:0:
236,248,65829,2,0,P|239:296|240:344,1,88.000002685547,2|0,0:0|0:0,0:0:0:0:
120,280,66120,1,8,0:0:0:0:
120,280,66266,1,0,0:0:0:0:
32,356,66412,5,2,0:0:0:0:
30,347,66485,1,0,0:0:0:0:
28,338,66557,1,0,0:0:0:0:
26,329,66630,1,0,0:0:0:0:
25,320,66703,2,0,L|32:225,1,88.000002685547,8|0,0:0|0:0,0:0:0:0:
20,124,66994,2,0,P|100:121|224:116,1,176.000005371094,2|8,0:0|0:0,0:0:0:0:
280,56,67431,1,0,0:0:0:0:
368,140,67577,5,2,0:0:0:0:
367,148,67650,1,0,0:0:0:0:
366,156,67722,1,0,0:0:0:0:
365,164,67795,1,0,0:0:0:0:
364,172,67868,2,0,L|360:287,1,88.000002685547,8|0,0:0|0:0,0:0:0:0:
192,232,68159,2,0,L|288:224,1,88.000002685547,2|0,0:0|0:0,0:0:0:0:
452,208,68451,1,8,0:0:0:0:
500,100,68596,5,0,0:0:0:0:
500,100,68742,2,0,B|448:96|448:96|416:104|416:104|348:100,1,132.00000402832,2|0,0:0|0:0,0:0:0:0:
336,84,69033,2,0,P|292:88|252:92,1,80,8|0,0:0|0:0,0:0:0:0:
120,140,69324,6,0,P|188:136|236:200,1,120,2|0,0:0|0:0,0:0:0:0:
236,196,69616,2,0,P|233:244|232:280,1,71.9999978027344,8|0,0:0|0:0,0:0:0:0:
131,252,69907,6,0,P|135:288|136:324,1,71.9999978027344,2|0,0:0|0:0,0:0:0:0:
40,215,70198,2,0,L|48:144,1,71.9999978027344,8|0,0:0|0:0,0:0:0:0:
109,71,70489,5,2,0:0:0:0:
196,100,70635,1,0,0:0:0:0:
288,40,70781,1,8,0:0:0:0:
376,156,70926,1,0,0:0:0:0:
464,88,71072,6,0,P|420:64|332:104,1,132.00000402832,6|0,0:0|0:0,0:0:0:0:
296,140,71363,2,0,L|288:240,1,88.000002685547,8|0,0:0|0:0,0:0:0:0:
228,280,71582,1,0,0:0:0:0:
228,280,71654,2,0,P|174:287|104:296,1,88.000002685547,2|0,0:0|0:0,0:0:0:0:
48,200,71946,1,8,0:0:0:0:
176,216,72091,1,0,0:0:0:0:
44,216,72237,6,0,P|44:169|40:124,1,88.000002685547,2|0,0:0|0:0,0:0:0:0:
12,36,72528,2,0,P|56:56|168:8,1,176.000005371094,8|2,0:0|0:0,0:0:0:0:
260,68,72965,2,0,L|252:128,2,44.0000013427735,0|0|8,0:0|0:0|0:0,0:0:0:0:
360,16,73256,1,0,0:0:0:0:
424,108,73402,6,0,P|376:110|324:116,1,88.000002685547,2|0,0:0|0:0,0:0:0:0:
256,188,73693,2,0,P|295:192|348:196,1,88.000002685547,8|0,0:0|0:0,0:0:0:0:
448,184,73985,1,2,0:0:0:0:
400,280,74130,1,0,0:0:0:0:
492,348,74276,2,0,B|500:304|500:304|492:252,1,88.000002685547,8|0,0:0|0:0,0:0:0:0:
448,184,74567,6,0,L|340:192,1,88.000002685547,2|0,0:0|0:0,0:0:0:0:
296,280,74858,2,0,L|192:272,1,88.000002685547,8|0,0:0|0:0,0:0:0:0:
76,204,75150,2,0,P|136:160|252:220,1,176.000005371094,2|8,0:0|0:0,0:0:0:0:
324,200,75587,1,0,0:0:0:0:
312,88,75732,6,0,L|308:40,2,44.0000013427735,6|0|0,0:0|0:0|0:0,0:0:0:0:
324,200,76023,1,8,0:0:0:0:
384,124,76169,1,0,0:0:0:0:
248,164,76315,2,0,P|193:160|156:156,1,88.000002685547,2|0,0:0|0:0,0:0:0:0:
192,64,76606,2,0,P|148:71|104:73,1,88.000002685547,8|0,0:0|0:0,0:0:0:0:
56,196,76897,6,0,L|48:252,2,44.0000013427735,6|0|0,0:0|0:0|0:0,0:0:0:0:
128,272,77188,1,8,0:0:0:0:
224,240,77334,1,0,0:0:0:0:
224,240,77407,1,0,0:0:0:0:
224,240,77480,2,0,L|216:144,1,88.000002685547,2|0,0:0|0:0,0:0:0:0:
320,216,77771,2,0,L|316:304,1,88.000002685547,8|0,0:0|0:0,0:0:0:0:
416,244,78062,6,0,P|448:184|420:104,1,132.00000402832,2|0,0:0|0:0,0:0:0:0:
376,80,78353,2,0,L|288:92,1,88.000002685547,8|0,0:0|0:0,0:0:0:0:
104,152,78645,6,0,L|256:164,1,132.00000402832,2|0,0:0|0:0,0:0:0:0:
308,172,78936,1,8,0:0:0:0:
204,260,79082,1,0,0:0:0:0:
201,263,79154,1,0,0:0:0:0:
198,266,79227,6,0,L|105:276,1,64,2|0,0:0|2:0,0:0:0:0:
224,180,79519,6,0,L|152:187,1,71.9999978027344,2|0,0:0|2:0,0:0:0:0:
250,94,79810,6,0,L|170:102,1,80,2|0,0:0|2:0,0:0:0:0:
80,173,80101,6,2,P|142:175|223:179,1,143.999995605469,0|0,0:0|0:0,0:1:0:0:
304,224,80392,5,2,0:0:0:0:
304,224,80465,1,0,0:0:0:0:
304,224,80538,2,0,L|308:272,2,40,0|0|8,0:0|0:0|0:0,0:0:0:0:
356,152,80829,1,0,0:0:0:0:
407,227,80975,2,0,L|399:311,1,80,2|0,0:0|0:0,0:0:0:0:
356,152,81266,2,0,L|364:68,1,80,8|0,0:0|0:0,0:0:0:0:
512,196,81557,6,0,P|504:207|400:224,1,120,2|0,0:0|0:0,0:0:0:0:
344,180,81849,2,0,L|260:188,1,80,8|0,0:0|0:0,0:0:0:0:
140,200,82140,1,2,0:0:0:0:
208,268,82286,1,0,0:0:0:0:
196,116,82431,1,8,0:0:0:0:
92,96,82577,1,0,0:0:0:0:
40,188,82722,5,2,0:0:0:0:
40,188,82795,1,0,0:0:0:0:
40,188,82868,2,0,L|44:252,2,40,0|0|8,0:0|0:0|0:0,0:0:0:0:
120,264,83159,1,0,0:0:0:0:
118,268,83232,1,0,0:0:0:0:
115,272,83305,2,0,P|68:306|9:306,1,120
0,304,83596,2,0,P|55:342|75:362,1,80,8|0,0:0|0:0,0:0:0:0:
204,308,83887,5,2,0:0:0:0:
204,308,84179,2,0,B|208:264|208:264|192:216,1,88.000002685547,8|0,0:0|0:0,0:0:0:0:
322,125,84470,2,0,B|312:172|312:172|320:212,1,88.000002685547,2|0,0:0|0:0,0:0:0:0:
104,104,84761,2,0,L|192:92,1,88.000002685547,10|2,0:0|0:0,0:0:0:0:
308,40,85053,5,2,0:0:0:0:
320,44,85125,1,0,0:0:0:0:
332,48,85198,2,0,P|350:49|376:52,1,40
472,64,85344,2,0,P|461:92|456:112,3,40,8|0|0|0,0:0|0:0|0:0|0:0,0:0:0:0:
428,116,85635,2,0,P|456:156|440:240,1,120
448,228,85926,2,0,P|428:284|448:320,1,80,8|2,0:0|0:0,0:0:0:0:
504,376,86218,6,0,L|364:368,1,120,2|2,0:0|0:0,0:0:0:0:
371,363,86509,2,0,B|332:372|332:372|292:368,1,80,8|0,0:0|0:0,0:0:0:0:
314,165,86800,2,0,B|320:204|320:204|316:236|316:236|324:284,2,120,2|8|8,0:0|0:0|0:0,0:0:0:0:
232,200,87383,6,0,L|128:180,1,80,2|0,0:0|0:0,0:0:0:0:
140,180,87601,1,0,0:0:0:0:
128,176,87674,2,0,P|112:228|128:272,1,80,8|0,0:0|0:0,0:0:0:0:
232,200,87965,2,0,P|232:136|160:112,1,120,2|0,0:0|0:0,0:0:0:0:
124,76,88256,2,0,L|32:92,1,80,8|0,0:0|0:0,0:0:0:0:
24,220,88548,6,0,L|20:264,1,40,2|0,0:0|0:0,0:0:0:0:
104,336,88693,2,0,L|100:284,1,40
172,260,88839,2,0,L|268:272,1,80,8|0,0:0|0:0,0:0:0:0:
360,284,89130,5,8,0:0:0:0:
320,168,89276,1,8,0:0:0:0:
440,216,89421,1,8,0:0:0:0:
444,224,89494,1,0,0:0:0:0:
448,232,89567,1,0,0:0:0:0:
452,240,89640,1,0,0:0:0:0:
456,248,89713,6,0,L|460:140,1,90.0000034332277,6|0,0:0|2:0,0:0:0:0:
364,80,90150,2,0,L|360:169,1,90.0000034332277,6|0,0:0|2:0,0:0:0:0:
270,280,90586,6,0,L|359:283,1,90.0000034332277,6|0,0:0|2:0,0:0:0:0:
248,176,91023,2,0,L|136:180,1,90.0000034332277,6|0,0:0|3:0,0:0:0:0:
52,240,91460,6,0,L|48:308,1,60.0000022888184,6|0,0:0|0:0,0:0:0:0:
152,344,91752,2,0,L|196:340,3,30.0000011444092,8|0|0|0,0:0|0:0|0:0|0:0,0:0:0:0:
216,332,92043,6,0,P|220:288|200:228,1,90.0000034332277,6|0,0:0|2:0,0:0:0:0:
303,183,92480,2,0,P|300:139|311:96,1,90.0000034332277,6|0,0:0|2:0,0:0:0:0:
200,36,92917,6,0,L|96:40,1,90.0000034332277,6|0,0:0|2:0,0:0:0:0:
110,39,93353,2,0,L|296:48,1,180.000006866455,6|0,0:0|0:0,0:0:0:0:
392,12,93936,1,0,0:0:0:0:
416,104,94082,2,0,L|424:144,2,30.0000011444092,8|0|0,0:0|0:0|0:0,0:0:0:0:
392,12,94373,5,2,0:0:0:0:
328,136,94591,1,0,0:0:0:0:
328,136,94664,2,0,L|332:216,1,68.0000012969971,8|0,0:0|0:0,0:0:0:0:
376,276,94955,5,2,0:0:0:0:
500,172,95174,1,0,0:0:0:0:
500,172,95247,2,0,B|464:168|464:168|420:184,1,68.0000012969971,8|0,0:0|0:0,0:0:0:0:
331,203,95538,6,0,L|215:195,2,102.000001945496,2|0|0,0:0|0:0|0:0,0:0:0:0:
168,140,96120,2,0,P|144:184|156:240,1,102.000001945496,2|0,0:0|0:0,0:0:0:0:
164,248,96412,2,0,L|160:324,1,68.0000012969971
56,202,96703,6,0,P|55:174|48:128,1,71.9999978027344
132,0,96994,2,0,P|127:57|128:84,1,71.9999978027344
192,176,97286,6,0,P|199:159|204:140,1,35.9999989013672
240,52,97431,2,0,P|248:69|256:84,1,35.9999989013672
320,128,97577,5,0,0:0:0:0:
330,129,97650,1,0,0:0:0:0:
340,130,97722,1,0,0:0:0:0:
350,131,97795,1,0,0:0:0:0:
360,132,97868,6,0,P|296:96|216:224,1,239.999992675781
284,260,98742,1,0,0:0:0:0:
288,263,98815,1,0,0:0:0:0:
292,266,98888,1,0,0:0:0:0:
296,269,98960,1,0,0:0:0:0:
300,272,99034,6,0,L|291:184,1,88.000002685547,6|0,0:0|0:0,0:0:0:0:
204,296,99324,1,8,0:0:0:0:
120,240,99470,2,0,P|131:153|144:40,1,176.000005371094,2|0,0:0|0:0,0:0:0:0:
141,65,99907,1,10,0:0:0:0:
56,148,100053,1,0,0:0:0:0:
208,188,100198,5,0,0:0:0:0:
48,156,100344,2,0,L|44:56,1,88.000002685547,10|0,0:0|0:0,0:0:0:0:
200,12,100635,1,0,0:0:0:0:
288,88,100781,6,0,L|336:92,3,44.0000013427735,2|0|0|2,0:0|0:0|0:0|0:0,0:0:0:0:
364,80,101072,2,0,P|376:136|384:168,1,88.000002685547,8|0,0:0|0:0,0:0:0:0:
472,268,101363,5,2,0:0:0:0:
452,264,101436,1,0,0:0:0:0:
428,264,101509,1,0,0:0:0:0:
408,268,101582,1,0,0:0:0:0:
388,276,101654,1,0,0:0:0:0:
304,332,101800,6,0,L|296:376,2,44.0000013427735,2|0|2,0:0|0:0|0:0,0:0:0:0:
264,224,102091,1,0,0:0:0:0:
196,336,102237,2,0,P|140:356|100:368,1,88.000002685547,8|0,0:0|0:0,0:0:0:0:
4,216,102528,6,0,P|77:224|152:236,1,132.00000402832,2|0,0:0|2:0,0:0:0:0:
160,248,102820,2,0,B|152:212|152:212|152:204|152:204|144:152,1,88.000002685547,8|0,0:0|0:0,0:0:0:0:
212,40,103111,2,0,B|220:76|220:76|220:84|220:84|228:136,1,88.000002685547,8|0,0:0|0:0,0:0:0:0:
320,200,103402,2,0,L|408:204,1,88.000002685547,8|0,0:0|0:0,0:0:0:0:
480,108,103693,5,6,0:0:0:0:
480,108,103766,1,0,0:0:0:0:
480,108,103839,2,0,L|472:64,2,44.0000013427735,0|0|8,0:0|0:0|0:0,0:0:0:0:
508,224,104130,1,0,0:0:0:0:
416,304,104276,2,0,P|361:305|316:308,1,88.000002685547,2|8,0:0|0:0,0:0:0:0:
496,324,104567,1,2,0:0:0:0:
420,216,104713,1,8,0:0:0:0:
252,248,104858,5,6,0:0:0:0:
252,248,104931,1,0,0:0:0:0:
252,248,105004,2,0,L|248:296,2,44.0000013427735,0|0|8,0:0|0:0|0:0,0:0:0:0:
260,136,105295,1,0,0:0:0:0:
340,248,105441,1,2,0:0:0:0:
168,208,105586,2,0,L|72:216,1,88.000002685547,8|2,0:0|0:0,0:0:0:0:
252,248,105878,1,8,0:0:0:0:
348,148,106023,6,0,L|340:104,4,44.0000013427735,6|0|0|0|0,0:0|0:0|0:0|0:0|0:0,0:0:0:0:
372,16,106460,1,2,0:0:0:0:
272,72,106606,2,0,L|120:80,1,132.00000402832,2|2,0:0|0:0,0:0:0:0:
100,72,106897,2,0,P|80:124|60:160,1,88.000002685547,8|0,0:0|0:0,0:0:0:0:
152,248,107188,6,0,L|144:160,1,88.000002685547,2|0,0:0|0:0,0:0:0:0:
264,220,107480,2,0,L|256:320,1,88.000002685547,8|0,0:0|0:0,0:0:0:0:
256,307,107698,1,0,0:0:0:0:
256,307,107771,5,2,0:0:0:0:
220,144,107917,1,8,0:0:0:0:
352,208,108062,2,0,B|392:212|392:212|452:204,1,95.9999970703126,2|8,0:0|0:0,0:0:0:0:
504,108,108353,6,0,P|460:72|360:92,1,160,6|0,0:0|0:0,0:0:0:0:
272,32,108790,2,0,L|268:120,1,80,6|0,0:0|0:0,0:0:0:0:
244,208,109082,1,0,0:0:0:0:
164,128,109227,6,0,B|143:83|147:28|147:28|128:58|104:80,1,160,6|0,0:0|0:0,0:0:0:0:
28,132,109664,2,0,P|16:176|28:224,1,80,6|0,0:0|0:0,0:0:0:0:
80,288,109955,1,0,0:0:0:0:
176,228,110101,6,0,L|272:232,1,80,6|0,0:0|0:0,0:0:0:0:
400,240,110392,2,0,L|408:284,3,40,8|0|0|0,0:0|0:0|0:0|0:0,0:0:0:0:
324,309,110684,5,2,0:0:0:0:
323,312,110756,1,0,0:0:0:0:
322,315,110829,1,0,0:0:0:0:
321,318,110902,1,0,0:0:0:0:
320,321,110975,1,0,0:0:0:0:
212,336,111120,6,0,P|172:284|208:188,1,160,6|0,0:0|0:0,0:0:0:0:
292,152,111557,1,6,0:0:0:0:
392,192,111703,2,0,P|400:156|388:100,1,80
313,35,111994,6,0,B|245:40|245:40|212:30|212:30|140:35,1,160,6|0,0:0|0:0,0:0:0:0:
56,136,112431,2,0,L|144:140,1,80,10|0,0:0|0:0,0:0:0:0:
232,232,112722,2,0,L|140:236,1,80,10|0,0:0|0:0,0:0:0:0:
48,308,113014,6,0,P|100:348|176:324,1,143.999995605469,2|2,0:0|0:0,0:0:0:0:
232,232,113451,1,0,0:0:0:0:
200,144,113596,2,0,P|192:100|192:72,1,71.9999978027344,2|0,0:0|0:0,0:0:0:0:
332,152,113887,2,0,P|328:204|320:236,1,71.9999978027344,2|0,0:0|0:0,0:0:0:0:
212,308,114179,6,0,L|108:304,1,88.000002685547,10|0,0:0|0:0,0:0:0:0:
24,180,114470,2,0,L|128:184,1,88.000002685547,10|0,0:0|0:0,0:0:0:0:
268,108,114761,1,0,0:0:0:0:
272,96,114834,1,0,0:0:0:0:
276,84,114907,1,0,0:0:0:0:
280,72,114980,1,0,0:0:0:0:
284,60,115053,2,0,L|280:8,2,44.0000013427735
300,212,115344,5,2,0:0:0:0:
296,232,115926,1,2,0:0:0:0:
188,168,116509,5,2,0:0:0:0:
204,292,117091,1,2,0:0:0:0:
296,88,117674,5,6,0:0:0:0:
256,192,117820,12,0,120077,0:0:0:0:
