osu file format v14

[General]
AudioFilename: LegenD.mp3
AudioLeadIn: 0
PreviewTime: 61460
Countdown: 0
SampleSet: Normal
StackLeniency: 0.7
Mode: 0
LetterboxInBreaks: 0
WidescreenStoryboard: 0

[Editor]
DistanceSpacing: 0.5
BeatDivisor: 8
GridSize: 4
TimelineZoom: 3.899998

[Metadata]
Title:LegenD.
TitleUnicode:LegenD.
Artist:Yooh
ArtistUnicode:Yooh
Creator:toybot
Version:ADVANCED
Source:SOUND VOLTEX III GRAVITY WARS
Tags:sdvx bemani the 4th kac mikii skinnyjommy gokugohan12468 kittyadventure sionkotori captin1 fort ciyus miapah
BeatmapID:795621
BeatmapSetID:359821

[Difficulty]
HPDrainRate:5
CircleSize:4
OverallDifficulty:6
ApproachRate:7.5
SliderMultiplier:1.35
SliderTickRate:1

[Events]
//Background and Video events
0,0,"legend.jpg",0,0
//Break Periods
//Storyboard Layer 0 (Background)
//Storyboard Layer 1 (Fail)
//Storyboard Layer 2 (Pass)
//Storyboard Layer 3 (Foreground)
//Storyboard Sound Samples

[TimingPoints]
880,292.682926829268,4,2,1,50,1,0
880,-133.333333333333,4,2,1,50,0,0
5270,-100,4,2,1,70,0,0
5562,-133.333333333333,4,2,1,50,0,0
9221,-111.111111111111,4,2,1,70,0,0
16684,-111.111111111111,4,1,1,40,0,0
18440,-111.111111111111,4,2,1,60,0,0
18733,-125,4,2,1,50,0,0
19611,-100,4,2,1,70,0,0
23855,-133.333333333333,4,2,1,50,0,0
24294,-100,4,2,1,70,0,0
26636,-90.9090909090909,4,2,1,70,0,0
27806,-111.111111111111,4,2,1,70,0,0
28684,-90.9090909090909,4,2,1,70,0,0
28977,-100,4,2,1,70,0,0
33367,-100,4,2,1,40,0,0
33660,-100,4,2,1,70,0,0
37758,-111.111111111111,4,2,1,70,0,0
38050,-133.333333333333,4,2,1,70,0,0
38343,-95.2380952380952,4,2,1,70,0,0
40099,-83.3333333333333,4,2,1,70,0,0
40684,-95.2380952380952,4,2,1,70,0,0
42148,-83.3333333333333,4,2,0,70,0,0
42440,-125,4,2,1,70,0,0
43026,-95.2380952380952,4,2,1,70,0,0
44782,-125,4,2,1,50,0,0
45367,-95.2380952380952,4,2,1,70,0,0
47416,-95.2380952380952,4,2,1,50,0,0
47709,-90.9090909090909,4,2,1,75,0,0
54294,-125,4,2,1,70,0,0
54733,-100,4,2,1,70,0,0
55904,-111.111111111111,4,2,1,70,0,0
56489,-111.111111111111,4,2,1,50,0,0
57075,-111.111111111111,4,2,1,70,0,0
58245,-111.111111111111,4,3,1,30,0,0
59416,-111.111111111111,4,3,1,35,0,0
60587,291.26213592233,4,1,1,50,1,0
61169,-100,4,1,1,60,0,0
61460,-100,4,1,1,80,0,0
61752,-90.9090909090909,4,1,1,80,0,1
69033,-100,4,1,1,80,0,1
69616,-111.111111111111,4,1,1,80,0,1
71072,-90.9090909090909,4,1,1,80,0,1
79227,-125,4,1,1,80,0,1
79519,-111.111111111111,4,1,1,80,0,1
79810,-100,4,1,1,80,0,1
80101,-83.3333333333333,4,2,1,60,0,1
80392,-100,4,1,1,80,0,0
84179,-90.9090909090909,4,1,1,80,0,0
85053,-100,4,1,1,80,0,0
94373,-117.647058823529,4,1,1,70,0,0
96120,-117.647058823529,4,1,1,60,0,0
96703,-111.111111111111,4,1,1,60,0,0
97868,-166.666666666667,4,2,1,60,0,0
99033,-90.9090909090909,4,1,1,80,0,1
107771,-83.3333333333333,4,1,1,80,0,1
108353,-100,4,1,1,80,0,1
113014,-111.111111111111,4,1,1,70,0,1
114179,-90.9090909090909,4,1,1,70,0,1
115344,-90.9090909090909,4,1,1,70,0,0
117674,-90.9090909090909,4,1,1,80,0,0
120077,-90.9090909090909,4,2,1,5,0,0

[Colours]
Combo1 : 0,176,176
Combo2 : 128,0,128
Combo3 : 0,81,179
Combo4 : 128,128,128

[HitObjects]
24,172,880,6,0,P|88:196|156:152,1,151.875005793572,4|2,0:0|0:0,0:0:0:0:
180,56,1611,1,0,0:0:0:0:
180,56,1758,2,0,L|252:48,1,50.6250019311906,2|0,0:0|0:0,0:0:0:0:
300,24,2050,6,0,L|296:136,1,101.250003862381,2|0,0:0|0:0,0:0:0:0:
332,188,2489,2,0,L|328:300,1,101.250003862381,2|0,0:0|0:0,0:0:0:0:
272,336,2928,2,0,L|216:340,1,50.6250019311906,2|0,0:0|0:0,0:0:0:0:
152,312,3221,6,0,P|176:268|140:176,1,151.875005793572,2|2,0:0|0:0,0:0:0:0:
52,136,3953,2,0,L|0:132,2,50.6250019311906,0|2|0,0:0|0:0|0:0,0:0:0:0:
120,104,4392,6,0,B|159:102|159:102|176:106|176:106|228:104,1,101.250003862381,2|0,0:0|0:0,0:0:0:0:
284,68,4831,2,0,P|316:60|380:96,1,101.250003862381,2|0,0:0|0:0,0:0:0:0:
408,156,5270,6,0,L|404:240,1,67.5,8|2,0:0|0:1,0:0:0:0:
384,292,5562,6,0,P|360:312|240:280,1,151.875005793572,2|2,0:0|0:0,0:0:0:0:
208,200,6294,1,0,0:0:0:0:
208,200,6440,2,0,L|212:132,1,50.6250019311906,2|0,0:0|0:0,0:0:0:0:
216,76,6733,5,2,0:0:0:0:
312,192,7172,1,2,0:0:0:0:
248,272,7465,1,0,0:0:0:0:
248,272,7611,2,0,L|214:274|180:276,1,50.6250019311906,2|0,0:0|0:0,0:0:0:0:
128,248,7904,6,0,P|112:212|128:148,1,101.250003862381,2|0,0:0|0:0,0:0:0:0:
196,168,8343,2,0,P|209:120|192:73,1,101.250003862381,2|0,0:0|0:0,0:0:0:0:
128,40,8782,2,0,L|64:44,1,50.6250019311906,2|0,0:0|0:0,0:0:0:0:
24,92,9075,5,0,0:0:0:0:
52,160,9221,2,0,P|60:216|40:292,1,121.499996292114,8|8,0:0|0:0,0:0:0:0:
104,324,9660,2,8,P|100:348|100:368,2,30.3749990730286
156,272,9953,2,0,L|240:264,1,60.7499981460572,8|2,0:0|0:1,0:0:0:0:
304,256,10245,5,6,0:1:0:0:
368,216,10392,2,0,P|376:272|372:292,2,60.7499981460572,0|8|0,0:0|0:0|0:0,0:0:0:0:
320,160,10831,2,0,L|252:156,1,60.7499981460572,2|0,0:1|0:0,0:0:0:0:
192,188,11123,2,0,L|120:196,1,60.7499981460572,8|0,0:0|0:0,0:0:0:0:
68,156,11416,6,0,B|60:112|60:112|64:88|64:88|56:32,1,121.499996292114,2|8,0:1|0:0,0:0:0:0:
128,20,11855,1,0,0:0:0:0:
188,60,12001,2,0,P|236:64|264:60,1,60.7499981460572,2|0,0:1|0:0,0:0:0:0:
316,32,12294,2,0,P|346:27|376:29,1,60.7499981460572,8|0,0:0|0:0,0:0:0:0:
385,31,12514,1,8,0:0:0:0:
392,35,12587,6,0,L|404:171,1,121.499996292114,6|8,0:1|0:0,0:0:0:0:
380,224,13026,1,0,0:0:0:0:
432,276,13172,2,0,P|476:280|500:280,2,60.7499981460572,2|0|8,0:1|0:0|0:0,0:0:0:0:
380,224,13611,1,0,0:0:0:0:
304,196,13758,6,0,L|240:200,1,60.7499981460572,2|0,0:1|0:0,0:0:0:0:
203,275,14050,2,0,L|264:272,1,60.7499981460572,8|0,0:0|0:0,0:0:0:0:
340,316,14343,2,8,L|334:286,2,30.3749990730286
380,224,14636,2,0,P|382:192|392:152,1,60.7499981460572,8|2,0:0|0:1,0:0:0:0:
428,104,14928,5,6,0:1:0:0:
376,52,15075,1,2,0:1:0:0:
316,96,15221,2,0,P|260:108|180:96,1,121.499996292114,8|2,0:0|0:1,0:0:0:0:
132,68,15660,1,2,0:1:0:0:
100,132,15806,2,0,P|96:184|100:220,1,60.7499981460572,8|0,0:0|0:0,0:0:0:0:
148,260,16099,6,0,L|224:256,1,60.7499981460572,8|0,0:0|0:0,0:0:0:0:
284,184,16392,2,0,L|208:180,1,60.7499981460572,8|0,0:0|0:0,0:0:0:0:
320,264,16684,2,0,L|324:320,2,30.3749990730286
372,196,16977,2,0,L|376:156,3,30.3749990730286
256,192,17270,12,2,18440,0:0:0:0:
360,112,18733,6,0,P|287:84|224:132,1,162,2|0,0:0|0:0,0:0:0:0:
192,200,19319,2,0,P|188:234|188:276,1,54
248,320,19611,6,0,L|328:312,1,67.5,6|0,0:1|0:0,0:0:0:0:
388,304,19904,2,0,L|380:224,1,67.5,2|0,0:1|0:0,0:0:0:0:
376,164,20197,1,0,0:0:0:0:
308,132,20343,1,0,0:0:0:0:
252,180,20489,2,0,L|172:188,1,67.5,2|0,0:1|0:0,0:0:0:0:
116,216,20782,6,0,P|112:145|104:56,1,135,2|2,0:1|0:1,0:0:0:0:
52,28,21221,1,0,0:0:0:0:
28,100,21367,2,0,P|24:134|24:176,1,67.5,2|0,0:1|0:0,0:0:0:0:
44,240,21660,2,0,P|47:274|48:316,1,67.5,2|0,0:1|0:0,0:0:0:0:
8,368,21953,6,0,P|64:332|144:356,1,135,2|2,0:1|0:1,0:0:0:0:
196,376,22392,1,0,0:0:0:0:
244,320,22538,2,0,L|232:224,1,67.5,2|0,0:1|0:0,0:0:0:0:
312,252,22831,2,0,L|300:156,1,67.5,2|0,0:1|0:0,0:0:0:0:
380,184,23123,6,0,B|374:128|374:128|364:104|364:104|356:25,1,135,2|2,0:1|0:1,0:0:0:0:
288,24,23562,1,0,0:0:0:0:
236,76,23709,1,2,0:1:0:0:
172,40,23855,6,0,B|104:28|136:52|56:40,1,101.250003862381
76,116,24294,6,0,P|56:164|96:252,1,135,2|2,0:1|0:1,0:0:0:0:
148,272,24733,1,0,0:0:0:0:
212,236,24879,2,0,B|267:234|267:234|287:225|287:225|355:222,1,135,2|2,0:1|0:1,0:0:0:0:
416,268,25319,1,2,0:1:0:0:
472,208,25465,6,0,P|469:171|464:132,1,67.5,2|0,0:1|0:0,0:0:0:0:
404,96,25758,2,0,L|308:88,1,67.5,2|0,0:1|0:0,0:0:0:0:
236,160,26050,2,0,P|296:148|328:232,1,135,2|2,0:1|0:1,0:0:0:0:
316,276,26489,1,2,0:1:0:0:
240,304,26636,6,0,L|152:296,1,74.2500022659302,6|2,0:1|0:1,0:0:0:0:
84,288,26928,1,8,0:0:0:0:
176,161,27221,6,0,L|213:241,1,74.2500022659302,6|2,0:1|0:1,0:0:0:0:
240,304,27513,1,8,0:0:0:0:
84,288,27806,6,0,P|52:240|76:168,1,121.499996292114,2|2,0:1|0:1,0:0:0:0:
160,88,28392,1,0,0:0:0:0:
292,136,28684,6,0,B|299:131|299:131|307:134|307:134|315:130|315:130|323:133|323:133|331:129|331:129|339:132|339:132|347:128|347:128|355:131|355:131|363:126|363:126|371:130|371:130|379:125|379:125|387:129|387:129|395:124,1,111.375003398895,8|0,0:0|0:0,0:0:0:0:
424,108,28977,6,0,B|448:168|448:168|428:240,1,135,6|8,0:1|0:0,0:0:0:0:
372,284,29416,1,0,0:0:0:0:
300,264,29562,2,0,L|152:256,1,135,2|8,0:1|0:0,0:0:0:0:
92,248,30001,1,0,0:0:0:0:
44,184,30148,6,0,P|36:148|44:112,1,67.5,2|0,0:1|0:0,0:0:0:0:
132,112,30440,2,0,P|140:148|132:184,1,67.5,8|0,0:0|0:0,0:0:0:0:
92,248,30733,1,2,0:1:0:0:
140,304,30879,1,0,0:0:0:0:
212,284,31026,2,0,P|244:280|288:276,1,67.5,8|0,0:0|0:0,0:0:0:0:
348,300,31319,6,0,P|384:272|368:184,1,135,2|8,0:1|0:0,0:0:0:0:
336,128,31758,1,0,0:0:0:0:
266,104,31904,2,0,L|114:112,1,135,2|8,0:1|0:0,0:0:0:0:
68,152,32343,1,0,0:0:0:0:
96,220,32489,6,0,L|176:224,1,67.5,2|0,0:1|0:0,0:0:0:0:
224,180,32782,2,0,L|304:184,1,67.5,8|0,0:0|0:0,0:0:0:0:
348,232,33075,1,8,0:0:0:0:
408,176,33221,1,0,0:0:0:0:
360,104,33367,2,0,P|356:80|356:64,2,33.75,0|0|0,1:0|1:0|1:0,1:0:0:0:
408,176,33660,6,0,P|428:240|384:308,1,135,6|8,0:1|0:0,0:0:0:0:
328,316,34099,1,0,0:0:0:0:
260,288,34245,2,0,L|180:284,1,67.5,2|0,0:1|0:0,0:0:0:0:
120,304,34538,1,8,0:0:0:0:
120,304,34684,1,2,0:1:0:0:
64,256,34831,6,0,P|44:192|88:124,1,135,6|8,0:1|0:0,0:0:0:0:
136,92,35270,1,0,0:0:0:0:
200,128,35416,2,0,B|247:131|247:131|260:128|260:128|315:132,2,101.25,0|0|0,1:0|1:0|1:0,1:0:0:0:
156,188,36001,6,0,L|160:256,1,67.5,6|2,0:1|0:1,0:0:0:0:
168,328,36294,1,8,0:0:0:0:
244,284,36440,1,0,0:0:0:0:
244,284,36514,1,0,0:0:0:0:
244,284,36587,6,0,L|336:280,1,67.5,6|2,0:1|0:1,0:0:0:0:
384,276,36879,2,0,L|408:192,1,67.5,8|0,0:0|0:0,0:0:0:0:
424,140,37172,5,12,0:0:0:0:
256,64,37465,1,8,0:0:0:0:
88,140,37758,1,8,0:0:0:0:
256,216,38050,2,0,P|257:193|256:148,1,50.6250019311906
196,116,38343,6,0,L|44:104,1,141.749995674133,6|8,0:1|0:0,0:0:0:0:
20,256,38928,2,0,P|72:272|128:232,1,106.3124967556,2|2,0:1|0:1,0:0:0:0:
128,236,39221,2,0,P|176:224|212:240,1,70.8749978370667,8|0,0:0|0:0,0:0:0:0:
260,276,39514,6,0,L|264:352,2,70.8749978370667,2|0|8,0:1|0:0|0:0,0:0:0:0:
304,212,39953,1,0,0:0:0:0:
252,140,40099,5,2,0:1:0:0:
252,140,40245,1,2,0:1:0:0:
24,180,40684,6,0,P|12:132|28:92,1,70.8749978370667,2|0,0:1|0:0,0:0:0:0:
72,56,40977,2,0,L|160:58,1,70.8749978370667,8|0,0:0|0:0,0:0:0:0:
216,36,41270,2,0,P|280:56|344:28,1,106.3124967556,2|2,0:1|0:1,0:0:0:0:
328,40,41562,2,0,L|332:128,1,70.8749978370667,8|0,0:0|0:0,0:0:0:0:
336,188,41855,5,2,0:1:0:0:
181,276,42148,2,0,L|221:273,3,40.4999987640381,2|0|2|0,0:1|0:0|0:1|0:0,0:0:0:0:
259,333,42440,6,0,P|291:267|219:203,1,162,8|0,0:0|0:0,0:0:0:0:
164,188,43026,6,0,L|80:196,1,70.8749978370667,2|0,0:1|0:0,0:0:0:0:
32,144,43319,2,0,B|24:108|24:108|32:68,1,70.8749978370667,8|0,0:0|0:0,0:0:0:0:
92,28,43611,2,0,L|260:44,1,141.749995674133,2|8,0:1|0:0,0:0:0:0:
308,20,44050,1,0,0:0:0:0:
368,72,44197,6,0,L|372:160,1,70.8749978370667,2|0,0:1|0:0,0:0:0:0:
320,204,44489,1,8,0:0:0:0:
320,204,44636,1,2,0:1:0:0:
380,256,44782,5,2,0:0:0:0:
212,216,45075,1,2,0:0:0:0:
68,312,45367,6,0,P|135:314|216:320,1,141.749995674133,2|8,0:1|0:0,0:0:0:0:
284,340,45806,1,0,0:0:0:0:
344,288,45953,2,0,P|372:224|348:176,1,106.3124967556,0|2,0:0|0:1,0:0:0:0:
352,176,46245,2,0,L|248:184,1,70.8749978370667,8|2,0:0|0:1,0:0:0:0:
204,192,46538,6,0,B|204:164|212:144|212:144|200:132|200:132|212:108|216:72,1,106.3124967556,0|0,1:0|1:0,0:0:0:0:
108,44,46977,2,0,L|1:37,1,106.3124967556,0|0,1:0|1:0,0:0:0:0:
48,144,47416,2,0,P|60:204|60:232,1,70.8749978370667,0|0,1:0|1:0,1:0:0:0:
40,292,47709,6,0,P|128:264|180:296,1,148.50000453186,6|8,0:1|0:0,0:0:0:0:
232,348,48148,1,0,0:0:0:0:
284,284,48294,2,0,P|288:216|276:164,2,111.375003398895,2|2|2,0:1|0:1|0:1,0:0:0:0:
352,328,48879,6,0,P|396:316|428:276,1,74.2500022659302,2|2,0:1|0:1,0:0:0:0:
448,220,49172,2,0,L|432:120,1,74.2500022659302,8|0,0:0|0:0,0:0:0:0:
420,72,49465,2,0,B|376:70|376:70|359:73|359:73|268:72,1,148.50000453186,2|8,0:1|0:0,0:0:0:0:
196,40,49904,1,0,0:0:0:0:
140,96,50050,6,0,P|128:156|196:228,1,148.50000453186,2|8,0:1|0:0,0:0:0:0:
248,180,50489,1,0,0:0:0:0:
300,244,50636,2,0,B|312:300|312:300|304:360,2,111.375003398895,2|2|2,0:1|0:1|0:1,0:0:0:0:
248,180,51221,6,0,L|140:176,1,74.2500022659302,8|0,0:0|0:0,0:0:0:0:
100,216,51514,2,0,P|108:264|112:308,1,74.2500022659302,8|0,0:0|0:0,0:0:0:0:
184,324,51806,2,0,P|185:303|196:240,1,74.2500022659302,8|0,0:0|0:0,0:0:0:0:
248,180,52099,1,8,0:0:0:0:
324,208,52245,1,0,0:0:0:0:
388,156,52392,6,0,P|368:92|280:96,1,148.50000453186,2|8,0:1|0:0,0:0:0:0:
220,52,52831,1,0,0:0:0:0:
228,132,52977,2,0,P|227:196|224:248,2,111.375003398895,2|2|2,0:1|0:1|0:1,0:0:0:0:
152,100,53562,6,0,L|60:92,1,74.2500022659302,2|0,0:1|0:0,0:0:0:0:
52,172,53855,2,0,L|144:180,1,74.2500022659302,8|0,0:0|0:0,0:0:0:0:
196,220,54148,1,2,0:1:0:0:
196,220,54294,6,0,P|249:214|320:208,1,108
376,196,54733,5,8,0:0:0:0:
432,60,55026,1,8,0:0:0:0:
287,80,55319,1,8,0:0:0:0:
376,196,55611,2,0,P|391:259|391:287,1,67.5,8|2,0:0|0:1,0:0:0:0:
332,308,55904,6,0,L|196:316,1,121.499996292114,2|0,0:1|0:0,0:0:0:0:
112,212,56489,2,0,L|233:219,1,121.499996292114
296,172,56928,1,0,0:0:0:0:
256,108,57075,5,6,0:1:0:0:
256,192,58245,12,8,61460,2:0:0:0:
356,136,61752,6,0,L|196:128,1,148.50000453186,6|8,0:0|0:0,0:0:0:0:
128,116,62188,1,0,0:0:0:0:
84,184,62334,2,0,P|80:232|96:288,1,74.2500022659302,2|0,0:0|0:0,0:0:0:0:
144,312,62625,2,0,L|232:308,1,74.2500022659302,8|0,0:0|0:0,0:0:0:0:
300,292,62917,6,0,B|336:280|372:284|372:284|344:248|352:192,1,148.50000453186,2|8,0:0|0:0,0:0:0:0:
388,140,63353,1,0,0:0:0:0:
460,176,63499,2,0,L|496:192,2,37.1250011329651,2|0|0,0:0|0:0|0:0,0:0:0:0:
456,96,63790,2,0,P|457:53|460:12,1,74.2500022659302,8|0,0:0|0:0,0:0:0:0:
380,48,64082,6,0,P|328:16|256:72,1,148.50000453186,2|8,0:0|0:0,0:0:0:0:
220,216,64664,2,0,P|224:257|228:304,1,74.2500022659302,2|0,0:0|0:0,0:0:0:0:
296,336,64955,2,0,P|297:301|300:256,1,74.2500022659302,8|0,0:0|0:0,0:0:0:0:
368,208,65247,6,0,L|204:216,1,148.50000453186,2|8,0:0|0:0,0:0:0:0:
152,168,65684,1,0,0:0:0:0:
104,236,65829,2,0,P|68:176|96:104,1,148.50000453186,2|8,0:0|0:0,0:0:0:0:
172,84,66266,1,0,0:0:0:0:
248,116,66412,6,0,L|308:120,2,37.1250011329651,2|0|0,0:0|0:0|0:0,0:0:0:0:
189,170,66703,2,0,L|129:166,2,37.1250011329651,8|0|0,0:0|0:0|0:0,0:0:0:0:
248,228,66994,2,0,P|284:225|336:224,1,74.2500022659302,2|0,0:0|0:0,0:0:0:0:
404,228,67286,2,0,P|401:191|400:140,1,74.2500022659302,8|0,0:0|0:0,0:0:0:0:
412,72,67577,6,0,L|424:20,2,37.1250011329651,2|0|0,0:0|0:0|0:0,0:0:0:0:
329,26,67868,2,0,L|332:64,2,37.1250011329651,8|0|0,0:0|0:0|0:0,0:0:0:0:
256,88,68159,2,0,P|212:96|160:96,1,74.2500022659302,2|0,0:0|0:0,0:0:0:0:
104,68,68451,1,8,0:0:0:0:
64,140,68596,1,0,0:0:0:0:
120,200,68742,6,0,B|223:215|169:179|288:195,1,148.50000453186,2|8,0:0|0:0,0:0:0:0:
332,232,69179,1,0,0:0:0:0:
392,192,69324,2,0,P|424:128|408:80,1,101.25,2|0,0:0|0:0,0:0:0:0:
412,88,69616,2,0,L|370:84|328:80,1,60.7499981460572,8|0,0:0|0:0,0:0:0:0:
284,112,69907,6,0,P|244:80|168:112,1,121.499996292114,2|8,0:0|0:0,0:0:0:0:
96,200,70489,2,0,L|92:268,1,60.7499981460572,8|2,0:0|0:0,0:0:0:0:
164,304,70781,2,0,L|168:236,1,60.7499981460572,8|2,0:0|0:0,0:0:0:0:
240,204,71072,5,6,0:0:0:0:
312,244,71218,1,0,0:0:0:0:
376,196,71363,2,0,P|380:152|384:112,1,74.2500022659302,8|0,0:0|0:0,0:0:0:0:
336,56,71654,2,0,P|272:28|216:96,1,148.50000453186,2|8,0:0|0:0,0:0:0:0:
184,148,72091,1,0,0:0:0:0:
108,120,72237,6,0,P|40:112|28:112,2,74.2500022659302,2|0|8,0:0|0:0|0:0,0:0:0:0:
184,148,72674,1,0,0:0:0:0:
240,208,72820,2,0,P|248:248|248:260,2,37.1250011329651,2|0|0,0:0|0:0|0:0,0:0:0:0:
272,132,73111,2,0,P|296:100|336:68,1,74.2500022659302,8|0,0:0|0:0,0:0:0:0:
404,72,73402,6,0,B|428:104|420:128|420:128|424:152|424:152|408:184|424:216,1,148.50000453186,2|8,0:0|0:0,0:0:0:0:
492,256,73839,1,0,0:0:0:0:
428,308,73985,2,0,P|384:320|344:324,1,74.2500022659302,2|0,0:0|0:0,0:0:0:0:
304,260,74276,2,0,P|260:248|220:244,1,74.2500022659302,8|0,0:0|0:0,0:0:0:0:
156,280,74567,6,0,P|204:340|284:316,1,148.50000453186,2|8,0:0|0:0,0:0:0:0:
304,260,75004,1,0,0:0:0:0:
268,188,75150,2,0,L|256:28,1,148.50000453186,2|8,0:0|0:0,0:0:0:0:
180,68,75587,1,0,0:0:0:0:
104,44,75732,6,0,L|32:40,2,37.1250011329651,2|0|0,0:0|0:0|0:0,0:0:0:0:
80,120,76023,2,0,L|152:124,2,37.1250011329651,8|0|0,0:0|0:0|0:0,0:0:0:0:
112,196,76315,2,0,P|146:194|192:192,1,74.2500022659302,2|0,0:0|0:0,0:0:0:0:
268,188,76606,2,0,P|266:222|264:268,1,74.2500022659302,8|0,0:0|0:0,0:0:0:0:
216,328,76897,6,0,L|176:336,2,37.1250011329651,2|0|0,0:0|0:0|0:0,0:0:0:0:
296,352,77188,2,0,L|336:344,2,37.1250011329651,8|0|0,0:0|0:0|0:0,0:0:0:0:
384,284,77480,2,0,P|404:236|400:192,1,74.2500022659302,2|0,0:0|0:0,0:0:0:0:
348,152,77771,2,0,P|328:104|332:60,1,74.2500022659302,8|0,0:0|0:0,0:0:0:0:
384,20,78062,6,0,P|328:48|228:16,1,148.50000453186,2|8,0:0|0:0,0:0:0:0:
204,100,78499,1,0,0:0:0:0:
132,60,78645,2,0,P|92:52|12:68,2,111.375003398895,2|0|2,0:0|0:0|0:0,0:0:0:0:
204,100,79227,6,0,L|212:176,1,54,8|0,0:0|2:0,0:0:0:0:
284,132,79519,6,0,L|294:221,1,60.7499981460572,8|0,0:0|2:0,0:0:0:0:
364,164,79810,6,0,L|375:257,1,67.5,8|0,0:0|2:0,0:0:0:0:
444,196,80101,6,2,L|455:296,1,80.9999975280763,0|0,0:0|0:0,0:0:0:0:
440,348,80392,6,0,L|376:360,3,33.75,2|0|0|0,0:0|0:0|0:0|0:0,0:0:0:0:
388,320,80684,2,0,P|332:308|292:308,1,67.5,8|0,0:0|0:0,0:0:0:0:
248,316,80975,2,0,P|200:348|136:332,1,101.25,2|0,0:0|0:0,0:0:0:0:
128,324,81266,2,0,L|120:232,1,67.5,8|0,0:0|0:0,0:0:0:0:
176,204,81557,6,0,P|208:156|200:112,1,101.25,2|0,0:0|0:0,0:0:0:0:
184,84,81849,1,8,0:0:0:0:
136,144,81994,1,0,0:0:0:0:
68,112,82140,6,0,L|-12:104,1,67.5,2|0,0:0|0:0,0:0:0:0:
8,180,82431,2,0,L|88:188,1,67.5,8|0,0:0|0:0,0:0:0:0:
116,248,82722,6,0,P|172:280|235:251,1,135,2|8,0:0|0:0,0:0:0:0:
272,192,83159,1,0,0:0:0:0:
272,192,83232,1,0,0:0:0:0:
272,192,83305,2,0,P|267:139|264:80,2,101.25,2|0|0,0:0|0:0|0:0,0:0:0:0:
324,244,83887,5,2,0:0:0:0:
464,164,84179,2,0,P|436:132|332:156,2,148.50000453186,8|2|8,0:0|0:0|0:0,0:0:0:0:
488,236,84907,1,0,0:0:0:0:
456,304,85053,6,0,L|368:316,1,67.5,2|0,0:0|0:0,0:0:0:0:
328,272,85344,2,0,L|240:284,1,67.5,8|0,0:0|0:0,0:0:0:0:
204,328,85635,2,0,B|176:284|200:240|200:240|160:260,1,135,2|8,0:0|0:0,0:0:0:0:
96,296,86072,1,0,0:0:0:0:
56,232,86218,6,0,B|58:172|58:172|66:156|66:156|68:92,1,135,2|8,0:0|0:0,0:0:0:0:
124,52,86654,1,0,0:0:0:0:
184,100,86800,2,0,B|200:148|200:148|184:212,2,101.25,2|2|2,0:0|0:0|0:0,0:0:0:0:
124,52,87383,6,0,L|44:48,1,67.5,2|0,0:0|0:0,0:0:0:0:
8,104,87674,2,0,P|4:140|20:188,1,67.5,8|0,0:0|0:0,0:0:0:0:
56,232,87965,2,0,P|112:212|176:276,1,135,2|8,0:0|0:0,0:0:0:0:
180,328,88402,1,0,0:0:0:0:
248,300,88548,6,0,P|256:263|272:208,1,67.5,2|0,0:0|0:0,0:0:0:0:
332,200,88839,2,0,P|324:163|308:108,1,67.5,8|0,0:0|0:0,0:0:0:0:
260,88,89130,1,2,0:0:0:0:
196,124,89276,1,2,0:0:0:0:
128,96,89421,2,0,L|124:48,2,33.75,8|0|0,0:0|0:0|0:0,0:0:0:0:
92,164,89713,5,6,0:0:0:0:
178,339,90150,1,2,0:0:0:0:
372,311,90586,1,2,0:0:0:0:
405,118,91023,1,2,0:0:0:0:
231,27,91460,2,0,P|200:84|200:108,1,67.5,2|0,0:0|0:0,0:0:0:0:
240,148,91752,2,0,P|271:91|271:67,1,67.5,8|0,0:0|0:0,0:0:0:0:
308,28,92043,5,2,0:0:0:0:
116,91,92480,1,2,0:0:0:0:
117,294,92917,1,2,0:0:0:0:
310,355,93354,1,2,0:0:0:0:
428,190,93790,2,0,P|432:140|424:108,1,67.5,2|0,0:0|0:0,0:0:0:0:
360,92,94082,2,0,P|356:142|364:174,1,67.5,8|0,0:0|0:0,0:0:0:0:
360,236,94373,6,0,L|228:228,1,114.750002188683,2|8,0:0|0:0,0:0:0:0:
124,264,94955,2,0,P|100:224|124:148,1,114.750002188683,2|8,0:0|0:0,0:0:0:0:
168,112,95392,1,0,0:0:0:0:
232,144,95538,6,0,L|368:148,1,114.750002188683,2|8,0:0|0:0,0:0:0:0:
448,68,96120,2,0,P|416:44|340:64,1,114.750002188683,2|8,0:0|0:0,0:0:0:0:
276,68,96557,1,0,0:0:0:0:
212,32,96703,6,0,P|180:29|152:28,1,60.7499981460572,8|0,0:0|0:0,0:0:0:0:
120,96,96994,2,0,P|151:98|180:100,1,60.7499981460572,8|0,0:0|0:0,0:0:0:0:
236,144,97286,2,0,L|244:192,3,30.3749990730286
220,200,97577,2,0,L|212:248,3,30.3749990730286
256,192,97868,12,2,98742,0:0:0:0:
344,128,99033,6,0,P|280:96|212:132,1,148.50000453186,6|8,0:0|0:0,0:0:0:0:
176,200,99470,2,0,L|184:288,1,74.2500022659302,2|0,0:0|0:0,0:0:0:0:
248,320,99761,1,2,0:0:0:0:
316,272,99907,2,0,B|356:264|356:264|412:284,1,74.2500022659302,8|0,0:0|0:0,0:0:0:0:
452,324,100198,5,2,0:0:0:0:
496,256,100344,1,0,0:0:0:0:
444,196,100489,2,0,P|440:140|440:104,1,74.2500022659302,8|0,0:0|0:0,0:0:0:0:
460,44,100781,1,2,0:0:0:0:
460,44,100853,1,0,0:0:0:0:
460,44,100926,2,0,L|508:56,2,37.1250011329651,0|0|8,0:0|0:0|0:0,0:0:0:0:
380,20,101218,1,0,0:0:0:0:
312,64,101363,6,0,P|274:72|232:80,1,74.2500022659302,2|0,0:0|0:0,0:0:0:0:
172,36,101654,2,0,P|134:27|92:20,1,74.2500022659302,8|0,0:0|0:0,0:0:0:0:
32,68,101946,1,2,0:0:0:0:
76,136,102091,1,2,0:0:0:0:
36,208,102237,2,0,P|28:240|24:296,1,74.2500022659302,8|0,0:0|0:0,0:0:0:0:
84,340,102528,6,0,P|136:360|216:292,1,148.50000453186,2|8,0:0|0:0,0:0:0:0:
136,276,102965,1,0,0:0:0:0:
164,200,103111,2,0,P|170:165|184:92,1,74.2500022659302,8|0,0:0|0:0,0:0:0:0:
256,144,103402,2,0,P|249:178|236:252,1,74.2500022659302,8|0,0:0|0:0,0:0:0:0:
288,284,103693,6,0,L|332:304,2,37.1250011329651,6|0|0,0:0|0:0|0:0,0:0:0:0:
352,232,103985,1,8,0:0:0:0:
424,268,104130,1,2,0:0:0:0:
484,212,104276,2,0,B|476:168|476:168|456:148|456:148|440:64,1,148.50000453186,2|8,0:0|0:0,0:0:0:0:
368,36,104713,1,0,0:0:0:0:
308,92,104858,6,0,L|260:104,2,37.1250011329651,6|0|0,0:0|0:0|0:0,0:0:0:0:
380,136,105150,1,8,0:0:0:0:
308,172,105295,1,2,0:0:0:0:
228,156,105441,2,0,P|140:148|68:144,1,148.50000453186,2|8,0:0|0:0,0:0:0:0:
28,208,105878,1,0,0:0:0:0:
88,260,106023,6,0,P|96:304|96:320,4,37.1250011329651,2|0|0|0|8,0:0|0:0|0:0|0:0|0:0,0:0:0:0:
160,340,106460,1,0,0:0:0:0:
220,284,106606,2,0,B|256:284|280:276|280:276|300:300|344:312,2,111.375003398895,8|2|2,0:0|0:0|0:0,0:0:0:0:
164,224,107188,6,0,P|144:156|172:104,2,111.375003398895,8|2|2,0:0|0:0|0:0,0:0:0:0:
236,168,107771,2,0,L|320:160,1,80.9999975280763,8|0,0:0|0:0,0:0:0:0:
400,192,108062,2,0,P|404:136|372:96,1,80.9999975280763,8|0,0:0|0:0,0:0:0:0:
336,68,108353,6,0,P|259:65|180:60,1,135,6|0,0:0|2:0,0:0:0:0:
132,36,108790,2,0,B|120:84|152:116|152:116|140:152|140:184,1,135,6|0,0:0|2:0,0:0:0:0:
84,212,109227,2,0,P|128:236|212:184,1,135,6|0,0:0|2:0,0:0:0:0:
240,140,109664,2,0,P|267:141|308:144,2,67.5,6|0|0,0:0|0:0|0:0,0:0:0:0:
164,140,110101,5,2,0:0:0:0:
201,205,110247,1,0,0:0:0:0:
176,276,110392,2,0,P|164:320|160:368,1,67.5,8|0,0:0|0:0,0:0:0:0:
236,356,110684,6,0,P|304:352|392:348,1,135,6|0,0:0|2:0,0:0:0:0:
428,300,111120,2,0,B|400:272|360:276|360:276|373:254|392:216,1,135,6|0,0:0|2:0,0:0:0:0:
412,152,111557,2,0,B|352:154|352:154|336:162|336:162|268:165,1,135,6|0,0:0|2:0,0:0:0:0:
216,204,111994,2,0,L|144:200,1,67.5,6|0,0:0|0:0,0:0:0:0:
72,196,112286,1,0,0:0:0:0:
104,128,112431,6,0,P|112:72|112:32,1,67.5,2|0,0:0|0:0,0:0:0:0:
40,64,112722,2,0,P|32:120|32:160,1,67.5,8|0,0:0|0:0,0:0:0:0:
72,196,113014,5,2,0:0:0:0:
180,120,113305,1,2,0:0:0:0:
256,228,113596,1,2,0:0:0:0:
148,304,113887,1,2,0:0:0:0:
72,196,114179,6,0,L|68:116,1,74.2500022659302,8|2,0:0|0:0,0:0:0:0:
140,84,114470,2,0,L|144:164,1,74.2500022659302,8|2,0:0|0:0,0:0:0:0:
200,220,114761,2,0,P|252:232|288:220,1,74.2500022659302,8|2,0:0|0:0,0:0:0:0:
319,140,115053,2,0,P|282:136|248:148,1,74.2500022659302,8|2,0:0|0:0,0:0:0:0:
216,72,115344,5,2,0:0:0:0:
358,265,115926,1,2,0:0:0:0:
129,192,116509,1,2,0:0:0:0:
357,116,117091,1,2,0:0:0:0:
217,312,117674,5,6,0:0:0:0:
256,192,117820,12,0,120077,0:0:0:0:
