osu file format v14

[General]
AudioFilename: audio.mp3
AudioLeadIn: 0
PreviewTime: -1
Countdown: 0
SampleSet: Soft
StackLeniency: 0.2
Mode: 0
LetterboxInBreaks: 0
WidescreenStoryboard: 1

[Editor]
Bookmarks: 29031,47792,57096,66452,75809,94521,113234,114403,133116,151828,156506,161184,170541,180042,189408,208140,226871,240920,245603,252627
DistanceSpacing: 0.9
BeatDivisor: 4
GridSize: 4
TimelineZoom: 3.499999

[Metadata]
Title:LegenD.
TitleUnicode:LegenD.
Artist:Yooh
ArtistUnicode:Yooh
Creator:dblade
Version:Revolution
Source:
Tags:
BeatmapID:2876205
BeatmapSetID:697789

[Difficulty]
HPDrainRate:7
CircleSize:3.8
OverallDifficulty:9
ApproachRate:9.6
SliderMultiplier:2
SliderTickRate:1

[Events]
//Background and Video events
0,0,"Punctuations_-_LegenD.-bg.png",0,0
//Break Periods
2,114683,132673
//Storyboard Layer 0 (Background)
//Storyboard Layer 1 (Fail)
//Storyboard Layer 2 (Pass)
//Storyboard Layer 3 (Foreground)
//Storyboard Layer 4 (Overlay)
//Storyboard Sound Samples

[TimingPoints]
922,292.682926829268,4,2,1,100,1,0
19361,-66.6666666666667,4,2,1,100,0,0
19653,-285.714285714286,4,2,1,100,0,0
24043,-74.0740740740741,4,2,1,100,0,0
24336,-100,4,2,1,100,0,0
27849,292.682926829268,4,2,1,100,1,0
36044,-100,4,2,1,100,0,0
38385,-100,4,2,1,100,0,0
47458,-66.6666666666667,4,2,1,100,0,0
47751,-100,4,2,1,100,0,0
57117,-100,4,2,1,100,0,0
66190,-66.6666666666667,4,2,1,100,0,0
66483,-100,4,2,1,100,0,0
75848,-100,4,2,1,100,0,0
89258,-66.6666666666667,4,2,1,100,0,0
89843,-100,4,2,1,100,0,0
133213,-133.333333333333,4,2,1,100,0,0
151652,-100,4,2,1,100,0,0
151944,-400,4,2,1,100,0,0
156190,-100,4,2,1,100,0,0
156506,-100,4,2,1,25,0,0
156701,-100,4,2,1,15,0,0
157140,-100,4,2,1,25,0,0
157286,-100,4,2,1,15,0,0
157725,-100,4,2,1,25,0,0
157871,-100,4,2,1,15,0,0
158310,-100,4,2,1,25,0,0
158457,-100,4,2,1,15,0,0
158896,-100,4,2,1,25,0,0
159042,-100,4,2,1,15,0,0
159481,-100,4,2,1,25,0,0
159627,-100,4,2,1,15,0,0
160141,-100,4,2,1,50,0,0
161312,-100,4,2,1,20,0,0
162483,-100,4,2,1,35,0,0
163653,-100,4,2,1,50,0,0
164824,-100,4,2,1,65,0,0
165995,-100,4,2,1,80,0,0
167178,-100,4,2,1,90,0,0
168336,-100,4,2,1,100,0,0
170385,-66.6666666666667,4,2,1,100,0,0
170678,-80,4,2,1,100,0,0
219556,-100,4,2,1,100,0,0
219775,-80,4,2,1,100,0,0
226286,-100,4,2,1,50,0,0
226871,-80,4,2,1,100,0,0
237995,-100,4,2,1,100,0,0
238141,-80,4,2,1,100,0,0

[HitObjects]
96,208,19507,5,0,0:0:0:0:
96,208,19580,1,0,0:0:0:0:
96,208,19653,2,0,B|140:168|160:120|184:68|272:128|272:128|336:44|404:84|440:136|404:224|404:224|488:312|349:297|349:297|269:210|269:210|196:264|257:328|184:336|156:336|156:336|129:330,1,979.999970092775,0|0,3:0|3:0,3:0:0:0:
212,172,24043,2,0,P|190:203|153:231,1,67.5000002574921,0|0,3:0|3:0,3:0:0:0:
101,173,27848,5,0,0:0:0:0:
180,256,27995,1,0,0:0:0:0:
180,256,28141,1,0,0:0:0:0:
325,92,28288,2,0,L|285:142,1,50
246,205,28434,1,0,0:0:0:0:
246,205,28507,1,0,0:0:0:0:
246,205,28580,1,0,0:0:0:0:
249,366,28727,1,0,0:0:0:0:
259,317,28800,1,0,0:0:0:0:
290,278,28873,1,0,0:0:0:0:
334,255,28946,1,0,0:0:0:0:
384,254,29019,5,0,0:0:0:0:
453,31,29312,1,0,0:0:0:0:
453,31,29458,2,0,P|429:69|347:92,1,100
203,57,29751,1,0,0:0:0:0:
291,138,29897,1,0,0:0:0:0:
300,186,29970,1,0,0:0:0:0:
283,233,30044,1,0,0:0:0:0:
246,265,30117,1,0,0:0:0:0:
197,276,30190,6,0,P|145:282|102:327,1,100
87,165,30483,1,0,0:0:0:0:
87,165,30629,2,0,P|35:159|-8:114,1,100
134,86,30922,2,0,P|195:110|219:173,1,100
234,361,31288,1,0,0:0:0:0:
234,361,31361,6,0,L|211:244,1,100
271,68,31653,1,0,0:0:0:0:
271,68,31800,2,0,L|250:185,1,100
364,311,32092,1,0,0:0:0:0:
272,261,32239,1,0,0:0:0:0:
223,250,32312,1,0,0:0:0:0:
177,267,32385,1,0,0:0:0:0:
147,307,32458,1,0,0:0:0:0:
143,356,32531,6,0,L|93:224,1,100
15,108,32824,1,0,0:0:0:0:
101,58,32970,2,0,L|228:83,1,100
298,100,33190,1,0,0:0:0:0:
298,100,33263,1,0,0:0:0:0:
397,278,33409,1,0,0:0:0:0:
381,231,33483,1,0,0:0:0:0:
345,196,33556,1,0,0:0:0:0:
298,181,33629,1,0,0:0:0:0:
250,182,33702,5,0,0:0:0:0:
180,253,33848,1,0,0:0:0:0:
86,81,33995,1,0,0:0:0:0:
336,81,34141,1,0,0:0:0:0:
287,93,34214,1,0,0:0:0:0:
239,106,34288,1,0,0:0:0:0:
160,39,34434,1,0,0:0:0:0:
69,262,34580,1,0,0:0:0:0:
258,381,34727,1,0,0:0:0:0:
258,381,34800,1,0,0:0:0:0:
258,381,34873,5,0,0:0:0:0:
346,203,35019,2,0,L|315:273,1,50
258,381,35166,1,0,0:0:0:0:
133,127,35312,2,0,L|154:188,1,50
254,381,35458,1,0,0:0:0:0:
334,74,35605,1,0,0:0:0:0:
363,70,35678,1,0,0:0:0:0:
393,67,35751,1,0,0:0:0:0:
423,64,35824,1,0,0:0:0:0:
453,61,35897,1,0,0:0:0:0:
483,58,35970,1,0,0:0:0:0:
512,54,36044,5,0,0:0:0:0:
128,296,37214,6,0,P|89:258|86:201,1,100,0|0,0:0|0:0,3:0:0:0:
163,219,37507,2,0,P|168:163|214:125,1,100
244,194,37800,2,0,P|289:165|344:180,1,100
408,224,38092,1,0,0:0:0:0:
273,88,38239,1,0,0:0:0:0:
408,224,38385,6,0,P|368:299|293:308,1,150,0|0,0:0|0:0,0:2:0:0:
265,310,38678,1,0,3:0:0:0:
157,366,38824,1,0,3:0:0:0:
13,241,38970,1,0,0:0:0:0:
174,274,39117,1,0,0:0:0:0:
174,274,39190,1,0,0:0:0:0:
174,274,39263,1,0,0:0:0:0:
351,115,39409,1,0,3:0:0:0:
359,212,39556,6,0,P|274:182|256:103,1,150
252,89,39848,1,0,3:0:0:0:
331,11,39995,1,0,3:0:0:0:
454,199,40141,1,0,0:0:0:0:
341,96,40288,1,0,3:0:0:0:
341,95,40361,1,0,3:0:0:0:
341,95,40434,1,0,3:0:0:0:
174,188,40580,1,0,3:0:0:0:
66,230,40727,6,0,P|135:276|145:356,1,150
149,378,41019,1,0,0:0:0:0:
64,324,41166,1,0,3:0:0:0:
296,271,41312,1,0,3:0:0:0:
424,164,41458,1,0,0:0:0:0:
375,173,41531,1,0,0:0:0:0:
326,183,41605,1,0,0:0:0:0:
178,54,41751,1,0,3:0:0:0:
30,246,41897,6,0,L|62:136,1,100
238,369,42190,2,0,L|190:258,1,100
341,46,42483,2,0,P|339:104|293:157,1,100
250,200,42702,1,0,3:0:0:0:
250,200,42775,1,0,0:0:0:0:
143,180,42922,1,0,0:0:0:0:
50,51,43068,6,0,P|6:100|5:164,1,100
5,305,43361,1,0,3:0:0:0:
5,305,43507,1,0,3:0:0:0:
207,248,43653,1,0,3:0:0:0:
97,241,43800,1,0,0:0:0:0:
156,167,43946,1,0,0:0:0:0:
234,384,44092,1,0,0:0:0:0:
323,319,44239,1,0,0:0:0:0:
470,161,44385,2,0,P|413:176|352:137,1,100
150,66,44678,2,0,P|207:51|268:90,1,100
376,162,44970,1,0,0:0:0:0:
300,289,45117,1,0,0:0:0:0:
200,289,45263,1,0,0:0:0:0:
100,290,45409,5,0,0:0:0:0:
256,368,45556,1,0,0:0:0:0:
161,172,45702,2,0,L|131:62,2,66.6666666666667
411,290,45995,1,0,0:0:0:0:
256,368,46141,1,0,0:0:0:0:
351,172,46288,2,0,L|381:62,2,66.6666666666667
77,250,46580,6,0,P|151:217|174:151,1,150
98,159,46873,2,0,P|165:84|231:106,1,150
252,28,47166,1,0,0:0:0:0:
278,86,47239,1,0,0:0:0:0:
253,146,47385,1,0,0:0:0:0:
191,166,47458,2,0,L|132:163,7,37.5000014305115,0|0|0|0|0|0|0|0,3:0|3:0|3:0|3:0|3:0|3:0|3:0|3:0,3:0:0:0:
191,166,47751,6,0,P|239:227|323:235,1,150
360,233,48044,1,0,3:0:0:0:
462,189,48190,1,0,3:0:0:0:
226,374,48336,1,0,3:0:0:0:
322,158,48483,1,0,3:0:0:0:
322,158,48556,1,0,3:0:0:0:
326,162,48629,1,0,3:0:0:0:
512,267,48775,1,0,3:0:0:0:
240,136,48922,6,0,P|252:208|347:238,1,150
356,244,49214,1,0,0:0:0:0:
257,311,49361,1,0,3:0:0:0:
240,59,49507,1,0,3:0:0:0:
75,199,49653,1,0,3:0:0:0:
75,199,49727,1,0,3:0:0:0:
75,199,49800,1,0,3:0:0:0:
322,138,49946,1,0,3:0:0:0:
481,172,50092,5,0,0:0:0:0:
384,198,50239,1,0,0:0:0:0:
288,224,50385,1,0,0:0:0:0:
191,250,50531,1,0,0:0:0:0:
95,277,50678,1,0,0:0:0:0:
301,347,50824,1,0,3:0:0:0:
301,347,50897,1,0,3:0:0:0:
301,347,50970,1,0,3:0:0:0:
228,105,51117,1,0,3:0:0:0:
143,40,51263,6,0,L|20:22,1,100
368,117,51556,2,0,L|491:99,1,100
132,233,51848,2,0,L|9:215,1,100
340,334,52141,1,0,0:0:0:0:
389,334,52214,1,0,0:0:0:0:
435,315,52288,1,0,0:0:0:0:
469,279,52361,1,0,0:0:0:0:
486,233,52434,5,0,0:0:0:0:
403,150,52580,1,0,0:0:0:0:
239,248,52727,2,0,L|126:268,1,100
56,194,53019,1,0,3:0:0:0:
240,117,53166,1,0,0:0:0:0:
190,124,53239,1,0,0:0:0:0:
140,131,53312,1,0,0:0:0:0:
0,34,53458,1,0,3:0:0:0:
32,234,53605,6,0,L|45:355,1,100
173,384,53897,1,0,3:0:0:0:
173,384,54044,1,0,3:0:0:0:
443,268,54190,1,0,3:0:0:0:
447,272,54409,1,0,3:0:0:0:
447,272,54483,2,0,L|457:167,1,100
178,188,54775,5,0,0:0:0:0:
41,63,54922,1,0,0:0:0:0:
89,301,55068,1,0,3:0:0:0:
89,301,55141,1,0,3:0:0:0:
89,301,55214,1,0,3:0:0:0:
334,188,55361,1,0,0:0:0:0:
471,63,55507,1,0,0:0:0:0:
423,301,55653,1,0,3:0:0:0:
423,301,55727,1,0,3:0:0:0:
423,301,55800,1,0,3:0:0:0:
349,52,55946,6,0,P|284:22|218:45,1,100
34,125,56239,2,0,P|99:155|165:132,1,100
380,255,56531,2,0,P|315:225|249:248,1,100
0,361,56824,1,0,0:0:0:0:
49,357,56897,1,0,0:0:0:0:
92,332,56970,1,0,0:0:0:0:
120,292,57044,1,0,0:0:0:0:
128,243,57117,5,0,0:0:0:0:
35,267,57263,1,0,0:0:0:0:
245,370,57409,1,0,3:0:0:0:
245,370,57556,1,0,3:0:0:0:
403,127,57702,1,0,3:0:0:0:
214,196,57848,1,0,3:0:0:0:
214,196,57922,1,0,3:0:0:0:
214,196,57995,1,0,3:0:0:0:
427,220,58141,1,0,3:0:0:0:
427,220,58214,1,0,3:0:0:0:
427,220,58288,6,0,P|488:155|476:78,1,150
474,57,58580,1,0,0:0:0:0:
365,10,58727,1,0,0:0:0:0:
179,196,58873,1,0,3:0:0:0:
285,63,59019,1,0,3:0:0:0:
285,63,59092,1,0,3:0:0:0:
285,63,59166,1,0,3:0:0:0:
323,240,59312,1,0,3:0:0:0:
323,240,59385,1,0,3:0:0:0:
323,240,59458,6,0,L|170:280,1,150,0|0,3:0|3:0,3:0:0:0:
131,287,59751,1,0,3:0:0:0:
217,367,59897,1,0,3:0:0:0:
272,91,60044,1,0,3:0:0:0:
412,226,60190,1,0,3:0:0:0:
412,226,60263,1,0,3:0:0:0:
412,226,60336,1,0,3:0:0:0:
160,167,60483,1,0,3:0:0:0:
160,167,60556,1,0,3:0:0:0:
160,167,60629,6,0,P|252:166|294:216,1,150,0|0,3:0|3:0,3:0:0:0:
315,249,60922,1,0,3:0:0:0:
207,241,61068,1,0,3:0:0:0:
463,102,61214,1,0,3:0:0:0:
207,241,61361,1,0,3:0:0:0:
26,131,61507,1,0,0:0:0:0:
26,106,61580,1,0,0:0:0:0:
26,81,61653,1,0,0:0:0:0:
26,56,61727,1,0,0:0:0:0:
26,31,61800,5,0,0:0:0:0:
148,72,61946,1,0,0:0:0:0:
236,292,62092,1,0,0:0:0:0:
114,251,62239,1,0,0:0:0:0:
413,168,62385,1,0,0:0:0:0:
201,200,62531,1,0,0:0:0:0:
201,200,62605,1,0,0:0:0:0:
201,200,62678,1,0,0:0:0:0:
366,13,62824,1,0,3:0:0:0:
229,231,62970,6,0,L|239:339,1,100
9,152,63263,2,0,L|-1:44,1,100
202,0,63556,1,0,0:0:0:0:
303,193,63702,1,0,0:0:0:0:
46,176,63848,1,0,0:0:0:0:
335,48,63995,1,0,0:0:0:0:
100,253,64141,6,0,L|33:338,1,66.6666666666667
175,198,64361,2,0,L|234:289,1,66.6666666666667
111,89,64507,1,0,0:0:0:0:
111,89,64653,1,0,0:0:0:0:
412,131,64727,2,0,L|479:46,1,66.6666666666667
337,186,64946,2,0,L|278:95,1,66.6666666666667
401,295,65092,1,0,0:0:0:0:
401,295,65239,1,0,0:0:0:0:
136,359,65312,6,0,P|210:309|219:219,1,150
141,271,65605,2,0,P|174:197|255:180,1,150
299,171,65897,1,0,0:0:0:0:
364,168,65970,1,0,0:0:0:0:
416,128,66117,1,0,0:0:0:0:
435,65,66190,2,0,L|434:27,7,37.5000014305115,0|0|0|0|0|0|0|0,3:0|3:0|3:0|3:0|3:0|3:0|3:0|3:0,3:0:0:0:
435,65,66483,6,0,L|437:227,1,150
435,257,66775,1,0,0:0:0:0:
508,164,66922,1,0,0:0:0:0:
249,210,67068,2,0,L|123:228,1,100
16,116,67288,1,0,0:0:0:0:
16,116,67361,2,0,L|114:101,1,100
310,151,67653,6,0,P|328:227|266:287,1,150
246,295,67946,1,0,3:0:0:0:
127,287,68092,1,0,3:0:0:0:
29,136,68239,1,0,0:0:0:0:
118,179,68385,1,0,0:0:0:0:
217,183,68531,1,0,0:0:0:0:
310,149,68678,1,0,0:0:0:0:
404,27,68824,6,0,L|398:182,1,150
397,211,69117,1,0,0:0:0:0:
487,286,69263,1,0,0:0:0:0:
209,366,69409,2,0,L|110:384,1,100
309,307,69629,1,0,0:0:0:0:
309,307,69702,2,0,L|407:288,1,100
200,99,69995,6,0,P|215:158|276:184,1,100
339,80,70288,2,0,P|324:21|263:-5,1,100
70,0,70580,1,0,3:0:0:0:
273,113,70727,1,0,3:0:0:0:
170,251,70873,1,0,0:0:0:0:
190,205,70946,1,0,0:0:0:0:
226,171,71019,1,0,0:0:0:0:
273,154,71092,1,0,0:0:0:0:
322,155,71166,5,0,0:0:0:0:
412,238,71312,1,0,0:0:0:0:
507,11,71458,1,0,3:0:0:0:
400,54,71605,1,0,3:0:0:0:
354,336,71751,1,0,3:0:0:0:
279,242,71897,1,0,0:0:0:0:
279,242,71970,1,0,0:0:0:0:
279,242,72044,1,0,0:0:0:0:
65,377,72190,1,0,3:0:0:0:
133,153,72336,6,0,P|135:97|98:55,1,100
401,62,72629,2,0,P|374:104|379:153,1,100
362,358,72922,1,0,3:0:0:0:
41,190,73141,1,0,0:0:0:0:
41,190,73214,2,0,P|109:184|155:233,1,100
214,362,73507,5,0,0:0:0:0:
307,267,73653,1,0,0:0:0:0:
356,260,73727,1,0,0:0:0:0:
406,253,73800,1,0,0:0:0:0:
455,246,73873,1,0,0:0:0:0:
505,239,73946,1,0,0:0:0:0:
298,22,74092,5,0,0:0:0:0:
205,117,74239,1,0,0:0:0:0:
156,124,74312,1,0,0:0:0:0:
106,131,74385,1,0,0:0:0:0:
57,138,74458,1,0,0:0:0:0:
7,145,74531,1,0,0:0:0:0:
172,364,74678,6,0,L|176:233,1,100
479,148,74970,2,0,L|363:85,1,100
0,106,75263,2,0,L|115:168,1,100
318,357,75556,1,0,0:0:0:0:
324,317,75629,1,0,0:0:0:0:
332,278,75702,1,0,0:0:0:0:
339,238,75775,1,0,0:0:0:0:
345,198,75848,6,0,P|344:124|281:55,1,150
263,40,76141,1,0,0:0:0:0:
160,153,76288,2,0,P|103:164|54:135,1,100
0,54,76580,1,0,0:0:0:0:
0,54,76653,1,0,0:0:0:0:
0,54,76727,1,0,0:0:0:0:
100,219,76873,1,0,3:0:0:0:
291,71,77019,6,0,P|358:32|442:59,1,150
443,78,77312,1,0,0:0:0:0:
449,112,77385,1,0,0:0:0:0:
455,146,77458,1,0,0:0:0:0:
461,181,77531,1,0,0:0:0:0:
467,215,77605,1,0,0:0:0:0:
404,305,77751,1,0,0:0:0:0:
248,384,77897,1,0,0:0:0:0:
187,293,78044,1,0,0:0:0:0:
367,158,78190,6,0,P|308:122|229:122,1,150
190,132,78483,1,0,0:0:0:0:
290,46,78629,1,0,0:0:0:0:
253,224,78775,2,0,P|196:247|143:239,1,100
80,235,78995,1,0,0:0:0:0:
80,235,79068,1,0,0:0:0:0:
14,85,79214,1,0,3:0:0:0:
236,93,79361,6,0,P|309:132|334:233,1,150
336,237,79653,1,0,3:0:0:0:
248,309,79800,1,0,3:0:0:0:
35,229,79946,2,0,P|96:247|126:301,1,100
281,146,80239,2,0,P|220:164|190:218,1,100
44,36,80531,6,0,L|211:21,1,150
235,16,80824,1,0,0:0:0:0:
352,86,80970,1,0,0:0:0:0:
213,155,81117,1,0,3:0:0:0:
358,94,81263,1,0,3:0:0:0:
358,94,81336,1,0,3:0:0:0:
358,94,81409,1,0,3:0:0:0:
126,188,81556,1,0,3:0:0:0:
282,384,81702,6,0,L|292:276,1,100
312,144,81995,1,0,0:0:0:0:
291,98,82068,1,0,0:0:0:0:
253,67,82141,1,0,0:0:0:0:
205,54,82214,1,0,0:0:0:0:
154,52,82288,2,0,L|36:64,1,100
56,264,82580,2,0,L|105:160,1,100
326,183,82873,6,0,L|494:211,1,150
512,215,83166,1,0,0:0:0:0:
423,305,83312,1,0,0:0:0:0:
274,110,83458,1,0,3:0:0:0:
277,116,83678,1,0,0:0:0:0:
277,116,83751,2,0,P|247:163|248:219,1,100
249,369,84044,5,0,3:0:0:0:
136,336,84190,1,0,3:0:0:0:
54,175,84336,2,0,L|49:74,1,100
235,0,84629,2,0,L|240:101,1,100
306,263,84922,1,0,0:0:0:0:
340,255,84995,1,0,0:0:0:0:
374,247,85068,1,0,0:0:0:0:
408,239,85141,1,0,0:0:0:0:
442,231,85214,5,0,0:0:0:0:
504,139,85361,1,0,3:0:0:0:
239,188,85507,2,0,P|195:219|182:282,1,100
169,379,85800,1,0,0:0:0:0:
271,273,85946,1,0,3:0:0:0:
271,273,86019,1,0,3:0:0:0:
271,273,86092,1,0,3:0:0:0:
97,288,86239,1,0,0:0:0:0:
224,83,86385,6,0,P|277:21|346:15,1,150
390,16,86678,1,0,0:0:0:0:
436,35,86751,1,0,0:0:0:0:
471,70,86824,1,0,0:0:0:0:
490,116,86897,1,0,0:0:0:0:
494,165,86970,1,0,0:0:0:0:
366,308,87117,1,0,3:0:0:0:
73,191,87556,6,0,L|47:81,1,100
246,0,87848,2,0,L|217:95,1,100
135,269,88141,1,0,0:0:0:0:
281,172,88288,1,0,3:0:0:0:
281,172,88361,1,0,3:0:0:0:
281,172,88434,1,0,3:0:0:0:
225,357,88580,1,0,0:0:0:0:
501,308,88727,1,0,0:0:0:0:
55,40,89019,6,0,L|48:99,3,50
136,156,89312,2,0,B|144:244|144:244|216:160|216:160|252:252|252:252|410:252,1,450.000017166138,0|0,0:0|3:0,0:0:0:0:
489,167,89897,5,0,0:0:0:0:
404,252,90044,1,0,0:0:0:0:
239,82,90190,1,0,0:0:0:0:
337,138,90336,1,0,0:0:0:0:
241,292,90483,2,0,P|217:337|139:356,1,100
60,192,90702,1,0,0:0:0:0:
60,192,90775,2,0,P|84:237|162:256,1,100
285,162,91068,5,0,0:0:0:0:
385,162,91214,1,0,0:0:0:0:
487,167,91361,1,0,3:0:0:0:
487,167,91434,1,0,3:0:0:0:
487,167,91507,1,0,3:0:0:0:
320,36,91653,1,0,0:0:0:0:
202,58,91800,1,0,0:0:0:0:
83,77,91946,1,0,0:0:0:0:
69,109,92019,1,0,0:0:0:0:
56,141,92092,1,0,0:0:0:0:
161,317,92239,6,0,L|23:347,1,100
267,230,92531,2,0,L|405:260,1,100
111,111,92824,1,0,0:0:0:0:
218,51,92970,1,0,0:0:0:0:
267,54,93043,1,0,0:0:0:0:
317,58,93116,1,0,0:0:0:0:
111,111,93263,1,0,3:0:0:0:
193,200,93409,5,4,3:0:0:0:
0,0,93629,1,4,3:0:0:0:
345,46,93848,1,4,3:0:0:0:
0,279,94068,1,4,3:0:0:0:
307,149,94288,1,0,0:0:0:0:
341,145,94361,1,0,0:0:0:0:
376,151,94434,1,0,0:0:0:0:
408,165,94507,1,0,0:0:0:0:
435,187,94580,5,0,0:0:0:0:
341,249,94727,1,0,3:0:0:0:
243,73,94873,2,0,P|197:36|141:40,1,100
196,167,95166,2,0,P|242:204|298:200,1,100
384,199,95385,1,0,3:0:0:0:
384,199,95458,1,0,3:0:0:0:
504,73,95605,1,0,3:0:0:0:
473,288,95751,6,0,P|432:348|350:355,1,150
308,354,96043,1,0,0:0:0:0:
258,353,96116,1,0,0:0:0:0:
208,353,96189,1,0,0:0:0:0:
158,353,96262,1,0,0:0:0:0:
108,353,96337,1,0,0:0:0:0:
39,219,96483,1,0,0:0:0:0:
173,151,96629,1,0,0:0:0:0:
241,284,96775,1,0,0:0:0:0:
480,168,96922,6,0,P|428:160|377:193,1,100
264,45,97214,2,0,P|219:66|171:57,1,100
440,240,97507,1,0,3:0:0:0:
189,370,97653,1,0,3:0:0:0:
189,370,97727,1,0,0:0:0:0:
189,370,97800,2,0,L|175:268,1,100,0|0,3:0|3:0,3:0:0:0:
88,30,98092,6,0,P|146:62|196:46,1,100
444,6,98385,2,0,P|481:62|463:117,1,100
320,339,98678,2,0,P|284:296|305:239,1,100
321,10,98970,1,0,0:0:0:0:
148,66,99117,1,0,0:0:0:0:
459,285,99263,6,0,L|465:165,1,100
473,42,99556,1,0,0:0:0:0:
288,109,99702,1,0,0:0:0:0:
64,3,99848,1,0,3:0:0:0:
193,222,99995,1,0,3:0:0:0:
193,222,100068,1,0,3:0:0:0:
193,222,100141,2,0,P|198:282|153:336,1,100
317,377,100434,5,0,3:0:0:0:
104,268,100580,1,0,3:0:0:0:
360,108,100727,1,0,0:0:0:0:
325,113,100800,1,0,0:0:0:0:
290,118,100873,1,0,0:0:0:0:
256,123,100946,1,0,0:0:0:0:
221,128,101019,1,0,0:0:0:0:
152,210,101166,1,0,0:0:0:0:
46,16,101312,1,0,0:0:0:0:
146,58,101458,1,0,0:0:0:0:
356,258,101605,6,0,L|479:258,1,100
403,56,101897,2,0,L|271:58,1,100
230,227,102190,1,0,0:0:0:0:
222,261,102263,1,0,0:0:0:0:
214,295,102336,1,0,0:0:0:0:
207,329,102409,1,0,0:0:0:0:
199,363,102482,1,0,0:0:0:0:
106,236,102629,1,0,3:0:0:0:
398,199,102775,6,0,P|470:213|497:264,1,100
178,6,103068,2,0,P|151:48|78:74,1,100
222,381,103361,2,0,P|266:334|266:277,1,100
269,253,103580,1,0,0:0:0:0:
254,206,103653,1,0,0:0:0:0:
211,182,103726,1,0,0:0:0:0:
164,193,103799,1,0,0:0:0:0:
136,233,103872,1,0,0:0:0:0:
142,282,103946,5,0,0:0:0:0:
343,345,104092,1,0,3:0:0:0:
482,151,104239,2,0,P|439:113|367:121,1,100
186,78,104531,2,0,P|221:25|273:11,1,100
310,186,104751,1,0,0:0:0:0:
310,186,104824,2,0,L|327:293,1,100
153,383,105117,5,0,0:0:0:0:
153,383,105263,1,0,0:0:0:0:
37,263,105409,1,0,0:0:0:0:
32,228,105482,1,0,0:0:0:0:
27,193,105555,1,0,0:0:0:0:
22,159,105628,1,0,0:0:0:0:
17,124,105701,1,0,0:0:0:0:
142,163,105848,1,0,0:0:0:0:
267,125,105995,1,0,0:0:0:0:
349,22,106141,1,0,0:0:0:0:
357,275,106288,6,0,P|339:329|284:361,1,100
85,366,106580,1,0,0:0:0:0:
277,279,106727,1,0,0:0:0:0:
73,165,106873,2,0,P|62:109|91:63,1,100
187,167,107092,1,0,0:0:0:0:
187,167,107166,2,0,L|202:265,1,100
426,368,107458,6,0,L|296:368,1,100
45,250,107751,6,0,L|145:250,1,100
474,132,108044,6,0,L|344:132,1,100
37,12,108336,1,0,0:0:0:0:
38,46,108409,1,0,0:0:0:0:
50,79,108482,1,0,0:0:0:0:
73,105,108555,1,0,0:0:0:0:
104,121,108629,6,0,L|202:125,2,66.6666666666667
12,248,108922,1,0,0:0:0:0:
215,93,109068,1,0,3:0:0:0:
93,375,109214,2,0,P|148:330|155:292,1,100
167,208,109434,1,0,0:0:0:0:
167,208,109507,1,0,0:0:0:0:
9,139,109653,1,0,0:0:0:0:
307,183,109800,6,0,P|397:182|446:132,1,150
446,95,110093,1,0,0:0:0:0:
428,49,110166,1,0,0:0:0:0:
390,18,110239,1,0,0:0:0:0:
341,9,110312,1,0,0:0:0:0:
290,10,110385,1,0,0:0:0:0:
139,136,110531,1,0,0:0:0:0:
139,136,110970,6,0,P|110:200|178:268,1,150
197,193,111263,1,0,0:0:0:0:
41,277,111409,1,0,0:0:0:0:
270,357,111556,2,0,L|390:327,1,100
489,237,111775,1,0,0:0:0:0:
489,237,111848,2,0,L|390:148,1,100
226,279,112141,6,0,L|126:331,1,100
0,58,112434,2,0,L|84:111,1,100
415,5,112727,2,0,L|326:50,1,100
31,273,113019,1,0,0:0:0:0:
256,192,113166,1,0,0:0:0:0:
256,192,113312,12,0,114483,3:0:0:0:
372,293,133214,6,0,P|371:222|288:187,1,150.000005722046
276,272,133800,2,0,P|208:268|147:187,1,150.000005722046
21,134,134239,1,0,2:0:0:0:
181,96,134385,2,0,L|287:75,1,75.0000028610231
357,155,134678,2,0,L|251:176,1,75.0000028610231
115,267,134970,2,0,P|197:263|252:314,1,150.000005722046
497,131,135556,6,0,P|414:116|366:42,1,150.000005722046
460,45,135995,1,0,2:0:0:0:
394,185,136141,2,0,P|389:262|466:310,1,150.000005722046
470,230,136580,1,0,2:0:0:0:
261,255,136727,2,0,L|160:278,1,75.0000028610231
106,359,137019,2,0,L|11:320,1,75.0000028610231
231,171,137312,2,0,P|310:187|356:272,1,150.000005722046
34,49,137897,6,0,B|90:69|112:53|112:53|136:37|212:62,1,150.000005722046
435,118,138483,2,0,B|379:138|356:122|356:122|333:106|257:131,1,150.000005722046
107,225,138922,1,0,2:0:0:0:
206,304,139068,2,0,L|194:409,1,75.0000028610231
326,191,139361,1,0,3:0:0:0:
326,191,139507,1,0,2:0:0:0:
489,77,139653,2,0,P|407:72|350:140,1,150.000005722046
271,339,140239,6,0,P|199:290|128:316,1,150.000005722046
62,359,140678,1,0,2:0:0:0:
124,190,140824,2,0,P|196:239|267:213,1,150.000005722046
351,178,141263,1,0,2:0:0:0:
206,160,141409,1,0,0:0:0:0:
426,68,141556,1,0,0:0:0:0:
257,258,141702,1,0,3:0:0:0:
287,5,141848,1,0,0:0:0:0:
53,118,141995,2,0,P|10:184|39:262,1,150.000005722046
0,362,142434,1,0,0:0:0:0:
104,195,142580,6,0,P|173:165|253:188,1,150.000005722046
323,273,143166,2,0,P|406:245|436:177,1,150.000005722046
459,43,143605,1,0,0:0:0:0:
338,185,143751,2,0,P|325:141|340:96,1,75.0000028610231
212,20,144044,2,0,P|225:64|210:109,1,75.0000028610231
40,169,144336,2,0,P|116:174|152:253,1,150.000005722046
152,231,144922,6,0,P|112:171|40:169,1,150.000005722046
65,254,145361,1,0,2:0:0:0:
210,322,145507,2,0,P|263:254|335:265,1,150.000005722046
297,336,145946,1,0,2:0:0:0:
368,181,146092,1,0,0:0:0:0:
368,181,146239,1,0,0:0:0:0:
510,271,146385,1,0,3:0:0:0:
477,166,146531,1,0,3:0:0:0:
297,336,146678,2,0,P|216:368|136:348,1,150.000005722046
42,100,147263,6,0,L|200:88,1,150.000005722046
359,112,147702,1,0,0:0:0:0:
286,169,147848,2,0,L|128:181,1,150.000005722046
12,314,148288,1,0,0:0:0:0:
99,363,148434,2,0,P|177:362|222:294,1,150.000005722046
282,147,148873,1,0,0:0:0:0:
339,219,149019,2,0,P|412:269|482:259,1,150.000005722046
424,188,149458,1,0,2:0:0:0:
339,219,149605,5,0,3:0:0:0:
32,208,149897,1,0,3:0:0:0:
256,384,150190,1,0,3:0:0:0:
289,101,150483,1,0,3:0:0:0:
28,283,150775,2,0,L|25:200,1,75.0000028610231
86,223,151068,2,0,L|112:152,1,75.0000028610231
156,72,151361,1,0,0:0:0:0:
180,61,151434,1,0,0:0:0:0:
204,50,151507,1,0,0:0:0:0:
228,40,151580,1,0,0:0:0:0:
252,29,151653,1,0,0:0:0:0:
434,254,151800,1,0,0:0:0:0:
434,254,151873,1,0,0:0:0:0:
434,254,151946,6,0,P|449:244|381:270,1,725
374,170,156336,2,0,L|374:299,1,100
243,380,156629,5,4,0:0:0:0:
140,280,156775,2,0,L|80:293,4,50,0|0|0|0|0,3:3|3:3|3:3|3:3|3:3,3:3:0:0:
287,155,157214,5,4,0:0:0:0:
335,242,157361,1,0,0:0:0:0:
369,246,157434,1,0,0:0:0:0:
404,251,157507,1,0,0:0:0:0:
438,256,157580,1,0,0:0:0:0:
473,261,157653,1,0,0:0:0:0:
481,59,157800,5,4,0:0:0:0:
404,142,157946,2,0,L|404:192,4,50,0|0|0|0|0,3:3|3:3|3:3|3:3|3:3,3:3:0:0:
250,9,158385,5,4,0:0:0:0:
185,97,158531,1,0,0:0:0:0:
150,101,158605,1,0,0:0:0:0:
115,106,158678,1,0,0:0:0:0:
80,110,158751,1,0,0:0:0:0:
46,115,158824,1,0,0:0:0:0:
206,237,158970,5,4,0:0:0:0:
306,297,159117,2,0,L|324:364,4,50,0|0|0|0|0,3:3|3:3|3:3|3:3|3:3,3:3:0:0:
206,147,159556,5,4,0:0:0:0:
306,87,159702,1,0,0:0:0:0:
340,82,159775,1,0,0:0:0:0:
375,79,159848,1,0,0:0:0:0:
410,76,159922,1,0,0:0:0:0:
445,73,159995,1,0,0:0:0:0:
84,116,160141,5,0,0:0:0:0:
213,288,160288,1,0,0:0:0:0:
312,27,160434,1,0,0:0:0:0:
27,246,160580,1,0,0:0:0:0:
225,160,160727,1,0,0:0:0:0:
225,160,160800,1,0,0:0:0:0:
225,160,160873,1,0,0:0:0:0:
225,160,161019,1,0,0:0:0:0:
223,194,161092,1,0,0:0:0:0:
222,229,161166,1,0,0:0:0:0:
220,264,161239,1,0,0:0:0:0:
219,299,161312,6,0,L|218:373,7,50
336,254,161897,2,0,L|336:204,7,50
155,152,162483,6,0,L|156:78,7,50
38,197,163068,2,0,L|38:247,7,50
197,352,163653,6,0,L|130:349,3,50
293,278,163946,2,0,L|226:275,3,50
392,197,164239,2,0,L|325:194,3,50
512,139,164531,2,0,L|445:136,3,50
312,65,164824,6,0,L|311:134,3,50
182,216,165117,2,0,L|182:166,3,50
413,5,165409,2,0,L|412:74,3,50
81,276,165702,2,0,L|81:226,3,50
263,369,165995,5,0,0:0:0:0:
312,364,166068,1,0,0:0:0:0:
359,347,166141,1,0,0:0:0:0:
399,318,166214,1,0,0:0:0:0:
431,279,166288,1,0,0:0:0:0:
451,234,166361,1,0,0:0:0:0:
459,184,166434,1,0,0:0:0:0:
454,135,166507,1,0,0:0:0:0:
435,88,166580,1,0,0:0:0:0:
403,49,166653,1,0,0:0:0:0:
358,27,166727,1,0,0:0:0:0:
309,23,166800,1,0,0:0:0:0:
262,40,166873,1,0,0:0:0:0:
225,73,166946,1,0,0:0:0:0:
204,118,167019,1,0,0:0:0:0:
202,167,167092,1,0,0:0:0:0:
220,214,167166,5,0,0:0:0:0:
261,185,167239,1,0,0:0:0:0:
310,178,167312,1,0,0:0:0:0:
357,192,167385,1,0,0:0:0:0:
394,225,167458,1,0,0:0:0:0:
413,271,167531,1,0,0:0:0:0:
410,320,167605,1,0,0:0:0:0:
373,354,167678,1,0,0:0:0:0:
328,377,167751,1,0,0:0:0:0:
280,387,167824,1,0,0:0:0:0:
230,385,167897,1,0,0:0:0:0:
182,371,167970,1,0,0:0:0:0:
140,345,168044,1,0,0:0:0:0:
105,309,168117,1,0,0:0:0:0:
81,265,168190,1,0,0:0:0:0:
69,217,168263,1,0,0:0:0:0:
70,167,168336,5,0,0:0:0:0:
134,166,168409,1,0,0:0:0:0:
190,197,168483,1,0,0:0:0:0:
223,251,168556,1,0,0:0:0:0:
254,311,168629,1,0,0:0:0:0:
316,331,168702,1,0,0:0:0:0:
380,326,168775,1,0,0:0:0:0:
436,295,168848,1,0,0:0:0:0:
476,243,168922,1,0,0:0:0:0:
491,181,168995,1,0,0:0:0:0:
479,117,169068,1,0,0:0:0:0:
443,64,169141,1,0,0:0:0:0:
389,29,169214,1,0,0:0:0:0:
325,20,169288,1,0,0:0:0:0:
263,37,169361,1,0,0:0:0:0:
211,76,169434,1,0,0:0:0:0:
190,136,169507,5,0,0:0:0:0:
256,187,169580,1,0,0:0:0:0:
339,194,169653,1,0,0:0:0:0:
413,155,169727,1,0,0:0:0:0:
454,82,169800,1,0,0:0:0:0:
370,85,169873,1,0,0:0:0:0:
292,118,169946,1,0,0:0:0:0:
230,175,170019,1,0,0:0:0:0:
192,251,170092,5,0,0:0:0:0:
109,257,170166,1,0,0:0:0:0:
42,206,170239,1,0,0:0:0:0:
28,124,170312,1,0,0:0:0:0:
74,55,170385,5,0,0:0:0:0:
312,9,172727,5,0,0:0:0:0:
25,162,172873,1,0,0:0:0:0:
403,122,173019,2,0,P|469:113|502:54,1,125
344,205,173312,2,0,P|278:214|245:273,1,125
140,368,173605,1,0,0:0:0:0:
329,302,173751,1,0,0:0:0:0:
263,113,173897,1,0,0:0:0:0:
74,178,174044,1,0,0:0:0:0:
329,302,174190,6,0,L|471:292,1,125
171,149,174483,2,0,L|46:140,1,125
213,70,174775,2,0,P|268:132|249:199,1,125
258,257,174995,1,0,3:0:0:0:
258,257,175068,1,0,3:0:0:0:
39,321,175214,1,0,3:0:0:0:
171,149,175361,5,0,0:0:0:0:
226,120,175434,1,0,0:0:0:0:
286,130,175507,1,0,0:0:0:0:
345,144,175580,1,0,0:0:0:0:
402,121,175653,1,0,0:0:0:0:
494,217,175800,1,0,0:0:0:0:
370,21,175946,1,0,3:0:0:0:
274,183,176092,1,0,3:0:0:0:
224,103,176239,1,0,0:0:0:0:
512,0,176385,1,0,0:0:0:0:
341,235,176531,5,0,0:0:0:0:
285,263,176604,1,0,0:0:0:0:
225,253,176677,1,0,0:0:0:0:
166,239,176750,1,0,0:0:0:0:
109,262,176823,1,0,0:0:0:0:
7,346,176970,1,0,0:0:0:0:
182,167,177116,1,0,3:0:0:0:
217,333,177262,1,0,3:0:0:0:
109,262,177409,1,0,0:0:0:0:
416,225,177556,1,0,3:0:0:0:
206,36,177702,6,0,L|172:163,1,125
62,85,177922,1,0,0:0:0:0:
62,85,177995,2,0,L|28:212,1,125
306,36,178288,2,0,L|340:163,1,125
450,85,178508,1,0,0:0:0:0:
450,85,178581,2,0,L|484:212,1,125
202,327,178873,2,0,L|61:356,1,125
312,281,179166,2,0,L|453:310,1,125
146,167,179458,1,0,3:0:0:0:
3,37,179605,1,0,0:0:0:0:
305,214,179751,1,0,3:0:0:0:
448,84,179898,1,0,0:0:0:0:
52,133,180044,6,0,L|21:283,1,125
153,325,180336,1,0,0:0:0:0:
16,383,180483,1,0,0:0:0:0:
131,144,180629,2,0,P|119:84|48:54,1,125
243,2,180922,1,0,0:0:0:0:
398,56,181068,1,0,0:0:0:0:
512,298,181214,6,0,P|469:254|408:247,1,125
250,334,181507,2,0,P|292:377|353:384,1,125
410,213,181800,1,0,0:0:0:0:
414,163,181873,1,0,0:0:0:0:
419,113,181946,1,0,0:0:0:0:
424,63,182019,1,0,0:0:0:0:
429,15,182092,1,0,0:0:0:0:
196,85,182239,1,0,0:0:0:0:
335,146,182385,6,0,L|198:165,1,125
18,270,182678,2,0,L|155:251,1,125
370,358,182970,1,0,3:0:0:0:
214,284,183117,1,0,3:0:0:0:
252,0,183263,1,0,3:0:0:0:
24,167,183409,1,0,3:0:0:0:
366,214,183556,6,0,P|451:211|494:146,1,125
164,16,183848,2,0,P|124:91|158:160,1,125
99,384,184141,2,0,P|53:311|-24:307,1,125
250,257,184434,1,0,3:0:0:0:
250,257,184580,1,0,3:0:0:0:
322,54,184727,5,0,0:0:0:0:
383,52,184800,1,0,0:0:0:0:
439,78,184873,1,0,0:0:0:0:
476,128,184946,1,0,0:0:0:0:
489,194,185019,2,0,L|494:333,1,125
384,207,185312,1,0,0:0:0:0:
223,78,185458,1,0,0:0:0:0:
181,182,185605,1,0,0:0:0:0:
469,9,185751,1,0,0:0:0:0:
190,54,185897,5,0,0:0:0:0:
128,52,185970,1,0,0:0:0:0:
72,78,186043,1,0,0:0:0:0:
35,128,186116,1,0,0:0:0:0:
23,194,186189,2,0,L|18:333,1,125
143,308,186483,1,0,0:0:0:0:
267,299,186629,1,0,0:0:0:0:
392,289,186775,1,0,0:0:0:0:
137,129,186921,1,0,0:0:0:0:
441,169,187068,6,0,P|404:223|317:235,1,125
358,102,187288,1,0,0:0:0:0:
358,102,187361,2,0,P|398:43|481:51,1,125
258,284,187653,2,0,P|221:338|134:350,1,125
175,217,187873,1,0,0:0:0:0:
175,217,187946,2,0,P|215:158|298:166,1,125
487,260,188239,6,0,L|488:413,1,125
254,126,188531,6,0,L|255:279,1,125
15,3,188824,6,0,L|16:156,1,125
19,192,189044,1,0,0:0:0:0:
35,251,189117,1,0,0:0:0:0:
73,301,189190,1,0,0:0:0:0:
127,331,189263,1,0,0:0:0:0:
188,338,189336,1,0,0:0:0:0:
247,333,189410,5,0,0:0:0:0:
144,245,189556,1,0,0:0:0:0:
390,202,189702,2,0,L|519:174,1,125
251,17,189995,2,0,L|421:60,1,125
151,139,190288,1,0,3:0:0:0:
416,57,190434,1,0,3:0:0:0:
287,294,190580,6,0,P|257:358|191:378,1,125
79,228,190873,2,0,L|32:101,1,125
215,18,191166,1,0,0:0:0:0:
209,66,191239,1,0,0:0:0:0:
185,110,191312,1,0,0:0:0:0:
145,139,191385,1,0,0:0:0:0:
97,151,191458,1,0,0:0:0:0:
336,207,191605,1,0,0:0:0:0:
431,15,191751,6,0,L|474:147,1,125
270,165,192044,2,0,L|215:299,1,125
107,343,192336,1,0,0:0:0:0:
49,164,192483,1,0,0:0:0:0:
227,106,192629,1,0,0:0:0:0:
285,285,192775,1,0,0:0:0:0:
49,164,192922,6,0,L|16:32,1,125
192,276,193214,2,0,L|225:144,1,125
361,37,193507,2,0,L|392:159,1,125
328,294,193800,1,0,3:0:0:0:
328,294,193946,1,0,3:0:0:0:
215,108,194092,5,0,0:0:0:0:
175,89,194165,1,0,0:0:0:0:
132,83,194238,1,0,0:0:0:0:
89,91,194311,1,0,0:0:0:0:
51,113,194385,2,0,P|17:164|17:247,1,125
82,360,194678,1,0,3:0:0:0:
131,178,194824,1,0,3:0:0:0:
131,178,194897,1,0,3:0:0:0:
131,178,194970,2,0,L|158:318,1,125
297,276,195263,5,0,0:0:0:0:
337,295,195336,1,0,0:0:0:0:
380,301,195409,1,0,0:0:0:0:
423,293,195482,1,0,0:0:0:0:
461,271,195556,2,0,P|495:220|495:137,1,125
394,27,195849,1,0,3:0:0:0:
363,216,195995,1,0,3:0:0:0:
363,216,196068,1,0,3:0:0:0:
363,216,196141,2,0,L|331:49,1,125
61,48,196434,6,0,P|160:78|185:178,1,187.5
78,149,196727,1,0,3:0:0:0:
274,183,196873,1,0,0:0:0:0:
76,359,197019,2,0,P|145:281|236:308,1,187.5
166,369,197312,1,0,0:0:0:0:
281,221,197458,1,0,0:0:0:0:
396,139,197605,6,0,L|261:150,1,125
65,223,197897,2,0,L|200:234,1,125
307,343,198190,1,0,0:0:0:0:
369,344,198263,1,0,0:0:0:0:
426,320,198336,1,0,0:0:0:0:
469,276,198409,1,0,0:0:0:0:
492,218,198482,1,0,0:0:0:0:
489,156,198555,1,0,0:0:0:0:
461,100,198629,1,0,0:0:0:0:
414,60,198702,1,0,0:0:0:0:
355,42,198775,6,0,L|223:43,1,125
27,102,199068,1,0,0:0:0:0:
190,4,199214,1,0,0:0:0:0:
156,220,199361,2,0,P|135:289|62:309,1,125
11,322,199580,1,0,3:0:0:0:
11,322,199653,1,0,3:0:0:0:
218,351,199800,1,0,3:0:0:0:
424,231,199946,6,0,P|451:170|413:91,1,125
275,263,200239,2,0,P|321:318|427:313,1,125
264,162,200531,1,0,0:0:0:0:
214,167,200604,1,0,0:0:0:0:
164,172,200677,1,0,0:0:0:0:
114,177,200750,1,0,0:0:0:0:
65,182,200823,1,0,0:0:0:0:
217,61,200970,1,0,3:0:0:0:
425,237,201117,6,0,L|475:370,1,125
178,319,201409,2,0,L|325:276,1,125
420,147,201702,1,0,3:0:0:0:
347,350,201848,1,0,3:0:0:0:
512,121,201995,1,0,0:0:0:0:
232,0,202141,1,0,0:0:0:0:
34,222,202288,6,0,L|-4:91,1,125
265,262,202580,2,0,L|230:432,1,125
397,94,202873,2,0,L|512:45,1,125
293,4,203166,1,0,3:0:0:0:
293,4,203312,1,0,3:0:0:0:
147,86,203458,5,0,0:0:0:0:
139,129,203531,1,0,0:0:0:0:
131,172,203604,1,0,0:0:0:0:
123,215,203677,1,0,0:0:0:0:
116,258,203750,1,0,0:0:0:0:
63,374,203897,1,0,0:0:0:0:
298,234,204044,1,0,0:0:0:0:
187,336,204190,1,0,0:0:0:0:
46,227,204336,1,0,0:0:0:0:
242,52,204483,1,0,0:0:0:0:
490,175,204629,5,0,0:0:0:0:
446,180,204702,1,0,0:0:0:0:
403,185,204775,1,0,0:0:0:0:
359,190,204848,1,0,0:0:0:0:
316,195,204921,1,0,0:0:0:0:
219,137,205068,1,0,0:0:0:0:
89,288,205214,1,0,0:0:0:0:
254,364,205361,1,0,0:0:0:0:
115,160,205507,1,0,0:0:0:0:
456,297,205653,1,0,0:0:0:0:
345,46,205800,6,0,P|286:17|210:33,1,125
152,80,206019,1,0,0:0:0:0:
152,80,206092,1,0,0:0:0:0:
51,265,206239,1,0,0:0:0:0:
308,148,206385,2,0,P|388:146|438:210,1,125
475,254,206605,1,0,0:0:0:0:
475,254,206678,1,0,0:0:0:0:
293,382,206824,1,0,0:0:0:0:
124,154,206970,6,0,L|40:25,1,125
407,158,207263,6,0,L|491:29,1,125
119,275,207556,6,0,L|35:404,1,125
352,13,207848,1,0,0:0:0:0:
352,13,207922,1,0,0:0:0:0:
352,13,207995,2,0,L|357:92,1,62.5
370,260,208141,5,0,0:0:0:0:
324,217,208214,1,0,0:0:0:0:
266,197,208287,1,0,0:0:0:0:
207,215,208360,1,0,0:0:0:0:
150,237,208433,1,0,0:0:0:0:
95,212,208506,1,0,0:0:0:0:
77,153,208580,1,0,0:0:0:0:
103,98,208653,1,0,0:0:0:0:
157,69,208727,2,0,P|234:70|268:107,1,125
475,93,208946,1,0,0:0:0:0:
475,93,209019,2,0,P|480:162|405:206,1,125
70,362,209312,6,0,L|238:340,1,125
457,289,209531,1,0,0:0:0:0:
457,289,209605,2,0,L|298:241,1,125
88,180,209897,1,0,0:0:0:0:
295,15,210044,1,0,0:0:0:0:
16,83,210190,1,0,0:0:0:0:
382,194,210336,1,0,0:0:0:0:
170,292,210483,5,0,0:0:0:0:
208,235,210556,1,0,0:0:0:0:
268,210,210629,1,0,0:0:0:0:
322,251,210702,1,0,0:0:0:0:
378,289,210775,1,0,0:0:0:0:
440,268,210848,1,0,0:0:0:0:
470,207,210922,1,0,0:0:0:0:
455,141,210995,1,0,0:0:0:0:
404,97,211068,2,0,P|338:98|268:163,1,125
170,292,211288,1,0,0:0:0:0:
170,292,211361,2,0,L|145:147,1,125
157,0,211653,6,0,P|220:-15|304:28,1,125
471,141,211946,1,0,0:0:0:0:
282,49,212092,1,0,0:0:0:0:
174,333,212239,2,0,L|154:188,1,125
373,114,212531,1,0,0:0:0:0:
63,166,212678,1,0,0:0:0:0:
373,114,212824,5,0,0:0:0:0:
389,177,212897,1,0,0:0:0:0:
343,226,212970,1,0,0:0:0:0:
294,273,213043,1,0,0:0:0:0:
305,334,213116,1,0,0:0:0:0:
371,347,213189,1,0,0:0:0:0:
407,300,213263,1,0,0:0:0:0:
366,246,213336,1,0,0:0:0:0:
311,205,213409,5,0,0:0:0:0:
281,196,213482,1,0,0:0:0:0:
251,188,213555,1,0,0:0:0:0:
221,180,213628,1,0,0:0:0:0:
191,171,213701,1,0,0:0:0:0:
161,163,213774,1,0,0:0:0:0:
131,155,213848,1,0,0:0:0:0:
101,146,213921,1,0,0:0:0:0:
70,138,213995,6,0,P|35:76|66:14,1,125
170,83,214214,1,0,0:0:0:0:
170,83,214288,2,0,P|229:126|207:214,1,125
234,366,214580,2,0,L|357:317,1,125
443,201,214800,1,0,0:0:0:0:
443,201,214873,2,0,L|326:247,1,125
252,36,215166,5,0,0:0:0:0:
178,128,215312,1,0,0:0:0:0:
178,128,215385,1,0,0:0:0:0:
178,128,215458,2,0,L|26:101,1,125
331,284,215751,2,0,L|483:257,1,125
509,193,215970,1,0,0:0:0:0:
509,193,216044,1,0,0:0:0:0:
399,378,216190,1,0,0:0:0:0:
164,205,216336,5,0,0:0:0:0:
155,171,216409,1,0,0:0:0:0:
146,137,216482,1,0,0:0:0:0:
137,103,216555,1,0,0:0:0:0:
129,69,216628,1,0,0:0:0:0:
274,13,216775,1,0,0:0:0:0:
41,242,216922,1,0,0:0:0:0:
180,241,217068,1,0,0:0:0:0:
376,58,217214,1,0,0:0:0:0:
376,58,217288,1,0,0:0:0:0:
376,58,217361,1,0,0:0:0:0:
376,58,217434,1,0,0:0:0:0:
376,58,217507,6,0,P|430:99|435:177,1,125
300,165,217800,1,0,0:0:0:0:
300,165,217946,2,0,P|244:207|172:199,1,125
324,304,218239,1,0,0:0:0:0:
362,384,218385,2,0,L|388:247,1,125
486,141,218678,1,0,0:0:0:0:
174,64,218824,6,0,L|46:75,1,125
5,182,219117,1,0,0:0:0:0:
80,247,219263,2,0,P|102:308|82:369,1,125
194,241,219556,2,0,L|221:192,3,50
378,381,219848,6,0,L|397:246,1,125
453,153,220141,1,0,0:0:0:0:
453,153,220288,2,0,P|392:171|329:133,1,125
131,139,220580,1,0,0:0:0:0:
196,72,220727,2,0,P|258:88|321:46,1,125
440,8,221019,1,0,0:0:0:0:
504,158,221166,2,0,L|516:299,1,125
370,196,221458,1,0,0:0:0:0:
140,349,221605,2,0,P|198:314|215:250,1,125
268,125,221897,1,0,0:0:0:0:
89,182,222044,1,0,0:0:0:0:
138,180,222117,1,0,0:0:0:0:
188,178,222190,5,0,0:0:0:0:
348,236,222336,1,0,0:0:0:0:
348,236,222409,1,0,0:0:0:0:
348,236,222483,1,0,0:0:0:0:
140,304,222629,1,0,0:0:0:0:
140,304,222702,1,0,0:0:0:0:
140,304,222775,1,0,0:0:0:0:
104,116,222922,5,0,0:0:0:0:
104,116,222995,1,0,0:0:0:0:
104,116,223068,1,0,0:0:0:0:
370,116,223214,1,0,0:0:0:0:
370,116,223288,1,0,0:0:0:0:
370,116,223361,1,0,0:0:0:0:
174,317,223507,1,0,0:0:0:0:
174,317,223580,1,0,0:0:0:0:
174,317,223653,1,0,0:0:0:0:
487,248,223800,5,0,0:0:0:0:
487,248,223873,1,0,0:0:0:0:
487,248,223946,1,0,0:0:0:0:
235,39,224092,1,0,0:0:0:0:
235,39,224166,1,0,0:0:0:0:
235,39,224239,1,0,0:0:0:0:
57,248,224385,1,0,3:0:0:0:
57,248,224458,1,0,3:0:0:0:
57,248,224531,5,0,0:0:0:0:
114,266,224604,1,0,0:0:0:0:
173,271,224677,1,0,0:0:0:0:
228,249,224750,1,0,0:0:0:0:
261,199,224823,1,0,0:0:0:0:
282,143,224896,1,0,0:0:0:0:
323,100,224970,1,0,0:0:0:0:
381,90,225043,1,0,0:0:0:0:
434,114,225116,5,0,0:0:0:0:
454,169,225189,1,0,0:0:0:0:
439,226,225262,1,0,0:0:0:0:
386,250,225335,1,0,0:0:0:0:
328,238,225409,1,0,0:0:0:0:
276,207,225482,1,0,0:0:0:0:
233,166,225555,1,0,0:0:0:0:
201,115,225628,1,0,0:0:0:0:
0,192,226288,6,0,L|160:192,1,150
190,192,226580,1,0,0:0:0:0:
230,192,226653,1,0,0:0:0:0:
270,192,226726,1,0,0:0:0:0:
310,192,226799,1,0,0:0:0:0:
349,192,226872,5,0,0:0:0:0:
484,335,227019,1,0,0:0:0:0:
484,335,227166,2,0,P|457:269|398:243,1,125
284,105,227458,2,0,L|413:134,1,125
492,150,227678,1,0,0:0:0:0:
492,150,227751,1,0,0:0:0:0:
303,301,227897,1,0,0:0:0:0:
164,75,228044,6,0,P|140:137|72:151,1,125
0,308,228336,2,0,P|32:247|84:234,1,125
126,232,228556,1,0,0:0:0:0:
176,232,228629,1,0,0:0:0:0:
289,318,228775,1,0,0:0:0:0:
239,317,228848,1,0,0:0:0:0:
189,316,228921,1,0,0:0:0:0:
118,154,229068,1,0,0:0:0:0:
118,154,229141,1,0,0:0:0:0:
118,154,229214,1,0,0:0:0:0:
71,116,229288,1,0,0:0:0:0:
71,56,229361,1,0,0:0:0:0:
118,19,229434,1,0,0:0:0:0:
179,25,229507,5,0,0:0:0:0:
323,144,229653,1,0,0:0:0:0:
276,0,229800,1,0,0:0:0:0:
136,89,229946,1,0,0:0:0:0:
411,43,230092,1,0,0:0:0:0:
411,43,230166,1,0,0:0:0:0:
411,43,230239,1,0,0:0:0:0:
256,192,230385,5,0,0:0:0:0:
104,264,230531,1,0,0:0:0:0:
105,1,230678,1,0,0:0:0:0:
161,117,230824,1,0,0:0:0:0:
334,376,230970,1,0,0:0:0:0:
214,304,231117,1,0,0:0:0:0:
476,155,231263,1,0,0:0:0:0:
476,155,231409,1,0,0:0:0:0:
144,203,231556,5,0,0:0:0:0:
109,199,231629,1,0,0:0:0:0:
77,184,231702,1,0,0:0:0:0:
53,160,231775,1,0,0:0:0:0:
39,128,231848,1,0,0:0:0:0:
201,9,231995,1,0,0:0:0:0:
128,117,232141,1,0,0:0:0:0:
45,311,232288,1,0,0:0:0:0:
45,311,232361,1,0,0:0:0:0:
45,311,232434,1,0,0:0:0:0:
209,88,232580,1,0,0:0:0:0:
368,203,232727,5,0,0:0:0:0:
402,199,232800,1,0,0:0:0:0:
434,184,232873,1,0,0:0:0:0:
458,160,232946,1,0,0:0:0:0:
472,128,233019,1,0,0:0:0:0:
311,9,233166,1,0,0:0:0:0:
384,117,233312,1,0,0:0:0:0:
467,311,233459,1,0,0:0:0:0:
467,311,233532,1,0,0:0:0:0:
467,311,233605,1,0,0:0:0:0:
303,88,233751,1,0,0:0:0:0:
82,272,233897,5,0,0:0:0:0:
71,223,233970,1,0,0:0:0:0:
60,174,234043,1,0,0:0:0:0:
50,125,234116,1,0,0:0:0:0:
39,76,234189,1,0,0:0:0:0:
174,141,234336,1,0,0:0:0:0:
253,231,234483,2,0,L|379:250,1,125
158,311,234702,1,0,0:0:0:0:
158,311,234775,2,0,L|20:332,1,125
249,178,235068,6,0,L|290:53,1,125
101,6,235288,1,0,0:0:0:0:
101,6,235361,2,0,L|151:144,1,125
346,204,235653,1,0,0:0:0:0:
218,38,235800,1,0,0:0:0:0:
150,258,235946,1,0,0:0:0:0:
431,86,236092,1,0,0:0:0:0:
219,327,236239,6,0,P|163:363|102:348,1,125
150,258,236531,1,0,0:0:0:0:
355,142,236678,2,0,L|482:116,1,125
423,182,236970,1,0,0:0:0:0:
183,85,237117,2,0,L|49:58,1,125
0,139,237409,1,0,0:0:0:0:
350,356,237556,2,0,P|289:346|243:273,1,125
275,46,237848,5,0,0:0:0:0:
275,46,237922,1,0,0:0:0:0:
275,46,237995,2,0,L|276:162,1,100
276,180,238214,1,0,0:0:0:0:
277,215,238287,1,0,0:0:0:0:
278,250,238360,1,0,0:0:0:0:
279,285,238433,1,0,0:0:0:0:
68,368,238580,5,0,0:0:0:0:
129,354,238653,1,0,0:0:0:0:
190,341,238726,1,0,0:0:0:0:
251,328,238799,1,0,0:0:0:0:
312,315,238872,1,0,0:0:0:0:
512,191,239019,1,0,0:0:0:0:
452,379,239166,2,0,L|447:226,1,125
240,153,239458,1,0,0:0:0:0:
240,153,239531,1,0,0:0:0:0:
240,153,239605,1,0,0:0:0:0:
240,153,239678,1,0,0:0:0:0:
240,153,239751,6,0,L|384:154,1,125
138,86,240044,2,0,L|-5:90,1,125
204,262,240336,2,0,L|179:386,1,125
317,122,240629,2,0,L|341:-2,1,125
37,199,240922,6,0,P|116:197|164:138,1,125
196,52,241140,1,0,0:0:0:0:
196,52,241214,2,0,P|221:116|289:137,1,125
479,146,241434,1,0,0:0:0:0:
479,146,241507,2,0,L|344:175,1,125
161,272,241727,1,0,0:0:0:0:
161,272,241800,2,0,L|294:245,1,125
388,348,242019,1,0,0:0:0:0:
388,348,242092,1,0,0:0:0:0:
35,273,242239,5,0,0:0:0:0:
35,273,242312,1,0,0:0:0:0:
35,273,242385,1,0,0:0:0:0:
135,51,242531,1,0,0:0:0:0:
135,51,242605,1,0,0:0:0:0:
135,51,242678,1,0,0:0:0:0:
406,190,242824,1,0,0:0:0:0:
406,190,242897,1,0,0:0:0:0:
406,190,242970,1,0,0:0:0:0:
23,164,243117,1,0,0:0:0:0:
23,164,243190,1,0,0:0:0:0:
23,164,243263,5,0,0:0:0:0:
151,197,243409,1,0,0:0:0:0:
280,231,243556,1,0,0:0:0:0:
409,265,243702,1,0,0:0:0:0:
512,100,243848,1,0,0:0:0:0:
409,265,243995,1,0,0:0:0:0:
206,384,244141,1,0,0:0:0:0:
409,265,244288,1,0,0:0:0:0:
349,18,244434,5,0,0:0:0:0:
316,90,244507,1,0,0:0:0:0:
254,139,244580,1,0,0:0:0:0:
177,154,244653,1,0,0:0:0:0:
101,132,244726,1,0,0:0:0:0:
44,77,244799,1,0,0:0:0:0:
113,37,244873,1,0,0:0:0:0:
192,27,244946,1,0,0:0:0:0:
269,46,245019,1,0,0:0:0:0:
333,93,245092,1,0,0:0:0:0:
376,160,245165,1,0,0:0:0:0:
390,238,245239,1,0,0:0:0:0:
352,307,245312,1,0,0:0:0:0:
287,353,245385,1,0,0:0:0:0:
209,364,245458,1,0,0:0:0:0:
133,339,245531,1,0,0:0:0:0:
77,283,245604,5,0,0:0:0:0:
465,12,246190,1,0,0:0:0:0:
250,377,246775,1,0,0:0:0:0:
152,0,247361,1,0,0:0:0:0:
256,192,247946,12,0,250288,3:0:0:0:
