osu file format v14

[General]
AudioFilename: audio.mp3
AudioLeadIn: 0
PreviewTime: -1
Countdown: 0
SampleSet: Normal
StackLeniency: 0.7
Mode: 0
LetterboxInBreaks: 0
WidescreenStoryboard: 0

[Editor]
Bookmarks: 29031,47792,57096,66452,75809,94521,113234,114403,133116,151828,156506,161184,170541,180042,189408,208140,226871,240920,245603,252627
DistanceSpacing: 0.9
BeatDivisor: 4
GridSize: 4
TimelineZoom: 2.3

[Metadata]
Title:LegenD.
TitleUnicode:LegenD.
Artist:Yooh
ArtistUnicode:Yooh
Creator:dblade
Version:Revolution (Old)
Source:
Tags:
BeatmapID:1478026
BeatmapSetID:697789

[Difficulty]
HPDrainRate:6
CircleSize:4
OverallDifficulty:8.7
ApproachRate:9.4
SliderMultiplier:1.4
SliderTickRate:1

[Events]
//Background and Video events
0,0,"Punctuations_-_LegenD.-bg.png",0,0
//Break Periods
2,114681,132673
//Storyboard Layer 0 (Background)
//Storyboard Layer 1 (Fail)
//Storyboard Layer 2 (Pass)
//Storyboard Layer 3 (Foreground)
//Storyboard Layer 4 (Overlay)
//Storyboard Sound Samples

[TimingPoints]
972,292.682926829268,4,1,0,100,1,0
19385,-66.6666666666667,4,1,0,100,0,0
19678,-200,4,1,0,100,0,0
24062,-66.6666666666667,4,1,0,100,0,0
24208,-100,4,1,0,100,0,0
35461,-66.6666666666667,4,1,0,100,0,0
36045,-100,4,1,0,100,0,0
38384,292.682926829268,4,1,0,100,1,0
41819,-66.6666666666667,4,1,0,100,0,0
43281,-100,4,1,0,100,0,0
44304,-66.6666666666667,4,1,0,100,0,0
44816,-100,4,1,0,100,0,0
46570,-66.6666666666667,4,1,0,100,0,0
47740,-100,4,1,0,100,0,0
54757,-66.6666666666667,4,1,0,100,0,0
57096,-100,4,2,0,100,0,0
64040,-66.6666666666667,4,2,0,100,0,0
66452,-100,4,2,0,100,0,0
73469,-66.6666666666667,4,2,0,100,0,0
75809,-100,4,2,0,100,0,0
89258,-66.6666666666667,4,2,0,100,0,0
89843,-100,4,2,0,100,0,0
133213,-133.333333333333,4,2,0,100,0,0
151652,-100,4,2,0,100,0,0
151944,-200,4,2,0,100,0,0
156214,-66.6666666666667,4,2,0,100,0,0
156481,-66.6666666666667,4,2,0,100,0,0
156506,-100,4,2,0,25,0,0
156701,-100,4,2,0,15,0,0
157140,-100,4,2,0,25,0,0
157286,-100,4,2,0,15,0,0
157725,-100,4,2,0,25,0,0
157871,-100,4,2,0,15,0,0
158310,-100,4,2,0,25,0,0
158457,-100,4,2,0,15,0,0
158896,-100,4,2,0,25,0,0
159042,-100,4,2,0,15,0,0
159481,-100,4,2,0,25,0,0
159627,-100,4,2,0,15,0,0
160066,-100,4,2,0,100,0,0
161404,-100,4,2,0,20,0,0
162358,-100,4,2,0,35,0,0
163523,-100,4,2,0,50,0,0
164839,-100,4,2,0,65,0,0
166009,-100,4,2,0,80,0,0
167178,-100,4,2,0,90,0,0
168348,-100,4,2,0,100,0,0
170394,-66.6666666666667,4,2,0,100,0,0
170687,-100,4,2,0,100,0,0
215749,-66.6666666666667,4,2,0,100,0,0
216335,-100,4,2,0,100,0,0
226286,-100,4,2,0,50,0,0
226871,-100,4,2,0,100,0,0

[HitObjects]
96,120,19557,6,0,P|68:168|68:192,1,52.5000020027161,0|0,3:0|3:0,3:0:0:0:
96,208,19703,2,0,B|140:168|160:120|184:68|272:128|272:128|336:44|404:84|440:136|404:224|404:224|488:312|349:297|349:297|269:210|269:210|196:264|257:328|184:336|156:336|156:336|132:332,1,980,0|0,3:0|3:0,3:0:0:0:
212,172,24093,2,0,P|176:216|160:228,1,52.5000020027161,8|0,3:0|3:0,3:0:0:0:
128,80,27825,5,0,0:0:0:0:
324,96,27972,1,0,0:0:0:0:
324,96,28045,1,0,0:0:0:0:
324,96,28118,1,0,0:0:0:0:
128,80,28264,1,0,0:0:0:0:
180,248,28411,1,0,0:0:0:0:
180,248,28484,1,0,0:0:0:0:
180,248,28557,1,0,0:0:0:0:
348,236,28703,1,0,0:0:0:0:
382,230,28776,1,0,0:0:0:0:
414,217,28850,1,0,0:0:0:0:
443,197,28923,1,0,0:0:0:0:
466,171,28996,5,0,0:0:0:0:
308,28,29289,2,0,P|224:32|172:92,1,140,0|0,0:0|0:0,3:0:0:0:
120,168,29728,1,0,3:0:0:0:
300,220,29874,1,0,0:0:0:0:
277,246,29947,1,0,0:0:0:0:
248,265,30020,1,0,0:0:0:0:
214,274,30093,1,0,0:0:0:0:
180,273,30167,1,0,0:0:0:0:
180,48,30459,6,0,P|92:72|56:128,1,140
56,240,30898,1,0,3:0:0:0:
212,240,31045,1,0,0:0:0:0:
344,128,31264,1,0,0:0:0:0:
372,156,31337,1,0,0:0:0:0:
416,336,31630,6,0,P|320:328|280:308,1,140
156,256,32069,1,0,0:0:0:0:
244,136,32215,1,0,0:0:0:0:
222,108,32289,1,0,0:0:0:0:
191,94,32362,1,0,0:0:0:0:
156,97,32435,1,0,0:0:0:0:
126,114,32508,1,0,0:0:0:0:
16,248,32801,6,0,P|36:288|56:304,1,70,0|0,0:0|0:0,3:0:0:0:
224,344,33093,1,0,0:0:0:0:
224,344,33167,1,0,0:0:0:0:
224,344,33240,1,0,0:0:0:0:
400,284,33386,1,0,0:0:0:0:
407,249,33459,1,0,0:0:0:0:
403,215,33532,1,0,0:0:0:0:
390,182,33606,1,0,0:0:0:0:
370,154,33679,5,0,0:0:0:0:
370,154,33825,1,0,0:0:0:0:
224,240,33972,1,0,0:0:0:0:
220,80,34118,1,0,0:0:0:0:
220,80,34191,1,0,0:0:0:0:
220,80,34264,1,0,0:0:0:0:
220,80,34411,1,0,0:0:0:0:
380,44,34557,1,0,0:0:0:0:
420,204,34703,1,0,0:0:0:0:
188,336,34996,1,0,0:0:0:0:
36,96,35289,1,0,0:0:0:0:
296,88,35435,5,0,0:0:0:0:
296,88,35508,1,0,0:0:0:0:
296,88,35581,1,0,0:0:0:0:
296,88,35654,1,0,0:0:0:0:
296,88,35728,1,0,0:0:0:0:
296,88,35801,1,0,0:0:0:0:
296,88,35874,1,0,0:0:0:0:
296,88,35947,1,0,0:0:0:0:
128,296,37191,6,0,L|100:216,1,70,0|0,0:0|0:0,3:0:0:0:
208,168,37484,2,0,L|184:244,1,70,0|0,0:0|0:0,3:0:0:0:
224,320,37777,2,0,L|288:272,1,70,0|0,0:0|0:0,3:0:0:0:
412,176,38069,1,0,0:0:0:0:
340,56,38215,1,0,0:0:0:0:
200,28,38362,6,0,B|144:28|144:28|142:28|116:52|116:52|116:124,1,140,0|0,3:0|3:0,3:0:0:0:
120,224,38823,1,0,3:0:0:0:
136,348,38969,1,0,3:0:0:0:
288,248,39115,1,0,3:0:0:0:
317,228,39188,1,0,3:0:0:0:
346,209,39262,1,0,3:0:0:0:
468,108,39408,1,0,3:0:0:0:
248,96,39554,6,0,B|200:96|200:96|170:116|169:117|169:117|155:171,1,140,0|0,3:0|3:0,3:0:0:0:
112,336,39993,1,0,3:0:0:0:
40,112,40140,1,0,3:0:0:0:
216,56,40286,1,0,3:0:0:0:
250,48,40359,1,0,3:0:0:0:
283,42,40432,1,0,3:0:0:0:
400,192,40579,1,0,3:0:0:0:
264,276,40725,6,0,B|200:312|176:296|152:224,1,140,0|0,3:0|3:0,3:0:0:0:
236,132,41164,1,0,3:0:0:0:
300,32,41310,1,0,3:0:0:0:
136,68,41457,1,0,3:0:0:0:
103,78,41530,1,0,3:0:0:0:
82,105,41603,1,0,3:0:0:0:
80,312,41749,1,0,3:0:0:0:
336,232,41896,6,0,P|300:292|252:324,1,105.000004005432,0|0,3:0|3:0,3:0:0:0:
40,128,42188,2,0,P|68:188|140:216,1,105.000004005432,0|0,3:0|3:0,3:0:0:0:
292,44,42481,2,0,P|268:96|220:112,1,105.000004005432,0|0,3:0|3:0,3:0:0:0:
225,111,42701,1,0,3:0:0:0:
225,111,42774,1,0,3:0:0:0:
152,248,42920,1,0,3:0:0:0:
160,64,43066,2,0,B|216:40|280:48,1,105.000004005432,0|0,3:0|3:0,3:0:0:0:
356,232,43359,1,0,3:0:0:0:
356,232,43505,1,0,3:0:0:0:
244,44,43652,1,0,3:0:0:0:
72,152,43798,6,0,L|92:156,3,17.5,4|4|0|0,0:3|0:3|3:0|3:0,3:0:0:0:
240,292,44091,1,0,0:0:0:0:
240,292,44237,1,0,0:0:0:0:
416,124,44383,2,0,P|392:184|360:212,1,105.000004005432,0|0,3:0|3:0,3:0:0:0:
160,128,44676,2,0,P|168:184|192:232,1,105.000004005432,0|0,3:0|3:0,3:0:0:0:
400,184,44969,2,0,L|380:188,3,17.5,4|4|0|0,0:3|0:3|3:0|3:0,3:0:0:0:
248,312,45262,1,0,3:0:0:0:
256,56,45408,5,0,0:0:0:0:
256,56,45554,1,0,0:0:0:0:
112,184,45701,2,0,L|48:240,2,46.6666666666667,0|0|0,3:0|3:0|3:0,3:0:0:0:
256,56,45993,1,0,0:0:0:0:
256,56,46140,1,0,0:0:0:0:
412,200,46286,2,0,L|456:248,2,46.6666666666667,0|0|0,3:0|3:0|3:0,3:0:0:0:
236,308,46579,6,0,B|201:316|157:300|124:240|144:168,1,140.000005340576,0|0,0:0|0:0,3:0:0:0:
192,212,46871,2,0,B|248:208|328:180|320:116,1,157.500006008148,0|0,0:0|0:0,3:0:0:0:
296,84,47164,1,0,0:0:0:0:
364,85,47237,1,0,0:0:0:0:
413,132,47383,1,0,0:0:0:0:
448,196,47457,2,0,L|432:220,8,26.2500010013581,0|0|0|0|0|0|0|0|0,3:0|3:0|3:0|3:0|3:0|3:0|3:0|3:0|3:0,3:0:0:0:
280,204,47896,5,0,3:0:0:0:
168,56,48042,1,0,3:0:0:0:
64,208,48188,1,0,3:0:0:0:
136,348,48335,1,0,3:0:0:0:
216,200,48481,1,0,3:0:0:0:
216,200,48554,1,0,3:0:0:0:
220,204,48627,1,0,3:0:0:0:
276,48,48774,1,0,3:0:0:0:
476,64,48920,6,0,B|476:111|476:111|450:135|448:135|448:135|392:135,1,140,0|0,3:0|3:0,3:0:0:0:
240,136,49359,1,0,3:0:0:0:
76,132,49505,1,0,3:0:0:0:
244,276,49652,1,0,3:0:0:0:
244,276,49725,1,0,3:0:0:0:
244,276,49798,1,0,3:0:0:0:
424,192,49944,1,0,3:0:0:0:
288,44,50091,5,0,3:0:0:0:
192,72,50237,1,0,3:0:0:0:
116,136,50383,1,0,3:0:0:0:
68,224,50530,1,0,3:0:0:0:
56,336,50676,1,0,3:0:0:0:
244,332,50823,1,0,3:0:0:0:
244,332,50896,1,0,3:0:0:0:
244,332,50969,1,0,3:0:0:0:
400,276,51115,1,0,3:0:0:0:
392,80,51262,6,0,P|376:120|352:140,1,70,0|0,3:0|3:0,3:0:0:0:
144,140,51554,2,0,P|172:184|204:188,1,70,0|0,3:0|3:0,3:0:0:0:
392,188,51847,2,0,P|424:172|444:136,1,70
296,36,52066,1,0,0:0:0:0:
263,48,52140,1,0,0:0:0:0:
233,66,52213,1,0,0:0:0:0:
209,92,52286,1,0,0:0:0:0:
194,123,52359,1,0,0:0:0:0:
182,156,52432,6,0,B|164:208|212:236,1,70,0|0,0:0|3:0,3:0:0:0:
352,304,52725,2,0,P|408:264|420:236,1,70,0|0,3:0|3:0,3:0:0:0:
456,84,53018,1,0,3:0:0:0:
352,192,53164,1,0,3:0:0:0:
332,220,53237,1,0,3:0:0:0:
308,248,53310,1,0,3:0:0:0:
188,340,53457,1,0,3:0:0:0:
156,152,53603,6,0,P|96:188|88:208,1,70,0|0,3:0|3:0,3:0:0:0:
188,340,53896,1,0,3:0:0:0:
188,340,54042,1,0,3:0:0:0:
384,200,54188,1,0,3:0:0:0:
224,104,54335,1,0,3:0:0:0:
224,104,54408,2,0,B|208:152|184:176|136:188,1,105,0|0,3:0|3:0,3:0:0:0:
276,244,54774,6,0,L|368:312,1,105.000004005432,0|0,0:0|0:0,3:0:0:0:
360,306,55066,1,0,3:0:0:0:
360,306,55140,1,0,3:0:0:0:
360,306,55213,1,0,3:0:0:0:
368,40,55359,2,0,L|293:117,1,105.000004005432,0|0,0:0|0:0,3:0:0:0:
294,115,55652,1,0,3:0:0:0:
294,115,55725,1,0,3:0:0:0:
294,115,55798,1,0,3:0:0:0:
92,56,55944,6,0,P|84:124|116:144,1,105.000004005432,0|0,0:0|0:0,3:0:0:0:
284,160,56237,2,0,P|296:216|264:260,1,105.000004005432,0|0,0:0|0:0,3:0:0:0:
56,292,56530,2,0,P|148:328|188:324,1,105.000004005432,0|0,0:0|0:0,3:0:0:0:
308,336,56823,1,0,0:0:0:0:
355,313,56896,1,0,0:0:0:0:
389,274,56969,1,0,0:0:0:0:
406,225,57042,1,0,0:0:0:0:
411,172,57115,6,0,B|432:112|372:104,1,70,0|0,0:0|3:0,3:0:0:0:
240,56,57408,1,0,3:0:0:0:
240,56,57554,1,0,3:0:0:0:
68,128,57701,1,0,3:0:0:0:
240,164,57847,1,0,3:0:0:0:
240,164,57920,1,0,3:0:0:0:
240,164,57993,1,0,3:0:0:0:
304,296,58140,1,0,3:0:0:0:
304,296,58213,1,0,3:0:0:0:
304,296,58286,6,0,P|248:312|216:292,1,70,0|0,3:0|3:0,3:0:0:0:
88,248,58579,1,0,3:0:0:0:
88,248,58725,1,0,3:0:0:0:
240,184,58871,1,0,3:0:0:0:
308,56,59018,1,0,3:0:0:0:
308,56,59091,1,0,3:0:0:0:
308,56,59164,1,0,3:0:0:0:
452,184,59310,1,0,3:0:0:0:
452,184,59383,1,0,3:0:0:0:
452,184,59457,6,0,P|464:220|440:268,1,70,0|0,3:0|3:0,3:0:0:0:
328,344,59749,1,0,3:0:0:0:
328,344,59896,1,0,3:0:0:0:
148,280,60042,1,0,3:0:0:0:
176,144,60188,1,0,3:0:0:0:
176,144,60262,1,0,3:0:0:0:
176,144,60335,1,0,3:0:0:0:
176,340,60481,1,0,3:0:0:0:
176,340,60554,1,0,3:0:0:0:
176,340,60627,6,0,P|212:339|256:296,1,70,0|0,3:0|3:0,3:0:0:0:
360,228,60920,1,0,3:0:0:0:
208,188,61066,1,0,3:0:0:0:
320,60,61213,1,0,3:0:0:0:
176,56,61359,1,0,3:0:0:0:
165,89,61432,1,0,3:0:0:0:
143,115,61505,1,0,0:0:0:0:
111,130,61579,1,0,0:0:0:0:
76,130,61652,1,0,0:0:0:0:
64,157,61725,1,0,0:0:0:0:
72,191,61798,6,0,P|92:224|128:236,1,70
288,300,62091,1,0,3:0:0:0:
288,300,62237,1,0,3:0:0:0:
440,136,62383,2,0,P|392:168|356:168,1,70
381,169,62603,1,0,3:0:0:0:
381,169,62676,1,0,3:0:0:0:
256,92,62823,1,0,3:0:0:0:
92,120,62969,6,0,P|104:164|128:180,1,70,0|0,3:0|3:0,3:0:0:0:
248,300,63262,1,0,3:0:0:0:
248,300,63335,1,0,3:0:0:0:
248,300,63408,1,0,3:0:0:0:
352,148,63554,5,0,3:0:0:0:
160,160,63701,1,0,3:0:0:0:
352,272,63847,1,0,3:0:0:0:
248,100,63993,1,0,3:0:0:0:
408,44,64140,6,0,P|380:108|340:120,1,105.000004005432,0|0,2:0|2:0,2:0:0:0:
300,72,64359,2,0,P|288:112|312:172,1,105.000004005432,0|0,2:0|2:0,2:0:0:0:
376,168,64579,2,0,P|368:212|280:200,1,105.000004005432,0|0,2:0|2:0,2:0:0:0:
252,212,64798,2,0,P|256:264|312:296,1,105.000004005432,0|0,2:0|2:0,2:0:0:0:
360,288,65018,2,0,P|340:340|272:344,1,105.000004005432,0|0,2:0|2:0,2:0:0:0:
164,340,65310,6,0,B|92:312|80:260|168:196|196:244,1,157.500006008148,0|0,0:0|0:0,3:0:0:0:
192,212,65603,2,0,B|248:208|328:180|320:116,1,157.500006008148,0|0,0:0|0:0,3:0:0:0:
336,96,65896,1,0,0:0:0:0:
288,72,65969,1,0,0:0:0:0:
240,56,66115,1,0,0:0:0:0:
200,32,66188,2,0,L|184:56,8,26.2500010013581,0|0|0|0|0|0|0|0|0,3:0|3:0|3:0|3:0|3:0|3:0|3:0|3:0|3:0,3:0:0:0:
240,184,66627,5,0,3:0:0:0:
56,160,66774,2,0,P|48:196|72:232,1,70,0|0,3:0|3:0,3:0:0:0:
203,346,67066,2,0,P|232:322|271:321,1,70,0|0,3:0|3:0,3:0:0:0:
264,320,67286,1,0,3:0:0:0:
268,324,67359,1,0,3:0:0:0:
352,196,67505,1,0,3:0:0:0:
180,184,67652,6,0,B|133:184|133:184|109:158|109:156|109:156,1,70,0|0,3:0|3:0,3:0:0:0:
64,40,67944,1,0,3:0:0:0:
224,124,68091,1,0,3:0:0:0:
368,28,68237,1,0,3:0:0:0:
264,132,68383,1,0,3:0:0:0:
264,132,68457,1,0,3:0:0:0:
264,132,68530,1,0,3:0:0:0:
96,176,68676,1,0,3:0:0:0:
220,320,68823,6,0,B|260:360|232:272|304:344|292:292,1,70,0|0,3:0|3:0,3:0:0:0:
376,180,69115,2,0,B|390:234|410:144|436:242|452:191,1,70,0|0,3:0|3:0,3:0:0:0:
460,356,69408,1,0,3:0:0:0:
296,252,69554,1,0,3:0:0:0:
296,252,69627,1,0,3:0:0:0:
296,252,69701,1,0,3:0:0:0:
440,176,69847,1,0,3:0:0:0:
372,40,69993,6,0,P|332:64|312:88,1,70,0|0,3:0|3:0,3:0:0:0:
208,144,70286,2,0,P|169:125|136:128,1,70,0|0,3:0|3:0,3:0:0:0:
16,148,70579,1,0,3:0:0:0:
104,264,70725,1,0,3:0:0:0:
144,260,70798,1,0,0:0:0:0:
177,248,70871,1,0,0:0:0:0:
207,230,70944,1,0,0:0:0:0:
231,204,71018,1,0,0:0:0:0:
246,173,71091,1,0,0:0:0:0:
258,140,71164,6,0,B|276:88|312:88,1,70,0|0,0:0|3:0,3:0:0:0:
464,104,71457,1,0,3:0:0:0:
416,228,71603,1,0,3:0:0:0:
288,288,71749,1,0,3:0:0:0:
200,208,71896,1,0,3:0:0:0:
176,180,71969,1,0,3:0:0:0:
156,152,72042,1,0,3:0:0:0:
92,56,72188,1,0,3:0:0:0:
256,32,72335,6,0,P|289:41|314:65,1,70,0|0,3:0|3:0,3:0:0:0:
204,216,72627,2,0,P|194:249|170:274,1,70,0|0,3:0|3:0,3:0:0:0:
372,304,72920,1,0,3:0:0:0:
360,156,73066,5,0,3:0:0:0:
360,156,73140,2,0,B|376:108|400:84|448:72,1,105,0|0,3:0|3:0,3:0:0:0:
312,28,73505,6,0,P|252:36|224:80,1,105.000004005432
168,184,73798,1,0,3:0:0:0:
168,184,73871,1,0,3:0:0:0:
168,184,73944,1,0,3:0:0:0:
324,128,74091,2,0,P|336:200|312:248,1,105.000004005432,0|0,0:0|0:0,3:0:0:0:
256,356,74383,1,0,3:0:0:0:
256,356,74457,1,0,3:0:0:0:
256,356,74530,1,0,3:0:0:0:
128,288,74676,6,0,P|128:232|168:216,1,105.000004005432,0|0,0:0|0:0,3:0:0:0:
316,212,74969,2,0,P|392:196|408:144,1,105.000004005432,0|0,0:0|0:0,3:0:0:0:
296,84,75262,2,0,P|252:36|200:64,1,105.000004005432,0|0,0:0|0:0,3:0:0:0:
100,108,75554,1,0,0:0:0:0:
67,149,75627,1,0,0:0:0:0:
47,197,75701,1,0,0:0:0:0:
39,249,75774,1,0,0:0:0:0:
40,302,75847,6,0,P|68:336|112:340,1,70,0|0,3:0|3:0,3:0:0:0:
256,344,76140,1,0,3:0:0:0:
228,196,76286,2,0,P|176:208|152:184,1,70,0|0,3:0|3:0,3:0:0:0:
128,88,76579,1,0,3:0:0:0:
162,86,76652,1,0,3:0:0:0:
197,84,76725,1,0,3:0:0:0:
304,88,76871,1,0,3:0:0:0:
409,188,77018,6,0,B|411:211|403:235|344:264|308:272,1,140,0|0,3:0|3:0,3:0:0:0:
273,272,77383,1,0,3:0:0:0:
238,272,77457,1,0,3:0:0:0:
203,272,77530,1,0,3:0:0:0:
168,272,77603,1,0,3:0:0:0:
36,276,77749,1,0,3:0:0:0:
48,144,77896,2,0,P|64:108|104:96,1,70,0|0,3:0|3:0,3:0:0:0:
244,52,78188,6,0,B|300:28|336:44,1,70,0|0,3:0|3:0,3:0:0:0:
456,72,78481,1,0,3:0:0:0:
416,220,78627,2,0,P|368:228|336:260,1,70,0|0,3:0|3:0,3:0:0:0:
188,276,78920,1,0,3:0:0:0:
153,278,78993,1,0,3:0:0:0:
119,280,79066,1,0,3:0:0:0:
40,188,79213,1,0,3:0:0:0:
136,44,79359,6,0,P|152:88|176:100,1,70
288,204,79652,1,0,3:0:0:0:
288,204,79798,1,0,3:0:0:0:
448,68,79944,2,0,P|448:136|424:152,1,70
188,60,80237,2,0,P|160:78|140:126,1,70
48,288,80530,6,0,P|92:334|124:344,1,70,0|0,3:0|3:0,3:0:0:0:
288,340,80823,2,0,P|322:335|349:314,1,70,0|0,3:0|3:0,3:0:0:0:
456,224,81115,1,0,3:0:0:0:
248,224,81262,1,0,3:0:0:0:
214,222,81335,1,0,3:0:0:0:
179,220,81408,1,0,3:0:0:0:
44,224,81554,1,0,3:0:0:0:
64,88,81701,6,0,B|82:49|140:32,1,70,0|0,3:0|3:0,3:0:0:0:
236,52,81993,1,0,3:0:0:0:
266,69,82066,1,0,3:0:0:0:
296,87,82140,1,0,3:0:0:0:
326,104,82213,1,0,3:0:0:0:
357,122,82286,1,0,3:0:0:0:
488,184,82432,1,0,3:0:0:0:
400,296,82579,2,0,P|372:328|332:340,1,70,0|0,3:0|3:0,3:0:0:0:
304,192,82871,6,0,P|276:164|232:152,1,70,0|0,3:0|3:0,3:0:0:0:
184,284,83164,2,0,P|140:280|112:252,1,70,0|0,3:0|3:0,3:0:0:0:
36,144,83457,1,0,3:0:0:0:
172,56,83603,1,0,3:0:0:0:
172,56,83676,2,0,B|224:28|224:28|292:32,1,105,0|0,3:0|3:0,3:0:0:0:
456,80,84042,5,0,3:0:0:0:
456,80,84188,1,0,3:0:0:0:
280,160,84335,2,0,P|308:204|336:228,1,70,0|0,3:0|3:0,3:0:0:0:
480,224,84627,2,0,P|444:280|416:296,1,70,0|0,3:0|3:0,3:0:0:0:
268,312,84920,1,0,3:0:0:0:
235,300,84993,1,0,3:0:0:0:
207,279,85066,1,0,3:0:0:0:
187,250,85140,1,0,3:0:0:0:
177,217,85213,5,0,3:0:0:0:
177,217,85359,1,0,3:0:0:0:
92,56,85505,2,0,B|56:64|36:100,1,70
32,260,85798,1,0,0:0:0:0:
212,296,85944,1,0,3:0:0:0:
212,296,86018,2,0,B|271:294|271:294|294:230,1,105,0|0,3:0|3:0,3:0:0:0:
296,108,86383,2,0,P|240:84|212:92,1,70,0|0,3:0|3:0,3:0:0:0:
92,112,86676,1,0,3:0:0:0:
118,134,86749,1,0,3:0:0:0:
145,156,86823,1,0,3:0:0:0:
172,178,86896,1,0,3:0:0:0:
199,201,86969,1,0,3:0:0:0:
199,201,87115,1,0,3:0:0:0:
464,296,87408,6,0,L|394:299,1,70,0|0,3:0|3:0,3:0:0:0:
432,112,87701,2,0,L|360:168,1,70,0|0,3:0|3:0,3:0:0:0:
272,40,87993,2,0,L|272:110,1,70,0|0,3:0|3:0,3:0:0:0:
276,228,88286,1,0,3:0:0:0:
276,228,88359,1,0,3:0:0:0:
276,228,88432,1,0,3:0:0:0:
296,344,88579,2,0,P|256:304|216:308,1,70,0|0,3:0|3:0,3:0:0:0:
100,152,89018,6,0,L|136:104,3,35
136,156,89310,2,0,B|144:244|144:244|216:160|216:160|252:252|252:252|380:248,1,420.000016021729,0|0,0:0|3:0,0:0:0:0:
468,344,90042,1,0,0:0:0:0:
420,228,90188,2,0,P|404:196|360:200,1,70,0|0,3:0|3:0,3:0:0:0:
224,188,90481,2,0,P|180:212|148:236,1,70,0|0,3:0|3:0,3:0:0:0:
136,264,90701,1,0,3:0:0:0:
118,306,90774,2,0,P|156:340|200:332,1,70,0|0,3:0|3:0,3:0:0:0:
328,284,91066,6,0,P|376:308|404:340,1,70,0|0,3:0|3:0,3:0:0:0:
456,192,91359,1,0,3:0:0:0:
456,192,91432,1,0,3:0:0:0:
456,192,91505,1,0,3:0:0:0:
384,52,91652,1,0,0:0:0:0:
276,144,91798,1,0,0:0:0:0:
184,232,91944,1,0,0:0:0:0:
157,254,92017,1,0,0:0:0:0:
131,277,92090,1,0,0:0:0:0:
28,188,92237,6,0,P|72:136|100:128,1,70,0|0,3:0|3:0,3:0:0:0:
144,28,92530,2,0,P|160:64|188:84,1,70,0|0,3:0|3:0,3:0:0:0:
248,212,92823,2,0,P|264:160|304:140,1,70,0|0,3:0|3:0,3:0:0:0:
274,151,93042,1,0,3:0:0:0:
280,156,93115,1,0,3:0:0:0:
424,236,93262,1,0,3:0:0:0:
260,336,93408,5,4,3:0:0:0:
24,180,93627,1,4,3:0:0:0:
296,132,93847,1,4,3:0:0:0:
180,340,94066,1,4,3:0:0:0:
136,108,94286,1,0,3:0:0:0:
149,75,94359,1,0,3:0:0:0:
172,49,94432,1,0,3:0:0:0:
203,34,94505,1,0,3:0:0:0:
238,28,94579,5,0,3:0:0:0:
352,36,94725,1,0,3:0:0:0:
480,76,94871,2,0,P|464:116|440:132,1,70,0|0,3:0|3:0,3:0:0:0:
317,233,95164,2,0,P|273:249|237:249,1,70,0|0,3:0|3:0,3:0:0:0:
250,250,95383,1,0,3:0:0:0:
250,250,95457,1,0,3:0:0:0:
128,320,95603,1,0,3:0:0:0:
128,84,95749,6,0,P|140:120|176:136,1,70,0|0,3:0|3:0,3:0:0:0:
304,144,96042,1,0,3:0:0:0:
338,142,96115,1,0,3:0:0:0:
373,141,96188,1,0,3:0:0:0:
408,152,96261,1,0,3:0:0:0:
428,176,96335,2,0,P|431:218|455:246,1,70,0|0,3:0|3:0,3:0:0:0:
492,80,96627,2,0,P|452:48|416:36,1,70,0|0,3:0|3:0,3:0:0:0:
184,32,96920,6,0,P|148:88|148:116,1,70,0|0,3:0|3:0,3:0:0:0:
288,144,97213,2,0,P|276:192|240:208,1,70,0|0,3:0|3:0,3:0:0:0:
112,276,97505,1,0,3:0:0:0:
296,304,97652,1,0,3:0:0:0:
296,304,97725,2,0,P|340:304|376:256,1,105,0|0,3:0|3:0,3:0:0:0:
424,48,98091,6,0,P|368:48|328:60,1,70,0|0,3:0|3:0,3:0:0:0:
228,56,98383,2,0,P|232:108|204:128,1,70,0|0,3:0|3:0,3:0:0:0:
64,184,98676,2,0,P|80:224|128:248,1,70,0|0,3:0|3:0,3:0:0:0:
336,288,98969,2,0,P|288:308|240:316,1,70,0|0,3:0|3:0,3:0:0:0:
264,148,99262,6,0,P|244:96|216:68,1,70,0|0,3:0|3:0,3:0:0:0:
56,152,99554,2,0,P|96:200|128:208,1,70,0|0,3:0|3:0,3:0:0:0:
272,264,99847,1,0,3:0:0:0:
384,88,99993,1,0,3:0:0:0:
384,88,100066,1,0,3:0:0:0:
384,88,100140,2,0,P|416:116|416:148,1,70,0|0,3:0|3:0,3:0:0:0:
364,276,100432,5,0,3:0:0:0:
364,276,100579,1,0,3:0:0:0:
208,276,100725,1,0,3:0:0:0:
173,277,100798,1,0,3:0:0:0:
138,278,100871,1,0,3:0:0:0:
104,268,100944,1,0,3:0:0:0:
84,244,101018,2,0,P|80:201|56:173,1,70,0|0,3:0|3:0,3:0:0:0:
116,20,101310,2,0,P|156:52|192:64,1,70,0|0,3:0|3:0,3:0:0:0:
448,104,101603,6,0,P|448:148|424:168,1,70,0|0,3:0|3:0,3:0:0:0:
260,176,101896,2,0,P|200:176|180:192,1,70,0|0,3:0|3:0,3:0:0:0:
80,304,102188,1,0,3:0:0:0:
111,319,102261,1,0,3:0:0:0:
145,328,102334,1,0,3:0:0:0:
180,331,102407,1,0,3:0:0:0:
214,328,102480,1,0,3:0:0:0:
388,320,102627,1,0,3:0:0:0:
504,192,102774,6,0,P|448:184|420:192,1,70,0|0,3:0|3:0,3:0:0:0:
448,48,103066,2,0,P|392:60|360:80,1,70,0|0,3:0|3:0,3:0:0:0:
248,16,103359,2,0,P|196:28|184:56,1,70,0|0,3:0|3:0,3:0:0:0:
172,72,103579,1,0,3:0:0:0:
158,104,103652,1,0,3:0:0:0:
160,138,103725,1,0,3:0:0:0:
179,167,103798,1,0,3:0:0:0:
208,187,103871,1,0,3:0:0:0:
241,199,103944,5,0,3:0:0:0:
344,248,104091,1,0,3:0:0:0:
392,84,104237,2,0,P|432:92|456:144,1,70,0|0,3:0|3:0,3:0:0:0:
476,296,104530,2,0,P|440:312|396:320,1,70,0|0,3:0|3:0,3:0:0:0:
408,312,104749,2,0,P|388:256|336:240,1,105,0|0,3:0|3:0,3:0:0:0:
208,204,105115,6,0,P|144:180|136:160,1,70,0|0,3:0|3:0,3:0:0:0:
104,56,105408,1,0,3:0:0:0:
139,56,105481,1,0,3:0:0:0:
174,56,105554,1,0,3:0:0:0:
209,56,105627,1,0,3:0:0:0:
244,56,105701,1,0,3:0:0:0:
380,56,105847,1,0,3:0:0:0:
484,120,105993,1,0,3:0:0:0:
508,232,106140,1,0,3:0:0:0:
388,160,106286,6,0,P|360:180|328:208,1,70,0|0,3:0|3:0,3:0:0:0:
180,240,106579,2,0,P|124:216|112:184,1,70,0|0,3:0|3:0,3:0:0:0:
72,32,106871,2,0,P|136:32|152:44,1,70,0|0,3:0|3:0,3:0:0:0:
156,40,107091,2,0,P|196:52|276:48,1,105,0|0,3:0|3:0,3:0:0:0:
432,60,107457,6,0,P|412:108|392:132,1,70,0|0,3:0|3:0,3:0:0:0:
432,60,107749,2,0,L|344:60,1,70,0|0,3:0|3:0,3:0:0:0:
432,60,108042,2,0,P|452:100|448:132,1,70,0|0,3:0|3:0,3:0:0:0:
440,264,108335,1,0,3:0:0:0:
405,261,108408,1,0,3:0:0:0:
370,255,108481,1,0,3:0:0:0:
337,244,108554,1,0,3:0:0:0:
308,228,108627,6,0,L|256:176,3,46.6666666666667,0|0|0|0,0:0|0:0|2:0|2:0,2:0:0:0:
320,48,109066,1,0,3:0:0:0:
156,48,109213,2,0,P|100:48|92:76,1,70,0|0,3:0|3:0,3:0:0:0:
72,80,109432,1,0,3:0:0:0:
56,104,109505,1,0,3:0:0:0:
40,236,109652,1,0,3:0:0:0:
188,132,109798,6,0,P|196:176|220:192,1,70,0|0,3:0|3:0,3:0:0:0:
344,256,110091,1,0,3:0:0:0:
317,279,110164,1,0,3:0:0:0:
288,297,110237,1,0,3:0:0:0:
256,312,110310,1,0,3:0:0:0:
222,321,110383,1,0,3:0:0:0:
222,321,110530,1,0,3:0:0:0:
176,32,110969,6,0,P|272:48|308:84,1,140,0|0,0:0|0:0,3:0:0:0:
301,74,111408,1,0,0:0:0:0:
352,256,111554,2,0,P|312:224|252:216,1,105,0|0,0:0|0:0,3:0:0:0:
192,280,111847,2,0,P|160:294|126:289,1,70,0|0,0:0|0:0,3:0:0:0:
340,272,112140,6,0,P|332:320|308:336,1,70
216,124,112432,2,0,P|204:88|212:52,1,70
48,196,112725,2,0,P|44:236|84:268,1,70
244,180,113018,2,0,P|280:148|296:108,1,70
256,192,113310,12,0,114481,3:0:0:0:
72,204,133213,6,0,B|84:248|108:264|140:272|192:224,1,157.500006008148,0|0,2:0|2:0,2:0:0:0:
208,100,133798,2,0,B|232:64|256:48|276:76|296:96,1,105.000004005432,0|0,2:0|2:0,2:0:0:0:
290,89,134237,1,0,2:0:0:0:
360,192,134383,2,0,P|340:216|312:224,1,52.5000020027161,0|0,2:0|2:0,2:0:0:0:
208,272,134676,1,0,3:0:0:0:
208,272,134823,1,0,2:0:0:0:
108,100,134969,2,0,P|156:56|200:68,1,105.000004005432,0|0,2:0|2:0,2:0:0:0:
472,180,135554,6,0,P|448:240|400:252,1,105.000004005432,0|0,2:0|2:0,2:0:0:0:
316,272,135993,1,0,2:0:0:0:
224,280,136140,2,0,B|184:280|164:320|108:324,1,105.000004005432,0|0,2:0|2:0,2:0:0:0:
76,252,136579,1,0,2:0:0:0:
100,80,136725,2,0,P|136:92|164:92,1,52.5000020027161,0|0,2:0|2:0,2:0:0:0:
268,136,137018,1,0,3:0:0:0:
268,136,137164,1,0,2:0:0:0:
412,352,137310,2,0,P|456:320|464:256,1,105.000004005432,0|0,2:0|2:0,2:0:0:0:
301,28,137896,6,0,B|232:16|180:56|220:124,1,157.500006008148,0|0,2:0|2:0,2:0:0:0:
328,196,138481,2,0,B|320:244|301:258|248:260,1,105.000004005432,0|0,2:0|2:0,2:0:0:0:
208,248,138920,1,0,2:0:0:0:
160,224,139066,2,0,P|136:192|144:160,1,52.5000020027161,0|0,2:0|2:0,2:0:0:0:
184,72,139359,1,0,3:0:0:0:
184,72,139505,1,0,2:0:0:0:
28,252,139652,2,0,P|76:296|120:284,1,105.000004005432,0|0,2:0|2:0,2:0:0:0:
344,196,140237,6,0,P|320:136|272:124,1,105.000004005432,0|0,2:0|2:0,2:0:0:0:
240,200,140676,1,0,2:0:0:0:
208,272,140823,2,0,B|168:272|132:244|112:200,1,105.000004005432,0|0,2:0|2:0,2:0:0:0:
80,112,141262,1,0,2:0:0:0:
244,136,141408,1,0,0:0:0:0:
148,16,141554,1,0,0:0:0:0:
148,192,141701,1,0,3:0:0:0:
264,40,141847,1,0,0:0:0:0:
432,140,141993,2,0,B|447:162|435:196|382:220,1,105.000004005432,0|0,2:0|2:0,2:0:0:0:
224,200,142432,1,0,0:0:0:0:
28,208,142579,6,0,B|40:252|64:276|84:288|112:300|148:304,1,157.500006008148,0|0,2:0|2:0,2:0:0:0:
276,316,143164,2,0,B|301:317|316:292|360:360|388:300,1,105.000004005432,0|0,2:0|2:0,2:0:0:0:
444,244,143603,1,0,2:0:0:0:
376,176,143749,2,0,P|344:176|316:200,1,52.5000020027161,0|0,2:0|2:0,2:0:0:0:
244,240,144042,1,0,3:0:0:0:
244,240,144188,1,0,2:0:0:0:
60,88,144335,2,0,P|108:44|152:56,1,105.000004005432,0|0,2:0|2:0,2:0:0:0:
216,188,144920,6,0,P|192:248|144:260,1,105.000004005432,0|0,2:0|2:0,2:0:0:0:
232,328,145359,1,0,2:0:0:0:
340,320,145506,2,0,B|379:318|403:294|411:254,1,105.000004005432,0|0,2:0|2:0,2:0:0:0:
424,156,145945,1,0,2:0:0:0:
318,132,146091,2,0,P|292:129|264:116,1,52.5000020027161,0|0,2:0|2:0,2:0:0:0:
168,80,146383,1,0,3:0:0:0:
168,80,146530,1,0,3:0:0:0:
288,216,146676,2,0,P|274:265|232:295,1,105.000004005432,0|0,2:0|2:0,2:0:0:0:
52,132,147262,6,0,B|76:88|96:72|140:52,1,105.000004005432,0|0,2:0|2:0,2:0:0:0:
232,48,147701,1,0,0:0:0:0:
172,160,147847,2,0,B|216:128|244:132|276:172,1,105.000004005432,0|0,2:0|2:0,2:0:0:0:
288,272,148286,1,0,2:0:0:0:
164,264,148432,2,0,B|92:252|60:224|60:224,1,105.000004005432,0|0,2:0|2:0,2:0:0:0:
104,120,148871,1,0,2:0:0:0:
200,192,149018,2,0,B|272:180|296:148|296:148,1,105.000004005432,0|0,2:0|2:0,2:0:0:0:
296,48,149457,1,0,2:0:0:0:
184,32,149603,5,0,3:0:0:0:
48,188,149896,1,0,3:0:0:0:
232,332,150188,1,0,3:0:0:0:
324,128,150481,1,0,3:0:0:0:
400,336,150774,2,0,P|358:336|343:317,1,52.5000020027161,0|0,3:0|3:0,3:0:0:0:
400,336,151066,2,0,P|388:296|372:288,1,52.5000020027161,0|0,3:0|3:0,3:0:0:0:
276,224,151359,1,0,3:0:0:0:
256,206,151432,1,0,3:0:0:0:
237,188,151505,1,0,3:0:0:0:
217,170,151578,1,0,3:0:0:0:
198,153,151651,1,0,3:0:0:0:
444,140,151798,6,0,L|456:200,1,35,0|0,3:0|3:0,3:0:0:0:
416,208,151944,2,0,B|372:168|352:120|328:68|320:188|320:188|176:44|108:72|108:72|72:136|104:224|104:224|24:312|152:296|152:296|204:228|204:228|316:264|316:336|348:244|348:244,1,1015,0|0,3:0|3:0,3:0:0:0:
440,104,156335,2,0,P|404:148|388:160,1,52.5000020027161,8|0,3:0|3:0,3:0:0:0:
252,68,156627,5,4,0:0:0:0:
104,168,156774,2,0,L|156:192,4,35,0|0|0|0|0,3:3|3:3|3:3|3:3|3:3,3:3:0:0:
252,68,157213,5,4,0:0:0:0:
252,192,157359,1,0,0:0:0:0:
238,224,157432,1,0,0:0:0:0:
219,253,157505,1,0,0:0:0:0:
197,281,157578,1,0,0:0:0:0:
172,304,157651,1,0,0:0:0:0:
104,168,157798,5,4,0:0:0:0:
232,240,157944,2,0,L|284:264,4,35,0|0|0|0|0,3:3|3:3|3:3|3:3|3:3,3:3:0:0:
104,168,158383,5,4,0:0:0:0:
228,244,158530,1,0,0:0:0:0:
257,261,158603,1,0,0:0:0:0:
291,271,158676,1,0,0:0:0:0:
326,270,158749,1,0,0:0:0:0:
359,260,158822,1,0,0:0:0:0:
432,124,158969,5,4,0:0:0:0:
264,168,159115,2,0,L|316:192,4,35,0|0|0|0|0,3:3|3:3|3:3|3:3|3:3,3:3:0:0:
432,124,159554,5,4,0:0:0:0:
328,184,159701,1,0,0:0:0:0:
296,198,159774,1,0,0:0:0:0:
264,212,159847,1,0,0:0:0:0:
231,225,159920,1,0,0:0:0:0:
198,237,159993,1,0,0:0:0:0:
84,116,160140,5,0,0:0:0:0:
188,272,160286,1,0,0:0:0:0:
188,272,160359,1,0,0:0:0:0:
188,272,160432,1,0,0:0:0:0:
84,116,160579,1,0,0:0:0:0:
240,40,160725,1,0,0:0:0:0:
240,40,160798,1,0,0:0:0:0:
240,40,160871,1,0,0:0:0:0:
392,98,161018,1,0,0:0:0:0:
395,132,161091,1,0,0:0:0:0:
385,165,161164,1,0,0:0:0:0:
362,192,161237,1,0,0:0:0:0:
331,207,161310,6,0,L|268:234,7,35,0|0|0|0|0|0|0|0,3:0|3:0|3:0|3:0|3:0|3:0|3:0|3:0,3:0:0:0:
299,221,161896,6,0,L|236:248,6,35,0|0|0|0|0|0|0,3:0|3:0|3:0|3:0|3:0|3:0|3:0,3:0:0:0:
224,240,162408,1,0,3:0:0:0:
196,218,162481,1,0,3:0:0:0:
184,187,162554,1,0,3:0:0:0:
205,159,162627,1,0,3:0:0:0:
234,141,162701,1,0,3:0:0:0:
265,125,162774,1,0,3:0:0:0:
292,103,162847,1,0,3:0:0:0:
277,77,162920,1,0,3:0:0:0:
243,70,162993,1,0,3:0:0:0:
208,71,163066,5,0,3:0:0:0:
174,79,163140,1,0,3:0:0:0:
142,95,163213,1,0,3:0:0:0:
117,118,163286,1,0,3:0:0:0:
99,148,163359,1,0,3:0:0:0:
91,182,163432,1,0,3:0:0:0:
90,217,163505,1,0,3:0:0:0:
96,248,163579,1,0,3:0:0:0:
127,263,163652,5,0,3:0:0:0:
161,268,163725,1,0,3:0:0:0:
188,249,163798,1,0,3:0:0:0:
185,215,163871,1,0,3:0:0:0:
168,184,163944,1,0,3:0:0:0:
151,154,164018,1,0,3:0:0:0:
137,122,164091,1,0,3:0:0:0:
137,87,164164,1,0,3:0:0:0:
160,61,164237,5,0,3:0:0:0:
192,47,164310,1,0,3:0:0:0:
226,40,164383,1,0,3:0:0:0:
261,36,164457,1,0,3:0:0:0:
296,34,164530,1,0,3:0:0:0:
331,35,164603,1,0,3:0:0:0:
365,37,164676,1,0,3:0:0:0:
400,41,164749,1,0,3:0:0:0:
435,46,164823,5,0,3:0:0:0:
437,81,164896,1,0,3:0:0:0:
435,116,164969,1,0,3:0:0:0:
429,150,165042,1,0,3:0:0:0:
421,184,165115,1,0,3:0:0:0:
408,217,165188,1,0,3:0:0:0:
392,248,165262,1,0,3:0:0:0:
370,275,165335,1,0,3:0:0:0:
344,299,165408,5,0,3:0:0:0:
315,317,165481,1,0,3:0:0:0:
282,330,165554,1,0,3:0:0:0:
248,338,165627,1,0,3:0:0:0:
213,341,165701,1,0,3:0:0:0:
178,340,165774,1,0,3:0:0:0:
143,337,165847,1,0,3:0:0:0:
177,329,165920,1,0,3:0:0:0:
208,312,165993,5,0,3:0:0:0:
233,288,166066,1,0,3:0:0:0:
253,259,166140,1,0,3:0:0:0:
266,227,166213,1,0,3:0:0:0:
272,193,166286,1,0,3:0:0:0:
266,159,166359,1,0,3:0:0:0:
244,132,166432,1,0,3:0:0:0:
215,112,166505,1,0,3:0:0:0:
186,92,166579,5,0,3:0:0:0:
175,61,166652,1,0,3:0:0:0:
201,39,166725,1,0,3:0:0:0:
235,30,166798,1,0,3:0:0:0:
269,27,166871,1,0,3:0:0:0:
304,28,166944,1,0,3:0:0:0:
344,32,167018,1,0,3:0:0:0:
353,65,167091,1,0,3:0:0:0:
361,99,167164,5,0,3:0:0:0:
367,134,167237,1,0,3:0:0:0:
365,168,167310,1,0,3:0:0:0:
348,199,167383,1,0,3:0:0:0:
318,216,167457,1,0,3:0:0:0:
284,223,167530,1,0,3:0:0:0:
249,224,167603,1,0,3:0:0:0:
214,221,167676,1,0,3:0:0:0:
180,213,167749,5,0,3:0:0:0:
148,201,167823,1,0,3:0:0:0:
118,182,167896,1,0,3:0:0:0:
93,157,167969,1,0,3:0:0:0:
75,127,168042,1,0,3:0:0:0:
64,94,168115,1,0,3:0:0:0:
56,83,168188,1,0,3:0:0:0:
45,116,168262,1,0,3:0:0:0:
34,149,168335,5,0,3:0:0:0:
37,184,168408,1,0,3:0:0:0:
43,216,168481,1,0,3:0:0:0:
78,214,168554,1,0,3:0:0:0:
111,204,168627,1,0,3:0:0:0:
142,188,168701,1,0,3:0:0:0:
171,168,168774,1,0,3:0:0:0:
200,148,168847,1,0,3:0:0:0:
229,129,168920,5,0,3:0:0:0:
260,112,168993,1,0,3:0:0:0:
293,100,169066,1,0,3:0:0:0:
327,99,169140,1,0,3:0:0:0:
356,118,169213,1,0,3:0:0:0:
362,152,169286,1,0,3:0:0:0:
347,183,169359,1,0,3:0:0:0:
320,205,169432,1,0,3:0:0:0:
293,227,169505,5,0,3:0:0:0:
266,238,169579,1,0,3:0:0:0:
242,213,169652,1,0,3:0:0:0:
217,188,169725,1,0,3:0:0:0:
193,163,169798,1,0,3:0:0:0:
168,138,169871,1,0,3:0:0:0:
144,113,169944,1,0,3:0:0:0:
164,86,170018,1,0,3:0:0:0:
186,59,170091,5,0,3:0:0:0:
215,44,170164,1,0,3:0:0:0:
250,38,170237,1,0,3:0:0:0:
284,31,170310,1,0,3:0:0:0:
319,25,170383,2,0,B|380:56|408:112|404:156,1,140
72,64,172725,6,0,P|88:112|104:132,1,70,0|0,3:0|3:0,3:0:0:0:
248,280,173018,2,0,P|296:236|292:220,1,70,0|0,3:0|3:0,3:0:0:0:
264,36,173310,2,0,P|216:56|196:84,1,70,0|0,3:0|3:0,3:0:0:0:
168,280,173603,2,0,P|124:272|104:248,1,70,0|0,3:0|3:0,3:0:0:0:
84,232,173823,1,0,3:0:0:0:
64,200,173896,1,0,3:0:0:0:
64,24,174042,1,0,3:0:0:0:
324,24,174188,6,0,P|336:68|308:112,1,70,0|0,3:0|3:0,3:0:0:0:
184,228,174481,2,0,P|208:268|236:272,1,70,0|0,3:0|3:0,3:0:0:0:
220,92,174774,2,0,P|176:80|148:100,1,70,0|0,3:0|3:0,3:0:0:0:
128,112,174993,1,0,3:0:0:0:
104,136,175066,1,0,3:0:0:0:
48,304,175213,1,0,3:0:0:0:
256,316,175359,5,0,3:0:0:0:
291,316,175432,1,0,3:0:0:0:
326,316,175505,1,0,3:0:0:0:
361,316,175578,1,0,3:0:0:0:
396,316,175652,2,0,P|444:312|456:288,1,70,0|0,3:0|3:0,3:0:0:0:
424,116,175944,1,0,3:0:0:0:
328,248,176091,1,0,3:0:0:0:
252,112,176237,2,0,P|248:76|220:52,1,70,0|0,3:0|3:0,3:0:0:0:
88,116,176530,5,0,3:0:0:0:
68,144,176603,1,0,3:0:0:0:
54,176,176676,1,0,3:0:0:0:
46,210,176749,1,0,3:0:0:0:
46,245,176823,2,0,P|72:276|104:276,1,70,0|0,3:0|3:0,3:0:0:0:
236,152,177115,2,0,P|272:188|280:212,1,70,0|0,3:0|3:0,3:0:0:0:
344,356,177408,1,0,3:0:0:0:
136,264,177554,1,0,3:0:0:0:
96,48,177701,6,0,B|120:80|172:104|192:104,1,105,0|0,3:0|3:0,3:0:0:0:
288,128,177993,2,0,P|288:172|268:192,1,70,0|0,3:0|3:0,3:0:0:0:
60,320,178286,1,0,3:0:0:0:
292,312,178505,1,0,3:0:0:0:
292,312,178579,2,0,P|328:280|352:296,1,70,0|0,3:0|3:0,3:0:0:0:
392,124,178871,6,0,P|364:164|340:176,1,70,0|0,3:0|3:0,3:0:0:0:
152,160,179164,2,0,P|103:132|82:96,1,70,0|0,3:0|3:0,3:0:0:0:
20,352,179457,2,0,P|44:320|84:304,1,70,0|0,3:0|3:0,3:0:0:0:
172,308,179676,1,0,3:0:0:0:
208,308,179749,1,0,3:0:0:0:
241,298,179822,1,0,3:0:0:0:
270,279,179895,1,0,3:0:0:0:
291,251,179968,1,0,3:0:0:0:
303,218,180042,6,0,P|312:164|280:152,1,70,0|0,3:0|3:0,3:0:0:0:
192,32,180335,2,0,P|156:76|128:80,1,70,0|0,3:0|3:0,3:0:0:0:
48,200,180627,2,0,P|76:228|112:232,1,70,0|0,3:0|3:0,3:0:0:0:
104,232,180847,1,0,3:0:0:0:
112,236,180920,1,0,3:0:0:0:
256,268,181066,1,0,3:0:0:0:
372,152,181213,6,0,P|336:116|304:116,1,70,0|0,3:0|3:0,3:0:0:0:
168,112,181505,2,0,P|160:156|124:184,1,70,0|0,3:0|3:0,3:0:0:0:
56,288,181798,2,0,L|88:312,3,35,0|0|0|0,3:0|3:0|3:0|3:0,3:0:0:0:
124,324,182091,2,0,P|160:324|192:292,1,70,0|0,3:0|3:0,3:0:0:0:
256,152,182383,6,0,P|212:164|180:200,1,70,0|0,3:0|3:0,3:0:0:0:
68,268,182676,2,0,P|40:224|40:200,1,70,0|0,3:0|3:0,3:0:0:0:
44,52,182969,1,0,3:0:0:0:
212,104,183115,1,0,3:0:0:0:
212,104,183188,1,0,3:0:0:0:
212,104,183262,1,0,3:0:0:0:
372,40,183408,1,0,3:0:0:0:
504,148,183554,6,0,P|496:188|456:216,1,70,0|0,3:0|3:0,3:0:0:0:
336,120,183847,2,0,P|296:148|252:152,1,70,0|0,3:0|3:0,3:0:0:0:
60,96,184140,2,0,P|104:144|120:152,1,70,0|0,3:0|3:0,3:0:0:0:
256,240,184432,1,0,3:0:0:0:
256,240,184579,1,0,3:0:0:0:
192,344,184725,5,0,3:0:0:0:
157,344,184798,1,0,3:0:0:0:
122,344,184871,1,0,3:0:0:0:
87,344,184944,1,0,3:0:0:0:
52,344,185018,2,0,P|20:328|32:272,1,70,0|0,3:0|3:0,3:0:0:0:
24,88,185310,2,0,P|68:112|84:132,1,70,0|0,3:0|3:0,3:0:0:0:
168,228,185603,1,0,3:0:0:0:
164,72,185749,1,0,3:0:0:0:
332,144,185896,5,0,3:0:0:0:
359,164,185969,1,0,3:0:0:0:
378,194,186042,1,0,3:0:0:0:
389,227,186115,1,0,3:0:0:0:
388,262,186188,1,0,3:0:0:0:
272,340,186335,1,0,3:0:0:0:
216,208,186481,1,0,3:0:0:0:
112,340,186627,1,0,3:0:0:0:
120,120,186774,2,0,P|164:92|204:88,1,70,0|0,3:0|3:0,3:0:0:0:
444,96,187066,6,0,P|476:152|464:180,1,70,0|0,3:0|3:0,3:0:0:0:
432,236,187286,1,0,3:0:0:0:
360,296,187359,2,0,P|320:328|292:336,1,70,0|0,3:0|3:0,3:0:0:0:
228,104,187652,2,0,P|184:100|144:132,1,70,0|0,3:0|3:0,3:0:0:0:
72,148,187871,1,0,3:0:0:0:
52,248,187944,2,0,P|92:280|120:288,1,70,0|0,3:0|3:0,3:0:0:0:
368,176,188237,6,0,L|368:268,1,70,0|0,3:0|3:0,3:0:0:0:
208,144,188530,2,0,L|204:224,1,70,0|0,3:0|3:0,3:0:0:0:
32,152,188823,2,0,L|32:252,1,70,0|0,3:0|3:0,3:0:0:0:
36,332,189042,1,0,3:0:0:0:
64,328,189115,1,0,3:0:0:0:
98,320,189188,1,0,3:0:0:0:
131,308,189261,1,0,3:0:0:0:
162,292,189334,1,0,3:0:0:0:
192,274,189407,5,0,3:0:0:0:
384,272,189554,1,0,3:0:0:0:
368,40,189701,2,0,P|360:100|344:112,1,70,0|0,3:0|3:0,3:0:0:0:
232,192,189993,2,0,P|248:144|232:128,1,70,0|0,3:0|3:0,3:0:0:0:
212,112,190213,1,0,3:0:0:0:
188,96,190286,1,0,3:0:0:0:
56,68,190432,1,0,3:0:0:0:
52,252,190579,6,0,P|67:283|94:305,1,70,0|0,3:0|3:0,3:0:0:0:
164,176,190871,2,0,P|184:148|188:114,1,70,0|0,3:0|3:0,3:0:0:0:
336,64,191164,2,0,L|368:88,3,35,0|0|0|0,3:0|3:0|3:0|3:0,3:0:0:0:
392,120,191457,2,0,P|365:142|333:156,1,70,0|0,3:0|3:0,3:0:0:0:
128,176,191749,6,0,P|128:212|160:248,1,70,0|0,3:0|3:0,3:0:0:0:
360,276,192042,2,0,P|348:308|304:344,1,70,0|0,3:0|3:0,3:0:0:0:
140,344,192335,2,0,P|88:328|72:296,1,70,0|0,3:0|3:0,3:0:0:0:
64,280,192554,1,0,3:0:0:0:
60,244,192627,2,0,B|88:208|148:208|128:216,1,70,0|0,3:0|3:0,3:0:0:0:
284,148,192920,6,0,P|280:184|256:232,1,70,0|0,3:0|3:0,3:0:0:0:
40,108,193213,2,0,P|56:160|76:204,1,70,0|0,3:0|3:0,3:0:0:0:
248,48,193505,2,0,P|248:96|232:124,1,70,0|0,3:0|3:0,3:0:0:0:
192,276,193798,1,0,3:0:0:0:
192,276,193944,1,0,3:0:0:0:
36,196,194091,5,0,3:0:0:0:
36,161,194164,1,0,3:0:0:0:
37,126,194237,1,0,3:0:0:0:
38,91,194310,1,0,3:0:0:0:
39,56,194383,2,0,P|83:31|127:35,1,70,0|0,3:0|3:0,3:0:0:0:
292,36,194676,1,0,3:0:0:0:
444,128,194823,1,0,3:0:0:0:
444,128,194896,1,0,3:0:0:0:
444,128,194969,2,0,P|424:168|392:184,1,70,0|0,3:0|3:0,3:0:0:0:
268,224,195262,5,0,3:0:0:0:
241,202,195335,1,0,3:0:0:0:
229,170,195408,1,0,3:0:0:0:
225,135,195481,1,0,3:0:0:0:
226,100,195554,2,0,P|236:60|196:40,1,70,0|0,3:0|3:0,3:0:0:0:
52,40,195847,1,0,3:0:0:0:
56,224,195993,1,0,3:0:0:0:
56,224,196066,1,0,3:0:0:0:
56,224,196140,2,0,P|100:216|124:196,1,70,0|0,3:0|3:0,3:0:0:0:
240,48,196432,6,0,B|280:72|296:100|248:140,1,105,0|0,3:0|3:0,3:0:0:0:
257,130,196725,1,0,3:0:0:0:
176,252,196871,1,0,3:0:0:0:
92,120,197018,2,0,P|60:160|64:184,1,70,0|0,3:0|3:0,3:0:0:0:
184,284,197310,2,0,P|144:308|144:336,1,70,0|0,3:0|3:0,3:0:0:0:
320,328,197603,6,0,P|356:304|380:260,1,70,0|0,3:0|3:0,3:0:0:0:
372,120,197896,2,0,P|332:172|300:184,1,70,0|0,3:0|3:0,3:0:0:0:
148,232,198188,1,0,3:0:0:0:
148,232,198335,1,0,3:0:0:0:
136,40,198481,1,0,3:0:0:0:
153,69,198554,1,0,3:0:0:0:
180,92,198627,1,0,3:0:0:0:
213,104,198700,1,0,3:0:0:0:
248,104,198774,6,0,P|288:104|308:132,1,70,0|0,3:0|3:0,3:0:0:0:
360,264,199066,2,0,P|332:296|304:312,1,70,0|0,3:0|3:0,3:0:0:0:
200,176,199359,2,0,P|164:192|152:224,1,70,0|0,3:0|3:0,3:0:0:0:
152,218,199579,1,0,3:0:0:0:
152,218,199652,1,0,3:0:0:0:
316,344,199798,1,0,3:0:0:0:
400,196,199944,6,0,P|356:172|340:148,1,70,0|0,3:0|3:0,3:0:0:0:
228,24,200237,2,0,P|184:36|172:72,1,70,0|0,3:0|3:0,3:0:0:0:
112,240,200530,1,0,3:0:0:0:
146,244,200603,1,0,3:0:0:0:
181,241,200676,1,0,3:0:0:0:
213,227,200749,1,0,3:0:0:0:
238,203,200822,1,0,3:0:0:0:
300,64,200969,1,0,3:0:0:0:
116,68,201115,6,0,P|136:124|136:152,1,70,0|0,3:0|3:0,3:0:0:0:
208,304,201408,2,0,P|244:272|284:272,1,70,0|0,3:0|3:0,3:0:0:0:
392,160,201701,1,0,3:0:0:0:
392,160,201847,1,0,3:0:0:0:
296,24,201993,2,0,P|244:64|224:64,1,70,0|0,3:0|3:0,3:0:0:0:
56,44,202286,6,0,P|44:112|52:120,1,70,0|0,3:0|3:0,3:0:0:0:
244,148,202579,2,0,P|228:208|196:224,1,70,0|0,3:0|3:0,3:0:0:0:
52,296,202871,2,0,P|28:236|24:200,1,70,0|0,3:0|3:0,3:0:0:0:
108,76,203164,1,0,3:0:0:0:
108,76,203310,1,0,3:0:0:0:
280,48,203457,5,0,3:0:0:0:
280,82,203530,1,0,3:0:0:0:
281,117,203603,1,0,3:0:0:0:
282,152,203676,1,0,3:0:0:0:
283,187,203749,1,0,3:0:0:0:
280,304,203896,2,0,P|244:320|208:320,1,70,0|0,3:0|3:0,3:0:0:0:
92,264,204188,1,0,3:0:0:0:
100,120,204335,2,0,P|148:128|160:156,1,70,0|0,3:0|3:0,3:0:0:0:
192,308,204627,5,0,3:0:0:0:
227,308,204700,1,0,3:0:0:0:
262,308,204773,1,0,3:0:0:0:
297,308,204846,1,0,3:0:0:0:
332,308,204920,2,0,P|380:280|388:256,1,70,0|0,3:0|3:0,3:0:0:0:
396,96,205213,1,0,3:0:0:0:
252,192,205359,1,0,3:0:0:0:
376,24,205505,1,0,3:0:0:0:
160,24,205652,1,0,3:0:0:0:
56,180,205798,6,0,P|84:216|116:240,1,70,0|0,3:0|3:0,3:0:0:0:
128,248,206018,1,0,3:0:0:0:
156,264,206091,1,0,3:0:0:0:
332,336,206237,1,0,3:0:0:0:
356,100,206383,2,0,P|308:92|284:124,1,70,0|0,3:0|3:0,3:0:0:0:
268,128,206603,1,0,3:0:0:0:
248,152,206676,1,0,3:0:0:0:
168,276,206823,1,0,3:0:0:0:
427,173,206969,6,0,L|424:104,1,70,0|0,3:0|3:0,3:0:0:0:
280,310,207262,2,0,L|280:240,1,70,0|0,3:0|3:0,3:0:0:0:
244,40,207554,2,0,L|164:104,1,70,0|0,3:0|3:0,3:0:0:0:
60,132,207847,1,0,3:0:0:0:
41,161,207920,1,0,3:0:0:0:
32,195,207993,1,0,3:0:0:0:
33,229,208066,1,0,3:0:0:0:
80,300,208140,5,0,0:0:0:0:
97,269,208213,1,0,0:0:0:0:
126,261,208286,1,0,0:0:0:0:
148,288,208359,1,0,0:0:0:0:
169,316,208432,1,0,0:0:0:0:
199,333,208505,1,0,0:0:0:0:
226,313,208579,1,0,0:0:0:0:
243,282,208652,1,0,0:0:0:0:
257,250,208725,2,0,P|288:220|316:220,1,70,0|0,0:0|0:0,3:0:0:0:
336,116,208944,2,0,P|328:76|288:64,1,70,0|0,0:0|0:0,3:0:0:0:
160,76,209164,1,0,0:0:0:0:
100,196,209310,6,0,P|156:216|184:200,1,70
264,136,209530,2,0,P|288:176|316:184,1,70
376,80,209749,1,0,0:0:0:0:
256,28,209896,2,0,P|216:52|212:76,1,70
32,96,210188,2,0,P|32:148|12:172,1,70
92,272,210481,5,0,0:0:0:0:
110,301,210554,1,0,0:0:0:0:
139,320,210627,1,0,0:0:0:0:
173,320,210700,1,0,0:0:0:0:
194,293,210773,1,0,0:0:0:0:
187,260,210846,1,0,0:0:0:0:
162,236,210920,1,0,0:0:0:0:
148,207,210993,1,0,0:0:0:0:
160,174,211066,2,0,P|164:128|180:104,1,70
288,24,211286,2,0,P|320:52|332:80,1,70
368,192,211505,1,0,0:0:0:0:
364,360,211652,6,0,B|332:340|300:336|268:344,1,70
116,300,211944,1,0,0:0:0:0:
116,300,212091,1,0,0:0:0:0:
188,144,212237,2,0,P|144:132|124:100,1,70
296,52,212530,1,0,3:0:0:0:
296,52,212676,1,0,3:0:0:0:
360,180,212823,5,0,0:0:0:0:
342,209,212896,1,0,0:0:0:0:
308,214,212969,1,0,0:0:0:0:
275,203,213042,1,0,0:0:0:0:
241,195,213115,1,0,0:0:0:0:
226,222,213188,1,0,0:0:0:0:
222,257,213262,1,0,0:0:0:0:
193,272,213335,1,0,0:0:0:0:
184,316,213408,5,0,0:0:0:0:
184,316,213481,1,0,0:0:0:0:
184,316,213554,1,0,0:0:0:0:
184,316,213627,1,0,0:0:0:0:
184,316,213701,1,0,0:0:0:0:
184,316,213774,1,0,0:0:0:0:
184,316,213847,1,0,0:0:0:0:
184,316,213920,1,0,0:0:0:0:
184,316,213993,6,0,P|244:312|256:300,1,70
248,307,214213,1,0,0:0:0:0:
248,307,214286,1,0,0:0:0:0:
404,168,214432,1,0,0:0:0:0:
208,80,214579,2,0,P|148:100|112:136,1,105,0|0,0:0|0:0,3:0:0:0:
92,192,214871,2,0,P|92:232|136:260,1,70
304,112,215164,6,0,P|304:172|288:192,1,70
228,316,215457,1,0,0:0:0:0:
228,316,215603,1,0,0:0:0:0:
376,244,215749,2,0,B|404:200|388:156|368:124,1,105
296,120,215969,2,0,P|241:151|196:135,1,105.000004005432
180,24,216188,1,0,0:0:0:0:
64,72,216335,5,0,0:0:0:0:
78,103,216408,1,0,0:0:0:0:
99,132,216481,1,0,0:0:0:0:
124,155,216554,1,0,0:0:0:0:
154,173,216627,2,0,P|192:188|228:188,1,70
460,172,216920,2,0,P|476:216|448:244,1,70
268,304,217213,1,0,0:0:0:0:
234,315,217286,1,0,0:0:0:0:
200,319,217359,1,0,0:0:0:0:
165,317,217432,1,0,0:0:0:0:
128,316,217505,6,0,P|84:308|52:288,1,70
32,92,217798,1,0,0:0:0:0:
220,24,217944,2,0,P|268:40|280:68,1,70
312,248,218237,1,0,0:0:0:0:
156,128,218383,2,0,P|128:156|136:188,1,70
32,324,218676,5,0,0:0:0:0:
208,180,218823,2,0,P|168:212|160:252,1,70
328,300,219115,1,0,0:0:0:0:
328,88,219262,2,0,P|308:144|276:160,1,70
96,172,219554,2,0,L|64:124,3,35
64,196,219847,6,0,P|76:240|92:256,1,70
336,324,220140,1,0,0:0:0:0:
328,104,220286,2,0,P|304:52|288:40,1,70
192,208,220579,1,0,0:0:0:0:
76,48,220725,2,0,P|108:72|124:104,1,70
64,324,221018,1,0,0:0:0:0:
168,128,221164,2,0,P|208:136|232:160,1,70
432,324,221457,1,0,0:0:0:0:
276,312,221603,6,0,P|232:296|208:268,1,70
140,112,221896,6,0,P|184:88|208:88,1,70
240,92,222115,1,0,0:0:0:0:
240,92,222188,1,0,0:0:0:0:
348,236,222335,1,0,0:0:0:0:
348,236,222408,1,0,0:0:0:0:
348,236,222481,1,0,0:0:0:0:
140,304,222627,1,0,0:0:0:0:
140,304,222701,1,0,0:0:0:0:
140,304,222774,1,0,0:0:0:0:
92,56,222920,5,0,0:0:0:0:
92,56,222993,1,0,0:0:0:0:
92,56,223066,1,0,0:0:0:0:
288,100,223213,1,0,0:0:0:0:
288,100,223286,1,0,0:0:0:0:
288,100,223359,1,0,0:0:0:0:
144,232,223505,1,0,0:0:0:0:
144,232,223579,1,0,0:0:0:0:
144,232,223652,1,0,0:0:0:0:
340,236,223798,5,0,0:0:0:0:
340,236,223871,1,0,0:0:0:0:
340,236,223944,1,0,0:0:0:0:
208,60,224091,1,0,0:0:0:0:
208,60,224164,1,0,0:0:0:0:
208,60,224237,1,0,0:0:0:0:
44,172,224383,1,0,3:0:0:0:
52,205,224456,1,0,3:0:0:0:
72,233,224529,5,0,3:0:0:0:
104,246,224602,1,0,3:0:0:0:
138,256,224675,1,0,3:0:0:0:
148,284,224748,1,0,3:0:0:0:
124,308,224822,1,0,3:0:0:0:
133,330,224895,1,0,3:0:0:0:
168,334,224968,1,0,3:0:0:0:
203,335,225041,1,0,3:0:0:0:
238,333,225115,5,0,3:0:0:0:
273,331,225187,1,0,3:0:0:0:
308,329,225261,1,0,3:0:0:0:
331,307,225334,1,0,3:0:0:0:
346,276,225407,1,0,3:0:0:0:
357,242,225480,1,0,3:0:0:0:
360,208,225553,1,0,3:0:0:0:
226,300,226286,6,0,L|296:304,1,70
296,304,226505,1,0,0:0:0:0:
296,304,226579,1,0,0:0:0:0:
312,316,226652,1,0,0:0:0:0:
312,316,226725,1,0,0:0:0:0:
312,316,226798,1,0,0:0:0:0:
312,316,226871,6,0,B|352:296|364:276|372:232|372:192|352:176,1,140
324,68,227310,2,0,P|280:128|216:152,1,140
220,151,227676,1,0,0:0:0:0:
220,151,227749,1,0,0:0:0:0:
76,216,227896,1,0,0:0:0:0:
72,36,228042,6,0,P|124:68|144:72,1,70
332,108,228335,1,0,0:0:0:0:
384,240,228481,1,0,0:0:0:0:
356,264,228554,1,0,0:0:0:0:
332,284,228627,1,0,0:0:0:0:
152,328,228774,1,0,0:0:0:0:
152,328,228847,1,0,0:0:0:0:
152,328,228920,1,0,0:0:0:0:
44,200,229066,1,0,0:0:0:0:
51,165,229139,1,0,0:0:0:0:
79,151,229212,5,0,0:0:0:0:
112,163,229285,1,0,0:0:0:0:
145,174,229358,1,0,0:0:0:0:
179,169,229431,1,0,0:0:0:0:
203,144,229505,1,0,0:0:0:0:
256,24,229652,1,0,0:0:0:0:
256,24,229798,2,0,P|304:40|316:68,1,70
352,204,230091,1,0,0:0:0:0:
352,204,230164,1,0,0:0:0:0:
352,204,230237,1,0,0:0:0:0:
256,48,230383,5,0,0:0:0:0:
164,168,230530,1,0,0:0:0:0:
256,48,230676,1,0,0:0:0:0:
40,136,230823,1,0,0:0:0:0:
256,48,230969,1,0,0:0:0:0:
288,252,231115,1,0,0:0:0:0:
256,48,231262,1,0,0:0:0:0:
60,224,231408,1,0,0:0:0:0:
200,300,231554,5,0,0:0:0:0:
222,326,231627,1,0,0:0:0:0:
251,345,231700,1,0,0:0:0:0:
284,355,231773,1,0,0:0:0:0:
319,353,231847,2,0,P|360:352|372:316,1,70
372,176,232140,1,0,0:0:0:0:
304,44,232286,1,0,0:0:0:0:
269,45,232359,1,0,0:0:0:0:
234,47,232432,1,0,0:0:0:0:
108,56,232579,1,0,0:0:0:0:
224,176,232725,5,0,0:0:0:0:
199,200,232798,1,0,0:0:0:0:
168,216,232871,1,0,0:0:0:0:
134,222,232944,1,0,0:0:0:0:
99,218,233018,2,0,P|56:216|44:248,1,70
152,348,233310,1,0,0:0:0:0:
280,248,233456,1,0,0:0:0:0:
305,223,233529,1,0,0:0:0:0:
327,197,233602,1,0,0:0:0:0:
368,48,233749,1,0,0:0:0:0:
172,36,233896,5,0,0:0:0:0:
138,45,233969,1,0,0:0:0:0:
112,68,234042,1,0,0:0:0:0:
97,99,234115,1,0,0:0:0:0:
96,134,234188,1,0,0:0:0:0:
284,168,234335,2,0,B|332:136|348:120|392:160|408:184,1,140
488,316,234774,1,0,0:0:0:0:
488,316,234920,1,0,0:0:0:0:
428,144,235066,6,0,B|408:112|376:96|336:92,1,105
240,80,235359,2,0,P|208:128|168:156,1,105
100,220,235652,1,0,0:0:0:0:
280,328,235798,1,0,0:0:0:0:
268,176,235944,1,0,0:0:0:0:
140,336,236091,1,0,0:0:0:0:
64,204,236237,6,0,P|36:160|56:136,1,70
160,40,236530,2,0,P|184:76|220:96,1,70
104,168,236823,1,0,0:0:0:0:
152,296,236969,1,0,0:0:0:0:
152,296,237042,1,0,0:0:0:0:
152,296,237115,2,0,P|204:288|224:252,1,70
304,176,237408,1,0,0:0:0:0:
360,40,237554,2,0,P|308:36|272:44,1,70,0|0,0:0|0:0,3:0:0:0:
64,128,237847,5,0,0:0:0:0:
64,128,237920,1,0,0:0:0:0:
64,128,237993,2,0,P|76:188|92:200,1,70
104,216,238213,1,0,0:0:0:0:
138,217,238286,1,0,0:0:0:0:
167,199,238359,1,0,0:0:0:0:
185,169,238432,1,0,0:0:0:0:
308,136,238579,5,0,0:0:0:0:
314,170,238652,1,0,0:0:0:0:
316,204,238725,1,0,0:0:0:0:
311,240,238798,1,0,0:0:0:0:
309,273,238871,2,0,P|291:306|263:322,1,70
48,304,239164,2,0,P|88:276|96:236,1,70
104,96,239457,1,0,0:0:0:0:
104,96,239531,1,0,0:0:0:0:
104,96,239603,1,0,0:0:0:0:
224,48,239749,6,0,P|260:28|316:20,1,70
396,120,240042,2,0,P|420:148|436:204,1,70
416,348,240335,2,0,P|456:328|476:296,1,70
312,260,240627,2,0,P|272:264|240:256,1,70
104,160,240920,6,0,P|144:104|168:88,1,70
180,88,241140,1,0,0:0:0:0:
224,80,241213,2,0,P|284:100|300:128,1,70
312,140,241432,1,0,0:0:0:0:
356,148,241505,2,0,P|396:120|392:84,1,70
360,44,241725,1,0,0:0:0:0:
296,28,241798,2,0,P|260:48|256:84,1,70
248,144,242018,1,0,0:0:0:0:
248,216,242091,1,0,0:0:0:0:
76,320,242237,5,0,0:0:0:0:
76,320,242310,1,0,0:0:0:0:
76,320,242383,1,0,0:0:0:0:
152,108,242530,1,0,0:0:0:0:
152,108,242603,1,0,0:0:0:0:
152,108,242676,1,0,0:0:0:0:
352,216,242823,1,0,0:0:0:0:
352,216,242896,1,0,0:0:0:0:
352,216,242969,1,0,0:0:0:0:
160,344,243115,1,0,0:0:0:0:
160,344,243188,1,0,0:0:0:0:
160,344,243262,5,0,0:0:0:0:
84,192,243408,1,0,0:0:0:0:
224,104,243554,1,0,0:0:0:0:
352,232,243701,1,0,0:0:0:0:
352,52,243847,1,0,0:0:0:0:
352,256,243993,1,0,0:0:0:0:
352,24,244140,1,0,0:0:0:0:
356,280,244286,1,0,0:0:0:0:
244,104,244432,5,0,3:0:0:0:
216,82,244505,1,0,3:0:0:0:
183,86,244578,1,0,3:0:0:0:
157,110,244651,1,0,3:0:0:0:
136,137,244724,1,0,3:0:0:0:
114,165,244797,1,0,3:0:0:0:
91,191,244871,1,0,3:0:0:0:
63,211,244944,1,0,3:0:0:0:
82,235,245017,5,0,3:0:0:0:
114,249,245090,1,0,3:0:0:0:
147,258,245163,1,0,3:0:0:0:
182,255,245236,1,0,3:0:0:0:
217,251,245310,1,0,3:0:0:0:
252,248,245383,1,0,3:0:0:0:
267,258,245456,1,0,3:0:0:0:
250,288,245529,1,0,3:0:0:0:
233,319,245603,5,0,1:0:0:0:
12,24,246188,1,0,0:0:0:0:
164,360,246774,1,0,0:0:0:0:
440,20,247359,1,0,0:0:0:0:
256,192,247944,12,0,250286,3:0:0:0:
