osu file format v14

[General]
AudioFilename: LegenD..mp3
AudioLeadIn: 0
PreviewTime: 61495
Countdown: 0
SampleSet: Normal
StackLeniency: 0.3
Mode: 0
LetterboxInBreaks: 0
WidescreenStoryboard: 0

[Editor]
Bookmarks: 910,1788,2080,5300,5592,7934,9105,10275,14373,14958,16129,17300,24324,26666,27836,28129,29007,33690,36031,38373,43056,47739,52422,54763,57105,60031,61788,71108,71690,74894,80428,82467,89749,94409,96739,97904,99069,103729,105622,106059,108389,113050
DistanceSpacing: 3.5
BeatDivisor: 4
GridSize: 4
TimelineZoom: 4.499998

[Metadata]
Title:LegenD.
TitleUnicode:LegenD.
Artist:Yooh
ArtistUnicode:Yooh
Creator:Rose Pacifica
Version:GRAVITY
Source:SOUND VOLTEX III -GRAVITY WARS-
Tags:Him3con Gimbab Left Karia Taeyang [C_u_r_i]
BeatmapID:892324
BeatmapSetID:377128

[Difficulty]
HPDrainRate:5.6
CircleSize:4
OverallDifficulty:8.6
ApproachRate:9.6
SliderMultiplier:1.8
SliderTickRate:1

[Events]
//Background and Video events
0,0,"LD.jpg",0,0
//Break Periods
//Storyboard Layer 0 (Background)
//Storyboard Layer 1 (Fail)
//Storyboard Layer 2 (Pass)
//Storyboard Layer 3 (Foreground)
//Storyboard Sound Samples

[TimingPoints]
910,292.682926829268,4,2,70,70,1,0
910,-133.333333333333,4,2,70,70,0,0
983,-133.333333333333,4,2,70,30,0,0
2080,-133.333333333333,4,2,70,40,0,0
3251,-133.333333333333,4,2,70,50,0,0
4422,-133.333333333333,4,2,70,60,0,0
5300,-133.333333333333,4,2,70,70,0,0
5592,-133.333333333333,4,2,70,30,0,0
6763,-133.333333333333,4,2,70,40,0,0
7934,-111.111111111111,4,2,70,50,0,0
9251,-111.111111111111,4,2,70,60,0,0
10275,-100,4,2,70,70,0,0
17300,-100,4,2,0,50,0,0
17592,-111.111111111111,4,2,0,50,0,0
17885,-133.333333333333,4,2,0,50,0,0
18178,-166.666666666667,4,2,0,50,0,0
19056,-133.333333333333,4,2,0,50,0,0
19349,-100,4,2,0,50,0,0
19641,-100,4,2,70,70,0,0
24031,-166.666666666667,4,2,70,70,0,0
24324,-100,4,2,70,70,0,0
26666,-83.3333333333333,4,2,70,70,0,0
26739,-83.3333333333333,4,2,70,10,0,0
26812,-83.3333333333333,4,2,70,70,0,0
26885,-83.3333333333333,4,2,70,10,0,0
26958,-83.3333333333333,4,2,70,70,0,0
27324,-83.3333333333333,4,2,70,10,0,0
27397,-83.3333333333333,4,2,70,70,0,0
27470,-83.3333333333333,4,2,70,10,0,0
27544,-83.3333333333333,4,2,70,70,0,0
28422,-66.6666666666667,4,2,70,70,0,0
28714,-83.3333333333333,4,2,70,70,0,0
28751,-83.3333333333333,4,2,70,50,0,0
28788,-83.3333333333333,4,2,70,45,0,0
28824,-83.3333333333333,4,2,70,40,0,0
28861,-83.3333333333333,4,2,70,35,0,0
28897,-83.3333333333333,4,2,70,50,0,0
29007,-100,4,2,70,70,0,0
40129,-83.3333333333333,4,2,70,70,0,0
40422,-133.333333333333,4,2,70,70,0,0
40714,-100,4,2,70,70,0,0
41885,-66.6666666666667,4,2,70,70,0,0
42470,-133.333333333333,4,2,70,70,0,0
43056,-100,4,2,70,70,0,0
46568,-133.333333333333,4,2,70,70,0,0
46788,-90.9090909090909,4,2,70,70,0,0
47007,-133.333333333333,4,2,70,70,0,0
47227,-83.3333333333333,4,2,70,70,0,0
47739,-100,4,2,70,70,0,0
51836,-83.3333333333333,4,2,70,70,0,0
52422,-133.333333333333,4,2,70,70,0,0
52714,-100,4,2,70,70,0,0
54763,-133.333333333333,4,2,70,70,0,0
57105,-200,4,2,70,30,0,0
57690,-200,4,2,70,40,0,0
58275,-133.333333333333,4,2,70,40,0,0
59446,-100,4,2,70,50,0,0
60617,-83.3333333333333,4,2,70,60,0,0
61495,-66.6666666666667,4,1,71,90,0,0
61641,-66.6666666666667,4,1,71,90,0,1
61788,291.26213592233,4,1,71,80,1,1
79554,-90.9090909090909,4,1,71,80,0,1
79846,-83.3333333333333,4,1,71,80,0,1
80137,-133.333333333333,4,1,71,80,0,1
80428,-100,4,1,71,80,0,1
89749,-100,4,1,71,70,0,0
97904,-100,4,2,71,30,0,0
98050,-200,4,1,71,5,0,0
98195,-200,4,1,71,50,0,0
98341,-200,4,1,71,60,0,0
98487,-200,4,1,71,70,0,0
98632,-200,4,2,71,20,0,0
98778,-100,4,1,71,90,0,0
98923,-100,4,1,71,100,0,0
99069,-83.3333333333333,4,1,71,80,0,1
108389,-100,4,1,71,80,0,0
117710,-100,4,1,71,100,0,0
117783,-100,4,1,71,80,0,0
120040,-100,4,2,0,20,0,0

[Colours]
Combo1 : 188,193,136
Combo2 : 103,89,106

[HitObjects]
348,248,617,5,0,0:0:0:0:
468,284,763,2,0,P|464:316|436:356,1,45,0|0,0:0|0:0,0:0:0:0:
408,200,910,6,0,P|396:156|404:116,2,67.5000025749208,4|0|0,0:0|0:0|0:0,0:0:0:0:
476,80,1349,2,0,P|420:64|316:60,1,135.000005149842,0|0,0:0|0:0,0:0:0:0:
248,40,1788,2,0,L|164:56,1,67.5000025749208,2|0,0:0|0:0,0:0:0:0:
64,161,2080,6,0,P|131:165|196:183,1,135.000005149842,2|0,0:0|0:0,0:0:0:0:
132,308,2519,2,0,L|120:232,2,67.5000025749208,0|0|0,0:0|0:0|0:0,0:0:0:0:
227,295,2958,2,0,P|220:329|215:362,1,67.5000025749208,2|0,0:0|0:0,0:0:0:0:
362,292,3251,6,0,L|226:296,1,135.000005149842,2|0,0:0|0:0,0:0:0:0:
371,186,3690,2,0,L|304:180,2,67.5000025749208
224,88,4129,2,0,P|258:86|292:83,1,67.5000025749208,2|0,0:0|0:0,0:0:0:0:
152,32,4422,6,0,P|118:30|84:27,1,67.5000025749208,2|0,0:0|0:0,0:0:0:0:
152,168,4714,1,0,0:0:0:0:
291,94,4861,2,0,L|224:88,1,67.5000025749208
404,76,5153,1,0,0:0:0:0:
371,186,5300,5,8,0:0:0:0:
328,4,5446,1,2,0:0:0:0:
436,88,5592,6,0,P|489:129|505:219,1,135.000005149842,2|0,0:0|0:0,0:0:0:0:
380,252,6031,2,0,P|398:198|423:168,1,67.5000025749208,0|0,3:0|3:0,3:0:0:0:
476,264,6324,1,0,0:0:0:0:
380,340,6470,2,0,L|292:344,1,67.5000025749208,2|0,0:0|0:0,0:0:0:0:
206,211,6763,6,0,P|235:150|225:85,1,135.000005149842,2|0,0:0|0:0,0:0:0:0:
124,48,7202,2,0,L|40:60,1,67.5000025749208,0|0,0:0|0:0,0:0:0:0:
132,136,7495,1,0,0:0:0:0:
48,204,7641,2,0,P|43:238|43:272,1,67.5000025749208,2|0,0:0|0:0,0:0:0:0:
212,352,7934,6,0,L|292:348,1,80.9999975280763,2|0,0:0|0:0,0:0:0:0:
380,304,8227,1,0,0:0:0:0:
304,180,8373,2,0,P|296:232|300:264,1,80.9999975280763,0|0,0:0|0:0,0:0:0:0:
372,384,8666,1,0,0:0:0:0:
456,200,8812,2,0,L|436:88,1,80.9999975280763,2|0,0:0|0:0,0:0:0:0:
488,16,9105,5,2,0:0:0:0:
280,108,9251,1,2,0:0:0:0:
441,120,9397,1,8,0:0:0:0:
212,20,9544,1,0,0:0:0:0:
218,269,9690,1,8,0:0:0:0:
244,265,9763,1,0,0:0:0:0:
271,262,9836,1,2,0:0:0:0:
168,116,9983,1,8,0:0:0:0:
139,144,10056,1,0,0:0:0:0:
103,162,10129,1,0,0:0:0:0:
63,168,10202,1,0,0:0:0:0:
24,160,10275,6,0,L|12:232,2,45,6|0|0,0:0|0:0|0:0,0:0:0:0:
112,340,10568,2,0,P|168:348|240:344,1,90,8|0,0:0|0:0,0:0:0:0:
388,280,10861,1,2,0:0:0:0:
388,280,10934,1,0,0:0:0:0:
388,280,11007,1,0,0:0:0:0:
208,196,11153,2,0,L|196:48,1,135,8|0,0:0|0:0,0:0:0:0:
196,48,11446,6,0,P|234:70|279:72,1,90,2|0,0:0|0:0,0:0:0:0:
427,8,11739,2,0,P|393:35|380:77,1,90,8|0,0:0|0:0,0:0:0:0:
496,216,12031,1,2,0:0:0:0:
496,216,12105,1,0,0:0:0:0:
496,216,12178,1,0,0:0:0:0:
320,184,12324,2,0,L|208:196,1,90,8|0,0:0|0:0,0:0:0:0:
144,148,12544,1,0,0:0:0:0:
116,124,12617,6,0,P|108:188|72:224,1,90,2|0,0:0|0:0,0:0:0:0:
204,280,12909,2,0,B|294:271|294:271|252:312,1,135,8|0,0:0|0:0,0:0:0:0:
200,368,13202,2,0,P|180:364|152:352,2,45,2|0|0,0:0|0:0|0:0,0:0:0:0:
352,328,13495,2,0,P|372:288|356:216,1,90,8|0,0:0|0:0,0:0:0:0:
255,125,13788,6,0,P|279:162|349:184,1,90,2|0,0:0|0:0,0:0:0:0:
479,142,14080,2,0,P|434:144|380:194,1,90,8|0,0:0|0:0,0:0:0:0:
324,36,14373,1,2,0:0:0:0:
353,37,14446,1,0,0:0:0:0:
383,38,14519,1,2,0:0:0:0:
460,224,14666,1,8,0:0:0:0:
459,268,14739,1,0,0:0:0:0:
438,307,14812,1,2,0:0:0:0:
400,331,14885,1,0,0:0:0:0:
356,335,14958,6,0,L|363:290,1,45,2|0,0:0|0:0,0:0:0:0:
272,252,15105,2,0,L|279:296,1,45,0|0,0:0|0:0,0:0:0:0:
188,328,15251,2,0,L|68:304,1,90,8|0,0:0|0:0,0:0:0:0:
108,307,15470,1,0,0:0:0:0:
117,305,15544,2,0,P|138:298|155:284,1,45,2|0,0:0|0:0,0:0:0:0:
99,178,15690,2,0,P|94:199|97:222,1,45
184,202,15836,6,0,L|165:92,1,90,8|0,0:0|0:0,0:0:0:0:
161,118,16056,1,0,0:0:0:0:
154,123,16129,2,0,P|96:119|54:103,1,90,2|8,0:0|0:0,0:0:0:0:
232,37,16422,2,0,P|274:23|319:23,1,90,2|8,0:0|0:0,0:0:0:0:
406,128,16714,5,2,0:0:0:0:
396,125,16787,1,0,0:0:0:0:
385,121,16860,1,0,0:0:0:0:
376,115,16933,1,0,0:0:0:0:
367,107,17007,5,0,0:0:0:0:
355,136,17080,1,0,0:0:0:0:
354,178,17153,1,2,0:0:0:0:
374,223,17226,1,0,0:0:0:0:
419,254,17300,6,0,P|372:235|301:252,1,90,2|2,0:0|0:0,0:0:0:0:
490,202,17592,6,0,P|494:246|518:284,1,80.9999975280763,0|2,2:0|0:0,0:0:0:0:
410,166,17885,6,0,P|446:140|467:101,1,67.5000025749208,2|2,0:0|0:0,0:0:0:0:
325,184,18178,6,0,P|325:210|333:236,1,53.9999983520508,2|2,0:0|0:0,0:0:0:0:
228,327,18470,5,0,0:0:0:0:
241,233,18617,1,0,0:0:0:0:
88,262,18763,1,2,0:0:0:0:
136,348,18909,1,2,0:0:0:0:
152,192,19056,6,0,P|138:161|133:127,1,67.5000025749208,2|2,0:0|0:0,0:0:0:0:
208,40,19349,1,0,0:0:0:0:
308,172,19495,2,0,L|332:236,1,45,0|0,3:0|3:0,0:0:0:0:
364,308,19641,6,0,L|460:304,1,90,6|0,0:0|0:0,0:0:0:0:
372,144,19934,2,0,L|276:140,1,90,2|0,0:0|0:0,0:0:0:0:
436,44,20227,1,2,0:0:0:0:
380,216,20373,1,0,0:0:0:0:
328,44,20519,1,2,0:0:0:0:
472,148,20666,1,0,0:0:0:0:
306,218,20812,6,0,P|296:272|260:304,1,90,2|0,0:0|0:0,0:0:0:0:
88,224,21105,2,0,P|139:205|185:220,1,90,2|0,0:0|0:0,0:0:0:0:
44,364,21397,1,2,0:0:0:0:
52,164,21544,1,0,0:0:0:0:
204,292,21690,1,2,0:0:0:0:
12,248,21836,1,0,0:0:0:0:
20,48,21983,6,0,L|109:44,1,90,2|0,0:0|0:0,0:0:0:0:
304,140,22275,2,0,L|214:136,1,90,2|0,0:0|0:0,0:0:0:0:
392,12,22568,1,2,0:0:0:0:
404,228,22714,1,0,0:0:0:0:
256,72,22861,1,2,0:0:0:0:
464,124,23007,1,0,0:0:0:0:
264,208,23153,5,2,0:0:0:0:
446,137,23300,1,0,0:0:0:0:
224,102,23446,1,2,0:0:0:0:
376,225,23592,1,0,0:0:0:0:
392,12,23739,1,2,0:0:0:0:
264,208,23885,1,0,0:0:0:0:
112,120,24031,6,0,L|117:66,1,53.9999983520508,2|0,0:0|0:0,0:0:0:0:
86,197,24324,6,0,L|96:108,1,90,2|0,0:0|0:0,0:0:0:0:
256,304,24617,2,0,L|246:214,1,90,2|0,0:0|0:0,0:0:0:0:
188,24,24909,1,2,0:0:0:0:
86,197,25056,1,0,0:0:0:0:
280,152,25202,1,2,0:0:0:0:
24,92,25349,1,2,0:0:0:0:
168,280,25495,6,0,L|156:372,1,90,2|0,0:0|0:0,0:0:0:0:
355,369,25788,2,0,L|344:280,1,90,2|0,0:0|0:0,0:0:0:0:
424,100,26080,1,2,0:0:0:0:
232,152,26227,1,0,0:0:0:0:
426,197,26373,1,2,0:0:0:0:
256,0,26519,1,2,0:0:0:0:
226,199,26666,6,0,L|279:192,1,53.9999983520508,2|0,0:0|0:0,0:0:0:0:
168,280,26812,2,0,L|114:273,1,53.9999983520508
324,359,26958,2,0,L|395:349,2,71.9999978027344,8|0|0,0:0|0:0|0:0,0:0:0:0:
156,268,27251,6,0,L|102:261,1,53.9999983520508,2|0,0:0|0:0,0:0:0:0:
214,187,27397,2,0,L|267:180,1,53.9999983520508,0|0,0:0|0:0,0:0:0:0:
88,115,27544,2,0,L|68:41,2,71.9999978027344,8|0|0,0:0|0:0|0:0,0:0:0:0:
296,76,27836,2,0,B|261:13|261:13|136:52,1,143.999995605469
267,179,28129,2,0,P|357:169|402:98,1,161.999995056153
464,288,28422,6,0,P|423:269|378:261,2,90.0000034332277,2|2|0,0:0|0:0|0:0,0:0:0:0:
252,320,28714,6,0,L|224:324,7,26.9999991760254
200,328,29007,6,0,P|228:288|224:228,1,90,2|0,0:0|0:0,0:0:0:0:
48,172,29300,2,0,P|51:216|78:251,1,90,8|0,0:0|0:0,0:0:0:0:
244,139,29592,2,0,L|333:127,1,90,2|0,0:0|0:0,0:0:0:0:
136,96,29885,2,0,L|46:84,1,90,8|0,0:0|0:0,0:0:0:0:
243,50,30178,6,0,P|252:94|244:138,1,90,2|0,0:0|0:0,0:0:0:0:
416,236,30470,2,0,P|407:191|416:148,1,90,8|0,0:0|0:0,0:0:0:0:
512,324,30763,1,2,0:0:0:0:
336,232,30909,1,0,0:0:0:0:
500,120,31056,1,8,0:0:0:0:
440,308,31202,1,0,0:0:0:0:
332,140,31349,6,0,L|352:36,1,90,2|0,0:0|0:0,0:0:0:0:
248,220,31641,2,0,L|264:308,1,90,8|0,0:0|0:0,0:0:0:0:
144,140,31934,2,0,P|180:116|240:112,1,90,2|0,0:0|0:0,0:0:0:0:
360,268,32227,2,0,P|315:262|278:237,1,90,8|0,0:0|0:0,0:0:0:0:
372,52,32519,6,0,L|472:65,1,90,2|0,0:0|0:0,0:0:0:0:
480,264,32812,2,0,L|390:275,1,90,8|0,0:0|0:0,0:0:0:0:
296,68,33105,1,8,0:0:0:0:
264,292,33252,1,0,0:0:0:0:
338,152,33397,1,8,0:0:0:0:
304,156,33470,1,0,0:0:0:0:
271,160,33543,1,0,0:0:0:0:
237,164,33616,1,0,0:0:0:0:
204,168,33690,6,0,P|220:120|212:64,1,90,2|0,0:0|0:0,0:0:0:0:
56,216,33983,2,0,P|54:260|69:302,1,90,8|0,0:0|0:0,0:0:0:0:
264,372,34275,2,0,L|354:361,1,90,2|0,0:0|0:0,0:0:0:0:
307,156,34568,1,8,0:0:0:0:
176,316,34714,1,2,0:0:0:0:
380,276,34861,6,0,P|396:224|392:172,1,90,2|0,0:0|0:0,0:0:0:0:
216,76,35153,1,8,0:0:0:0:
280,280,35300,1,2,0:0:0:0:
376,88,35446,5,2,0:0:0:0:
164,188,35592,2,0,L|228:196,1,45,0|2,0:0|0:0,0:0:0:0:
476,168,35739,5,8,0:0:0:0:
216,76,35885,1,2,0:0:0:0:
226,300,36031,5,8,0:0:0:0:
296,36,36178,1,0,0:0:0:0:
302,80,36251,1,0,0:0:0:0:
308,125,36324,1,0,0:0:0:0:
314,169,36397,1,0,0:0:0:0:
320,214,36470,1,0,0:0:0:0:
216,76,36617,5,8,0:0:0:0:
127,335,36763,1,0,0:0:0:0:
105,295,36836,1,0,0:0:0:0:
105,251,36909,1,0,0:0:0:0:
126,212,36982,1,0,0:0:0:0:
163,187,37055,1,0,0:0:0:0:
384,64,37202,5,8,0:0:0:0:
320,284,37349,1,0,0:0:0:0:
116,220,37495,5,8,0:0:0:0:
412,176,37641,1,0,0:0:0:0:
164,368,37788,5,8,0:0:0:0:
212,96,37934,1,0,0:0:0:0:
236,300,38080,6,0,P|244:279|250:257,1,45,8|0,0:0|0:0,0:0:0:0:
140,164,38226,2,0,P|131:184|125:206,1,45
32,324,38373,6,0,L|20:208,1,90,6|0,0:0|0:0,0:0:0:0:
128,82,38666,2,0,P|176:96|220:84,1,90,8|0,0:0|0:0,0:0:0:0:
284,4,38958,1,2,0:0:0:0:
70,24,39105,1,0,0:0:0:0:
58,47,39178,1,0,0:0:0:0:
46,70,39251,2,0,L|64:192,1,90,8|0,0:0|0:0,0:0:0:0:
296,101,39544,6,0,P|256:80|212:87,1,90,2|0,0:0|0:0,0:0:0:0:
417,200,39836,1,8,0:0:0:0:
422,166,39909,1,0,0:0:0:0:
428,133,39982,1,0,0:0:0:0:
433,100,40055,1,0,0:0:0:0:
439,66,40129,2,0,L|457:177,1,107.999996704102,2|2,0:0|0:0,0:0:0:0:
488,320,40422,6,0,P|460:301|427:298,1,67.5000025749208
259,350,40714,6,0,P|304:350|344:331,1,90,2|0,0:0|0:0,0:0:0:0:
245,198,41007,2,0,P|204:179|160:179,1,90,8|0,0:0|0:0,0:0:0:0:
331,142,41300,1,2,0:0:0:0:
239,321,41446,1,0,0:0:0:0:
225,343,41519,1,0,0:0:0:0:
212,366,41592,2,0,L|179:247,1,90,8|0,0:0|0:0,0:0:0:0:
219,85,41885,6,0,B|231:53|255:49|243:41|243:41|203:53|203:53|187:45|187:45|163:49|163:49|151:57|151:57|135:53|135:53|115:61|115:61|83:53,1,202.500007724762,2|0,0:0|0:0,0:0:0:0:
7,141,42178,1,8,0:3:0:0:
35,184,42251,1,0,0:0:0:0:
23,235,42324,1,8,0:3:0:0:
51,279,42397,1,0,0:0:0:0:
40,330,42470,6,0,P|71:356|146:356,1,101.250003862381,4|0,0:0|0:0,0:0:0:0:
173,267,42763,2,0,P|139:269|108:282,1,67.5000025749208,2|0,0:0|0:0,0:0:0:0:
296,352,43056,6,0,L|287:262,1,90,2|0,0:0|0:0,0:0:0:0:
419,121,43349,2,0,P|441:97|448:30,1,90,8|0,0:0|0:0,0:0:0:0:
288,128,43641,1,2,0:0:0:0:
385,237,43788,1,0,0:0:0:0:
404,255,43861,1,0,0:0:0:0:
424,272,43934,2,0,L|528:256,1,90,8|0,0:0|0:0,0:0:0:0:
228,188,44227,5,2,0:0:0:0:
300,372,44373,1,2,0:0:0:0:
312,212,44519,1,0,0:0:0:0:
314,182,44592,1,0,0:0:0:0:
317,152,44665,1,0,0:0:0:0:
319,122,44738,1,0,0:0:0:0:
322,93,44812,5,2,0:0:0:0:
100,52,44958,1,0,0:0:0:0:
71,208,45105,1,0,0:0:0:0:
106,220,45178,1,0,0:0:0:0:
143,215,45251,1,0,0:0:0:0:
174,195,45324,1,0,0:0:0:0:
193,163,45397,6,0,P|136:168|84:136,1,90,2|0,0:0|0:0,0:0:0:0:
322,93,45690,1,8,0:0:0:0:
260,280,45836,1,0,0:0:0:0:
192,92,45983,2,0,L|204:0,1,90,2|0,0:0|0:0,0:0:0:0:
320,12,46202,1,0,0:0:0:0:
332,20,46275,2,0,P|364:32|396:28,1,45,8|0,0:0|0:0,0:0:0:0:
484,120,46422,2,0,P|461:122|441:132,1,45,2|0,0:0|0:0,0:0:0:0:
492,291,46568,6,0,P|500:248|488:216,1,67.5000025749208,2|0,0:0|0:0,0:0:0:0:
320,244,46788,6,0,B|372:264|372:264|414:257,1,99.0000030212403,2|0,0:0|0:0,0:0:0:0:
252,195,47007,6,0,P|236:240|252:284,1,67.5000025749208,2|0,0:0|0:0,0:0:0:0:
288,352,47227,6,0,L|394:334,1,107.999996704102,2|0,0:0|0:0,0:0:0:0:
492,291,47446,1,2,0:0:0:0:
496,282,47519,1,0,0:0:0:0:
500,264,47592,1,2,0:0:0:0:
499,238,47665,1,0,0:0:0:0:
484,205,47739,6,0,P|461:168|459:123,1,90,2|0,0:0|0:0,0:0:0:0:
272,59,48031,1,8,0:0:0:0:
313,244,48178,1,2,0:0:0:0:
387,18,48324,1,2,0:0:0:0:
180,89,48470,1,0,0:0:0:0:
158,97,48544,1,0,0:0:0:0:
136,104,48617,2,0,L|11:86,1,90,8|0,0:0|0:0,0:0:0:0:
164,204,48909,5,2,0:0:0:0:
120,24,49056,1,2,0:0:0:0:
248,132,49202,1,8,0:0:0:0:
244,165,49275,1,0,0:0:0:0:
241,199,49348,1,0,0:0:0:0:
238,232,49421,1,0,0:0:0:0:
234,266,49494,1,2,0:0:0:0:
370,213,49641,1,2,0:0:0:0:
211,264,49788,1,8,0:0:0:0:
392,331,49934,1,0,0:0:0:0:
291,186,50080,6,0,P|335:186|374:165,1,90,2|0,0:0|0:0,0:0:0:0:
146,191,50373,1,8,0:0:0:0:
240,340,50519,1,2,0:0:0:0:
52,316,50666,2,0,B|40:264|40:264|49:228,1,90,2|0,0:0|0:0,0:0:0:0:
124,116,50885,1,2,0:0:0:0:
150,104,50958,2,0,B|159:139|159:139|147:191,1,90,8|2,0:0|0:0,0:0:0:0:
208,312,51251,6,0,L|231:226,1,90,8|2,0:0|0:0,0:0:0:0:
252,68,51544,2,0,L|275:154,1,90,8|2,0:0|0:0,0:0:0:0:
492,136,51836,1,10,0:0:0:0:
404,332,51983,1,2,0:0:0:0:
356,140,52129,1,8,0:0:0:0:
356,140,52202,1,0,0:0:0:0:
356,140,52275,1,0,0:0:0:0:
356,140,52349,1,0,0:0:0:0:
356,140,52422,6,0,P|394:135|424:124,2,45.0000017166138,2|0|0,0:0|0:0|0:0,0:0:0:0:
275,154,52714,6,0,P|253:149|231:148,1,45,2|0,0:0|0:0,0:0:0:0:
280,276,52861,2,0,P|302:273|323:266,1,45,2|0,0:0|0:0,0:0:0:0:
154,238,53007,2,0,P|146:182|152:112,1,90,2|0,0:0|0:0,0:0:0:0:
248,60,53227,1,2,0:0:0:0:
276,72,53300,2,0,L|392:64,1,90,8|2,0:0|0:0,0:0:0:0:
244,224,53592,5,2,0:0:0:0:
156,56,53739,1,0,0:0:0:0:
28,160,53885,1,8,0:0:0:0:
32,193,53958,1,0,0:0:0:0:
37,226,54031,1,0,0:0:0:0:
41,260,54104,1,0,0:0:0:0:
46,293,54178,2,0,P|80:316|152:308,1,90,2|2,0:0|0:0,0:0:0:0:
244,224,54470,2,0,L|232:108,1,90,0|0,0:0|0:0,0:0:0:0:
392,264,54763,5,8,0:0:0:0:
392,264,55056,2,0,P|440:280|488:272,1,67.5000025749208,8|2,0:0|0:0,0:0:0:0:
395,191,55349,2,0,P|348:205|321:247,1,101.250003862381,8|0,0:0|0:0,0:0:0:0:
308,332,55641,2,0,P|341:329|371:314,1,67.5000025749208,8|2,0:0|0:0,0:0:0:0:
492,144,55934,5,8,0:0:0:0:
436,52,56080,1,2,0:0:0:0:
344,28,56227,1,8,0:0:0:0:
264,40,56373,1,2,0:0:0:0:
212,88,56519,2,0,P|221:123|230:174,1,67.5000025749208,8|0,0:0|0:0,0:0:0:0:
219,235,56812,1,8,0:0:0:0:
217,243,56885,1,0,0:0:0:0:
216,251,56958,1,8,0:0:0:0:
214,259,57031,1,0,0:0:0:0:
213,268,57105,6,0,L|187:263,15,22.5,6|0|0|0|0|0|0|0|2|0|0|0|0|0|0|0,0:0|0:0|0:0|0:0|0:0|0:0|0:0|0:0|0:0|0:0|0:0|0:0|0:0|0:0|0:0|0:0,0:0:0:0:
112,219,58275,6,0,L|68:215,7,33.7500012874604,2|0|0|0|0|0|0|0,0:0|0:0|0:0|0:0|0:0|0:0|0:0|0:0,0:0:0:0:
180,271,58861,2,0,L|224:267,7,33.7500012874604,2|0|0|0|0|0|0|0,0:0|0:0|0:0|0:0|0:0|0:0|0:0|0:0,0:0:0:0:
288,356,59446,6,0,L|352:364,3,45,2|0|0|0,0:0|0:0|0:0|0:0,0:0:0:0:
420,264,59739,2,0,L|375:269,3,45,2|0|0|0,0:0|0:0|0:0|0:0,0:0:0:0:
260,180,60031,6,0,L|324:188,3,45,2|0|0|0,0:0|0:0|0:0|0:0,0:0:0:0:
373,55,60324,2,0,L|328:60,3,45,2|0|0|0,0:0|0:0|0:0|0:0,0:0:0:0:
147,59,60617,5,2,0:0:0:0:
123,71,60690,1,0,0:0:0:0:
96,73,60763,1,0,0:0:0:0:
71,63,60836,1,0,0:0:0:0:
51,47,60909,5,2,0:0:0:0:
78,79,60982,1,0,0:0:0:0:
93,120,61055,1,2,0:0:0:0:
94,163,61128,1,0,0:0:0:0:
71,212,61202,5,2,0:0:0:0:
101,167,61275,1,2,0:0:0:0:
152,154,61348,1,2,0:0:0:0:
200,176,61422,1,2,0:0:0:0:
248,248,61495,6,0,P|204:192|208:120,1,135.000005149842,8|0,3:1|0:0,0:0:0:0:
308,92,61714,1,0,0:0:0:0:
364,151,61788,6,0,P|324:171|279:168,1,90,6|0,0:0|0:0,0:0:0:0:
488,44,62079,2,0,L|504:148,1,90,8|0,0:0|0:0,0:0:0:0:
368,324,62370,2,0,L|381:235,1,90,2|0,0:0|0:0,0:0:0:0:
248,44,62661,2,0,P|208:64|192:88,1,45,8|0,0:0|0:0,0:0:0:0:
264,168,62807,2,0,P|266:123|253:97,1,45,0|0,0:0|0:0,0:0:0:0:
140,136,62953,6,0,L|160:248,1,90,2|0,0:0|0:0,0:0:0:0:
316,343,63244,2,0,P|357:326|401:325,1,90,8|0,0:0|0:0,0:0:0:0:
217,367,63535,1,2,0:0:0:0:
214,345,63607,1,0,0:0:0:0:
216,323,63680,1,0,0:0:0:0:
223,301,63753,1,0,0:0:0:0:
234,282,63826,2,0,P|268:280|296:268,1,45,8|0,0:0|0:0,0:0:0:0:
155,224,63972,2,0,P|133:218|110:218,1,45,0|0,0:0|0:0,0:0:0:0:
116,380,64118,6,0,P|124:320|116:272,1,90,2|0,0:0|0:0,0:0:0:0:
55,117,64409,2,0,P|95:136|140:136,1,90,8|0,0:0|0:0,0:0:0:0:
268,52,64700,1,2,0:0:0:0:
116,44,64846,1,0,0:0:0:0:
248,224,64991,1,8,0:0:0:0:
400,216,65137,1,0,0:0:0:0:
225,117,65283,6,0,P|180:116|139:135,1,90,2|0,0:0|0:0,0:0:0:0:
364,108,65574,2,0,L|352:-8,1,90,8|0,0:0|0:0,0:0:0:0:
496,196,65865,2,0,L|486:285,1,90,2|0,0:0|0:0,0:0:0:0:
360,364,66156,1,8,0:0:0:0:
324,176,66302,1,2,0:0:0:0:
129,278,66448,5,2,0:0:0:0:
156,314,66520,1,0,0:0:0:0:
196,334,66593,1,0,0:0:0:0:
241,335,66666,1,0,0:0:0:0:
282,318,66739,2,0,P|281:295|276:274,1,45,8|0,0:0|0:0,0:0:0:0:
129,278,66885,2,0,P|123:299|122:322,1,45
200,200,67030,5,2,0:0:0:0:
56,272,67176,1,2,0:0:0:0:
282,318,67321,5,8,0:0:0:0:
252,120,67467,1,2,0:0:0:0:
20,186,67613,5,2,0:0:0:0:
65,189,67685,1,0,0:0:0:0:
110,193,67758,1,0,0:0:0:0:
155,196,67831,1,0,0:0:0:0:
200,200,67904,2,0,L|184:136,1,45,8|0,0:0|0:0,0:0:0:0:
328,44,68050,2,0,L|317:87,1,45,0|0,0:0|0:0,0:0:0:0:
312,184,68195,5,2,0:0:0:0:
156,60,68341,1,2,0:0:0:0:
340,268,68487,5,8,0:0:0:0:
276,56,68632,1,2,0:0:0:0:
424,219,68778,6,0,P|416:175|396:119,1,90,2|0,0:0|0:0,0:0:0:0:
384,108,68996,1,8,0:0:0:0:
360,92,69069,2,0,P|423:82|448:39,1,90,0|2,0:0|0:0,0:0:0:0:
460,316,69360,2,0,B|412:304|412:304|371:308,1,90,2|0,0:0|0:0,0:0:0:0:
343,316,69579,1,8,0:0:0:0:
315,324,69652,2,0,P|286:357|241:374,1,90,0|2,0:0|0:0,0:0:0:0:
103,228,69943,6,0,P|144:244|175:277,1,90,2|0,0:0|0:0,0:0:0:0:
204,272,70161,2,0,L|304:252,1,90,8|0,0:0|0:0,0:0:0:0:
220,152,70380,1,2,0:0:0:0:
68,340,70525,2,0,L|92:420,1,45,2|0,0:0|0:0,0:0:0:0:
188,234,70671,2,0,L|175:277,1,45,2|0,0:0|0:0,0:0:0:0:
68,128,70817,1,8,0:0:0:0:
70,116,70889,1,0,0:0:0:0:
72,105,70962,1,2,0:0:0:0:
74,94,71035,1,0,0:0:0:0:
76,83,71108,6,0,P|124:104|192:88,1,90,6|0,0:0|0:0,0:0:0:0:
368,44,71399,2,0,P|325:75|305:141,1,90,8|0,0:0|0:0,0:0:0:0:
416,296,71690,2,0,L|516:284,1,90,2|0,0:0|0:0,0:0:0:0:
268,208,71982,1,8,0:0:0:0:
376,384,72127,1,0,0:0:0:0:
452,172,72273,6,0,L|444:72,1,90,2|0,0:0|0:0,0:0:0:0:
268,208,72564,2,0,L|260:297,1,90,8|0,0:0|0:0,0:0:0:0:
144,348,72855,1,2,0:0:0:0:
125,335,72928,1,0,0:0:0:0:
104,328,73001,1,0,0:0:0:0:
81,324,73074,1,0,0:0:0:0:
59,326,73147,2,0,P|80:321|100:310,1,45,8|0,0:0|0:0,0:0:0:0:
192,244,73292,2,0,P|170:239|150:228,1,45
52,156,73438,6,0,P|44:204|68:268,1,90,2|0,0:0|0:0,0:0:0:0:
204,64,73729,2,0,L|114:70,1,90,8|0,0:0|0:0,0:0:0:0:
272,176,74021,1,2,0:0:0:0:
344,0,74166,1,2,0:0:0:0:
188,148,74312,1,8,0:0:0:0:
448,112,74457,1,2,0:0:0:0:
484,308,74603,6,0,P|442:322|409:352,1,90,2|0,0:0|0:0,0:0:0:0:
188,240,74894,2,0,P|227:260|272:264,1,90,8|0,0:0|0:0,0:0:0:0:
448,144,75186,2,0,P|446:99|426:59,1,90,2|0,0:0|0:0,0:0:0:0:
146,133,75477,2,0,P|166:143|188:147,1,45,8|0,0:0|0:0,0:0:0:0:
328,228,75622,2,0,P|305:232|285:242,1,45,8|0,0:0|0:0,0:0:0:0:
94,378,75768,5,2,0:0:0:0:
89,333,75841,1,0,0:0:0:0:
83,289,75914,1,0,0:0:0:0:
77,244,75987,1,0,0:0:0:0:
72,200,76059,1,8,0:0:0:0:
272,264,76205,1,0,0:0:0:0:
23,364,76351,5,2,0:0:0:0:
200,296,76496,1,2,0:0:0:0:
146,133,76642,5,8,0:0:0:0:
191,306,76788,1,2,0:0:0:0:
368,348,76933,5,2,0:0:0:0:
391,309,77005,1,0,0:0:0:0:
400,266,77078,1,0,0:0:0:0:
392,221,77151,1,0,0:0:0:0:
369,183,77224,1,8,0:0:0:0:
148,208,77370,1,0,0:0:0:0:
304,48,77516,5,2,0:0:0:0:
268,276,77661,1,2,0:0:0:0:
312,64,77807,5,8,0:0:0:0:
488,272,77953,1,2,0:0:0:0:
232,187,78098,6,0,P|192:207|147:207,1,90,2|0,0:0|0:0,0:0:0:0:
64,268,78317,2,0,L|80:372,1,90,8|0,0:0|0:0,0:0:0:0:
180,368,78535,2,0,P|208:360|240:360,1,45,2|0,0:0|0:0,0:0:0:0:
364,368,78681,6,0,P|344:324|352:264,1,90,2|0,0:0|0:0,0:0:0:0:
408,204,78899,2,0,P|427:163|426:119,1,90,8|0,0:0|0:0,0:0:0:0:
371,55,79118,2,0,P|357:73|350:94,1,45,2|0,0:0|0:0,0:0:0:0:
291,201,79263,6,0,P|271:145|287:77,1,90,10|0,0:0|0:0,0:0:0:0:
176,18,79554,6,0,P|156:78|160:130,1,99.0000030212403,10|0,0:0|0:0,0:0:0:0:
50,218,79846,6,0,P|26:162|26:94,1,107.999996704102,10|0,0:0|0:0,0:0:0:0:
119,267,80137,1,10,0:0:0:0:
108,280,80209,1,0,0:0:0:0:
95,291,80282,1,0,0:0:0:0:
80,298,80355,1,0,0:0:0:0:
64,302,80428,5,6,0:0:0:0:
106,289,80500,1,0,0:0:0:0:
151,290,80573,1,0,0:0:0:0:
193,305,80646,1,0,0:0:0:0:
228,332,80720,1,8,0:0:0:0:
267,353,80792,1,0,0:0:0:0:
312,353,80865,1,0,0:0:0:0:
350,331,80938,1,0,0:0:0:0:
373,292,81011,2,0,P|389:245|390:180,1,90,2|0,0:0|0:0,0:0:0:0:
274,146,81229,2,0,P|280:184|305:238,1,90,2|0,0:0|0:0,0:0:0:0:
401,117,81448,2,0,L|356:109,1,45,8|0,0:0|0:0,0:0:0:0:
292,44,81593,6,0,L|188:60,1,90,2|0,0:0|0:0,0:0:0:0:
112,124,81812,2,0,L|200:137,1,90,2|0,0:0|0:0,0:0:0:0:
64,56,82030,2,0,P|47:72|36:91,1,45,8|0,0:0|0:0,0:0:0:0:
108,244,82176,2,0,P|103:221|93:201,1,45,2|0,0:0|0:0,0:0:0:0:
182,338,82321,2,0,L|176:401,1,45,2|0,0:0|0:0,0:0:0:0:
241,251,82467,2,0,L|236:206,1,45,8|0,0:0|0:0,0:0:0:0:
297,324,82613,2,0,L|292:368,1,45
396,300,82758,5,2,0:0:0:0:
378,285,82830,1,0,0:0:0:0:
368,265,82903,1,0,0:0:0:0:
366,243,82976,1,0,0:0:0:0:
372,222,83050,1,8,0:0:0:0:
393,197,83122,1,0,0:0:0:0:
402,162,83195,1,0,0:0:0:0:
381,120,83268,1,0,0:0:0:0:
324,103,83341,2,0,P|384:104|420:84,1,90,2|0,0:0|0:0,0:0:0:0:
292,24,83559,2,0,P|248:64|240:100,1,90,2|0,0:0|0:0,0:0:0:0:
327,228,83778,2,0,L|371:221,1,45,8|0,0:0|0:0,0:0:0:0:
184,184,83923,6,0,L|288:168,1,90,2|0,0:0|0:0,0:0:0:0:
144,92,84215,2,0,L|40:76,1,90,8|0,0:0|0:0,0:0:0:0:
176,276,84506,2,0,L|280:260,1,90,2|0,0:0|0:0,0:0:0:0:
88,184,84797,1,8,0:0:0:0:
140,376,84943,1,2,0:0:0:0:
288,332,85088,5,2,0:0:0:0:
325,307,85160,1,0,0:0:0:0:
369,305,85233,1,0,0:0:0:0:
408,325,85306,1,0,0:0:0:0:
431,363,85380,1,8,0:0:0:0:
432,316,85452,1,0,0:0:0:0:
433,281,85525,1,0,0:0:0:0:
434,251,85598,1,0,0:0:0:0:
435,228,85671,2,0,P|466:189|466:125,1,90,2|0,0:0|0:0,0:0:0:0:
375,75,85889,2,0,P|372:119|390:161,1,90,0|0,0:0|0:0,0:0:0:0:
507,71,86108,2,0,L|423:59,1,45,2|0,0:0|0:0,0:0:0:0:
342,11,86254,6,0,P|284:17|251:38,1,90,2|0,0:0|0:0,0:0:0:0:
194,119,86472,2,0,P|242:138|294:135,1,90,2|0,0:0|0:0,0:0:0:0:
143,37,86690,2,0,P|125:50|111:68,1,45,8|0,0:0|0:0,0:0:0:0:
48,172,86836,2,0,P|40:116|20:92,1,90,2|0,0:0|0:0,0:0:0:0:
136,176,87054,2,0,P|188:197|219:191,1,90,2|0,0:0|0:0,0:0:0:0:
328,196,87273,2,0,P|368:188|400:200,1,45,8|0,0:0|0:0,0:0:0:0:
464,248,87419,6,0,B|452:316|452:316|472:364,1,90,2|0,0:0|0:0,0:0:0:0:
356,360,87637,2,0,P|304:339|273:345,1,90,2|0,0:0|0:0,0:0:0:0:
164,336,87855,2,0,P|128:348|96:344,1,45,8|0,0:0|0:0,0:0:0:0:
53,261,88001,2,0,L|45:141,1,90,2|0,0:0|0:0,0:0:0:0:
188,124,88220,2,0,L|182:213,1,90,2|0,0:0|0:0,0:0:0:0:
316,268,88438,2,0,L|360:262,1,45,8|0,0:0|0:0,0:0:0:0:
465,90,88584,5,10,0:0:0:0:
442,93,88656,1,0,0:0:0:0:
420,97,88729,1,0,0:0:0:0:
398,100,88802,1,0,0:0:0:0:
376,104,88875,2,0,P|368:73|361:39,1,45,8|0,0:0|0:0,0:0:0:0:
280,156,89021,2,0,P|276:181|271:199,1,45,2|0,0:0|0:0,0:0:0:0:
360,261,89166,1,8,0:0:0:0:
204,40,89312,1,2,0:0:0:0:
40,164,89457,1,8,0:0:0:0:
69,180,89529,1,0,0:0:0:0:
102,184,89602,1,2,0:0:0:0:
134,173,89675,1,0,0:0:0:0:
159,151,89749,6,0,B|132:280|132:280|184:224,1,180,6|2,0:0|0:0,0:0:0:0:
361,185,90186,2,0,B|412:216|476:200|476:200|472:240|441:243,1,180,8|2,0:0|0:0,0:0:0:0:
388,96,90622,2,0,P|452:120|432:24,1,180,2|2,0:0|0:0,0:0:0:0:
276,40,91059,6,0,B|244:64|204:40|204:40|168:56|168:56|128:20|80:40,1,180,8|2,0:0|0:0,0:0:0:0:
24,204,91496,1,2,0:0:0:0:
228,168,91642,1,2,0:0:0:0:
112,108,91787,6,0,L|124:160,1,45,8|0,0:0|0:0,0:0:0:0:
76,272,91933,2,0,L|88:324,1,45,2|0,0:0|0:0,0:0:0:0:
32,184,92079,5,2,0:0:0:0:
164,243,92224,2,0,P|204:264|252:264,1,90,0|2,0:0|0:0,0:0:0:0:
328,200,92516,2,0,P|288:228|308:348,1,180,8|2,0:0|0:0,0:0:0:0:
456,244,92953,2,0,B|456:196|425:177|425:177|380:212|328:200,1,180,2|2,0:0|0:0,0:0:0:0:
340,60,93389,6,0,P|386:112|317:96,1,180,8|2,0:0|0:0,0:0:0:0:
460,16,93826,2,0,P|480:60|472:132,1,90,2|2,0:0|0:0,0:0:0:0:
240,160,94118,1,8,0:0:0:0:
104,40,94263,1,2,0:0:0:0:
115,41,94335,1,0,0:0:0:0:
126,43,94409,6,0,L|118:103,1,45,2|0,0:0|0:0,0:0:0:0:
40,212,94554,1,2,0:0:0:0:
41,201,94626,1,0,0:0:0:0:
43,190,94700,6,0,L|103:198,1,45,8|0,0:0|0:0,0:0:0:0:
212,276,94845,1,2,0:0:0:0:
201,275,94919,1,0,0:0:0:0:
190,273,94991,6,0,L|198:213,1,45,2|0,0:0|0:0,0:0:0:0:
276,104,95137,1,2,0:0:0:0:
275,115,95209,1,0,0:0:0:0:
273,126,95283,6,0,L|213:118,1,45,8|0,0:0|0:0,0:0:0:0:
356,24,95428,1,2,0:0:0:0:
359,38,95500,1,0,0:0:0:0:
362,53,95574,6,0,L|354:129,1,45,2|0,0:0|0:0,0:0:0:0:
288,240,95720,1,2,0:0:0:0:
284,254,95792,1,0,0:0:0:0:
282,269,95866,6,0,L|290:345,1,45,8|0,0:0|0:0,0:0:0:0:
440,236,96011,1,2,0:0:0:0:
444,222,96083,1,0,0:0:0:0:
446,207,96157,6,0,L|438:131,1,45,2|0,0:0|0:0,0:0:0:0:
212,192,96302,1,2,0:0:0:0:
208,206,96374,1,0,0:0:0:0:
206,221,96448,6,0,L|214:297,1,45,8|0,0:0|0:0,0:0:0:0:
52,120,96593,1,2,0:0:0:0:
52,120,96666,1,0,0:0:0:0:
52,120,96739,6,0,L|116:128,1,45,10|0,0:0|0:0,0:0:0:0:
196,60,96885,2,0,L|132:68,1,45,2|0,0:0|0:0,0:0:0:0:
212,144,97030,6,0,L|276:152,1,45,10|0,0:0|0:0,0:0:0:0:
344,44,97176,2,0,L|280:52,1,45,2|0,0:0|0:0,0:0:0:0:
377,164,97322,1,10,0:0:0:0:
391,161,97394,1,0,0:0:0:0:
405,155,97467,1,2,0:0:0:0:
417,147,97540,1,0,0:0:0:0:
428,136,97613,5,10,0:0:0:0:
397,182,97685,1,0,0:0:0:0:
395,237,97758,1,2,0:0:0:0:
423,285,97831,1,0,0:0:0:0:
299,291,98050,6,0,P|363:343|422:286,1,180
192,244,98778,6,0,L|180:304,3,45,0|0|2|0,0:0|0:0|0:0|0:0,0:0:0:0:
172,324,99069,6,0,P|96:328|44:284,1,107.999996704102,4|0,0:0|0:0,0:0:0:0:
64,74,99360,1,8,0:0:0:0:
228,164,99506,2,0,B|80:180|80:180|120:168|152:132,1,215.999993408203,2|8,0:0|0:0,0:0:0:0:
144,138,99870,1,0,0:0:0:0:
149,128,99943,2,0,P|166:71|146:12,1,107.999996704102,8|2,0:0|0:0,0:0:0:0:
40,240,100234,6,0,L|192:248,1,107.999996704102
315,108,100525,2,0,P|255:132|215:192,1,107.999996704102
147,245,100744,1,0,0:0:0:0:
160,241,100817,2,0,P|187:241|213:250,1,53.9999983520508,2|0,0:0|0:0,0:0:0:0:
304,340,100962,1,2,0:0:0:0:
291,344,101034,1,0,0:0:0:0:
278,349,101108,2,0,P|251:349|225:358,1,53.9999983520508,8|0,0:0|0:0,0:0:0:0:
400,360,101254,2,0,P|392:316|396:276,1,53.9999983520508,2|0,0:0|0:0,0:0:0:0:
463,67,101399,5,2,0:0:0:0:
470,119,101471,1,0,0:0:0:0:
438,161,101544,1,2,0:0:0:0:
386,168,101617,1,0,0:0:0:0:
344,137,101690,1,8,0:0:0:0:
315,108,101762,1,0,0:0:0:0:
276,98,101835,1,2,0:0:0:0:
238,108,101908,1,0,0:0:0:0:
209,136,101982,6,0,P|223:107|219:59,1,53.9999983520508,2|0,0:0|0:0,0:0:0:0:
84,152,102127,2,0,P|87:178|100:202,1,53.9999983520508,10|0,0:0|0:0,0:0:0:0:
256,252,102273,1,8,0:0:0:0:
282,249,102345,1,0,0:0:0:0:
309,246,102418,1,2,0:0:0:0:
336,243,102491,1,0,0:0:0:0:
363,240,102564,5,8,0:0:0:0:
308,36,102710,1,2,0:0:0:0:
344,280,102855,1,8,0:0:0:0:
408,108,103001,1,2,0:0:0:0:
325,320,103147,1,8,0:0:0:0:
176,144,103292,1,2,0:0:0:0:
443,187,103438,2,0,P|460:238|445:289,1,107.999996704102,8|2,0:0|0:0,0:0:0:0:
128,336,103729,5,2,0:0:0:0:
87,303,103801,1,0,0:0:0:0:
92,251,103874,1,0,0:0:0:0:
137,226,103947,1,0,0:0:0:0:
183,250,104021,2,0,L|168:360,1,107.999996704102,8|2,0:0|0:0,0:0:0:0:
72,164,104312,1,8,0:0:0:0:
180,64,104457,2,0,L|144:104,1,53.9999983520508,8|0,0:0|0:0,0:0:0:0:
80,180,104603,2,0,L|63:128,1,53.9999983520508,2|0,0:0|0:0,0:0:0:0:
29,35,104749,2,0,L|81:46,1,53.9999983520508,8|0,0:0|0:0,0:0:0:0:
215,152,104894,5,2,0:0:0:0:
263,171,104966,1,0,0:0:0:0:
309,146,105039,1,0,0:0:0:0:
320,95,105112,1,0,0:0:0:0:
287,54,105186,2,0,L|180:64,1,107.999996704102,8|2,0:0|0:0,0:0:0:0:
388,128,105477,1,8,0:0:0:0:
275,223,105622,2,0,P|263:179|267:147,1,53.9999983520508,8|0,0:0|0:0,0:0:0:0:
344,256,105768,2,0,P|326:277|304:292,1,53.9999983520508,2|0,0:0|0:0,0:0:0:0:
340,180,105914,2,0,P|384:191|409:211,1,53.9999983520508,8|0,0:0|0:0,0:0:0:0:
324,364,106059,5,8,0:0:0:0:
275,360,106131,1,0,0:0:0:0:
232,357,106204,1,0,0:0:0:0:
193,354,106277,1,0,0:0:0:0:
162,351,106350,1,0,0:0:0:0:
192,160,106496,1,2,0:0:0:0:
24,272,106642,2,0,P|84:288|144:264,1,107.999996704102,8|0,0:0|0:0,0:0:0:0:
126,275,106860,2,0,L|115:143,1,107.999996704102,2|0,0:0|0:0,0:0:0:0:
117,167,107079,1,2,0:0:0:0:
360,40,107224,6,0,P|296:68|232:44,1,107.999996704102,8|0,0:0|0:0,0:0:0:0:
260,61,107443,2,0,L|284:192,1,107.999996704102,2|0,0:0|0:0,0:0:0:0:
279,167,107661,1,2,0:0:0:0:
452,176,107807,1,8,0:0:0:0:
192,160,107953,1,2,0:0:0:0:
412,324,108098,1,8,0:0:0:0:
360,36,108244,1,2,0:0:0:0:
268,260,108389,6,0,P|276:312|288:360,1,90,6|0,0:0|0:0,0:0:0:0:
348,200,108681,1,8,0:0:0:0:
156,252,108826,2,0,B|92:228|28:248|28:248|32:220|57:210,1,180,8|8,0:0|0:0,0:0:0:0:
268,168,109263,2,0,P|260:220|248:268,1,90,2|0,0:0|0:0,0:0:0:0:
200,104,109554,5,8,0:0:0:0:
428,48,109700,2,0,B|444:168|444:168|428:136|404:124,1,180,8|10,0:0|0:0,0:0:0:0:
392,112,110064,1,0,0:0:0:0:
376,104,110137,2,0,P|340:88|288:88,1,90,2|2,0:0|0:0,0:0:0:0:
420,284,110428,2,0,P|464:284|505:267,1,90,8|2,0:0|0:0,0:0:0:0:
320,360,110720,5,2,0:0:0:0:
300,320,110792,1,0,0:0:0:0:
264,293,110865,1,0,0:0:0:0:
220,287,110938,1,0,0:0:0:0:
177,301,111011,1,8,0:0:0:0:
80,132,111156,2,0,P|121:149|165:152,1,90,8|2,0:0|0:0,0:0:0:0:
284,76,111448,1,8,0:0:0:0:
107,59,111593,1,2,0:0:0:0:
63,55,111665,1,0,0:0:0:0:
24,77,111738,1,0,0:0:0:0:
3,116,111811,1,0,0:0:0:0:
7,160,111884,5,10,0:0:0:0:
88,328,112030,1,8,0:0:0:0:
180,144,112176,5,10,0:0:0:0:
99,312,112322,1,2,0:0:0:0:
256,204,112467,5,8,0:0:0:0:
40,232,112613,1,0,0:0:0:0:
284,344,112758,5,10,0:0:0:0:
268,116,112904,1,0,0:0:0:0:
472,216,113050,6,0,P|438:243|393:246,1,90,10|2,0:0|0:0,0:0:0:0:
391,82,113268,1,0,0:0:0:0:
410,70,113341,2,0,B|405:172,1,90,10|2,0:0|0:0,0:0:0:0:
272,244,113559,1,0,0:0:0:0:
253,256,113632,2,0,B|258:154,1,90,10|2,0:0|0:0,0:0:0:0:
224,32,113851,1,0,0:0:0:0:
208,40,113923,2,0,L|104:44,1,90,10|2,0:0|0:0,0:0:0:0:
41,266,114215,6,0,P|21:277|-1:282,1,45,10|0,0:0|0:0,0:0:0:0:
211,203,114360,2,0,P|233:206|254:216,1,45,10|0,0:0|0:0,0:0:0:0:
36,153,114506,2,0,P|19:137|9:118,1,45,10|0,0:0|0:0,0:0:0:0:
148,297,114652,2,0,P|152:319|150:342,1,45,10|0,0:0|0:0,0:0:0:0:
141,115,114797,5,10,0:0:0:0:
169,97,114869,1,0,0:0:0:0:
202,89,114942,1,2,0:0:0:0:
235,90,115015,1,0,0:0:0:0:
267,101,115088,1,2,0:0:0:0:
303,125,115160,1,0,0:0:0:0:
347,119,115233,1,2,0:0:0:0:
374,84,115306,1,0,0:0:0:0:
369,40,115379,5,2,0:0:0:0:
301,339,115962,1,2,0:0:0:0:
181,57,116544,1,2,0:0:0:0:
442,215,117128,1,2,0:0:0:0:
138,241,117710,5,4,3:2:0:0:
256,192,117783,12,2,120040,0:0:0:0:
