osu file format v14

[General]
AudioFilename: LegenD.mp3
AudioLeadIn: 0
PreviewTime: 61480
Countdown: 1
SampleSet: Soft
StackLeniency: 0.7
Mode: 3
LetterboxInBreaks: 0
SpecialStyle: 0
WidescreenStoryboard: 0

[Editor]
DistanceSpacing: 0.8
BeatDivisor: 4
GridSize: 4
TimelineZoom: 4.099998

[Metadata]
Title:LegenD.
TitleUnicode:LegenD.
Artist:Yooh
ArtistUnicode:Yooh
Creator:Niima
Version:EXH
Source:SOUND VOLTEX III GRAVITY WARS
Tags:LEGEND SOUND VOLTEX III GRAVITY WARS KAC2014 Niima
BeatmapID:1194266
BeatmapSetID:565000

[Difficulty]
HPDrainRate:7.5
CircleSize:4
OverallDifficulty:0
ApproachRate:5
SliderMultiplier:1.4
SliderTickRate:1

[Events]
//Background and Video events
0,0,"BG.jpg",0,0
//Break Periods
//Storyboard Layer 0 (Background)
//Storyboard Layer 1 (Fail)
//Storyboard Layer 2 (Pass)
//Storyboard Layer 3 (Foreground)
//Storyboard Sound Samples

[TimingPoints]
900,292.682926829268,4,2,1,10,1,0
28704,-133.333333333333,4,2,1,10,0,0
28924,-66.6666666666667,4,2,1,10,0,0
28997,-100,4,2,1,10,0,0
57095,-2000,4,2,1,10,0,0
58265,-10,4,2,1,10,0,0
60607,291.26213592233,4,2,1,10,1,0
60898,-133.333333333333,4,2,1,10,0,0
61189,-100,4,2,1,10,0,0
61407,-66.6666666666667,4,2,1,10,0,0
61480,-90.9090909090909,4,2,1,10,0,0
61626,-90.9090909090909,4,2,1,10,0,0
61772,-100,4,2,1,10,0,0

[HitObjects]
64,192,607,5,0,0:0:0:0:
64,192,753,1,0,0:0:0:0:
448,192,900,1,0,0:0:0:0:
64,192,900,128,0,5290:0:0:0:0:
192,192,900,1,0,0:0:0:0:
448,192,1339,1,0,0:0:0:0:
192,192,1778,1,0,0:0:0:0:
448,192,2070,1,0,0:0:0:0:
448,192,2363,1,0,0:0:0:0:
192,192,2509,1,0,0:0:0:0:
192,192,2948,1,0,0:0:0:0:
320,192,3241,1,0,0:0:0:0:
448,192,3387,1,0,0:0:0:0:
192,192,3534,1,0,0:0:0:0:
320,192,3680,1,0,0:0:0:0:
192,192,3973,1,0,0:0:0:0:
448,192,4119,1,0,0:0:0:0:
448,192,4412,1,0,0:0:0:0:
320,192,4558,1,0,0:0:0:0:
192,192,4704,1,0,0:0:0:0:
448,192,4851,1,0,0:0:0:0:
192,192,5143,1,0,0:0:0:0:
448,192,5290,1,0,0:0:0:0:
320,192,5290,1,0,0:0:0:0:
192,192,5436,1,0,0:0:0:0:
64,192,5436,1,0,0:0:0:0:
320,192,5436,1,0,0:0:0:0:
320,192,5582,1,0,0:0:0:0:
64,192,5582,1,0,0:0:0:0:
448,192,5582,128,0,7924:0:0:0:0:
192,192,5729,1,0,0:0:0:0:
64,192,5875,1,0,0:0:0:0:
320,192,6021,1,0,0:0:0:0:
64,192,6168,1,0,0:0:0:0:
192,192,6314,1,0,0:0:0:0:
320,192,6460,1,0,0:0:0:0:
64,192,6607,1,0,0:0:0:0:
320,192,6753,1,0,0:0:0:0:
192,192,6899,1,0,0:0:0:0:
64,192,7046,1,0,0:0:0:0:
320,192,7192,1,0,0:0:0:0:
192,192,7339,1,0,0:0:0:0:
64,192,7485,1,0,0:0:0:0:
192,192,7631,1,0,0:0:0:0:
320,192,7778,1,0,0:0:0:0:
64,192,7924,1,0,0:0:0:0:
320,192,7924,1,0,0:0:0:0:
192,192,8070,1,0,0:0:0:0:
448,192,8217,1,0,0:0:0:0:
192,192,8363,1,0,0:0:0:0:
64,192,8509,1,0,0:0:0:0:
320,192,8509,1,0,0:0:0:0:
448,192,8656,1,0,0:0:0:0:
64,192,8802,1,0,0:0:0:0:
320,192,8948,1,0,0:0:0:0:
192,192,9095,1,0,0:0:0:0:
448,192,9095,1,0,0:0:0:0:
64,192,9241,1,0,0:0:0:0:
192,192,9241,1,0,0:0:0:0:
320,192,9387,1,0,0:0:0:0:
448,192,9387,1,0,0:0:0:0:
192,192,9534,1,0,0:0:0:0:
64,192,9534,128,0,9680:0:0:0:0:
320,192,9680,1,0,0:0:0:0:
448,192,9680,1,0,0:0:0:0:
192,192,9753,1,0,0:0:0:0:
64,192,9826,1,0,0:0:0:0:
448,192,9826,128,0,9973:0:0:0:0:
64,192,9973,1,0,0:0:0:0:
192,192,10046,1,0,0:0:0:0:
320,192,10119,1,0,0:0:0:0:
448,192,10119,1,0,0:0:0:0:
192,192,10192,1,0,0:0:0:0:
448,192,10265,128,0,10558:0:0:0:0:
64,192,10265,1,0,0:0:0:0:
320,192,10412,1,0,0:0:0:0:
192,192,10412,1,0,0:0:0:0:
64,192,10558,1,0,0:0:0:0:
192,192,10558,1,0,0:0:0:0:
320,192,10704,1,0,0:0:0:0:
448,192,10704,1,0,0:0:0:0:
64,192,10851,1,0,0:0:0:0:
448,192,10851,1,0,0:0:0:0:
192,192,10851,1,0,0:0:0:0:
192,192,10997,1,0,0:0:0:0:
320,192,10997,1,0,0:0:0:0:
64,192,11143,128,0,11436:0:0:0:0:
320,192,11143,1,0,0:0:0:0:
448,192,11143,1,0,0:0:0:0:
192,192,11290,1,0,0:0:0:0:
320,192,11290,1,0,0:0:0:0:
320,192,11436,1,0,0:0:0:0:
448,192,11436,1,0,0:0:0:0:
192,192,11582,1,0,0:0:0:0:
320,192,11582,1,0,0:0:0:0:
64,192,11729,1,0,0:0:0:0:
192,192,11729,1,0,0:0:0:0:
448,192,11729,1,0,0:0:0:0:
320,192,11875,1,0,0:0:0:0:
64,192,11875,1,0,0:0:0:0:
320,192,12021,1,0,0:0:0:0:
448,192,12021,1,0,0:0:0:0:
64,192,12168,1,0,0:0:0:0:
192,192,12168,1,0,0:0:0:0:
448,192,12314,128,0,12607:0:0:0:0:
320,192,12314,1,0,0:0:0:0:
64,192,12314,1,0,0:0:0:0:
320,192,12460,1,0,0:0:0:0:
64,192,12460,1,0,0:0:0:0:
192,192,12534,1,0,0:0:0:0:
64,192,12607,1,0,0:0:0:0:
320,192,12607,1,0,0:0:0:0:
192,192,12753,1,0,0:0:0:0:
320,192,12753,1,0,0:0:0:0:
448,192,12899,1,0,0:0:0:0:
64,192,12899,1,0,0:0:0:0:
192,192,12899,1,0,0:0:0:0:
192,192,13046,1,0,0:0:0:0:
320,192,13046,1,0,0:0:0:0:
64,192,13192,1,0,0:0:0:0:
448,192,13192,1,0,0:0:0:0:
320,192,13192,1,0,0:0:0:0:
192,192,13339,1,0,0:0:0:0:
320,192,13339,1,0,0:0:0:0:
64,192,13485,128,0,13778:0:0:0:0:
192,192,13485,1,0,0:0:0:0:
448,192,13485,1,0,0:0:0:0:
320,192,13631,1,0,0:0:0:0:
448,192,13631,1,0,0:0:0:0:
192,192,13778,1,0,0:0:0:0:
320,192,13778,1,0,0:0:0:0:
64,192,13924,1,0,0:0:0:0:
192,192,13924,1,0,0:0:0:0:
64,192,14070,1,0,0:0:0:0:
320,192,14070,1,0,0:0:0:0:
448,192,14070,1,0,0:0:0:0:
192,192,14217,1,0,0:0:0:0:
320,192,14217,1,0,0:0:0:0:
64,192,14363,1,0,0:0:0:0:
448,192,14363,1,0,0:0:0:0:
192,192,14436,1,0,0:0:0:0:
448,192,14509,1,0,0:0:0:0:
320,192,14509,1,0,0:0:0:0:
64,192,14509,1,0,0:0:0:0:
64,192,14656,1,0,0:0:0:0:
448,192,14656,1,0,0:0:0:0:
192,192,14656,1,0,0:0:0:0:
320,192,14729,1,0,0:0:0:0:
192,192,14802,1,0,0:0:0:0:
64,192,14802,1,0,0:0:0:0:
448,192,14802,1,0,0:0:0:0:
320,192,14875,1,0,0:0:0:0:
448,192,14948,1,0,0:0:0:0:
64,192,14948,1,0,0:0:0:0:
192,192,14948,1,0,0:0:0:0:
64,192,15095,1,0,0:0:0:0:
192,192,15095,1,0,0:0:0:0:
64,192,15241,1,0,0:0:0:0:
448,192,15241,1,0,0:0:0:0:
192,192,15241,128,0,15387:0:0:0:0:
448,192,15387,1,0,0:0:0:0:
320,192,15387,1,0,0:0:0:0:
64,192,15387,1,0,0:0:0:0:
192,192,15460,1,0,0:0:0:0:
64,192,15534,1,0,0:0:0:0:
448,192,15534,1,0,0:0:0:0:
320,192,15534,1,0,0:0:0:0:
192,192,15680,1,0,0:0:0:0:
320,192,15680,1,0,0:0:0:0:
320,192,15826,128,0,15973:0:0:0:0:
192,192,15826,1,0,0:0:0:0:
64,192,15826,1,0,0:0:0:0:
448,192,15826,1,0,0:0:0:0:
64,192,15973,1,0,0:0:0:0:
192,192,15973,1,0,0:0:0:0:
448,192,15973,1,0,0:0:0:0:
320,192,16046,1,0,0:0:0:0:
64,192,16119,1,0,0:0:0:0:
192,192,16119,1,0,0:0:0:0:
448,192,16119,1,0,0:0:0:0:
64,192,16265,128,0,16412:0:0:0:0:
192,192,16265,1,0,0:0:0:0:
448,192,16265,1,0,0:0:0:0:
320,192,16265,1,0,0:0:0:0:
448,192,16412,1,0,0:0:0:0:
192,192,16412,1,0,0:0:0:0:
448,192,16558,128,0,16704:0:0:0:0:
64,192,16558,1,0,0:0:0:0:
192,192,16558,1,0,0:0:0:0:
320,192,16558,1,0,0:0:0:0:
64,192,16704,1,0,0:0:0:0:
192,192,16778,1,0,0:0:0:0:
448,192,16851,1,0,0:0:0:0:
320,192,16924,1,0,0:0:0:0:
192,192,16997,1,0,0:0:0:0:
64,192,16997,1,0,0:0:0:0:
320,192,17070,1,0,0:0:0:0:
448,192,17070,1,0,0:0:0:0:
192,192,17143,1,0,0:0:0:0:
64,192,17143,1,0,0:0:0:0:
320,192,17217,1,0,0:0:0:0:
448,192,17217,1,0,0:0:0:0:
64,192,17290,128,0,18460:0:0:0:0:
192,192,17290,128,0,17363:0:0:0:0:
320,192,17436,128,0,17509:0:0:0:0:
448,192,17582,128,0,17656:0:0:0:0:
192,192,17729,128,0,17802:0:0:0:0:
448,192,17875,128,0,17948:0:0:0:0:
192,192,18021,128,0,18095:0:0:0:0:
448,192,18168,128,0,18241:0:0:0:0:
192,192,18314,128,0,18387:0:0:0:0:
448,192,18460,128,0,18534:0:0:0:0:
320,192,18607,128,0,18680:0:0:0:0:
192,192,18753,128,0,18826:0:0:0:0:
64,192,18899,128,0,18973:0:0:0:0:
192,192,19046,128,0,19119:0:0:0:0:
320,192,19192,128,0,19265:0:0:0:0:
448,192,19339,128,0,19412:0:0:0:0:
64,192,19339,128,0,19631:0:0:0:0:
448,192,19485,1,0,0:0:0:0:
320,192,19558,1,0,0:0:0:0:
192,192,19631,1,0,0:0:0:0:
448,192,19631,128,0,19704:0:0:0:0:
64,192,19778,128,0,19851:0:0:0:0:
320,192,19778,1,0,0:0:0:0:
64,192,19924,128,0,19997:0:0:0:0:
320,192,19924,1,0,0:0:0:0:
448,192,19924,1,0,0:0:0:0:
64,192,20070,128,0,20143:0:0:0:0:
320,192,20070,1,0,0:0:0:0:
320,192,20217,1,0,0:0:0:0:
448,192,20217,1,0,0:0:0:0:
64,192,20217,128,0,20290:0:0:0:0:
192,192,20363,128,0,20509:0:0:0:0:
320,192,20509,128,0,20582:0:0:0:0:
64,192,20509,1,0,0:0:0:0:
448,192,20509,1,0,0:0:0:0:
192,192,20656,128,0,20729:0:0:0:0:
64,192,20802,1,0,0:0:0:0:
192,192,20802,1,0,0:0:0:0:
448,192,20802,128,0,20875:0:0:0:0:
192,192,20948,1,0,0:0:0:0:
448,192,20948,128,0,21021:0:0:0:0:
64,192,21095,1,0,0:0:0:0:
192,192,21095,1,0,0:0:0:0:
448,192,21095,128,0,21168:0:0:0:0:
192,192,21241,1,0,0:0:0:0:
448,192,21241,128,0,21314:0:0:0:0:
64,192,21387,1,0,0:0:0:0:
192,192,21387,1,0,0:0:0:0:
448,192,21387,128,0,21460:0:0:0:0:
320,192,21534,128,0,21680:0:0:0:0:
192,192,21680,128,0,21753:0:0:0:0:
64,192,21680,1,0,0:0:0:0:
448,192,21680,1,0,0:0:0:0:
320,192,21826,128,0,21899:0:0:0:0:
64,192,21973,128,0,22046:0:0:0:0:
448,192,21973,1,0,0:0:0:0:
320,192,21973,1,0,0:0:0:0:
64,192,22119,128,0,22192:0:0:0:0:
320,192,22119,1,0,0:0:0:0:
64,192,22265,128,0,22339:0:0:0:0:
320,192,22265,1,0,0:0:0:0:
448,192,22265,1,0,0:0:0:0:
64,192,22412,128,0,22558:0:0:0:0:
320,192,22412,1,0,0:0:0:0:
320,192,22558,1,0,0:0:0:0:
448,192,22558,1,0,0:0:0:0:
192,192,22704,1,0,0:0:0:0:
320,192,22704,128,0,22851:0:0:0:0:
64,192,22851,1,0,0:0:0:0:
192,192,22851,1,0,0:0:0:0:
192,192,22997,128,0,23143:0:0:0:0:
448,192,23143,128,0,23217:0:0:0:0:
64,192,23143,1,0,0:0:0:0:
320,192,23143,1,0,0:0:0:0:
448,192,23290,128,0,23363:0:0:0:0:
64,192,23290,1,0,0:0:0:0:
448,192,23436,128,0,23582:0:0:0:0:
192,192,23436,1,0,0:0:0:0:
64,192,23436,1,0,0:0:0:0:
320,192,23582,128,0,23729:0:0:0:0:
64,192,23582,1,0,0:0:0:0:
192,192,23729,128,0,23875:0:0:0:0:
64,192,23729,1,0,0:0:0:0:
448,192,23729,1,0,0:0:0:0:
64,192,23875,128,0,24021:0:0:0:0:
320,192,23875,1,0,0:0:0:0:
320,192,24021,1,0,0:0:0:0:
448,192,24168,1,0,0:0:0:0:
64,192,24314,1,0,0:0:0:0:
192,192,24314,1,0,0:0:0:0:
448,192,24314,1,0,0:0:0:0:
192,192,24460,1,0,0:0:0:0:
320,192,24460,1,0,0:0:0:0:
64,192,24607,1,0,0:0:0:0:
448,192,24607,1,0,0:0:0:0:
320,192,24607,1,0,0:0:0:0:
192,192,24753,1,0,0:0:0:0:
320,192,24753,1,0,0:0:0:0:
192,192,24899,1,0,0:0:0:0:
448,192,24899,1,0,0:0:0:0:
64,192,24899,1,0,0:0:0:0:
448,192,25046,1,0,0:0:0:0:
320,192,25119,1,0,0:0:0:0:
64,192,25192,1,0,0:0:0:0:
192,192,25192,1,0,0:0:0:0:
448,192,25192,1,0,0:0:0:0:
64,192,25339,1,0,0:0:0:0:
192,192,25339,1,0,0:0:0:0:
320,192,25339,1,0,0:0:0:0:
192,192,25485,1,0,0:0:0:0:
320,192,25485,1,0,0:0:0:0:
448,192,25485,1,0,0:0:0:0:
320,192,25631,1,0,0:0:0:0:
448,192,25631,1,0,0:0:0:0:
192,192,25778,1,0,0:0:0:0:
64,192,25778,1,0,0:0:0:0:
448,192,25778,1,0,0:0:0:0:
64,192,25924,128,0,26070:0:0:0:0:
320,192,26070,1,0,0:0:0:0:
448,192,26070,1,0,0:0:0:0:
320,192,26217,1,0,0:0:0:0:
448,192,26217,1,0,0:0:0:0:
64,192,26217,1,0,0:0:0:0:
192,192,26290,1,0,0:0:0:0:
64,192,26363,1,0,0:0:0:0:
320,192,26363,1,0,0:0:0:0:
448,192,26363,1,0,0:0:0:0:
192,192,26509,1,0,0:0:0:0:
320,192,26509,1,0,0:0:0:0:
64,192,26656,1,0,0:0:0:0:
192,192,26656,1,0,0:0:0:0:
320,192,26656,1,0,0:0:0:0:
64,192,26802,1,0,0:0:0:0:
192,192,26802,1,0,0:0:0:0:
320,192,26802,1,0,0:0:0:0:
192,192,26948,1,0,0:0:0:0:
320,192,26948,1,0,0:0:0:0:
448,192,26948,1,0,0:0:0:0:
64,192,27095,128,0,27241:0:0:0:0:
192,192,27241,1,0,0:0:0:0:
320,192,27241,1,0,0:0:0:0:
448,192,27241,1,0,0:0:0:0:
192,192,27387,1,0,0:0:0:0:
320,192,27387,1,0,0:0:0:0:
448,192,27387,1,0,0:0:0:0:
320,192,27534,1,0,0:0:0:0:
192,192,27534,1,0,0:0:0:0:
64,192,27534,1,0,0:0:0:0:
448,192,27680,128,0,27826:0:0:0:0:
64,192,27826,1,0,0:0:0:0:
192,192,27826,1,0,0:0:0:0:
64,192,28021,1,0,0:0:0:0:
192,192,28021,1,0,0:0:0:0:
192,192,28119,1,0,0:0:0:0:
320,192,28119,1,0,0:0:0:0:
320,192,28314,1,0,0:0:0:0:
448,192,28314,1,0,0:0:0:0:
320,192,28412,1,0,0:0:0:0:
192,192,28412,1,0,0:0:0:0:
64,192,28509,1,0,0:0:0:0:
192,192,28509,1,0,0:0:0:0:
320,192,28607,1,0,0:0:0:0:
448,192,28607,1,0,0:0:0:0:
192,192,28704,1,0,0:0:0:0:
64,192,28704,128,0,28997:0:0:0:0:
320,192,28997,1,0,0:0:0:0:
448,192,28997,1,0,0:0:0:0:
192,192,29070,1,0,0:0:0:0:
64,192,29143,1,0,0:0:0:0:
192,192,29217,1,0,0:0:0:0:
320,192,29290,1,0,0:0:0:0:
448,192,29290,1,0,0:0:0:0:
64,192,29363,1,0,0:0:0:0:
192,192,29436,1,0,0:0:0:0:
448,192,29436,1,0,0:0:0:0:
320,192,29509,1,0,0:0:0:0:
64,192,29582,1,0,0:0:0:0:
192,192,29582,1,0,0:0:0:0:
448,192,29582,1,0,0:0:0:0:
320,192,29656,1,0,0:0:0:0:
192,192,29729,1,0,0:0:0:0:
64,192,29729,1,0,0:0:0:0:
320,192,29802,1,0,0:0:0:0:
448,192,29802,1,0,0:0:0:0:
192,192,29875,1,0,0:0:0:0:
64,192,29875,1,0,0:0:0:0:
320,192,29948,1,0,0:0:0:0:
448,192,30021,1,0,0:0:0:0:
64,192,30021,1,0,0:0:0:0:
192,192,30095,1,0,0:0:0:0:
320,192,30168,1,0,0:0:0:0:
448,192,30168,1,0,0:0:0:0:
64,192,30168,1,0,0:0:0:0:
192,192,30241,1,0,0:0:0:0:
448,192,30314,1,0,0:0:0:0:
64,192,30314,1,0,0:0:0:0:
320,192,30387,1,0,0:0:0:0:
192,192,30460,1,0,0:0:0:0:
64,192,30460,1,0,0:0:0:0:
448,192,30460,1,0,0:0:0:0:
320,192,30534,1,0,0:0:0:0:
64,192,30607,1,0,0:0:0:0:
448,192,30607,1,0,0:0:0:0:
192,192,30680,1,0,0:0:0:0:
320,192,30753,1,0,0:0:0:0:
448,192,30753,1,0,0:0:0:0:
64,192,30826,1,0,0:0:0:0:
192,192,30899,1,0,0:0:0:0:
320,192,30899,1,0,0:0:0:0:
448,192,30899,1,0,0:0:0:0:
64,192,30973,1,0,0:0:0:0:
320,192,31046,1,0,0:0:0:0:
448,192,31046,1,0,0:0:0:0:
64,192,31119,1,0,0:0:0:0:
192,192,31119,1,0,0:0:0:0:
320,192,31192,1,0,0:0:0:0:
448,192,31265,1,0,0:0:0:0:
192,192,31339,1,0,0:0:0:0:
64,192,31339,1,0,0:0:0:0:
448,192,31412,1,0,0:0:0:0:
320,192,31485,1,0,0:0:0:0:
64,192,31485,1,0,0:0:0:0:
448,192,31558,1,0,0:0:0:0:
192,192,31631,1,0,0:0:0:0:
64,192,31631,1,0,0:0:0:0:
320,192,31631,1,0,0:0:0:0:
448,192,31704,1,0,0:0:0:0:
320,192,31778,1,0,0:0:0:0:
64,192,31778,1,0,0:0:0:0:
192,192,31851,1,0,0:0:0:0:
64,192,31924,1,0,0:0:0:0:
448,192,31924,1,0,0:0:0:0:
320,192,31924,1,0,0:0:0:0:
192,192,31997,1,0,0:0:0:0:
320,192,32070,1,0,0:0:0:0:
448,192,32070,1,0,0:0:0:0:
192,192,32143,1,0,0:0:0:0:
64,192,32143,1,0,0:0:0:0:
320,192,32217,1,0,0:0:0:0:
448,192,32217,1,0,0:0:0:0:
192,192,32290,1,0,0:0:0:0:
64,192,32363,1,0,0:0:0:0:
448,192,32363,1,0,0:0:0:0:
320,192,32436,1,0,0:0:0:0:
192,192,32509,1,0,0:0:0:0:
64,192,32509,1,0,0:0:0:0:
448,192,32509,1,0,0:0:0:0:
320,192,32582,1,0,0:0:0:0:
64,192,32656,1,0,0:0:0:0:
448,192,32656,1,0,0:0:0:0:
192,192,32729,1,0,0:0:0:0:
320,192,32802,1,0,0:0:0:0:
448,192,32802,1,0,0:0:0:0:
64,192,32802,1,0,0:0:0:0:
192,192,32875,1,0,0:0:0:0:
448,192,32948,1,0,0:0:0:0:
64,192,32948,1,0,0:0:0:0:
320,192,33021,1,0,0:0:0:0:
192,192,33095,1,0,0:0:0:0:
64,192,33095,1,0,0:0:0:0:
448,192,33168,1,0,0:0:0:0:
320,192,33241,1,0,0:0:0:0:
192,192,33241,1,0,0:0:0:0:
64,192,33241,1,0,0:0:0:0:
448,192,33314,1,0,0:0:0:0:
192,192,33387,1,0,0:0:0:0:
64,192,33387,1,0,0:0:0:0:
448,192,33460,1,0,0:0:0:0:
320,192,33460,1,0,0:0:0:0:
192,192,33534,1,0,0:0:0:0:
64,192,33534,1,0,0:0:0:0:
448,192,33607,1,0,0:0:0:0:
320,192,33607,1,0,0:0:0:0:
192,192,33680,1,0,0:0:0:0:
64,192,33680,1,0,0:0:0:0:
448,192,33753,1,0,0:0:0:0:
320,192,33826,1,0,0:0:0:0:
64,192,33826,1,0,0:0:0:0:
192,192,33899,1,0,0:0:0:0:
320,192,33973,1,0,0:0:0:0:
448,192,33973,1,0,0:0:0:0:
64,192,33973,1,0,0:0:0:0:
192,192,34046,1,0,0:0:0:0:
320,192,34119,1,0,0:0:0:0:
64,192,34119,1,0,0:0:0:0:
448,192,34192,1,0,0:0:0:0:
64,192,34265,1,0,0:0:0:0:
320,192,34265,1,0,0:0:0:0:
192,192,34265,1,0,0:0:0:0:
448,192,34339,1,0,0:0:0:0:
64,192,34412,1,0,0:0:0:0:
320,192,34412,1,0,0:0:0:0:
192,192,34485,1,0,0:0:0:0:
64,192,34558,1,0,0:0:0:0:
320,192,34558,1,0,0:0:0:0:
448,192,34558,1,0,0:0:0:0:
192,192,34631,1,0,0:0:0:0:
320,192,34704,1,0,0:0:0:0:
448,192,34704,1,0,0:0:0:0:
64,192,34778,1,0,0:0:0:0:
192,192,34851,1,0,0:0:0:0:
320,192,34851,1,0,0:0:0:0:
448,192,34851,1,0,0:0:0:0:
64,192,34924,1,0,0:0:0:0:
448,192,34997,1,0,0:0:0:0:
192,192,34997,1,0,0:0:0:0:
320,192,35070,1,0,0:0:0:0:
192,192,35143,1,0,0:0:0:0:
448,192,35143,1,0,0:0:0:0:
64,192,35143,1,0,0:0:0:0:
320,192,35217,1,0,0:0:0:0:
192,192,35290,1,0,0:0:0:0:
64,192,35290,128,0,35436:0:0:0:0:
320,192,35436,1,0,0:0:0:0:
448,192,35436,128,0,35582:0:0:0:0:
192,192,35582,128,0,35729:0:0:0:0:
320,192,35582,1,0,0:0:0:0:
64,192,35656,1,0,0:0:0:0:
448,192,35729,128,0,35875:0:0:0:0:
320,192,35729,1,0,0:0:0:0:
64,192,35875,1,0,0:0:0:0:
320,192,35875,128,0,36021:0:0:0:0:
64,192,36021,1,0,0:0:0:0:
448,192,36021,128,0,36095:0:0:0:0:
192,192,36095,1,0,0:0:0:0:
448,192,36168,128,0,36241:0:0:0:0:
64,192,36168,1,0,0:0:0:0:
192,192,36241,1,0,0:0:0:0:
64,192,36314,1,0,0:0:0:0:
320,192,36314,1,0,0:0:0:0:
448,192,36314,128,0,36534:0:0:0:0:
192,192,36387,1,0,0:0:0:0:
320,192,36460,1,0,0:0:0:0:
192,192,36534,1,0,0:0:0:0:
64,192,36607,128,0,36680:0:0:0:0:
448,192,36607,1,0,0:0:0:0:
320,192,36680,1,0,0:0:0:0:
64,192,36753,128,0,36826:0:0:0:0:
448,192,36753,1,0,0:0:0:0:
320,192,36826,1,0,0:0:0:0:
448,192,36899,1,0,0:0:0:0:
64,192,36899,128,0,37119:0:0:0:0:
320,192,36973,1,0,0:0:0:0:
192,192,37046,1,0,0:0:0:0:
320,192,37119,1,0,0:0:0:0:
64,192,37192,128,0,37265:0:0:0:0:
192,192,37192,1,0,0:0:0:0:
448,192,37192,1,0,0:0:0:0:
320,192,37265,1,0,0:0:0:0:
192,192,37339,128,0,37412:0:0:0:0:
448,192,37339,1,0,0:0:0:0:
64,192,37412,1,0,0:0:0:0:
320,192,37485,128,0,37558:0:0:0:0:
192,192,37485,1,0,0:0:0:0:
448,192,37558,1,0,0:0:0:0:
64,192,37631,128,0,37704:0:0:0:0:
192,192,37631,1,0,0:0:0:0:
448,192,37704,1,0,0:0:0:0:
192,192,37778,128,0,37851:0:0:0:0:
320,192,37778,1,0,0:0:0:0:
64,192,37851,1,0,0:0:0:0:
320,192,37924,128,0,37997:0:0:0:0:
448,192,37924,1,0,0:0:0:0:
192,192,37997,1,0,0:0:0:0:
64,192,38070,128,0,38290:0:0:0:0:
448,192,38070,1,0,0:0:0:0:
320,192,38143,1,0,0:0:0:0:
192,192,38217,1,0,0:0:0:0:
448,192,38217,1,0,0:0:0:0:
320,192,38290,1,0,0:0:0:0:
64,192,38363,1,0,0:0:0:0:
192,192,38363,1,0,0:0:0:0:
448,192,38363,128,0,38656:0:0:0:0:
320,192,38436,1,0,0:0:0:0:
64,192,38509,1,0,0:0:0:0:
192,192,38582,1,0,0:0:0:0:
320,192,38656,128,0,38948:0:0:0:0:
64,192,38656,1,0,0:0:0:0:
192,192,38729,1,0,0:0:0:0:
448,192,38802,1,0,0:0:0:0:
64,192,38802,1,0,0:0:0:0:
192,192,38875,1,0,0:0:0:0:
64,192,38948,128,0,39241:0:0:0:0:
448,192,38948,1,0,0:0:0:0:
320,192,39021,1,0,0:0:0:0:
192,192,39095,1,0,0:0:0:0:
448,192,39168,1,0,0:0:0:0:
320,192,39241,128,0,39534:0:0:0:0:
192,192,39241,1,0,0:0:0:0:
64,192,39314,1,0,0:0:0:0:
192,192,39387,1,0,0:0:0:0:
448,192,39460,1,0,0:0:0:0:
192,192,39534,128,0,39826:0:0:0:0:
64,192,39534,1,0,0:0:0:0:
448,192,39607,1,0,0:0:0:0:
64,192,39680,1,0,0:0:0:0:
320,192,39753,1,0,0:0:0:0:
448,192,39826,128,0,40119:0:0:0:0:
64,192,39826,1,0,0:0:0:0:
192,192,39899,1,0,0:0:0:0:
320,192,39973,1,0,0:0:0:0:
64,192,40046,1,0,0:0:0:0:
192,192,40119,1,0,0:0:0:0:
320,192,40119,1,0,0:0:0:0:
448,192,40265,1,0,0:0:0:0:
320,192,40265,1,0,0:0:0:0:
64,192,40265,128,0,40339:0:0:0:0:
192,192,40412,128,0,40485:0:0:0:0:
320,192,40558,128,0,40631:0:0:0:0:
448,192,40558,1,0,0:0:0:0:
64,192,40704,128,0,40997:0:0:0:0:
448,192,40704,1,0,0:0:0:0:
192,192,40704,1,0,0:0:0:0:
320,192,40778,1,0,0:0:0:0:
448,192,40851,1,0,0:0:0:0:
320,192,40924,1,0,0:0:0:0:
192,192,40997,128,0,41290:0:0:0:0:
448,192,40997,1,0,0:0:0:0:
64,192,41070,1,0,0:0:0:0:
448,192,41143,1,0,0:0:0:0:
320,192,41217,1,0,0:0:0:0:
448,192,41290,128,0,41582:0:0:0:0:
64,192,41290,1,0,0:0:0:0:
320,192,41363,1,0,0:0:0:0:
64,192,41436,1,0,0:0:0:0:
320,192,41509,1,0,0:0:0:0:
192,192,41582,128,0,41875:0:0:0:0:
64,192,41582,1,0,0:0:0:0:
448,192,41656,1,0,0:0:0:0:
320,192,41729,1,0,0:0:0:0:
64,192,41729,1,0,0:0:0:0:
448,192,41802,1,0,0:0:0:0:
64,192,41875,128,0,42168:0:0:0:0:
320,192,41875,1,0,0:0:0:0:
448,192,42168,1,0,0:0:0:0:
448,192,42241,1,0,0:0:0:0:
448,192,42314,1,0,0:0:0:0:
448,192,42387,1,0,0:0:0:0:
64,192,42460,128,0,42497:0:0:0:0:
192,192,42460,128,0,42534:0:0:0:0:
320,192,42460,128,0,42570:0:0:0:0:
448,192,42460,128,0,42607:0:0:0:0:
64,192,42607,128,0,42643:0:0:0:0:
192,192,42643,128,0,42680:0:0:0:0:
320,192,42680,128,0,42717:0:0:0:0:
448,192,42717,128,0,42753:0:0:0:0:
320,192,42753,128,0,42790:0:0:0:0:
192,192,42790,128,0,42826:0:0:0:0:
64,192,42826,128,0,42863:0:0:0:0:
448,192,42863,128,0,42899:0:0:0:0:
320,192,42899,128,0,42936:0:0:0:0:
192,192,42936,128,0,42973:0:0:0:0:
64,192,42973,128,0,43009:0:0:0:0:
64,192,43046,1,0,0:0:0:0:
192,192,43046,1,0,0:0:0:0:
448,192,43046,128,0,43339:0:0:0:0:
320,192,43119,1,0,0:0:0:0:
64,192,43192,1,0,0:0:0:0:
192,192,43265,1,0,0:0:0:0:
320,192,43339,128,0,43631:0:0:0:0:
64,192,43339,1,0,0:0:0:0:
192,192,43412,1,0,0:0:0:0:
448,192,43485,1,0,0:0:0:0:
192,192,43558,1,0,0:0:0:0:
64,192,43631,128,0,43924:0:0:0:0:
448,192,43631,1,0,0:0:0:0:
320,192,43704,1,0,0:0:0:0:
192,192,43778,1,0,0:0:0:0:
448,192,43851,1,0,0:0:0:0:
320,192,43924,128,0,44217:0:0:0:0:
192,192,43924,1,0,0:0:0:0:
448,192,43924,1,0,0:0:0:0:
64,192,43997,1,0,0:0:0:0:
192,192,44070,1,0,0:0:0:0:
448,192,44143,1,0,0:0:0:0:
192,192,44217,128,0,44509:0:0:0:0:
64,192,44217,1,0,0:0:0:0:
448,192,44290,1,0,0:0:0:0:
64,192,44363,1,0,0:0:0:0:
320,192,44436,1,0,0:0:0:0:
448,192,44509,128,0,44802:0:0:0:0:
64,192,44509,1,0,0:0:0:0:
192,192,44582,1,0,0:0:0:0:
320,192,44656,1,0,0:0:0:0:
64,192,44729,1,0,0:0:0:0:
192,192,44802,128,0,44948:0:0:0:0:
320,192,44948,128,0,45021:0:0:0:0:
64,192,44948,128,0,45021:0:0:0:0:
192,192,45021,128,0,45095:0:0:0:0:
448,192,45021,128,0,45095:0:0:0:0:
320,192,45095,128,0,45168:0:0:0:0:
64,192,45095,128,0,45168:0:0:0:0:
192,192,45168,128,0,45241:0:0:0:0:
448,192,45168,128,0,45241:0:0:0:0:
64,192,45241,128,0,45314:0:0:0:0:
320,192,45241,128,0,45314:0:0:0:0:
192,192,45314,128,0,45387:0:0:0:0:
448,192,45314,128,0,45387:0:0:0:0:
64,192,45387,128,0,45680:0:0:0:0:
320,192,45387,1,0,0:0:0:0:
192,192,45460,1,0,0:0:0:0:
320,192,45534,1,0,0:0:0:0:
448,192,45607,1,0,0:0:0:0:
192,192,45680,128,0,45973:0:0:0:0:
320,192,45680,1,0,0:0:0:0:
64,192,45753,1,0,0:0:0:0:
448,192,45826,1,0,0:0:0:0:
320,192,45899,1,0,0:0:0:0:
448,192,45973,128,0,46265:0:0:0:0:
64,192,45973,1,0,0:0:0:0:
320,192,46046,1,0,0:0:0:0:
64,192,46119,1,0,0:0:0:0:
192,192,46119,1,0,0:0:0:0:
320,192,46192,1,0,0:0:0:0:
64,192,46265,1,0,0:0:0:0:
192,192,46265,128,0,46485:0:0:0:0:
448,192,46339,1,0,0:0:0:0:
320,192,46412,1,0,0:0:0:0:
64,192,46412,1,0,0:0:0:0:
448,192,46485,1,0,0:0:0:0:
64,192,46558,1,0,0:0:0:0:
192,192,46558,128,0,46631:0:0:0:0:
320,192,46558,128,0,46631:0:0:0:0:
448,192,46704,1,0,0:0:0:0:
64,192,46778,1,0,0:0:0:0:
192,192,46778,128,0,46851:0:0:0:0:
320,192,46778,128,0,46851:0:0:0:0:
64,192,46924,1,0,0:0:0:0:
448,192,46924,1,0,0:0:0:0:
192,192,46997,128,0,47070:0:0:0:0:
320,192,46997,128,0,47070:0:0:0:0:
64,192,47143,1,0,0:0:0:0:
448,192,47143,1,0,0:0:0:0:
192,192,47217,128,0,47290:0:0:0:0:
320,192,47217,128,0,47290:0:0:0:0:
64,192,47290,1,0,0:0:0:0:
192,192,47363,1,0,0:0:0:0:
320,192,47363,1,0,0:0:0:0:
448,192,47436,1,0,0:0:0:0:
64,192,47509,1,0,0:0:0:0:
192,192,47582,1,0,0:0:0:0:
448,192,47582,1,0,0:0:0:0:
320,192,47656,1,0,0:0:0:0:
448,192,47729,128,0,47875:0:0:0:0:
64,192,47729,1,0,0:0:0:0:
192,192,47729,1,0,0:0:0:0:
320,192,47802,1,0,0:0:0:0:
192,192,47875,1,0,0:0:0:0:
64,192,47948,1,0,0:0:0:0:
320,192,48021,1,0,0:0:0:0:
448,192,48021,1,0,0:0:0:0:
192,192,48021,1,0,0:0:0:0:
64,192,48095,1,0,0:0:0:0:
192,192,48168,1,0,0:0:0:0:
448,192,48168,1,0,0:0:0:0:
320,192,48241,1,0,0:0:0:0:
192,192,48314,1,0,0:0:0:0:
448,192,48314,1,0,0:0:0:0:
64,192,48314,128,0,48460:0:0:0:0:
320,192,48387,1,0,0:0:0:0:
192,192,48460,1,0,0:0:0:0:
320,192,48534,1,0,0:0:0:0:
448,192,48534,1,0,0:0:0:0:
192,192,48607,1,0,0:0:0:0:
64,192,48607,1,0,0:0:0:0:
320,192,48680,1,0,0:0:0:0:
448,192,48753,1,0,0:0:0:0:
64,192,48753,1,0,0:0:0:0:
192,192,48826,1,0,0:0:0:0:
448,192,48899,1,0,0:0:0:0:
64,192,48899,1,0,0:0:0:0:
320,192,48899,128,0,49046:0:0:0:0:
192,192,48973,1,0,0:0:0:0:
448,192,49046,1,0,0:0:0:0:
64,192,49046,1,0,0:0:0:0:
320,192,49119,1,0,0:0:0:0:
192,192,49192,1,0,0:0:0:0:
64,192,49192,1,0,0:0:0:0:
448,192,49192,1,0,0:0:0:0:
320,192,49265,1,0,0:0:0:0:
64,192,49339,1,0,0:0:0:0:
448,192,49339,1,0,0:0:0:0:
192,192,49412,1,0,0:0:0:0:
320,192,49485,1,0,0:0:0:0:
448,192,49485,1,0,0:0:0:0:
64,192,49558,1,0,0:0:0:0:
192,192,49631,1,0,0:0:0:0:
320,192,49631,1,0,0:0:0:0:
448,192,49631,1,0,0:0:0:0:
64,192,49704,1,0,0:0:0:0:
320,192,49778,1,0,0:0:0:0:
448,192,49778,1,0,0:0:0:0:
64,192,49851,1,0,0:0:0:0:
192,192,49851,1,0,0:0:0:0:
320,192,49924,1,0,0:0:0:0:
448,192,49997,1,0,0:0:0:0:
64,192,50070,1,0,0:0:0:0:
192,192,50070,128,0,50217:0:0:0:0:
448,192,50143,1,0,0:0:0:0:
320,192,50217,1,0,0:0:0:0:
64,192,50217,1,0,0:0:0:0:
448,192,50290,1,0,0:0:0:0:
192,192,50363,1,0,0:0:0:0:
64,192,50363,1,0,0:0:0:0:
320,192,50363,1,0,0:0:0:0:
448,192,50436,1,0,0:0:0:0:
320,192,50509,1,0,0:0:0:0:
64,192,50509,1,0,0:0:0:0:
192,192,50582,5,0,0:0:0:0:
64,192,50656,1,0,0:0:0:0:
320,192,50656,1,0,0:0:0:0:
448,192,50656,128,0,50802:0:0:0:0:
192,192,50729,1,0,0:0:0:0:
320,192,50802,1,0,0:0:0:0:
192,192,50875,1,0,0:0:0:0:
64,192,50875,1,0,0:0:0:0:
320,192,50948,1,0,0:0:0:0:
448,192,50948,1,0,0:0:0:0:
192,192,51021,1,0,0:0:0:0:
64,192,51095,1,0,0:0:0:0:
448,192,51095,1,0,0:0:0:0:
320,192,51168,1,0,0:0:0:0:
64,192,51241,1,0,0:0:0:0:
448,192,51241,1,0,0:0:0:0:
192,192,51241,1,0,0:0:0:0:
320,192,51314,1,0,0:0:0:0:
64,192,51387,1,0,0:0:0:0:
448,192,51387,1,0,0:0:0:0:
192,192,51460,1,0,0:0:0:0:
320,192,51534,1,0,0:0:0:0:
448,192,51534,1,0,0:0:0:0:
64,192,51534,1,0,0:0:0:0:
192,192,51607,1,0,0:0:0:0:
448,192,51680,1,0,0:0:0:0:
64,192,51680,1,0,0:0:0:0:
320,192,51753,1,0,0:0:0:0:
192,192,51826,1,0,0:0:0:0:
64,192,51826,1,0,0:0:0:0:
448,192,51899,1,0,0:0:0:0:
320,192,51973,1,0,0:0:0:0:
192,192,51973,1,0,0:0:0:0:
64,192,51973,1,0,0:0:0:0:
448,192,52046,1,0,0:0:0:0:
64,192,52119,128,0,52192:0:0:0:0:
192,192,52119,1,0,0:0:0:0:
320,192,52192,1,0,0:0:0:0:
448,192,52192,128,0,52265:0:0:0:0:
192,192,52265,1,0,0:0:0:0:
64,192,52265,128,0,52339:0:0:0:0:
448,192,52339,128,0,52412:0:0:0:0:
320,192,52339,1,0,0:0:0:0:
192,192,52412,1,0,0:0:0:0:
64,192,52412,1,0,0:0:0:0:
448,192,52485,1,0,0:0:0:0:
320,192,52558,1,0,0:0:0:0:
192,192,52631,1,0,0:0:0:0:
320,192,52704,1,0,0:0:0:0:
64,192,52704,1,0,0:0:0:0:
448,192,52704,128,0,52778:0:0:0:0:
192,192,52778,1,0,0:0:0:0:
320,192,52851,1,0,0:0:0:0:
64,192,52851,128,0,52924:0:0:0:0:
448,192,52924,1,0,0:0:0:0:
64,192,52997,1,0,0:0:0:0:
320,192,52997,1,0,0:0:0:0:
192,192,52997,128,0,53070:0:0:0:0:
448,192,53070,1,0,0:0:0:0:
64,192,53143,1,0,0:0:0:0:
320,192,53143,1,0,0:0:0:0:
192,192,53217,1,0,0:0:0:0:
64,192,53290,1,0,0:0:0:0:
320,192,53290,1,0,0:0:0:0:
448,192,53290,128,0,53363:0:0:0:0:
192,192,53363,1,0,0:0:0:0:
320,192,53436,1,0,0:0:0:0:
448,192,53436,1,0,0:0:0:0:
64,192,53509,1,0,0:0:0:0:
192,192,53582,1,0,0:0:0:0:
448,192,53582,1,0,0:0:0:0:
320,192,53582,128,0,53656:0:0:0:0:
64,192,53656,1,0,0:0:0:0:
448,192,53729,1,0,0:0:0:0:
192,192,53729,1,0,0:0:0:0:
320,192,53802,1,0,0:0:0:0:
448,192,53875,1,0,0:0:0:0:
192,192,53875,1,0,0:0:0:0:
64,192,53875,128,0,53948:0:0:0:0:
320,192,53948,1,0,0:0:0:0:
64,192,54021,1,0,0:0:0:0:
192,192,54021,1,0,0:0:0:0:
320,192,54095,1,0,0:0:0:0:
448,192,54095,1,0,0:0:0:0:
192,192,54168,1,0,0:0:0:0:
64,192,54168,1,0,0:0:0:0:
448,192,54241,1,0,0:0:0:0:
320,192,54314,1,0,0:0:0:0:
64,192,54314,1,0,0:0:0:0:
192,192,54387,1,0,0:0:0:0:
320,192,54460,1,0,0:0:0:0:
64,192,54460,128,0,54534:0:0:0:0:
192,192,54607,128,0,54680:0:0:0:0:
448,192,54607,1,0,0:0:0:0:
320,192,54753,128,0,54826:0:0:0:0:
448,192,54753,128,0,54826:0:0:0:0:
64,192,54753,128,0,55119:0:0:0:0:
448,192,54899,128,0,55119:0:0:0:0:
192,192,55046,128,0,55119:0:0:0:0:
320,192,55046,1,0,0:0:0:0:
64,192,55192,1,0,0:0:0:0:
192,192,55192,1,0,0:0:0:0:
320,192,55192,1,0,0:0:0:0:
448,192,55192,128,0,55485:0:0:0:0:
64,192,55339,128,0,55412:0:0:0:0:
192,192,55339,128,0,55412:0:0:0:0:
64,192,55485,128,0,55704:0:0:0:0:
320,192,55485,1,0,0:0:0:0:
192,192,55558,1,0,0:0:0:0:
448,192,55631,128,0,55704:0:0:0:0:
320,192,55631,128,0,55704:0:0:0:0:
192,192,55778,128,0,55997:0:0:0:0:
64,192,55778,1,0,0:0:0:0:
448,192,55778,1,0,0:0:0:0:
320,192,55924,128,0,55997:0:0:0:0:
448,192,55924,128,0,55997:0:0:0:0:
64,192,55924,128,0,56143:0:0:0:0:
192,192,56070,1,0,0:0:0:0:
448,192,56070,1,0,0:0:0:0:
320,192,56070,128,0,56290:0:0:0:0:
64,192,56217,128,0,56290:0:0:0:0:
192,192,56217,128,0,56436:0:0:0:0:
448,192,56217,128,0,56290:0:0:0:0:
64,192,56363,1,0,0:0:0:0:
448,192,56363,1,0,0:0:0:0:
320,192,56363,128,0,56582:0:0:0:0:
448,192,56509,128,0,56729:0:0:0:0:
64,192,56509,128,0,56582:0:0:0:0:
192,192,56509,1,0,0:0:0:0:
320,192,56656,128,0,56729:0:0:0:0:
64,192,56656,1,0,0:0:0:0:
192,192,56656,128,0,56875:0:0:0:0:
448,192,56802,128,0,56875:0:0:0:0:
320,192,56802,128,0,57021:0:0:0:0:
64,192,56802,1,0,0:0:0:0:
64,192,56948,128,0,57021:0:0:0:0:
448,192,56948,1,0,0:0:0:0:
192,192,56948,1,0,0:0:0:0:
192,192,57095,1,0,0:0:0:0:
320,192,57095,1,0,0:0:0:0:
448,192,57095,1,0,0:0:0:0:
64,192,57095,1,0,0:0:0:0:
320,192,61480,128,0,61553:0:0:0:0:
64,192,61480,128,0,61626:0:0:0:0:
192,192,61480,128,0,61590:0:0:0:0:
448,192,61480,128,0,61517:0:0:0:0:
448,192,61626,128,0,61662:0:0:0:0:
320,192,61662,128,0,61699:0:0:0:0:
192,192,61699,128,0,61735:0:0:0:0:
64,192,61735,128,0,61772:0:0:0:0:
448,192,61772,128,0,61844:0:0:0:0:
320,192,61844,128,0,61917:0:0:0:0:
192,192,61917,128,0,61990:0:0:0:0:
448,192,61917,1,0,0:0:0:0:
64,192,61990,128,0,62063:0:0:0:0:
192,192,62063,1,0,0:0:0:0:
448,192,62063,128,0,62136:0:0:0:0:
320,192,62136,128,0,62208:0:0:0:0:
192,192,62208,128,0,62281:0:0:0:0:
448,192,62208,1,0,0:0:0:0:
64,192,62281,128,0,62354:0:0:0:0:
192,192,62354,1,0,0:0:0:0:
320,192,62354,128,0,62427:0:0:0:0:
64,192,62427,128,0,62500:0:0:0:0:
448,192,62427,128,0,62500:0:0:0:0:
192,192,62500,128,0,62573:0:0:0:0:
320,192,62573,128,0,62645:0:0:0:0:
448,192,62645,128,0,62718:0:0:0:0:
64,192,62645,1,0,0:0:0:0:
192,192,62645,1,0,0:0:0:0:
320,192,62718,128,0,62791:0:0:0:0:
192,192,62791,128,0,62864:0:0:0:0:
448,192,62791,1,0,0:0:0:0:
64,192,62864,128,0,62937:0:0:0:0:
320,192,62937,1,0,0:0:0:0:
448,192,62937,128,0,63009:0:0:0:0:
192,192,62937,1,0,0:0:0:0:
64,192,63009,128,0,63082:0:0:0:0:
192,192,63082,128,0,63155:0:0:0:0:
448,192,63082,1,0,0:0:0:0:
320,192,63155,128,0,63228:0:0:0:0:
192,192,63228,1,0,0:0:0:0:
64,192,63228,128,0,63301:0:0:0:0:
448,192,63301,128,0,63373:0:0:0:0:
320,192,63373,128,0,63446:0:0:0:0:
64,192,63373,1,0,0:0:0:0:
192,192,63446,128,0,63519:0:0:0:0:
448,192,63519,128,0,63592:0:0:0:0:
320,192,63519,1,0,0:0:0:0:
64,192,63592,128,0,63665:0:0:0:0:
192,192,63592,1,0,0:0:0:0:
448,192,63665,128,0,63738:0:0:0:0:
320,192,63665,1,0,0:0:0:0:
192,192,63738,128,0,63810:0:0:0:0:
64,192,63810,128,0,63847:0:0:0:0:
448,192,63810,1,0,0:0:0:0:
192,192,63847,128,0,63883:0:0:0:0:
320,192,63883,128,0,63920:0:0:0:0:
448,192,63920,128,0,63956:0:0:0:0:
64,192,63956,128,0,63992:0:0:0:0:
192,192,63992,128,0,64029:0:0:0:0:
320,192,64029,128,0,64065:0:0:0:0:
448,192,64065,128,0,64102:0:0:0:0:
64,192,64102,128,0,64174:0:0:0:0:
192,192,64174,128,0,64247:0:0:0:0:
320,192,64247,128,0,64320:0:0:0:0:
64,192,64247,1,0,0:0:0:0:
448,192,64320,128,0,64393:0:0:0:0:
320,192,64393,1,0,0:0:0:0:
64,192,64393,128,0,64466:0:0:0:0:
192,192,64466,128,0,64539:0:0:0:0:
320,192,64539,128,0,64611:0:0:0:0:
64,192,64539,1,0,0:0:0:0:
448,192,64611,128,0,64684:0:0:0:0:
320,192,64684,1,0,0:0:0:0:
192,192,64684,1,0,0:0:0:0:
64,192,64684,128,0,64757:0:0:0:0:
448,192,64757,128,0,64830:0:0:0:0:
320,192,64830,128,0,64903:0:0:0:0:
64,192,64830,1,0,0:0:0:0:
192,192,64903,128,0,64975:0:0:0:0:
320,192,64975,1,0,0:0:0:0:
64,192,64975,128,0,65048:0:0:0:0:
448,192,65048,128,0,65121:0:0:0:0:
320,192,65121,128,0,65194:0:0:0:0:
64,192,65121,1,0,0:0:0:0:
192,192,65194,128,0,65267:0:0:0:0:
64,192,65267,1,0,0:0:0:0:
448,192,65267,128,0,65485:0:0:0:0:
320,192,65340,128,0,65485:0:0:0:0:
192,192,65412,128,0,65485:0:0:0:0:
64,192,65485,1,0,0:0:0:0:
448,192,65558,1,0,0:0:0:0:
64,192,65558,128,0,65776:0:0:0:0:
320,192,65558,1,0,0:0:0:0:
192,192,65631,128,0,65776:0:0:0:0:
320,192,65704,128,0,65776:0:0:0:0:
448,192,65776,1,0,0:0:0:0:
192,192,65849,1,0,0:0:0:0:
64,192,65849,1,0,0:0:0:0:
448,192,65849,128,0,66068:0:0:0:0:
320,192,65922,128,0,66068:0:0:0:0:
192,192,65995,128,0,66068:0:0:0:0:
64,192,66068,1,0,0:0:0:0:
64,192,66140,128,0,66213:0:0:0:0:
320,192,66140,1,0,0:0:0:0:
448,192,66140,1,0,0:0:0:0:
192,192,66213,128,0,66286:0:0:0:0:
320,192,66286,128,0,66359:0:0:0:0:
64,192,66286,1,0,0:0:0:0:
448,192,66359,128,0,66432:0:0:0:0:
64,192,66432,128,0,66468:0:0:0:0:
192,192,66432,1,0,0:0:0:0:
448,192,66505,128,0,66541:0:0:0:0:
320,192,66505,1,0,0:0:0:0:
64,192,66577,128,0,66614:0:0:0:0:
192,192,66577,1,0,0:0:0:0:
448,192,66650,128,0,66687:0:0:0:0:
320,192,66650,1,0,0:0:0:0:
64,192,66723,128,0,66759:0:0:0:0:
192,192,66723,1,0,0:0:0:0:
448,192,66796,128,0,66832:0:0:0:0:
320,192,66796,1,0,0:0:0:0:
192,192,66869,1,0,0:0:0:0:
64,192,66869,128,0,67087:0:0:0:0:
192,192,67014,128,0,67087:0:0:0:0:
320,192,67014,128,0,67087:0:0:0:0:
448,192,67014,128,0,67378:0:0:0:0:
192,192,67160,1,0,0:0:0:0:
320,192,67160,1,0,0:0:0:0:
64,192,67160,128,0,67378:0:0:0:0:
192,192,67306,128,0,67378:0:0:0:0:
320,192,67306,128,0,67378:0:0:0:0:
64,192,67451,1,0,0:0:0:0:
192,192,67451,128,0,67524:0:0:0:0:
320,192,67451,128,0,67524:0:0:0:0:
448,192,67451,1,0,0:0:0:0:
448,192,67597,128,0,67633:0:0:0:0:
320,192,67597,1,0,0:0:0:0:
64,192,67670,128,0,67706:0:0:0:0:
192,192,67670,1,0,0:0:0:0:
448,192,67742,128,0,67779:0:0:0:0:
320,192,67742,1,0,0:0:0:0:
64,192,67815,128,0,67852:0:0:0:0:
192,192,67815,1,0,0:0:0:0:
448,192,67888,128,0,67924:0:0:0:0:
320,192,67888,1,0,0:0:0:0:
64,192,67961,128,0,67997:0:0:0:0:
192,192,67961,1,0,0:0:0:0:
448,192,68034,128,0,68252:0:0:0:0:
320,192,68034,1,0,0:0:0:0:
320,192,68179,128,0,68252:0:0:0:0:
192,192,68179,128,0,68252:0:0:0:0:
64,192,68179,128,0,68543:0:0:0:0:
320,192,68325,1,0,0:0:0:0:
192,192,68325,1,0,0:0:0:0:
448,192,68325,128,0,68543:0:0:0:0:
320,192,68471,128,0,68543:0:0:0:0:
192,192,68471,128,0,68543:0:0:0:0:
320,192,68616,128,0,68689:0:0:0:0:
192,192,68616,128,0,68689:0:0:0:0:
448,192,68616,1,0,0:0:0:0:
64,192,68616,1,0,0:0:0:0:
192,192,68762,128,0,68835:0:0:0:0:
448,192,68762,1,0,0:0:0:0:
64,192,68762,1,0,0:0:0:0:
320,192,68835,128,0,68907:0:0:0:0:
192,192,68907,128,0,68980:0:0:0:0:
448,192,68907,1,0,0:0:0:0:
64,192,68980,1,0,0:0:0:0:
64,192,69053,1,0,0:0:0:0:
320,192,69053,128,0,69126:0:0:0:0:
448,192,69053,1,0,0:0:0:0:
192,192,69126,128,0,69199:0:0:0:0:
320,192,69199,128,0,69272:0:0:0:0:
64,192,69199,1,0,0:0:0:0:
448,192,69272,1,0,0:0:0:0:
192,192,69344,128,0,69417:0:0:0:0:
64,192,69344,1,0,0:0:0:0:
448,192,69344,1,0,0:0:0:0:
320,192,69417,128,0,69490:0:0:0:0:
192,192,69490,128,0,69563:0:0:0:0:
448,192,69490,1,0,0:0:0:0:
64,192,69563,1,0,0:0:0:0:
320,192,69636,128,0,69708:0:0:0:0:
448,192,69636,1,0,0:0:0:0:
64,192,69636,1,0,0:0:0:0:
192,192,69708,128,0,69781:0:0:0:0:
320,192,69781,128,0,69854:0:0:0:0:
64,192,69854,1,0,0:0:0:0:
448,192,69854,1,0,0:0:0:0:
64,192,69927,1,0,0:0:0:0:
448,192,69927,128,0,70000:0:0:0:0:
192,192,69927,1,0,0:0:0:0:
320,192,70000,128,0,70073:0:0:0:0:
448,192,70073,1,0,0:0:0:0:
192,192,70073,128,0,70145:0:0:0:0:
64,192,70145,128,0,70218:0:0:0:0:
320,192,70218,128,0,70291:0:0:0:0:
448,192,70218,128,0,70437:0:0:0:0:
64,192,70291,1,0,0:0:0:0:
192,192,70364,1,0,0:0:0:0:
320,192,70437,1,0,0:0:0:0:
64,192,70437,128,0,70509:0:0:0:0:
448,192,70509,1,0,0:0:0:0:
192,192,70509,128,0,70582:0:0:0:0:
320,192,70582,128,0,70655:0:0:0:0:
192,192,70655,1,0,0:0:0:0:
448,192,70655,128,0,70728:0:0:0:0:
64,192,70728,128,0,70801:0:0:0:0:
192,192,70801,128,0,70873:0:0:0:0:
448,192,70801,1,0,0:0:0:0:
320,192,70873,128,0,70946:0:0:0:0:
192,192,70946,1,0,0:0:0:0:
448,192,70946,128,0,71019:0:0:0:0:
64,192,70946,1,0,0:0:0:0:
192,192,71092,128,0,71128:0:0:0:0:
320,192,71092,128,0,71165:0:0:0:0:
64,192,71092,128,0,71347:0:0:0:0:
448,192,71092,128,0,71201:0:0:0:0:
448,192,71238,128,0,71347:0:0:0:0:
320,192,71274,128,0,71347:0:0:0:0:
192,192,71310,128,0,71347:0:0:0:0:
192,192,71383,128,0,71456:0:0:0:0:
64,192,71383,128,0,71492:0:0:0:0:
448,192,71383,128,0,71638:0:0:0:0:
320,192,71383,128,0,71420:0:0:0:0:
64,192,71529,128,0,71638:0:0:0:0:
192,192,71565,128,0,71638:0:0:0:0:
320,192,71602,128,0,71638:0:0:0:0:
192,192,71674,128,0,71711:0:0:0:0:
320,192,71674,128,0,71747:0:0:0:0:
448,192,71674,128,0,71784:0:0:0:0:
64,192,71674,128,0,71929:0:0:0:0:
448,192,71820,128,0,71929:0:0:0:0:
320,192,71857,128,0,71929:0:0:0:0:
192,192,71893,128,0,71929:0:0:0:0:
320,192,71966,128,0,72002:0:0:0:0:
192,192,71966,128,0,72039:0:0:0:0:
448,192,71966,128,0,72221:0:0:0:0:
64,192,71966,128,0,72075:0:0:0:0:
64,192,72111,128,0,72221:0:0:0:0:
192,192,72148,128,0,72221:0:0:0:0:
320,192,72184,128,0,72221:0:0:0:0:
192,192,72257,128,0,72293:0:0:0:0:
320,192,72257,128,0,72330:0:0:0:0:
448,192,72257,128,0,72366:0:0:0:0:
64,192,72257,128,0,72512:0:0:0:0:
448,192,72403,128,0,72512:0:0:0:0:
320,192,72439,128,0,72512:0:0:0:0:
192,192,72475,128,0,72512:0:0:0:0:
64,192,72548,128,0,72657:0:0:0:0:
320,192,72548,128,0,72585:0:0:0:0:
192,192,72548,128,0,72621:0:0:0:0:
448,192,72548,128,0,72803:0:0:0:0:
64,192,72694,128,0,72803:0:0:0:0:
192,192,72730,128,0,72803:0:0:0:0:
320,192,72767,128,0,72803:0:0:0:0:
448,192,72840,128,0,72876:0:0:0:0:
320,192,72876,128,0,72912:0:0:0:0:
192,192,72912,128,0,72949:0:0:0:0:
64,192,72949,128,0,72985:0:0:0:0:
448,192,72985,128,0,73022:0:0:0:0:
320,192,73022,128,0,73058:0:0:0:0:
192,192,73058,128,0,73094:0:0:0:0:
64,192,73094,128,0,73131:0:0:0:0:
192,192,73131,128,0,73167:0:0:0:0:
320,192,73167,128,0,73204:0:0:0:0:
448,192,73204,128,0,73240:0:0:0:0:
64,192,73240,128,0,73276:0:0:0:0:
192,192,73276,128,0,73313:0:0:0:0:
320,192,73313,128,0,73349:0:0:0:0:
448,192,73349,128,0,73386:0:0:0:0:
448,192,73422,128,0,73677:0:0:0:0:
320,192,73422,128,0,73458:0:0:0:0:
192,192,73422,128,0,73495:0:0:0:0:
64,192,73422,128,0,73531:0:0:0:0:
64,192,73568,128,0,73677:0:0:0:0:
192,192,73604,128,0,73677:0:0:0:0:
320,192,73640,128,0,73677:0:0:0:0:
448,192,73713,128,0,73823:0:0:0:0:
192,192,73713,128,0,73750:0:0:0:0:
320,192,73713,128,0,73786:0:0:0:0:
64,192,73713,128,0,73968:0:0:0:0:
448,192,73859,128,0,73968:0:0:0:0:
320,192,73895,128,0,73968:0:0:0:0:
192,192,73932,128,0,73968:0:0:0:0:
320,192,74005,128,0,74041:0:0:0:0:
192,192,74005,128,0,74077:0:0:0:0:
64,192,74005,128,0,74114:0:0:0:0:
448,192,74005,128,0,74259:0:0:0:0:
64,192,74150,128,0,74259:0:0:0:0:
192,192,74187,128,0,74259:0:0:0:0:
320,192,74223,128,0,74259:0:0:0:0:
448,192,74296,128,0,74405:0:0:0:0:
192,192,74296,128,0,74332:0:0:0:0:
320,192,74296,128,0,74369:0:0:0:0:
64,192,74296,128,0,74551:0:0:0:0:
448,192,74441,128,0,74551:0:0:0:0:
320,192,74478,128,0,74551:0:0:0:0:
192,192,74514,128,0,74551:0:0:0:0:
448,192,74587,128,0,74642:0:0:0:0:
320,192,74623,128,0,74678:0:0:0:0:
192,192,74660,128,0,74715:0:0:0:0:
64,192,74696,128,0,74751:0:0:0:0:
448,192,74733,128,0,74806:0:0:0:0:
320,192,74733,1,0,0:0:0:0:
192,192,74806,128,0,74878:0:0:0:0:
64,192,74806,1,0,0:0:0:0:
448,192,74878,128,0,74933:0:0:0:0:
320,192,74915,128,0,74969:0:0:0:0:
192,192,74951,128,0,75006:0:0:0:0:
64,192,74988,128,0,75042:0:0:0:0:
448,192,75024,128,0,75097:0:0:0:0:
320,192,75024,1,0,0:0:0:0:
192,192,75097,128,0,75170:0:0:0:0:
448,192,75170,1,0,0:0:0:0:
64,192,75170,128,0,75224:0:0:0:0:
192,192,75206,128,0,75261:0:0:0:0:
320,192,75242,128,0,75297:0:0:0:0:
448,192,75279,128,0,75333:0:0:0:0:
64,192,75315,128,0,75388:0:0:0:0:
192,192,75315,1,0,0:0:0:0:
320,192,75388,128,0,75461:0:0:0:0:
64,192,75461,128,0,75515:0:0:0:0:
448,192,75461,1,0,0:0:0:0:
192,192,75497,128,0,75552:0:0:0:0:
320,192,75534,128,0,75588:0:0:0:0:
448,192,75570,128,0,75625:0:0:0:0:
64,192,75607,128,0,75679:0:0:0:0:
192,192,75607,1,0,0:0:0:0:
320,192,75679,128,0,75752:0:0:0:0:
448,192,75679,1,0,0:0:0:0:
64,192,75752,128,0,75789:0:0:0:0:
192,192,75770,1,0,0:0:0:0:
448,192,75825,128,0,75861:0:0:0:0:
320,192,75843,1,0,0:0:0:0:
64,192,75898,128,0,75934:0:0:0:0:
192,192,75916,1,0,0:0:0:0:
448,192,75971,128,0,76007:0:0:0:0:
320,192,75989,1,0,0:0:0:0:
64,192,76043,128,0,76080:0:0:0:0:
192,192,76062,1,0,0:0:0:0:
448,192,76116,128,0,76153:0:0:0:0:
320,192,76134,1,0,0:0:0:0:
192,192,76189,1,0,0:0:0:0:
64,192,76189,128,0,76407:0:0:0:0:
192,192,76335,128,0,76407:0:0:0:0:
320,192,76335,128,0,76407:0:0:0:0:
448,192,76335,128,0,76699:0:0:0:0:
192,192,76480,1,0,0:0:0:0:
64,192,76480,128,0,76699:0:0:0:0:
192,192,76626,128,0,76699:0:0:0:0:
320,192,76626,128,0,76699:0:0:0:0:
192,192,76772,128,0,76844:0:0:0:0:
320,192,76772,128,0,76844:0:0:0:0:
64,192,76772,1,0,0:0:0:0:
448,192,76772,1,0,0:0:0:0:
448,192,76917,128,0,76954:0:0:0:0:
320,192,76935,1,0,0:0:0:0:
64,192,76990,128,0,77026:0:0:0:0:
192,192,77008,1,0,0:0:0:0:
448,192,77063,128,0,77099:0:0:0:0:
320,192,77081,1,0,0:0:0:0:
64,192,77136,128,0,77172:0:0:0:0:
192,192,77154,1,0,0:0:0:0:
448,192,77208,128,0,77245:0:0:0:0:
320,192,77227,1,0,0:0:0:0:
64,192,77281,128,0,77318:0:0:0:0:
192,192,77299,1,0,0:0:0:0:
320,192,77354,1,0,0:0:0:0:
448,192,77354,128,0,77573:0:0:0:0:
192,192,77500,128,0,77573:0:0:0:0:
64,192,77500,128,0,77864:0:0:0:0:
320,192,77500,128,0,77573:0:0:0:0:
320,192,77645,1,0,0:0:0:0:
192,192,77645,1,0,0:0:0:0:
448,192,77645,128,0,77864:0:0:0:0:
320,192,77791,128,0,77864:0:0:0:0:
192,192,77791,128,0,77864:0:0:0:0:
320,192,77937,128,0,78009:0:0:0:0:
192,192,77937,128,0,78009:0:0:0:0:
448,192,77937,1,0,0:0:0:0:
64,192,77937,1,0,0:0:0:0:
64,192,78082,128,0,78137:0:0:0:0:
448,192,78082,1,0,0:0:0:0:
192,192,78119,128,0,78173:0:0:0:0:
320,192,78155,128,0,78210:0:0:0:0:
448,192,78191,128,0,78246:0:0:0:0:
64,192,78228,128,0,78264:0:0:0:0:
192,192,78264,128,0,78301:0:0:0:0:
320,192,78301,128,0,78337:0:0:0:0:
448,192,78337,128,0,78373:0:0:0:0:
64,192,78373,128,0,78428:0:0:0:0:
192,192,78410,128,0,78465:0:0:0:0:
320,192,78446,128,0,78501:0:0:0:0:
448,192,78483,128,0,78537:0:0:0:0:
64,192,78519,128,0,78556:0:0:0:0:
192,192,78556,128,0,78592:0:0:0:0:
320,192,78592,128,0,78628:0:0:0:0:
448,192,78665,128,0,78719:0:0:0:0:
64,192,78665,1,0,0:0:0:0:
320,192,78701,128,0,78756:0:0:0:0:
192,192,78738,128,0,78792:0:0:0:0:
64,192,78774,128,0,78829:0:0:0:0:
448,192,78810,128,0,78847:0:0:0:0:
320,192,78847,128,0,78883:0:0:0:0:
192,192,78883,128,0,78920:0:0:0:0:
64,192,78920,128,0,78956:0:0:0:0:
448,192,78956,128,0,79011:0:0:0:0:
320,192,78992,128,0,79047:0:0:0:0:
192,192,79029,128,0,79083:0:0:0:0:
64,192,79065,128,0,79120:0:0:0:0:
448,192,79102,128,0,79138:0:0:0:0:
320,192,79138,128,0,79174:0:0:0:0:
192,192,79174,128,0,79211:0:0:0:0:
64,192,79247,128,0,79344:0:0:0:0:
448,192,79247,128,0,79393:0:0:0:0:
320,192,79247,1,0,0:0:0:0:
192,192,79344,128,0,79441:0:0:0:0:
64,192,79393,1,0,0:0:0:0:
320,192,79441,128,0,79539:0:0:0:0:
64,192,79539,128,0,79636:0:0:0:0:
192,192,79539,1,0,0:0:0:0:
448,192,79539,128,0,79684:0:0:0:0:
192,192,79636,128,0,79733:0:0:0:0:
64,192,79684,1,0,0:0:0:0:
320,192,79733,128,0,79830:0:0:0:0:
192,192,79830,1,0,0:0:0:0:
448,192,79830,128,0,79975:0:0:0:0:
64,192,79830,128,0,79927:0:0:0:0:
192,192,79927,128,0,80024:0:0:0:0:
64,192,79975,1,0,0:0:0:0:
320,192,80024,128,0,80121:0:0:0:0:
64,192,80121,128,0,80194:0:0:0:0:
448,192,80121,1,0,0:0:0:0:
192,192,80157,128,0,80230:0:0:0:0:
320,192,80194,128,0,80267:0:0:0:0:
448,192,80230,128,0,80303:0:0:0:0:
64,192,80267,1,0,0:0:0:0:
192,192,80267,1,0,0:0:0:0:
320,192,80340,1,0,0:0:0:0:
448,192,80340,1,0,0:0:0:0:
64,192,80412,128,0,80509:0:0:0:0:
192,192,80412,1,0,0:0:0:0:
320,192,80509,128,0,80607:0:0:0:0:
448,192,80558,1,0,0:0:0:0:
64,192,80558,1,0,0:0:0:0:
192,192,80607,128,0,80704:0:0:0:0:
448,192,80704,128,0,80801:0:0:0:0:
64,192,80704,128,0,80801:0:0:0:0:
320,192,80704,1,0,0:0:0:0:
320,192,80801,128,0,80898:0:0:0:0:
64,192,80849,1,0,0:0:0:0:
448,192,80849,1,0,0:0:0:0:
192,192,80898,128,0,80995:0:0:0:0:
448,192,80995,128,0,81092:0:0:0:0:
64,192,80995,128,0,81092:0:0:0:0:
320,192,80995,1,0,0:0:0:0:
320,192,81092,128,0,81189:0:0:0:0:
64,192,81140,1,0,0:0:0:0:
448,192,81140,1,0,0:0:0:0:
192,192,81189,128,0,81286:0:0:0:0:
448,192,81286,128,0,81383:0:0:0:0:
64,192,81286,128,0,81383:0:0:0:0:
320,192,81286,1,0,0:0:0:0:
320,192,81383,128,0,81480:0:0:0:0:
448,192,81432,1,0,0:0:0:0:
64,192,81432,1,0,0:0:0:0:
192,192,81480,128,0,81577:0:0:0:0:
448,192,81577,128,0,81674:0:0:0:0:
64,192,81577,128,0,81674:0:0:0:0:
320,192,81577,1,0,0:0:0:0:
320,192,81674,128,0,81772:0:0:0:0:
448,192,81723,1,0,0:0:0:0:
64,192,81723,1,0,0:0:0:0:
192,192,81772,128,0,81869:0:0:0:0:
448,192,81869,128,0,81966:0:0:0:0:
64,192,81869,128,0,81966:0:0:0:0:
320,192,81869,1,0,0:0:0:0:
320,192,81966,128,0,82063:0:0:0:0:
64,192,82014,1,0,0:0:0:0:
448,192,82014,1,0,0:0:0:0:
192,192,82063,128,0,82160:0:0:0:0:
448,192,82160,128,0,82257:0:0:0:0:
64,192,82160,128,0,82257:0:0:0:0:
320,192,82160,1,0,0:0:0:0:
320,192,82257,128,0,82354:0:0:0:0:
64,192,82306,1,0,0:0:0:0:
448,192,82306,1,0,0:0:0:0:
192,192,82354,128,0,82451:0:0:0:0:
448,192,82451,128,0,82548:0:0:0:0:
64,192,82451,128,0,82548:0:0:0:0:
320,192,82451,1,0,0:0:0:0:
320,192,82548,128,0,82645:0:0:0:0:
448,192,82597,1,0,0:0:0:0:
64,192,82597,1,0,0:0:0:0:
192,192,82645,128,0,82742:0:0:0:0:
448,192,82742,128,0,82840:0:0:0:0:
64,192,82742,1,0,0:0:0:0:
320,192,82742,1,0,0:0:0:0:
192,192,82840,128,0,82937:0:0:0:0:
448,192,82888,1,0,0:0:0:0:
64,192,82888,1,0,0:0:0:0:
320,192,82937,128,0,83034:0:0:0:0:
64,192,83034,128,0,83131:0:0:0:0:
448,192,83034,128,0,83131:0:0:0:0:
192,192,83034,1,0,0:0:0:0:
192,192,83131,128,0,83228:0:0:0:0:
64,192,83179,1,0,0:0:0:0:
448,192,83179,1,0,0:0:0:0:
320,192,83228,128,0,83325:0:0:0:0:
64,192,83325,128,0,83422:0:0:0:0:
448,192,83325,128,0,83422:0:0:0:0:
192,192,83325,1,0,0:0:0:0:
192,192,83422,128,0,83519:0:0:0:0:
64,192,83471,1,0,0:0:0:0:
448,192,83471,1,0,0:0:0:0:
320,192,83519,128,0,83616:0:0:0:0:
64,192,83616,128,0,83713:0:0:0:0:
448,192,83616,128,0,83713:0:0:0:0:
192,192,83616,1,0,0:0:0:0:
192,192,83713,128,0,83810:0:0:0:0:
64,192,83762,1,0,0:0:0:0:
448,192,83762,1,0,0:0:0:0:
320,192,83810,128,0,83907:0:0:0:0:
64,192,83907,128,0,84005:0:0:0:0:
448,192,83907,128,0,84005:0:0:0:0:
192,192,83907,1,0,0:0:0:0:
192,192,84005,128,0,84102:0:0:0:0:
64,192,84053,1,0,0:0:0:0:
448,192,84053,1,0,0:0:0:0:
320,192,84102,128,0,84199:0:0:0:0:
64,192,84199,128,0,84296:0:0:0:0:
448,192,84199,128,0,84296:0:0:0:0:
192,192,84199,1,0,0:0:0:0:
192,192,84296,128,0,84393:0:0:0:0:
64,192,84344,1,0,0:0:0:0:
448,192,84344,1,0,0:0:0:0:
320,192,84393,128,0,84490:0:0:0:0:
64,192,84490,128,0,84587:0:0:0:0:
448,192,84490,128,0,84587:0:0:0:0:
192,192,84490,1,0,0:0:0:0:
192,192,84587,128,0,84684:0:0:0:0:
64,192,84636,1,0,0:0:0:0:
448,192,84636,1,0,0:0:0:0:
320,192,84684,128,0,84781:0:0:0:0:
64,192,84781,128,0,84878:0:0:0:0:
448,192,84781,128,0,84878:0:0:0:0:
192,192,84781,1,0,0:0:0:0:
192,192,84878,128,0,84975:0:0:0:0:
64,192,84927,1,0,0:0:0:0:
448,192,84927,1,0,0:0:0:0:
320,192,84975,128,0,85073:0:0:0:0:
64,192,85073,128,0,85170:0:0:0:0:
192,192,85073,1,0,0:0:0:0:
448,192,85073,1,0,0:0:0:0:
192,192,85170,128,0,85267:0:0:0:0:
448,192,85218,1,0,0:0:0:0:
64,192,85218,1,0,0:0:0:0:
320,192,85267,128,0,85364:0:0:0:0:
64,192,85364,128,0,85461:0:0:0:0:
448,192,85364,128,0,85461:0:0:0:0:
192,192,85364,1,0,0:0:0:0:
320,192,85461,128,0,85558:0:0:0:0:
448,192,85509,1,0,0:0:0:0:
64,192,85509,1,0,0:0:0:0:
192,192,85558,128,0,85655:0:0:0:0:
64,192,85655,128,0,85752:0:0:0:0:
448,192,85655,128,0,85752:0:0:0:0:
320,192,85655,1,0,0:0:0:0:
192,192,85752,128,0,85849:0:0:0:0:
64,192,85801,1,0,0:0:0:0:
448,192,85801,1,0,0:0:0:0:
320,192,85849,128,0,85946:0:0:0:0:
64,192,85946,128,0,86043:0:0:0:0:
448,192,85946,128,0,86043:0:0:0:0:
192,192,85946,1,0,0:0:0:0:
320,192,86043,128,0,86140:0:0:0:0:
64,192,86092,1,0,0:0:0:0:
448,192,86092,1,0,0:0:0:0:
192,192,86140,128,0,86238:0:0:0:0:
64,192,86238,128,0,86335:0:0:0:0:
448,192,86238,128,0,86335:0:0:0:0:
320,192,86238,1,0,0:0:0:0:
192,192,86335,128,0,86432:0:0:0:0:
64,192,86383,1,0,0:0:0:0:
448,192,86383,1,0,0:0:0:0:
320,192,86432,128,0,86529:0:0:0:0:
64,192,86529,128,0,86626:0:0:0:0:
448,192,86529,128,0,86626:0:0:0:0:
192,192,86529,1,0,0:0:0:0:
320,192,86626,128,0,86723:0:0:0:0:
64,192,86674,1,0,0:0:0:0:
448,192,86674,1,0,0:0:0:0:
192,192,86723,128,0,86820:0:0:0:0:
64,192,86820,128,0,86917:0:0:0:0:
448,192,86820,128,0,86917:0:0:0:0:
320,192,86820,1,0,0:0:0:0:
320,192,86917,128,0,87014:0:0:0:0:
64,192,86966,1,0,0:0:0:0:
448,192,86966,1,0,0:0:0:0:
192,192,87014,128,0,87111:0:0:0:0:
64,192,87111,128,0,87208:0:0:0:0:
448,192,87111,128,0,87208:0:0:0:0:
320,192,87111,1,0,0:0:0:0:
320,192,87208,128,0,87306:0:0:0:0:
64,192,87257,1,0,0:0:0:0:
448,192,87257,1,0,0:0:0:0:
192,192,87306,128,0,87403:0:0:0:0:
64,192,87403,128,0,87500:0:0:0:0:
448,192,87403,128,0,87500:0:0:0:0:
320,192,87403,1,0,0:0:0:0:
320,192,87500,128,0,87597:0:0:0:0:
64,192,87548,1,0,0:0:0:0:
448,192,87548,1,0,0:0:0:0:
192,192,87597,128,0,87694:0:0:0:0:
64,192,87694,128,0,87791:0:0:0:0:
448,192,87694,128,0,87791:0:0:0:0:
320,192,87694,1,0,0:0:0:0:
192,192,87791,128,0,87888:0:0:0:0:
64,192,87840,1,0,0:0:0:0:
448,192,87840,1,0,0:0:0:0:
320,192,87888,128,0,87985:0:0:0:0:
448,192,87985,128,0,88082:0:0:0:0:
64,192,87985,128,0,88082:0:0:0:0:
192,192,87985,1,0,0:0:0:0:
192,192,88082,128,0,88179:0:0:0:0:
448,192,88131,1,0,0:0:0:0:
64,192,88131,1,0,0:0:0:0:
320,192,88179,128,0,88276:0:0:0:0:
448,192,88276,128,0,88373:0:0:0:0:
64,192,88276,128,0,88373:0:0:0:0:
192,192,88276,1,0,0:0:0:0:
192,192,88373,128,0,88471:0:0:0:0:
448,192,88422,1,0,0:0:0:0:
64,192,88422,1,0,0:0:0:0:
320,192,88471,128,0,88568:0:0:0:0:
448,192,88568,128,0,88665:0:0:0:0:
64,192,88568,128,0,88665:0:0:0:0:
192,192,88568,1,0,0:0:0:0:
192,192,88665,128,0,88762:0:0:0:0:
64,192,88713,1,0,0:0:0:0:
448,192,88713,1,0,0:0:0:0:
320,192,88762,128,0,88859:0:0:0:0:
64,192,88859,128,0,88956:0:0:0:0:
448,192,88859,128,0,88956:0:0:0:0:
192,192,88859,1,0,0:0:0:0:
192,192,88956,128,0,89053:0:0:0:0:
64,192,89005,1,0,0:0:0:0:
448,192,89005,1,0,0:0:0:0:
320,192,89053,128,0,89150:0:0:0:0:
64,192,89150,128,0,89247:0:0:0:0:
448,192,89150,128,0,89247:0:0:0:0:
192,192,89150,1,0,0:0:0:0:
320,192,89247,128,0,89344:0:0:0:0:
64,192,89296,1,0,0:0:0:0:
448,192,89296,1,0,0:0:0:0:
192,192,89344,128,0,89441:0:0:0:0:
448,192,89441,1,0,0:0:0:0:
64,192,89441,128,0,89587:0:0:0:0:
320,192,89514,1,0,0:0:0:0:
192,192,89587,1,0,0:0:0:0:
448,192,89587,1,0,0:0:0:0:
448,192,89733,128,0,89769:0:0:0:0:
192,192,89733,128,0,89769:0:0:0:0:
320,192,89733,128,0,89915:0:0:0:0:
64,192,89733,1,0,0:0:0:0:
64,192,89878,128,0,89915:0:0:0:0:
192,192,89878,128,0,89915:0:0:0:0:
448,192,89878,128,0,90060:0:0:0:0:
64,192,90024,128,0,90060:0:0:0:0:
320,192,90024,128,0,90060:0:0:0:0:
192,192,90024,128,0,90206:0:0:0:0:
320,192,90170,128,0,90352:0:0:0:0:
64,192,90170,128,0,90206:0:0:0:0:
448,192,90170,1,0,0:0:0:0:
448,192,90315,128,0,90352:0:0:0:0:
192,192,90315,128,0,90352:0:0:0:0:
64,192,90315,128,0,90497:0:0:0:0:
192,192,90461,128,0,90643:0:0:0:0:
448,192,90461,128,0,90497:0:0:0:0:
320,192,90461,128,0,90497:0:0:0:0:
320,192,90606,128,0,90643:0:0:0:0:
448,192,90606,128,0,90789:0:0:0:0:
64,192,90606,1,0,0:0:0:0:
320,192,90752,128,0,90934:0:0:0:0:
64,192,90752,128,0,90789:0:0:0:0:
192,192,90752,128,0,90789:0:0:0:0:
448,192,90898,128,0,90934:0:0:0:0:
64,192,90898,128,0,91080:0:0:0:0:
192,192,90898,128,0,90934:0:0:0:0:
192,192,91043,128,0,91225:0:0:0:0:
320,192,91043,128,0,91080:0:0:0:0:
448,192,91043,1,0,0:0:0:0:
64,192,91189,128,0,91225:0:0:0:0:
320,192,91189,128,0,91371:0:0:0:0:
448,192,91189,128,0,91225:0:0:0:0:
448,192,91335,128,0,91517:0:0:0:0:
64,192,91335,128,0,91371:0:0:0:0:
192,192,91335,128,0,91371:0:0:0:0:
64,192,91480,128,0,91662:0:0:0:0:
192,192,91480,128,0,91517:0:0:0:0:
320,192,91480,128,0,91517:0:0:0:0:
192,192,91626,128,0,91808:0:0:0:0:
320,192,91626,128,0,91662:0:0:0:0:
448,192,91626,128,0,91662:0:0:0:0:
448,192,91772,1,0,0:0:0:0:
64,192,91772,128,0,91808:0:0:0:0:
320,192,91808,1,0,0:0:0:0:
192,192,91844,1,0,0:0:0:0:
64,192,91881,1,0,0:0:0:0:
448,192,91917,1,0,0:0:0:0:
320,192,91954,1,0,0:0:0:0:
192,192,91990,1,0,0:0:0:0:
64,192,92026,1,0,0:0:0:0:
448,192,92063,128,0,92099:0:0:0:0:
192,192,92063,128,0,92099:0:0:0:0:
320,192,92063,128,0,92245:0:0:0:0:
64,192,92208,128,0,92245:0:0:0:0:
192,192,92208,128,0,92245:0:0:0:0:
448,192,92208,128,0,92390:0:0:0:0:
64,192,92354,128,0,92390:0:0:0:0:
320,192,92354,128,0,92390:0:0:0:0:
192,192,92354,128,0,92536:0:0:0:0:
320,192,92500,128,0,92682:0:0:0:0:
64,192,92500,128,0,92536:0:0:0:0:
448,192,92500,1,0,0:0:0:0:
448,192,92645,128,0,92682:0:0:0:0:
192,192,92645,128,0,92682:0:0:0:0:
64,192,92645,128,0,92827:0:0:0:0:
192,192,92791,128,0,92973:0:0:0:0:
448,192,92791,128,0,92827:0:0:0:0:
320,192,92791,128,0,92827:0:0:0:0:
320,192,92937,128,0,92973:0:0:0:0:
448,192,92937,128,0,93119:0:0:0:0:
64,192,92937,1,0,0:0:0:0:
320,192,93082,128,0,93264:0:0:0:0:
64,192,93082,128,0,93119:0:0:0:0:
192,192,93082,128,0,93119:0:0:0:0:
448,192,93228,128,0,93264:0:0:0:0:
64,192,93228,128,0,93410:0:0:0:0:
192,192,93228,128,0,93264:0:0:0:0:
192,192,93373,128,0,93556:0:0:0:0:
320,192,93373,128,0,93410:0:0:0:0:
448,192,93373,1,0,0:0:0:0:
64,192,93519,128,0,93556:0:0:0:0:
320,192,93519,128,0,93701:0:0:0:0:
448,192,93519,128,0,93556:0:0:0:0:
448,192,93665,128,0,93847:0:0:0:0:
64,192,93665,128,0,93701:0:0:0:0:
192,192,93665,128,0,93701:0:0:0:0:
64,192,93810,128,0,93992:0:0:0:0:
192,192,93810,128,0,93847:0:0:0:0:
320,192,93810,128,0,93847:0:0:0:0:
448,192,93956,128,0,93992:0:0:0:0:
192,192,93956,128,0,94138:0:0:0:0:
320,192,93956,128,0,93992:0:0:0:0:
448,192,94102,1,0,0:0:0:0:
64,192,94102,128,0,94138:0:0:0:0:
320,192,94138,1,0,0:0:0:0:
192,192,94174,1,0,0:0:0:0:
64,192,94211,1,0,0:0:0:0:
448,192,94247,1,0,0:0:0:0:
320,192,94284,1,0,0:0:0:0:
192,192,94320,1,0,0:0:0:0:
64,192,94357,1,0,0:0:0:0:
448,192,94393,1,0,0:0:0:0:
320,192,94393,1,0,0:0:0:0:
320,192,94466,128,0,94539:0:0:0:0:
448,192,94466,128,0,94539:0:0:0:0:
64,192,94466,1,0,0:0:0:0:
192,192,94539,1,0,0:0:0:0:
320,192,94611,1,0,0:0:0:0:
448,192,94611,1,0,0:0:0:0:
192,192,94684,1,0,0:0:0:0:
64,192,94684,1,0,0:0:0:0:
192,192,94757,128,0,94830:0:0:0:0:
64,192,94757,128,0,94830:0:0:0:0:
448,192,94757,1,0,0:0:0:0:
320,192,94830,1,0,0:0:0:0:
192,192,94903,1,0,0:0:0:0:
64,192,94903,1,0,0:0:0:0:
448,192,94975,1,0,0:0:0:0:
320,192,94975,1,0,0:0:0:0:
320,192,95048,128,0,95121:0:0:0:0:
448,192,95048,128,0,95121:0:0:0:0:
64,192,95048,1,0,0:0:0:0:
192,192,95121,1,0,0:0:0:0:
320,192,95194,1,0,0:0:0:0:
448,192,95194,1,0,0:0:0:0:
192,192,95267,1,0,0:0:0:0:
64,192,95267,1,0,0:0:0:0:
64,192,95340,128,0,95412:0:0:0:0:
192,192,95340,128,0,95412:0:0:0:0:
448,192,95340,1,0,0:0:0:0:
320,192,95412,1,0,0:0:0:0:
192,192,95485,1,0,0:0:0:0:
64,192,95485,1,0,0:0:0:0:
448,192,95558,1,0,0:0:0:0:
320,192,95558,1,0,0:0:0:0:
320,192,95631,128,0,95704:0:0:0:0:
448,192,95631,128,0,95704:0:0:0:0:
64,192,95631,1,0,0:0:0:0:
192,192,95704,1,0,0:0:0:0:
320,192,95776,1,0,0:0:0:0:
448,192,95776,1,0,0:0:0:0:
192,192,95849,1,0,0:0:0:0:
64,192,95849,1,0,0:0:0:0:
64,192,95922,128,0,95995:0:0:0:0:
192,192,95922,128,0,95995:0:0:0:0:
448,192,95922,1,0,0:0:0:0:
320,192,95995,1,0,0:0:0:0:
192,192,96068,1,0,0:0:0:0:
64,192,96068,1,0,0:0:0:0:
448,192,96140,1,0,0:0:0:0:
320,192,96140,1,0,0:0:0:0:
320,192,96213,128,0,96286:0:0:0:0:
448,192,96213,128,0,96286:0:0:0:0:
64,192,96213,1,0,0:0:0:0:
192,192,96286,1,0,0:0:0:0:
320,192,96359,1,0,0:0:0:0:
448,192,96359,1,0,0:0:0:0:
192,192,96432,1,0,0:0:0:0:
64,192,96432,1,0,0:0:0:0:
192,192,96505,128,0,96577:0:0:0:0:
64,192,96505,128,0,96577:0:0:0:0:
448,192,96505,1,0,0:0:0:0:
320,192,96577,1,0,0:0:0:0:
192,192,96650,1,0,0:0:0:0:
64,192,96650,1,0,0:0:0:0:
448,192,96723,1,0,0:0:0:0:
320,192,96723,1,0,0:0:0:0:
192,192,96796,1,0,0:0:0:0:
64,192,96796,1,0,0:0:0:0:
448,192,96869,1,0,0:0:0:0:
320,192,96869,1,0,0:0:0:0:
192,192,96941,1,0,0:0:0:0:
64,192,96941,1,0,0:0:0:0:
448,192,97014,1,0,0:0:0:0:
320,192,97014,1,0,0:0:0:0:
192,192,97087,1,0,0:0:0:0:
64,192,97087,1,0,0:0:0:0:
320,192,97160,1,0,0:0:0:0:
448,192,97160,1,0,0:0:0:0:
192,192,97233,1,0,0:0:0:0:
64,192,97233,1,0,0:0:0:0:
448,192,97269,1,0,0:0:0:0:
320,192,97306,1,0,0:0:0:0:
192,192,97342,1,0,0:0:0:0:
64,192,97378,1,0,0:0:0:0:
448,192,97378,1,0,0:0:0:0:
320,192,97415,1,0,0:0:0:0:
192,192,97451,1,0,0:0:0:0:
64,192,97488,1,0,0:0:0:0:
448,192,97488,1,0,0:0:0:0:
320,192,97524,1,0,0:0:0:0:
192,192,97560,1,0,0:0:0:0:
64,192,97597,1,0,0:0:0:0:
192,192,97633,1,0,0:0:0:0:
320,192,97670,1,0,0:0:0:0:
64,192,97670,128,0,97742:0:0:0:0:
448,192,97706,1,0,0:0:0:0:
192,192,97706,128,0,97779:0:0:0:0:
320,192,97742,128,0,97815:0:0:0:0:
448,192,97779,128,0,97852:0:0:0:0:
64,192,97815,1,0,0:0:0:0:
192,192,97852,1,0,0:0:0:0:
320,192,97888,1,0,0:0:0:0:
64,192,97888,128,0,98907:0:0:0:0:
448,192,97924,1,0,0:0:0:0:
448,192,98762,1,0,0:0:0:0:
320,192,98835,1,0,0:0:0:0:
448,192,98907,1,0,0:0:0:0:
320,192,98980,1,0,0:0:0:0:
64,192,99053,1,0,0:0:0:0:
448,192,99053,1,0,0:0:0:0:
192,192,99090,1,0,0:0:0:0:
320,192,99126,1,0,0:0:0:0:
448,192,99162,1,0,0:0:0:0:
64,192,99162,128,0,99235:0:0:0:0:
192,192,99199,128,0,99272:0:0:0:0:
320,192,99235,128,0,99308:0:0:0:0:
448,192,99272,128,0,99344:0:0:0:0:
64,192,99344,1,0,0:0:0:0:
192,192,99381,1,0,0:0:0:0:
320,192,99417,1,0,0:0:0:0:
448,192,99454,1,0,0:0:0:0:
64,192,99454,128,0,99526:0:0:0:0:
192,192,99490,128,0,99563:0:0:0:0:
320,192,99526,128,0,99599:0:0:0:0:
448,192,99563,128,0,99636:0:0:0:0:
64,192,99636,1,0,0:0:0:0:
192,192,99672,1,0,0:0:0:0:
320,192,99708,1,0,0:0:0:0:
448,192,99745,1,0,0:0:0:0:
320,192,99781,1,0,0:0:0:0:
192,192,99818,1,0,0:0:0:0:
64,192,99854,1,0,0:0:0:0:
448,192,99854,128,0,99927:0:0:0:0:
320,192,99890,128,0,99963:0:0:0:0:
192,192,99927,128,0,100000:0:0:0:0:
64,192,99963,128,0,100036:0:0:0:0:
448,192,100036,1,0,0:0:0:0:
320,192,100073,1,0,0:0:0:0:
192,192,100109,1,0,0:0:0:0:
64,192,100145,1,0,0:0:0:0:
448,192,100145,128,0,100218:0:0:0:0:
320,192,100182,128,0,100255:0:0:0:0:
192,192,100218,128,0,100291:0:0:0:0:
64,192,100255,128,0,100327:0:0:0:0:
448,192,100327,1,0,0:0:0:0:
320,192,100364,1,0,0:0:0:0:
192,192,100400,1,0,0:0:0:0:
64,192,100437,1,0,0:0:0:0:
192,192,100473,1,0,0:0:0:0:
320,192,100509,1,0,0:0:0:0:
448,192,100546,1,0,0:0:0:0:
64,192,100546,128,0,100619:0:0:0:0:
192,192,100582,128,0,100655:0:0:0:0:
320,192,100619,128,0,100691:0:0:0:0:
448,192,100655,128,0,100728:0:0:0:0:
64,192,100728,1,0,0:0:0:0:
192,192,100764,1,0,0:0:0:0:
320,192,100801,1,0,0:0:0:0:
448,192,100837,1,0,0:0:0:0:
64,192,100837,128,0,100910:0:0:0:0:
192,192,100873,128,0,100946:0:0:0:0:
320,192,100910,128,0,100983:0:0:0:0:
448,192,100946,128,0,101019:0:0:0:0:
64,192,101019,128,0,101092:0:0:0:0:
192,192,101092,128,0,101165:0:0:0:0:
448,192,101092,1,0,0:0:0:0:
320,192,101165,128,0,101238:0:0:0:0:
192,192,101238,128,0,101310:0:0:0:0:
448,192,101238,1,0,0:0:0:0:
64,192,101310,128,0,101383:0:0:0:0:
448,192,101383,128,0,101456:0:0:0:0:
192,192,101383,1,0,0:0:0:0:
320,192,101456,128,0,101529:0:0:0:0:
192,192,101529,128,0,101602:0:0:0:0:
448,192,101602,1,0,0:0:0:0:
64,192,101602,128,0,101674:0:0:0:0:
192,192,101674,1,0,0:0:0:0:
320,192,101674,128,0,101747:0:0:0:0:
448,192,101747,128,0,101820:0:0:0:0:
64,192,101747,1,0,0:0:0:0:
192,192,101820,1,0,0:0:0:0:
320,192,101893,1,0,0:0:0:0:
64,192,101893,128,0,101966:0:0:0:0:
192,192,101966,128,0,102039:0:0:0:0:
448,192,101966,1,0,0:0:0:0:
320,192,102039,128,0,102111:0:0:0:0:
192,192,102111,128,0,102184:0:0:0:0:
448,192,102111,1,0,0:0:0:0:
64,192,102184,128,0,102257:0:0:0:0:
448,192,102257,1,0,0:0:0:0:
320,192,102257,1,0,0:0:0:0:
192,192,102330,1,0,0:0:0:0:
64,192,102330,1,0,0:0:0:0:
448,192,102403,1,0,0:0:0:0:
320,192,102403,1,0,0:0:0:0:
64,192,102475,1,0,0:0:0:0:
192,192,102475,1,0,0:0:0:0:
448,192,102548,128,0,102603:0:0:0:0:
320,192,102585,128,0,102639:0:0:0:0:
192,192,102621,128,0,102676:0:0:0:0:
64,192,102657,128,0,102712:0:0:0:0:
448,192,102694,128,0,102767:0:0:0:0:
320,192,102694,1,0,0:0:0:0:
192,192,102767,128,0,102840:0:0:0:0:
64,192,102767,1,0,0:0:0:0:
448,192,102840,128,0,102894:0:0:0:0:
320,192,102876,128,0,102931:0:0:0:0:
192,192,102912,128,0,102967:0:0:0:0:
64,192,102949,128,0,103003:0:0:0:0:
448,192,102985,128,0,103058:0:0:0:0:
320,192,102985,1,0,0:0:0:0:
192,192,103058,128,0,103131:0:0:0:0:
448,192,103131,1,0,0:0:0:0:
64,192,103131,128,0,103185:0:0:0:0:
192,192,103167,128,0,103222:0:0:0:0:
320,192,103204,128,0,103258:0:0:0:0:
448,192,103240,128,0,103295:0:0:0:0:
64,192,103276,128,0,103349:0:0:0:0:
192,192,103276,1,0,0:0:0:0:
320,192,103349,128,0,103422:0:0:0:0:
64,192,103422,128,0,103477:0:0:0:0:
448,192,103422,1,0,0:0:0:0:
192,192,103458,128,0,103513:0:0:0:0:
320,192,103495,128,0,103549:0:0:0:0:
448,192,103531,128,0,103586:0:0:0:0:
64,192,103568,128,0,103640:0:0:0:0:
192,192,103568,1,0,0:0:0:0:
320,192,103640,128,0,103713:0:0:0:0:
448,192,103640,1,0,0:0:0:0:
64,192,103713,128,0,103750:0:0:0:0:
192,192,103750,1,0,0:0:0:0:
448,192,103786,128,0,103823:0:0:0:0:
320,192,103823,1,0,0:0:0:0:
64,192,103859,128,0,103895:0:0:0:0:
192,192,103895,1,0,0:0:0:0:
448,192,103932,128,0,103968:0:0:0:0:
320,192,103968,1,0,0:0:0:0:
64,192,104005,128,0,104041:0:0:0:0:
192,192,104041,1,0,0:0:0:0:
448,192,104077,128,0,104114:0:0:0:0:
320,192,104114,1,0,0:0:0:0:
64,192,104150,128,0,104369:0:0:0:0:
192,192,104168,1,0,0:0:0:0:
192,192,104296,128,0,104369:0:0:0:0:
320,192,104296,128,0,104369:0:0:0:0:
448,192,104296,128,0,104660:0:0:0:0:
64,192,104441,128,0,104660:0:0:0:0:
192,192,104460,1,0,0:0:0:0:
192,192,104587,128,0,104660:0:0:0:0:
320,192,104587,128,0,104660:0:0:0:0:
192,192,104733,128,0,104806:0:0:0:0:
320,192,104733,128,0,104806:0:0:0:0:
64,192,104733,1,0,0:0:0:0:
448,192,104733,1,0,0:0:0:0:
448,192,104878,128,0,104915:0:0:0:0:
320,192,104915,1,0,0:0:0:0:
64,192,104951,128,0,104988:0:0:0:0:
192,192,104988,1,0,0:0:0:0:
448,192,105024,128,0,105060:0:0:0:0:
320,192,105060,1,0,0:0:0:0:
64,192,105097,128,0,105133:0:0:0:0:
192,192,105133,1,0,0:0:0:0:
448,192,105170,128,0,105206:0:0:0:0:
320,192,105206,1,0,0:0:0:0:
64,192,105242,128,0,105279:0:0:0:0:
192,192,105279,1,0,0:0:0:0:
448,192,105315,128,0,105534:0:0:0:0:
320,192,105333,1,0,0:0:0:0:
192,192,105461,128,0,105534:0:0:0:0:
64,192,105461,128,0,105825:0:0:0:0:
320,192,105461,128,0,105534:0:0:0:0:
448,192,105606,128,0,105825:0:0:0:0:
320,192,105625,1,0,0:0:0:0:
320,192,105752,128,0,105825:0:0:0:0:
192,192,105752,128,0,105825:0:0:0:0:
320,192,105898,128,0,105971:0:0:0:0:
192,192,105898,128,0,105971:0:0:0:0:
448,192,105898,1,0,0:0:0:0:
64,192,105898,1,0,0:0:0:0:
64,192,106043,128,0,106098:0:0:0:0:
448,192,106043,1,0,0:0:0:0:
192,192,106080,128,0,106134:0:0:0:0:
320,192,106116,128,0,106171:0:0:0:0:
448,192,106153,128,0,106207:0:0:0:0:
64,192,106189,128,0,106225:0:0:0:0:
192,192,106225,128,0,106262:0:0:0:0:
320,192,106262,128,0,106298:0:0:0:0:
448,192,106298,128,0,106335:0:0:0:0:
64,192,106335,128,0,106389:0:0:0:0:
192,192,106371,128,0,106426:0:0:0:0:
320,192,106407,128,0,106462:0:0:0:0:
448,192,106444,128,0,106498:0:0:0:0:
64,192,106480,128,0,106517:0:0:0:0:
192,192,106517,128,0,106553:0:0:0:0:
320,192,106553,128,0,106590:0:0:0:0:
448,192,106626,128,0,106681:0:0:0:0:
64,192,106626,1,0,0:0:0:0:
320,192,106662,128,0,106717:0:0:0:0:
192,192,106699,128,0,106753:0:0:0:0:
64,192,106735,128,0,106790:0:0:0:0:
448,192,106772,128,0,106808:0:0:0:0:
320,192,106808,128,0,106844:0:0:0:0:
192,192,106844,128,0,106881:0:0:0:0:
64,192,106881,128,0,106917:0:0:0:0:
448,192,106917,128,0,106972:0:0:0:0:
320,192,106954,128,0,107008:0:0:0:0:
192,192,106990,128,0,107045:0:0:0:0:
64,192,107026,128,0,107081:0:0:0:0:
448,192,107063,128,0,107099:0:0:0:0:
320,192,107099,128,0,107136:0:0:0:0:
192,192,107136,128,0,107172:0:0:0:0:
64,192,107208,1,0,0:0:0:0:
448,192,107208,128,0,107281:0:0:0:0:
320,192,107208,1,0,0:0:0:0:
192,192,107281,128,0,107318:0:0:0:0:
64,192,107318,128,0,107354:0:0:0:0:
320,192,107354,128,0,107390:0:0:0:0:
192,192,107390,128,0,107427:0:0:0:0:
448,192,107427,128,0,107500:0:0:0:0:
64,192,107500,128,0,107573:0:0:0:0:
192,192,107500,1,0,0:0:0:0:
320,192,107573,128,0,107609:0:0:0:0:
448,192,107609,128,0,107645:0:0:0:0:
192,192,107645,128,0,107682:0:0:0:0:
320,192,107682,128,0,107718:0:0:0:0:
64,192,107718,128,0,107791:0:0:0:0:
320,192,107791,1,0,0:0:0:0:
448,192,107791,128,0,107937:0:0:0:0:
192,192,107791,1,0,0:0:0:0:
192,192,107937,1,0,0:0:0:0:
64,192,107937,128,0,108082:0:0:0:0:
320,192,108082,128,0,108228:0:0:0:0:
448,192,108082,1,0,0:0:0:0:
192,192,108228,1,0,0:0:0:0:
64,192,108228,128,0,108410:0:0:0:0:
448,192,108373,128,0,108410:0:0:0:0:
192,192,108373,128,0,108410:0:0:0:0:
320,192,108373,128,0,108556:0:0:0:0:
64,192,108519,128,0,108556:0:0:0:0:
192,192,108519,128,0,108556:0:0:0:0:
448,192,108519,128,0,108701:0:0:0:0:
64,192,108665,128,0,108701:0:0:0:0:
320,192,108665,128,0,108701:0:0:0:0:
192,192,108665,128,0,108847:0:0:0:0:
64,192,108810,128,0,108847:0:0:0:0:
448,192,108810,1,0,0:0:0:0:
320,192,108810,128,0,108992:0:0:0:0:
448,192,108956,128,0,108992:0:0:0:0:
192,192,108956,128,0,108992:0:0:0:0:
64,192,108956,128,0,109138:0:0:0:0:
192,192,109102,128,0,109284:0:0:0:0:
448,192,109102,128,0,109138:0:0:0:0:
320,192,109102,128,0,109138:0:0:0:0:
320,192,109247,128,0,109284:0:0:0:0:
448,192,109247,128,0,109429:0:0:0:0:
64,192,109247,1,0,0:0:0:0:
192,192,109393,128,0,109429:0:0:0:0:
320,192,109393,128,0,109575:0:0:0:0:
64,192,109393,128,0,109429:0:0:0:0:
192,192,109539,128,0,109575:0:0:0:0:
448,192,109539,128,0,109575:0:0:0:0:
64,192,109539,128,0,109721:0:0:0:0:
192,192,109684,128,0,109866:0:0:0:0:
320,192,109684,128,0,109721:0:0:0:0:
448,192,109684,1,0,0:0:0:0:
64,192,109830,128,0,109866:0:0:0:0:
320,192,109830,128,0,110012:0:0:0:0:
448,192,109830,128,0,109866:0:0:0:0:
448,192,109975,128,0,110157:0:0:0:0:
64,192,109975,128,0,110012:0:0:0:0:
192,192,109975,128,0,110012:0:0:0:0:
192,192,110121,128,0,110157:0:0:0:0:
320,192,110121,128,0,110157:0:0:0:0:
64,192,110121,128,0,110303:0:0:0:0:
192,192,110267,128,0,110449:0:0:0:0:
320,192,110267,128,0,110303:0:0:0:0:
448,192,110267,128,0,110303:0:0:0:0:
448,192,110412,1,0,0:0:0:0:
64,192,110412,128,0,110449:0:0:0:0:
320,192,110449,1,0,0:0:0:0:
192,192,110485,1,0,0:0:0:0:
64,192,110522,1,0,0:0:0:0:
448,192,110558,1,0,0:0:0:0:
320,192,110594,1,0,0:0:0:0:
192,192,110631,1,0,0:0:0:0:
64,192,110667,1,0,0:0:0:0:
192,192,110704,1,0,0:0:0:0:
320,192,110740,1,0,0:0:0:0:
448,192,110776,1,0,0:0:0:0:
64,192,110776,128,0,110849:0:0:0:0:
192,192,110813,128,0,110886:0:0:0:0:
320,192,110849,128,0,110922:0:0:0:0:
448,192,110886,128,0,110958:0:0:0:0:
64,192,110958,1,0,0:0:0:0:
192,192,110995,1,0,0:0:0:0:
320,192,111031,1,0,0:0:0:0:
448,192,111068,1,0,0:0:0:0:
64,192,111068,128,0,111177:0:0:0:0:
192,192,111104,128,0,111177:0:0:0:0:
320,192,111140,128,0,111177:0:0:0:0:
448,192,111177,128,0,111286:0:0:0:0:
192,192,111286,1,0,0:0:0:0:
320,192,111286,1,0,0:0:0:0:
64,192,111286,128,0,111432:0:0:0:0:
320,192,111432,1,0,0:0:0:0:
448,192,111432,128,0,111577:0:0:0:0:
192,192,111577,1,0,0:0:0:0:
64,192,111577,128,0,111759:0:0:0:0:
448,192,111614,128,0,111650:0:0:0:0:
320,192,111650,128,0,111687:0:0:0:0:
192,192,111687,128,0,111723:0:0:0:0:
448,192,111723,128,0,111759:0:0:0:0:
320,192,111759,128,0,111796:0:0:0:0:
192,192,111796,128,0,111832:0:0:0:0:
64,192,111869,1,0,0:0:0:0:
320,192,111869,1,0,0:0:0:0:
448,192,111869,128,0,112051:0:0:0:0:
192,192,112014,128,0,112051:0:0:0:0:
320,192,112014,1,0,0:0:0:0:
64,192,112014,128,0,112196:0:0:0:0:
320,192,112160,1,0,0:0:0:0:
192,192,112160,128,0,112196:0:0:0:0:
448,192,112160,128,0,112342:0:0:0:0:
64,192,112306,128,0,112342:0:0:0:0:
320,192,112306,1,0,0:0:0:0:
192,192,112306,128,0,112488:0:0:0:0:
320,192,112451,1,0,0:0:0:0:
64,192,112451,128,0,112488:0:0:0:0:
448,192,112451,128,0,112633:0:0:0:0:
320,192,112597,1,0,0:0:0:0:
64,192,112597,128,0,112633:0:0:0:0:
192,192,112597,128,0,112779:0:0:0:0:
448,192,112742,128,0,113034:0:0:0:0:
320,192,112742,128,0,112779:0:0:0:0:
64,192,112742,1,0,0:0:0:0:
192,192,112888,1,0,0:0:0:0:
64,192,112888,128,0,113034:0:0:0:0:
192,192,113034,1,0,0:0:0:0:
320,192,113034,128,0,113179:0:0:0:0:
64,192,113179,1,0,0:0:0:0:
448,192,113179,1,0,0:0:0:0:
192,192,113252,1,0,0:0:0:0:
320,192,113325,1,0,0:0:0:0:
64,192,113325,128,0,113471:0:0:0:0:
448,192,113325,1,0,0:0:0:0:
448,192,113471,1,0,0:0:0:0:
192,192,113471,1,0,0:0:0:0:
320,192,113543,1,0,0:0:0:0:
64,192,113616,5,0,0:0:0:0:
192,192,113616,128,0,113762:0:0:0:0:
448,192,113616,1,0,0:0:0:0:
448,192,113762,1,0,0:0:0:0:
64,192,113762,1,0,0:0:0:0:
192,192,113835,1,0,0:0:0:0:
320,192,113907,128,0,114053:0:0:0:0:
448,192,113907,1,0,0:0:0:0:
64,192,113907,1,0,0:0:0:0:
64,192,114053,1,0,0:0:0:0:
448,192,114053,1,0,0:0:0:0:
192,192,114126,1,0,0:0:0:0:
320,192,114199,1,0,0:0:0:0:
448,192,114199,128,0,114344:0:0:0:0:
64,192,114199,1,0,0:0:0:0:
64,192,114344,1,0,0:0:0:0:
192,192,114344,1,0,0:0:0:0:
320,192,114490,1,0,0:0:0:0:
192,192,114490,1,0,0:0:0:0:
448,192,114636,1,0,0:0:0:0:
320,192,114636,1,0,0:0:0:0:
64,192,114781,5,0,0:0:0:0:
192,192,114781,1,0,0:0:0:0:
448,192,114854,1,0,0:0:0:0:
320,192,114854,1,0,0:0:0:0:
64,192,114927,1,0,0:0:0:0:
192,192,114927,1,0,0:0:0:0:
320,192,115000,1,0,0:0:0:0:
448,192,115000,1,0,0:0:0:0:
64,192,115073,1,0,0:0:0:0:
192,192,115073,1,0,0:0:0:0:
320,192,115145,1,0,0:0:0:0:
448,192,115145,1,0,0:0:0:0:
64,192,115218,1,0,0:0:0:0:
192,192,115218,1,0,0:0:0:0:
320,192,115291,1,0,0:0:0:0:
448,192,115291,1,0,0:0:0:0:
64,192,115364,1,0,0:0:0:0:
192,192,115364,1,0,0:0:0:0:
320,192,115364,1,0,0:0:0:0:
448,192,115364,1,0,0:0:0:0:
320,192,115946,1,0,0:0:0:0:
192,192,115946,1,0,0:0:0:0:
64,192,115946,1,0,0:0:0:0:
192,192,116529,1,0,0:0:0:0:
320,192,116529,1,0,0:0:0:0:
448,192,116529,1,0,0:0:0:0:
64,192,117111,1,0,0:0:0:0:
192,192,117111,1,0,0:0:0:0:
320,192,117111,1,0,0:0:0:0:
64,192,117694,128,0,119951:0:0:0:0:
192,192,117694,128,0,119951:0:0:0:0:
320,192,117694,128,0,119951:0:0:0:0:
448,192,119951,128,0,120606:0:0:0:0:
320,192,119988,128,0,120606:0:0:0:0:
192,192,120024,128,0,120606:0:0:0:0:
64,192,120060,128,0,120606:0:0:0:0:
