osu file format v14

[General]
AudioFilename: LegenD..mp3
AudioLeadIn: 0
PreviewTime: 61498
Countdown: 1
SampleSet: Normal
StackLeniency: 0.7
Mode: 0
LetterboxInBreaks: 1
WidescreenStoryboard: 0

[Editor]
Bookmarks: 69217
DistanceSpacing: 1.2
BeatDivisor: 4
GridSize: 4
TimelineZoom: 1.6

[Metadata]
Title:LegenD.
TitleUnicode:LegenD.
Artist:Yooh
ArtistUnicode:Yooh
Creator:Musty
Version:GRAVITY
Source:SOUND VOLTEX III GRAVITY WARS
Tags:
BeatmapID:664395
BeatmapSetID:295784

[Difficulty]
HPDrainRate:6
CircleSize:4.2
OverallDifficulty:7
ApproachRate:9.4
SliderMultiplier:2.1
SliderTickRate:1

[Events]
//Background and Video events
0,0,"backgroundlol.jpg",0,0
//Break Periods
//Storyboard Layer 0 (Background)
//Storyboard Layer 1 (Fail)
//Storyboard Layer 2 (Pass)
//Storyboard Layer 3 (Foreground)
//Storyboard Sound Samples

[TimingPoints]
620,292.682926829268,4,1,0,50,1,0
912,-200,4,2,0,50,0,0
10278,-100,4,1,0,75,0,0
23449,-66.6666666666667,4,1,0,100,0,0
23741,-133.333333333333,4,1,0,100,0,0
24327,-100,4,1,0,100,0,0
26668,-66.6666666666667,4,1,0,100,0,0
28717,-100,4,1,0,100,0,0
28863,-100,4,1,0,100,0,0
29010,-100,4,1,0,100,0,0
41888,-133.333333333333,4,1,0,100,0,0
43059,-100,4,1,0,100,0,0
46571,-66.6666666666667,4,1,0,100,0,0
47741,-100,4,1,0,100,0,0
52498,-133.333333333333,4,1,0,100,0,0
52717,-100,4,1,0,100,0,0
57254,-100,4,2,0,50,0,0
58278,-100,4,1,0,20,0,0
58863,-100,4,1,0,27,0,0
59449,-100,4,1,0,35,0,0
60034,-100,4,1,0,45,0,0
60619,-100,4,1,0,60,0,0
61498,-100,4,1,0,100,0,0
61790,291.26213592233,4,1,0,100,1,1
61790,-66.6666666666667,4,1,0,100,0,1
80139,-133.333333333333,4,1,0,100,0,1
80285,-100,4,1,0,100,0,0
80430,-66.6666666666667,4,1,0,100,0,1
91498,-133.333333333333,4,1,0,100,0,1
92081,-66.6666666666667,4,1,0,100,0,1
96741,-100,4,1,0,100,0,0

[HitObjects]
176,136,620,37,0,0:0:0:0:
168,112,693,1,2,2:0:0:0:
168,84,766,1,2,2:0:0:0:
232,180,912,38,0,P|244:272|92:232,1,315,4|0,1:0|0:0,0:0:0:0:
344,344,2083,6,0,P|332:252|484:292,1,315
372,92,3254,6,0,P|452:132|380:48,1,315
288,168,4424,6,0,P|184:172|112:96,1,210
224,80,5302,5,0,1:0:0:0:
28,40,5449,1,8,0:0:0:0:
128,132,5595,6,0,B|112:208|112:208|148:176|148:176|104:284|212:340,1,315
472,288,6766,6,0,P|292:184|224:252,1,315
336,328,7937,6,0,L|392:4,1,315
244,76,9107,5,0,1:0:0:0:
116,64,9254,1,0,1:0:0:0:
168,196,9400,2,0,L|180:232,2,26.25,0|2|0,1:0|0:0|1:0,0:0:0:0:
168,196,9693,1,0,1:0:0:0:
204,184,9766,1,0,1:0:0:0:
236,172,9839,1,0,1:0:0:0:
40,280,9985,1,0,1:0:0:0:
80,292,10059,1,0,1:0:0:0:
124,304,10132,1,0,1:0:0:0:
164,312,10205,1,0,1:0:0:0:
208,320,10278,6,0,L|320:316,1,105
464,192,10571,2,0,L|352:196,1,105,8|0,0:0|0:0,0:0:0:0:
128,236,10863,1,0,0:0:0:0:
280,132,11010,1,0,0:0:0:0:
128,152,11156,2,0,L|104:48,1,105,8|0,0:0|0:0,0:0:0:0:
248,240,11449,6,0,L|272:344,1,105
276,56,11741,1,8,0:0:0:0:
276,56,11888,1,0,0:0:0:0:
368,196,12034,2,0,L|480:176,2,105,0|0|8,0:0|0:0|0:0,0:0:0:0:
156,240,12473,5,0,0:0:0:0:
156,240,12546,1,0,0:0:0:0:
156,240,12619,2,0,P|216:320|324:284,1,210,4|8,0:0|0:0,0:0:0:0:
180,152,13059,2,0,P|100:168|84:212,1,105
252,232,13351,2,0,P|303:156|279:115,1,105,0|8,0:0|0:0,0:0:0:0:
232,56,13644,5,0,0:0:0:0:
436,64,13790,2,0,L|416:188,1,105
156,104,14083,1,8,0:0:0:0:
352,228,14229,2,0,L|336:344,1,105
337,332,14449,1,0,0:0:0:0:
337,332,14522,1,0,0:0:0:0:
174,332,14668,5,8,0:0:0:0:
174,332,14741,1,0,0:0:0:0:
174,332,14815,2,0,L|160:228,1,105
100,176,15107,1,0,0:0:0:0:
192,56,15254,5,8,0:0:0:0:
192,56,15327,1,0,0:0:0:0:
192,56,15400,1,0,0:0:0:0:
192,56,15473,1,0,0:0:0:0:
192,56,15546,1,0,0:0:0:0:
328,102,15693,1,0,0:0:0:0:
304,208,15839,5,8,0:0:0:0:
388,160,15985,1,2,0:0:0:0:
404,156,16059,1,0,0:0:0:0:
492,256,16205,1,2,0:0:0:0:
472,252,16278,1,0,0:0:0:0:
340,348,16424,2,0,L|456:340,1,105,10|0,0:0|0:0,0:0:0:0:
264,304,16717,5,0,0:0:0:0:
236,280,16790,1,0,0:0:0:0:
200,272,16863,1,0,0:0:0:0:
164,284,16937,1,0,0:0:0:0:
136,308,17010,1,0,0:0:0:0:
100,296,17083,1,0,0:0:0:0:
76,268,17156,1,0,0:0:0:0:
68,232,17229,1,0,0:0:0:0:
80,176,18473,5,2,2:0:0:0:
140,132,18619,1,0,2:0:0:0:
212,132,18766,1,2,2:0:0:0:
276,164,18912,1,0,2:0:0:0:
36,180,19059,5,2,2:0:0:0:
124,124,19205,1,0,2:0:0:0:
228,132,19351,1,2,2:0:0:0:
312,72,19498,1,0,2:0:0:0:
276,320,19644,6,0,L|408:344,1,105,6|0,0:0|0:0,0:0:0:0:
172,336,19937,2,0,L|40:312,1,105,10|0,0:0|0:0,0:0:0:0:
344,240,20229,1,2,0:0:0:0:
448,220,20376,1,0,0:0:0:0:
224,180,20522,1,10,0:0:0:0:
124,156,20668,1,0,0:0:0:0:
124,156,20815,6,0,L|108:40,1,105,2|0,0:0|0:0,0:0:0:0:
402,51,21107,2,0,L|388:156,1,105,10|0,0:0|0:0,0:0:0:0:
172,228,21400,1,2,0:0:0:0:
320,348,21546,1,0,0:0:0:0:
340,228,21693,1,10,0:0:0:0:
192,348,21839,1,0,0:0:0:0:
108,288,21985,6,0,L|0:252,1,105,2|0,0:0|0:0,0:0:0:0:
36,72,22278,2,0,L|144:108,1,105,10|0,0:0|0:0,0:0:0:0:
272,284,22571,1,2,0:0:0:0:
196,232,22717,1,0,0:0:0:0:
196,232,22790,1,0,0:0:0:0:
196,232,22863,2,0,P|280:196|320:212,1,105,10|0,0:0|2:0,0:0:0:0:
400,256,23156,6,0,L|496:208,1,105,2|0,0:0|0:0,0:0:0:0:
160,128,23449,6,0,L|312:56,1,157.500006008148,10|0,0:0|0:0,0:0:0:0:
248,348,23741,6,0,L|272:272,2,78.7500030040742,2|0|2,0:0|0:0|2:0,0:0:0:0:
156,360,24180,1,0,2:0:0:0:
72,328,24327,5,2,0:0:0:0:
168,248,24473,2,0,L|184:136,1,105,2|8,0:0|0:0,0:0:0:0:
92,148,24766,5,2,0:0:0:0:
268,136,24912,2,0,L|339:48,2,105,2|0|10,0:0|0:0|0:0,0:0:0:0:
268,284,25351,1,0,0:0:0:0:
268,284,25424,1,0,0:0:0:0:
268,284,25498,2,0,P|356:288|404:240,1,157.5,2|0,0:0|0:0,0:0:0:0:
424,176,25790,1,10,0:0:0:0:
452,336,25937,1,0,0:0:0:0:
316,216,26083,1,2,0:0:0:0:
344,56,26229,1,0,0:0:0:0:
220,96,26376,5,12,0:0:0:0:
220,96,26449,1,4,0:0:0:0:
220,96,26522,1,4,0:0:0:0:
116,144,26668,6,0,L|100:312,1,157.5,2|0,0:0|0:0,0:0:0:0:
128,40,26961,1,12,0:0:0:0:
288,264,27254,6,0,L|272:96,1,157.5,2|0,0:0|0:0,0:0:0:0:
300,368,27547,1,12,0:0:0:0:
348,52,27839,6,0,P|240:32|180:112,1,210.000008010865,2|0,0:0|0:0,0:0:0:0:
208,192,28132,2,0,P|316:212|376:132,1,210.000008010865,10|0,0:0|0:0,0:0:0:0:
336,304,28424,2,0,L|440:328,2,105.000004005432
244,356,28717,5,8,0:0:0:0:
236,352,28766,1,0,0:0:0:0:
228,348,28815,1,0,0:0:0:0:
220,344,28863,2,0,P|172:344|144:328,1,52.5
192,276,29010,6,0,L|164:172,1,105,6|0,0:0|0:0,0:0:0:0:
68,32,29302,2,0,L|96:136,1,105,10|0,0:0|0:0,0:0:0:0:
328,56,29595,2,0,P|224:24|164:92,1,210,2|8,0:0|0:0,0:0:0:0:
264,140,30034,1,0,0:0:0:0:
400,176,30180,2,0,L|508:160,1,105,2|0,0:0|0:0,0:0:0:0:
296,276,30473,2,0,L|188:260,1,105,10|0,0:0|0:0,0:0:0:0:
76,348,30766,5,2,0:0:0:0:
52,152,30912,1,0,0:0:0:0:
208,56,31059,1,10,0:0:0:0:
192,260,31205,1,0,0:0:0:0:
352,344,31351,6,0,L|456:336,1,105,2|0,0:0|0:0,0:0:0:0:
224,336,31644,2,0,L|120:344,1,105,10|0,0:0|0:0,0:0:0:0:
288,208,31937,2,0,P|388:240|460:168,1,210,2|8,0:0|0:0,0:0:0:0:
224,152,32376,2,0,L|168:180,1,52.5,2|0,0:0|0:0,0:0:0:0:
100,136,32522,1,2,0:0:0:0:
304,112,32668,1,0,0:0:0:0:
128,264,32815,1,10,0:0:0:0:
188,32,32961,1,0,0:0:0:0:
272,240,33107,5,0,0:0:0:0:
292,208,33180,1,0,0:0:0:0:
324,188,33254,1,0,0:0:0:0:
360,180,33327,1,0,0:0:0:0:
396,188,33400,1,8,0:0:0:0:
428,208,33473,1,0,0:0:0:0:
448,240,33546,1,0,0:0:0:0:
452,276,33619,1,0,0:0:0:0:
444,312,33693,5,0,0:0:0:0:
344,288,33839,1,0,0:0:0:0:
372,368,33985,1,8,0:0:0:0:
416,208,34132,1,0,0:0:0:0:
392,200,34205,1,0,0:0:0:0:
364,192,34278,5,0,0:0:0:0:
184,236,34424,1,0,0:0:0:0:
300,368,34570,1,8,0:0:0:0:
96,336,34717,1,0,0:0:0:0:
96,336,34790,1,0,0:0:0:0:
96,336,34863,2,0,L|64:216,1,105,2|0,0:0|0:0,0:0:0:0:
88,52,35156,2,0,L|120:172,1,105,10|0,0:0|0:0,0:0:0:0:
115,153,35376,1,0,0:0:0:0:
115,153,35449,2,0,P|200:188|268:160,1,157.5,2|4,0:0|0:0,0:0:0:0:
48,344,35888,5,4,0:0:0:0:
240,260,36034,1,2,0:0:0:0:
384,336,36180,2,0,L|464:308,1,52.5,2|0,0:0|0:0,0:0:0:0:
480,256,36327,1,0,0:0:0:0:
472,220,36400,1,0,0:0:0:0:
464,184,36473,1,0,0:0:0:0:
456,148,36546,1,0,0:0:0:0:
424,176,36619,5,2,0:0:0:0:
312,280,36765,2,0,L|232:252,1,52.5,2|0,0:0|0:0,0:0:0:0:
196,296,36912,1,0,0:0:0:0:
164,280,36985,1,0,0:0:0:0:
132,264,37059,1,0,0:0:0:0:
100,248,37131,1,0,0:0:0:0:
60,228,37205,6,0,L|40:124,1,105,10|0,0:0|0:0,0:0:0:0:
184,144,37498,2,0,L|176:40,1,105,10|0,0:0|0:0,0:0:0:0:
336,40,37790,2,0,L|328:144,1,105,10|0,0:0|0:0,0:0:0:0:
488,104,38083,2,0,L|468:208,1,105,10|0,0:0|0:0,0:0:0:0:
468,207,38302,1,0,0:0:0:0:
468,207,38376,5,4,0:0:0:0:
252,280,38522,1,0,0:0:0:0:
384,220,38668,2,0,L|376:336,1,105,10|0,0:0|0:0,0:0:0:0:
135,324,38961,2,0,L|128:220,1,105,2|0,0:0|0:0,0:0:0:0:
100,192,39180,1,0,0:0:0:0:
72,164,39254,2,0,L|65:60,1,105,8|0,0:0|0:0,0:0:0:0:
316,112,39546,2,0,L|324:224,1,105,2|0,0:0|0:0,0:0:0:0:
360,340,39839,6,0,L|356:280,2,52.5,8|0|0,0:0|0:0|0:0,0:0:0:0:
472,368,40132,1,0,0:0:0:0:
456,252,40278,1,0,0:0:0:0:
444,136,40424,1,8,0:0:0:0:
424,20,40571,1,0,0:0:0:0:
260,116,40717,6,0,L|376:96,1,105,6|0,0:0|0:0,0:0:0:0:
180,176,41010,2,0,L|64:196,1,105,10|0,0:0|0:0,0:0:0:0:
76,193,41229,1,0,0:0:0:0:
76,193,41302,1,2,0:0:0:0:
316,268,41449,1,0,0:0:0:0:
316,268,41522,1,0,0:0:0:0:
316,268,41595,2,0,L|424:280,1,105,10|0,0:0|0:0,0:0:0:0:
248,324,41888,6,4,B|248:348|248:348|192:300|224:240,1,118.125004506111,4|0,0:0|2:0,0:0:0:0:
132,300,42180,6,0,L|128:260,1,39.3750015020371,2|0,2:0|2:0,2:0:0:0:
76,212,42327,2,0,L|68:160,1,39.3750015020371,2|0,2:0|2:0,2:0:0:0:
24,112,42473,6,0,B|56:80|56:80|88:104|88:104|116:80|116:80|148:100|196:124|248:48,1,275.62501051426
276,44,43059,6,0,L|396:36,1,105,6|0,0:0|0:0,0:0:0:0:
448,164,43351,2,0,L|328:172,1,105,8|0,0:0|0:0,0:0:0:0:
144,196,43644,1,2,0:0:0:0:
288,336,43790,1,0,0:0:0:0:
288,336,43863,1,0,0:0:0:0:
288,336,43937,2,0,L|296:208,1,105,10|0,0:0|0:0,0:0:0:0:
44,232,44229,2,0,P|152:308|228:272,1,210,2|8,0:0|0:0,0:0:0:0:
152,188,44668,5,0,0:0:0:0:
272,344,44815,1,2,0:0:0:0:
340,184,44961,1,2,0:0:0:0:
232,32,45107,5,10,0:0:0:0:
228,72,45180,1,0,0:0:0:0:
224,112,45254,1,0,0:0:0:0:
220,148,45327,1,0,0:0:0:0:
216,188,45400,6,0,L|224:296,1,105,6|0,0:0|0:0,0:0:0:0:
140,372,45693,1,8,0:0:0:0:
312,228,45839,1,0,0:0:0:0:
80,120,45985,2,0,L|48:232,1,105,2|0,0:0|0:0,0:0:0:0:
51,220,46205,1,0,0:0:0:0:
51,220,46278,1,8,0:0:0:0:
48,36,46424,1,0,0:0:0:0:
184,144,46571,6,0,P|260:92|340:156,1,157.500006008148,0|0,0:0|2:0,0:0:0:0:
491,218,46790,2,0,P|417:234|360:184,1,157.500006008148,0|0,0:0|2:0,0:0:0:0:
420,0,47010,2,0,L|440:152,1,157.500006008148,0|0,0:0|2:0,0:0:0:0:
240,328,47229,2,0,L|260:172,1,157.500006008148,0|0,0:0|2:0,0:0:0:0:
136,384,47449,5,0,0:0:0:0:
111,337,47522,1,0,0:0:0:0:
100,286,47595,1,0,0:0:0:0:
102,234,47668,1,0,0:0:0:0:
112,188,47741,6,0,L|8:172,1,105,6|0,0:0|0:0,0:0:0:0:
272,160,48034,2,0,L|376:176,1,105,14|0,0:0|0:0,0:0:0:0:
464,96,48327,1,2,0:0:0:0:
476,280,48473,1,0,0:0:0:0:
476,280,48546,1,0,0:0:0:0:
476,280,48619,1,10,0:0:0:0:
380,88,48766,1,0,0:0:0:0:
252,140,48912,6,0,L|200:132,1,52.5,2|0,0:0|0:0,0:0:0:0:
128,120,49059,1,0,0:0:0:0:
160,232,49205,2,0,L|268:252,1,105,10|0,0:0|0:0,0:0:0:0:
263,251,49424,1,0,0:0:0:0:
263,251,49498,1,0,0:0:0:0:
464,176,49644,1,0,0:0:0:0:
336,24,49790,1,8,0:0:0:0:
168,124,49937,1,0,0:0:0:0:
168,124,50010,1,0,0:0:0:0:
168,124,50083,6,0,L|48:104,1,105,2|0,0:0|0:0,0:0:0:0:
164,228,50376,1,10,0:0:0:0:
316,196,50522,1,0,0:0:0:0:
468,156,50668,2,0,P|472:72|416:36,1,157.5,2|0,0:0|0:0,0:0:0:0:
404,112,50961,2,0,P|400:196|456:232,1,157.5,10|0,0:0|0:0,0:0:0:0:
496,300,51254,5,2,0:0:0:0:
328,336,51400,1,0,0:0:0:0:
284,208,51546,1,8,0:0:0:0:
144,284,51692,1,0,0:0:0:0:
148,116,51839,2,4,L|32:88,1,105
364,116,52132,2,4,L|480:88,1,105,12|4,0:0|0:0,0:0:0:0:
460,368,52424,5,0,0:0:0:0:
500,308,52522,1,2,2:0:0:0:
480,240,52619,1,2,2:0:0:0:
416,204,52717,6,0,P|332:196|268:248,1,157.5,10|0,0:0|0:0,0:0:0:0:
228,312,53010,2,0,P|163:354|87:344,1,157.5,2|0,0:0|0:0,0:0:0:0:
24,288,53302,2,0,L|44:184,1,105,10|0,0:0|0:0,0:0:0:0:
256,52,53595,2,0,L|236:156,1,105,2|0,0:0|0:0,0:0:0:0:
360,212,53888,1,8,0:0:0:0:
360,212,53961,1,0,0:0:0:0:
360,212,54034,2,0,L|476:200,1,105
400,80,54327,5,2,0:0:0:0:
368,320,54473,1,10,0:0:0:0:
268,120,54619,1,2,0:0:0:0:
212,220,54766,6,0,P|132:204|108:180,1,105,2|0,0:0|0:0,0:0:0:0:
116,190,54985,1,0,0:0:0:0:
116,190,55059,1,8,0:0:0:0:
264,344,55205,1,0,0:0:0:0:
40,152,55351,2,0,L|136:88,1,105,2|0,0:0|0:0,0:0:0:0:
127,93,55571,1,0,0:0:0:0:
127,93,55644,1,8,0:0:0:0:
304,232,55790,5,0,0:0:0:0:
304,232,55863,1,0,0:0:0:0:
304,232,55937,1,2,0:0:0:0:
404,36,56083,1,0,0:0:0:0:
404,36,56156,1,0,0:0:0:0:
404,36,56229,1,10,0:0:0:0:
464,188,56376,1,0,0:0:0:0:
284,132,56522,5,2,0:0:0:0:
444,308,56668,1,0,0:0:0:0:
280,264,56815,2,0,L|400:236,1,105,10|0,0:0|0:0,0:0:0:0:
164,328,57107,2,0,L|96:344,1,52.5,0|0,0:0|2:0,0:0:0:0:
48,316,57254,5,0,0:0:0:0:
36,292,57327,1,0,0:0:0:0:
32,268,57400,1,0,0:0:0:0:
36,240,57473,1,0,0:0:0:0:
48,216,57546,1,0,0:0:0:0:
64,196,57619,1,0,0:0:0:0:
88,184,57693,1,0,0:0:0:0:
112,180,57766,1,0,0:0:0:0:
140,184,57839,2,0,L|196:196,1,52.5
260,148,57985,2,0,L|308:176,1,52.5,0|0,0:0|0:0,0:0:0:0:
356,244,58132,5,0,0:0:0:0:
384,244,58205,1,0,0:0:0:0:
408,236,58278,1,0,0:0:0:0:
428,220,58351,1,0,0:0:0:0:
440,196,58424,1,0,0:0:0:0:
444,168,58498,1,0,0:0:0:0:
440,140,58571,1,0,0:0:0:0:
432,116,58644,1,0,0:0:0:0:
412,100,58717,1,0,0:0:0:0:
388,88,58790,1,0,0:0:0:0:
364,84,58863,1,0,0:0:0:0:
336,88,58937,1,0,0:0:0:0:
308,92,59010,1,0,0:0:0:0:
284,96,59083,1,0,0:0:0:0:
244,88,59156,5,0,0:0:0:0:
204,72,59229,1,0,0:0:0:0:
164,56,59302,1,0,0:0:0:0:
120,52,59376,1,0,0:0:0:0:
80,64,59449,1,0,0:0:0:0:
48,88,59522,1,0,0:0:0:0:
32,124,59595,1,0,0:0:0:0:
28,164,59668,1,0,0:0:0:0:
56,204,59741,5,0,0:0:0:0:
100,176,59815,1,0,0:0:0:0:
152,172,59888,1,0,0:0:0:0:
200,196,59961,1,0,0:0:0:0:
216,244,60034,1,0,0:0:0:0:
200,292,60107,1,0,0:0:0:0:
156,320,60180,1,0,0:0:0:0:
104,308,60254,1,0,0:0:0:0:
112,248,60327,5,0,0:0:0:0:
172,224,60400,1,0,0:0:0:0:
232,204,60473,1,0,0:0:0:0:
292,184,60546,1,0,0:0:0:0:
352,168,60619,1,0,0:0:0:0:
412,148,60693,1,0,0:0:0:0:
472,132,60766,2,0,L|484:64,1,52.5
480,272,60912,6,0,L|492:204,1,52.5
400,328,61059,1,0,0:0:0:0:
344,300,61132,1,0,0:0:0:0:
284,280,61205,1,0,0:0:0:0:
224,292,61278,1,0,0:0:0:0:
176,332,61351,1,0,0:0:0:0:
120,360,61424,1,0,0:0:0:0:
60,344,61498,5,12,1:0:0:0:
104,168,61644,1,0,0:0:0:0:
104,168,61717,1,0,0:0:0:0:
104,168,61790,2,0,P|200:144|260:208,1,157.500006008148,2|0,0:0|0:0,0:0:0:0:
476,252,62081,2,0,P|380:276|320:212,1,157.500006008148,10|0,0:0|0:0,0:0:0:0:
408,88,62372,1,2,0:0:0:0:
216,320,62518,1,0,0:0:0:0:
216,320,62590,1,0,0:0:0:0:
216,320,62663,2,0,L|48:328,1,157.500006008148,10|0,0:0|0:0,0:0:0:0:
0,100,62955,6,0,L|168:108,1,157.500006008148,6|0,0:0|0:0,0:0:0:0:
300,252,63246,1,8,0:0:0:0:
408,40,63391,1,0,0:0:0:0:
200,172,63537,1,2,0:0:0:0:
196,220,63610,1,0,0:0:0:0:
196,268,63683,1,2,0:0:0:0:
192,316,63756,1,0,0:0:0:0:
188,364,63828,2,0,P|112:360|92:352,1,78.7500030040742,10|0,0:0|0:0,0:0:0:0:
2,292,63974,2,0,P|40:285|80:288,1,78.7500030040742,2|0,0:0|0:0,0:0:0:0:
0,216,64120,6,0,L|36:60,1,157.500006008148,2|0,0:0|0:0,0:0:0:0:
272,192,64411,2,0,L|308:348,1,157.500006008148,10|0,0:0|0:0,0:0:0:0:
352,360,64629,1,0,0:0:0:0:
396,344,64702,6,0,L|480:352,1,78.7500030040742,2|0,0:0|2:0,0:0:0:0:
512,260,64848,2,0,L|428:268,1,78.7500030040742,2|0,0:0|2:0,0:0:0:0:
368,180,64993,2,0,L|452:188,1,78.7500030040742,10|0,0:0|2:0,0:0:0:0:
496,104,65139,2,0,L|412:96,1,78.7500030040742,2|0,0:0|2:0,0:0:0:0:
316,72,65285,6,0,L|156:68,1,157.500006008148,2|0,0:0|0:0,0:0:0:0:
158,68,65503,1,0,0:0:0:0:
158,68,65576,1,10,0:0:0:0:
212,284,65722,1,0,0:0:0:0:
0,204,65867,2,2,P|12:176|152:232,1,236.250009012223,2|0,0:0|0:0,0:0:0:0:
212,284,66158,2,0,P|296:304|352:252,1,157.500006008148,10|0,0:0|0:0,0:0:0:0:
452,352,66450,5,2,0:0:0:0:
460,296,66523,1,0,0:0:0:0:
468,240,66595,1,2,0:0:0:0:
476,184,66668,1,0,0:0:0:0:
484,128,66741,2,0,L|324:124,1,157.500006008148,10|0,0:0|0:0,0:0:0:0:
40,172,67032,5,2,0:0:0:0:
76,140,67105,1,0,0:0:0:0:
124,140,67178,1,2,0:0:0:0:
168,160,67251,1,0,0:0:0:0:
184,212,67323,1,10,0:0:0:0:
100,232,67469,1,2,0:0:0:0:
176,332,67615,6,0,L|256:352,1,78.7500030040742,2|0,0:0|0:0,0:0:0:0:
320,280,67760,2,0,L|400:268,1,78.7500030040742,2|0,0:0|0:0,0:0:0:0:
464,328,67906,2,0,P|484:252|440:192,1,157.500006008148,10|0,0:0|0:0,0:0:0:0:
304,44,68197,5,2,0:0:0:0:
292,96,68270,1,0,0:0:0:0:
280,148,68343,1,2,0:0:0:0:
268,200,68416,1,0,0:0:0:0:
256,252,68489,1,10,0:0:0:0:
40,320,68634,1,2,0:0:0:0:
40,320,68707,1,0,0:0:0:0:
40,320,68780,2,0,L|16:164,1,157.500006008148,2|0,0:0|0:0,0:0:0:0:
72,28,68998,2,0,L|64:108,1,78.7500030040742,0|10,0:0|0:0,0:0:0:0:
192,324,69217,5,0,0:0:0:0:
192,324,69290,1,0,0:0:0:0:
192,324,69362,2,0,P|312:328|344:224,1,236.250009012223,2|0,0:0|0:0,0:0:0:0:
293,160,69654,2,0,P|385:156|429:212,1,157.500006008148,8|0,0:0|0:0,0:0:0:0:
216,232,69945,1,2,0:0:0:0:
404,52,70090,1,0,0:0:0:0:
404,52,70163,1,0,0:0:0:0:
404,52,70236,1,8,0:0:0:0:
428,320,70382,1,0,0:0:0:0:
248,324,70527,6,0,L|84:316,1,157.500006008148,2|0,0:0|0:0,0:0:0:0:
304,236,70819,2,0,L|468:244,1,157.500006008148,10|0,0:0|0:0,0:0:0:0:
216,160,71110,5,4,0:0:0:0:
72,92,71256,1,0,0:0:0:0:
72,92,71328,1,0,0:0:0:0:
72,92,71401,1,10,0:0:0:0:
76,256,71547,1,0,0:0:0:0:
276,80,71692,2,0,L|440:64,1,157.500006008148
296,292,71984,5,10,0:0:0:0:
184,144,72129,1,0,0:0:0:0:
180,168,72202,1,0,0:0:0:0:
176,192,72275,2,0,P|56:224|-4:148,1,157.500006008148
368,216,72566,2,0,P|488:184|548:260,1,157.500006008148,10|0,0:0|0:0,0:0:0:0:
300,140,72857,5,0,0:0:0:0:
344,108,72930,1,0,0:0:0:0:
396,92,73003,1,0,0:0:0:0:
452,92,73076,1,0,0:0:0:0:
500,120,73149,5,10,0:0:0:0:
456,164,73222,1,0,0:0:0:0:
392,164,73294,1,0,0:0:0:0:
344,124,73367,1,0,0:0:0:0:
332,64,73440,2,0,L|168:48,1,157.500006008148,2|0,0:0|0:0,0:0:0:0:
40,292,73731,2,0,L|196:276,1,157.500006008148,10|0,0:0|0:0,0:0:0:0:
312,316,74023,6,0,L|240:348,1,78.7500030040742,2|0,0:0|2:0,0:0:0:0:
364,256,74168,2,0,L|437:226,1,78.7500030040742,2|0,0:0|2:0,0:0:0:0:
296,216,74314,1,10,0:0:0:0:
368,60,74459,1,0,0:0:0:0:
248,124,74605,2,0,P|156:116|212:148,1,236.250009012223,2|0,0:0|2:0,0:0:0:0:
192,216,74896,2,0,P|100:224|156:192,1,236.250009012223,10|0,0:0|2:0,0:0:0:0:
48,332,75188,2,0,P|16:224|104:128,1,236.250009012223,2|0,0:0|2:0,0:0:0:0:
352,20,75479,2,0,P|376:160|316:224,1,236.250009012223,10|0,0:0|2:0,0:0:0:0:
256,188,75770,5,0,0:0:0:0:
264,152,75843,1,0,0:0:0:0:
272,116,75916,2,0,L|252:36,1,78.7500030040742
176,108,76061,2,0,L|156:28,1,78.7500030040742,8|0,0:0|0:0,0:0:0:0:
88,104,76207,2,0,L|68:24,1,78.7500030040742
32,164,76353,5,2,0:0:0:0:
212,296,76498,1,0,0:0:0:0:
348,72,76644,1,10,0:0:0:0:
168,176,76790,1,0,0:0:0:0:
376,320,76935,6,0,L|364:232,1,78.7500030040742
288,132,77081,2,0,L|300:220,1,78.7500030040742
380,312,77226,2,0,L|368:224,1,78.7500030040742,8|0,0:0|0:0,0:0:0:0:
292,124,77372,2,0,L|304:212,1,78.7500030040742
240,252,77518,5,2,0:0:0:0:
64,184,77663,1,0,0:0:0:0:
152,40,77809,1,10,0:0:0:0:
128,284,77955,1,0,0:0:0:0:
128,284,78027,1,0,0:0:0:0:
128,284,78100,2,0,P|200:348|288:264,1,236.250009012223,6|0,0:0|0:0,0:0:0:0:
296,184,78391,2,0,P|400:208|404:272,1,157.500006008148,10|0,0:0|0:0,0:0:0:0:
488,364,78683,2,0,P|452:256|496:128,1,236.250009012223,2|0,0:0|0:0,0:0:0:0:
468,72,78974,2,0,L|312:52,1,157.500006008148,10|0,0:0|0:0,0:0:0:0:
172,76,79265,5,2,0:0:0:0:
172,76,79338,1,0,0:0:0:0:
172,76,79411,1,0,0:0:0:0:
84,188,79556,2,0,L|52:32,1,157.500006008148,10|0,0:0|0:0,0:0:0:0:
160,204,79848,2,0,L|192:360,1,157.500006008148,2|0,0:0|0:0,0:0:0:0:
268,280,80139,6,0,B|292:268|292:268|320:284|320:284|364:256|384:268,1,118.125004506111,10|0,0:0|2:0,0:0:0:0:
428,332,80430,5,0,0:0:0:0:
464,292,80503,1,0,0:0:0:0:
480,240,80576,1,0,0:0:0:0:
472,184,80649,1,0,0:0:0:0:
448,136,80722,1,10,0:0:0:0:
280,60,80867,1,0,0:0:0:0:
300,112,80940,1,0,0:0:0:0:
268,156,81013,6,0,P|176:168|212:56,1,236.250009012223,2|0,0:0|0:0,0:0:0:0:
24,232,81304,2,0,P|116:220|116:312,1,157.500006008148,10|0,0:0|0:0,0:0:0:0:
344,304,81595,2,0,L|504:312,1,157.500006008148,2|0,0:0|0:0,0:0:0:0:
501,311,81814,1,0,0:0:0:0:
501,311,81887,1,8,0:0:0:0:
356,148,82032,1,0,0:0:0:0:
248,312,82178,1,2,0:0:0:0:
252,76,82323,1,0,0:0:0:0:
144,240,82469,1,10,0:0:0:0:
132,16,82615,1,0,0:0:0:0:
48,232,82760,5,2,0:0:0:0:
72,184,82833,1,0,0:0:0:0:
116,148,82906,1,0,0:0:0:0:
172,148,82979,1,0,0:0:0:0:
220,176,83052,1,10,0:0:0:0:
388,312,83197,1,2,0:0:0:0:
400,276,83270,1,0,0:0:0:0:
412,240,83343,2,0,L|404:80,1,157.500006008148
312,32,83561,1,0,0:0:0:0:
312,32,83634,2,0,L|296:216,1,157.500006008148,10|0,0:0|0:0,0:0:0:0:
208,288,83925,6,0,L|40:280,1,157.500006008148,6|0,0:0|0:0,0:0:0:0:
304,328,84217,2,0,L|472:336,1,157.500006008148,10|0,0:0|0:0,0:0:0:0:
160,172,84508,2,0,L|2:164,1,157.500006008148,2|0,0:0|0:0,0:0:0:0:
508,236,84799,2,0,L|350:228,1,157.500006008148,10|0,0:0|0:0,0:0:0:0:
132,84,85090,5,2,0:0:0:0:
172,60,85163,1,0,0:0:0:0:
220,48,85236,1,0,0:0:0:0:
268,52,85309,1,0,0:0:0:0:
320,32,85382,5,10,0:0:0:0:
312,88,85455,1,0,0:0:0:0:
304,140,85527,1,0,0:0:0:0:
296,196,85600,1,0,0:0:0:0:
288,252,85673,6,0,P|360:304|432:280,1,157.500006008148,2|0,0:0|0:0,0:0:0:0:
512,216,85891,2,0,P|440:164|368:188,1,157.500006008148,2|0,0:0|0:0,0:0:0:0:
256,140,86110,2,0,L|228:60,1,78.7500030040742
108,90,86256,6,0,P|59:148|72:224,1,157.500006008148,2|0,0:0|0:0,0:0:0:0:
144,314,86474,2,0,P|193:256|181:181,1,157.500006008148,2|0,0:0|0:0,0:0:0:0:
220,80,86692,1,0,0:0:0:0:
276,88,86765,1,0,0:0:0:0:
332,96,86838,2,0,L|496:88,1,157.500006008148,2|0,0:0|0:0,0:0:0:0:
489,88,87056,1,0,0:0:0:0:
489,88,87129,1,8,0:0:0:0:
296,240,87275,2,0,P|366:270|437:241,1,157.500006008148,2|0,0:0|0:0,0:0:0:0:
172,324,87566,5,0,0:0:0:0:
172,324,87639,1,0,0:0:0:0:
172,324,87712,1,10,0:0:0:0:
256,120,87857,1,0,0:0:0:0:
160,68,88003,2,0,P|51:60|-4:166,1,236.250009012223,2|0,0:0|0:0,0:0:0:0:
256,120,88294,2,0,P|318:149|428:104,1,157.500006008148,10|0,0:0|0:0,0:0:0:0:
92,288,88586,5,2,0:0:0:0:
132,320,88658,1,0,0:0:0:0:
172,328,88731,1,2,0:0:0:0:
224,336,88804,1,0,0:0:0:0:
268,332,88877,6,0,P|328:312|364:324,1,78.7500030040742,10|0,0:0|0:0,0:0:0:0:
484,272,89023,2,0,P|424:252|388:264,1,78.7500030040742,2|0,0:0|0:0,0:0:0:0:
268,224,89168,2,0,L|360:196,1,78.7500030040742,2|0,0:0|0:0,0:0:0:0:
508,152,89314,2,0,L|424:136,1,78.7500030040742,2|0,0:0|0:0,0:0:0:0:
276,104,89459,2,0,L|388:80,1,78.7500030040742,10|0,0:0|0:0,0:0:0:0:
496,28,89605,2,0,L|404:52,1,78.7500030040742
188,100,89751,6,0,P|144:208|136:88,1,315.000012016297,6|0,0:0|0:0,0:0:0:0:
16,112,90188,2,0,P|56:256|204:276,1,315.000012016297,6|0,0:0|0:0,0:0:0:0:
288,208,90624,2,0,P|408:112|528:200,1,315.000012016297,6|0,0:0|0:0,0:0:0:0:
376,288,91061,2,0,P|404:188|360:268,1,315.000012016297,6|0,0:0|0:0,0:0:0:0:
212,348,91498,6,0,P|200:304|204:268,1,78.7500030040742,4|0,0:0|0:0,0:0:0:0:
148,196,91789,1,4,0:0:0:0:
132,172,91862,1,0,0:0:0:0:
128,144,91935,1,0,0:0:0:0:
140,120,92008,1,0,0:0:0:0:
160,100,92081,6,0,P|296:84|232:204,1,315.000012016297,6|0,0:0|0:0,0:0:0:0:
384,200,92518,2,0,P|432:104|432:236,1,315.000012016297,6|0,0:0|0:0,0:0:0:0:
280,344,92955,2,0,P|280:288|320:376,1,315.000012016297,6|0,0:0|0:0,0:0:0:0:
160,356,93391,2,0,L|84:48,1,315.000012016297,6|0,0:0|0:0,0:0:0:0:
12,208,93828,5,2,0:0:0:0:
12,208,93901,1,0,0:0:0:0:
12,208,93974,1,0,0:0:0:0:
176,100,94120,1,10,0:0:0:0:
296,220,94265,1,0,0:0:0:0:
296,220,94338,1,0,0:0:0:0:
296,220,94411,2,0,L|476:216,1,157.500006008148,6|0,0:0|0:0,0:0:0:0:
224,324,94702,2,0,L|44:328,1,157.500006008148,10|0,0:0|0:0,0:0:0:0:
304,72,94993,6,0,P|448:96|472:72,1,157.500006008148,2|0,0:0|0:0,0:0:0:0:
164,212,95285,2,0,P|20:188|-4:212,1,157.500006008148,10|0,0:0|0:0,0:0:0:0:
136,72,95576,1,2,0:0:0:0:
136,72,95722,1,0,0:0:0:0:
376,312,95867,1,10,0:0:0:0:
376,312,96013,1,0,0:0:0:0:
192,216,96158,2,0,P|276:188|300:256,1,157.500006008148,2|0,0:0|0:0,0:0:0:0:
92,224,96450,1,10,0:0:0:0:
244,64,96595,1,0,0:0:0:0:
176,348,96741,5,0,0:0:0:0:
140,340,96814,1,0,0:0:0:0:
104,340,96887,1,0,0:0:0:0:
72,356,96959,1,0,0:0:0:0:
40,372,97032,6,0,L|20:316,1,52.5,8|0,0:0|0:0,0:0:0:0:
40,276,97178,2,0,L|20:220,1,52.5
44,168,97323,1,0,0:0:0:0:
28,124,97396,1,0,0:0:0:0:
52,84,97469,1,0,0:0:0:0:
96,68,97542,1,0,0:0:0:0:
132,96,97615,1,8,0:0:0:0:
144,140,97688,1,0,0:0:0:0:
128,184,97760,1,0,0:0:0:0:
160,216,97833,1,0,0:0:0:0:
256,192,97906,12,0,98925,0:0:0:0:
32,112,99071,6,0,P|188:96|236:148,1,210,2|8,0:0|0:0,0:0:0:0:
480,272,99508,2,0,P|324:288|276:236,1,210,2|0,0:0|0:0,0:0:0:0:
144,296,99945,1,10,0:0:0:0:
144,296,100018,1,0,0:0:0:0:
144,296,100090,1,0,0:0:0:0:
392,212,100236,2,0,L|416:100,1,105,2|0,0:0|0:0,0:0:0:0:
152,60,100527,2,0,L|128:172,1,105,10|0,0:0|0:0,0:0:0:0:
36,320,100819,5,2,0:0:0:0:
72,284,100891,1,0,0:0:0:0:
120,264,100964,1,0,0:0:0:0:
172,264,101037,1,0,0:0:0:0:
220,284,101110,1,10,0:0:0:0:
368,344,101256,1,0,0:0:0:0:
316,252,101401,5,2,0:0:0:0:
356,220,101474,1,0,0:0:0:0:
400,192,101547,1,0,0:0:0:0:
424,144,101620,1,0,0:0:0:0:
432,92,101692,1,10,0:0:0:0:
400,48,101765,1,0,0:0:0:0:
348,52,101838,1,0,0:0:0:0:
312,92,101911,1,0,0:0:0:0:
260,104,101984,6,0,L|212:72,1,52.5,2|0,0:0|0:0,0:0:0:0:
148,124,102129,2,0,L|100:92,1,52.5,2|0,0:0|0:0,0:0:0:0:
52,152,102275,2,0,L|4:120,1,52.5,10|0,0:0|0:0,0:0:0:0:
16,232,102421,1,0,0:0:0:0:
16,232,102493,1,0,0:0:0:0:
16,232,102566,2,0,P|96:264|188:224,1,157.5,6|0,0:0|0:0,0:0:0:0:
232,308,102857,2,0,P|332:288|372:332,1,157.5,14|0,0:0|0:0,0:0:0:0:
456,352,103149,2,0,L|440:184,1,157.5,6|0,0:0|0:0,0:0:0:0:
464,116,103440,1,14,0:0:0:0:
328,36,103586,5,0,0:0:0:0:
240,124,103731,1,6,0:0:0:0:
204,160,103804,1,0,0:0:0:0:
156,180,103877,1,0,0:0:0:0:
104,192,103950,1,0,0:0:0:0:
52,196,104023,1,10,0:0:0:0:
328,208,104168,1,2,0:0:0:0:
368,172,104241,1,0,0:0:0:0:
420,168,104314,1,0,0:0:0:0:
164,300,104459,2,0,L|40:292,1,105,2|8,0:0|0:0,0:0:0:0:
288,328,104751,1,0,0:0:0:0:
468,300,104896,5,2,0:0:0:0:
448,252,104969,1,0,0:0:0:0:
452,200,105042,1,0,0:0:0:0:
472,152,105115,1,0,0:0:0:0:
512,116,105188,1,10,0:0:0:0:
268,152,105333,1,2,0:0:0:0:
316,176,105406,1,0,0:0:0:0:
336,224,105479,1,0,0:0:0:0:
164,120,105624,2,0,P|72:124|32:96,1,105,2|8,0:0|0:0,0:0:0:0:
280,56,105916,2,0,P|372:52|412:80,1,105,2|0,0:0|0:0,0:0:0:0:
432,76,106134,5,0,0:0:0:0:
408,124,106207,1,2,0:0:0:0:
416,176,106280,1,0,0:0:0:0:
432,224,106353,1,8,0:0:0:0:
456,336,106498,1,2,0:0:0:0:
420,352,106571,1,0,0:0:0:0:
388,368,106644,2,0,L|256:336,1,105,2|0,0:0|0:0,0:0:0:0:
112,248,106935,2,0,L|244:280,1,105,10|0,0:0|0:0,0:0:0:0:
24,140,107226,5,2,0:0:0:0:
24,140,107299,1,0,0:0:0:0:
24,140,107372,2,0,L|20:24,1,105,0|10,0:0|0:0,0:0:0:0:
272,112,107663,2,0,L|268:228,1,105,2|0,0:0|0:0,0:0:0:0:
348,312,107955,1,2,0:0:0:0:
348,312,108027,1,0,0:0:0:0:
348,312,108100,1,8,0:0:0:0:
456,124,108246,1,2,0:0:0:0:
248,312,108391,2,0,L|120:316,2,105,6|0|0,0:0|0:0|0:0,0:0:0:0:
16,292,108828,6,0,P|100:220|56:136,1,210,6|0,0:0|0:0,0:0:0:0:
68,48,109265,2,0,P|148:160|236:144,1,210,6|0,0:0|0:0,0:0:0:0:
304,96,109702,2,0,P|404:72|456:172,1,210,6|0,0:0|0:0,0:0:0:0:
457,149,110066,1,0,0:0:0:0:
457,149,110139,1,2,0:0:0:0:
380,232,110285,1,0,0:0:0:0:
268,212,110430,1,8,0:0:0:0:
228,104,110576,1,0,0:0:0:0:
24,268,110722,5,2,0:0:0:0:
80,276,110794,1,0,0:0:0:0:
136,280,110867,1,0,0:0:0:0:
192,288,110940,1,0,0:0:0:0:
248,296,111013,1,10,0:0:0:0:
396,224,111158,2,0,L|436:108,1,105,2|0,0:0|0:0,0:0:0:0:
264,88,111450,1,0,0:0:0:0:
88,32,111595,1,10,0:0:0:0:
116,156,111741,2,0,L|180:120,2,52.5
44,268,112032,5,2,0:0:0:0:
140,332,112178,1,8,0:0:0:0:
204,240,112323,2,0,P|264:208|320:196,1,105,2|0,0:0|0:0,0:0:0:0:
492,192,112615,2,0,P|432:160|376:148,1,105,2|8,0:0|0:0,0:0:0:0:
208,104,112906,1,0,0:0:0:0:
208,104,112979,1,0,0:0:0:0:
208,104,113052,2,0,P|64:116|40:140,1,157.5,2|0,0:0|0:0,0:0:0:0:
72,224,113343,2,0,P|216:212|240:188,1,157.5,10|0,0:0|0:0,0:0:0:0:
284,152,113634,2,0,L|440:100,1,157.5,2|0,0:0|0:0,0:0:0:0:
460,172,113925,2,0,P|396:244|396:320,1,157.5,10|0,0:0|0:0,0:0:0:0:
304,324,114217,5,2,0:0:0:0:
212,256,114362,1,0,0:0:0:0:
128,176,114508,1,10,0:0:0:0:
52,88,114654,1,0,0:0:0:0:
164,72,114799,1,2,0:0:0:0:
200,116,114872,1,0,0:0:0:0:
248,144,114945,1,2,0:0:0:0:
304,140,115018,1,0,0:0:0:0:
332,92,115090,5,10,0:0:0:0:
388,112,115163,1,0,0:0:0:0:
424,160,115236,1,2,0:0:0:0:
428,216,115309,1,0,0:0:0:0:
408,268,115382,1,4,0:0:0:0:
324,288,115964,1,0,0:0:0:0:
248,308,116547,1,0,0:0:0:0:
180,332,117129,1,0,0:0:0:0:
108,356,117712,5,0,0:0:0:0:
256,192,117785,12,0,120042,2:0:0:0:
