osu file format v14

[General]
AudioFilename: LegenD..mp3
AudioLeadIn: 0
PreviewTime: 61498
Countdown: 1
SampleSet: Normal
StackLeniency: 0.7
Mode: 0
LetterboxInBreaks: 1
WidescreenStoryboard: 1

[Editor]
Bookmarks: 48327,69217
DistanceSpacing: 1.2
BeatDivisor: 2
GridSize: 4
TimelineZoom: 1.7

[Metadata]
Title:LegenD.
TitleUnicode:LegenD.
Artist:Yooh
ArtistUnicode:Yooh
Creator:Musty
Version:ADVANCED
Source:SOUND VOLTEX III GRAVITY WARS
Tags:
BeatmapID:756192
BeatmapSetID:295784

[Difficulty]
HPDrainRate:5
CircleSize:3.5
OverallDifficulty:5
ApproachRate:7.5
SliderMultiplier:1.4
SliderTickRate:1

[Events]
//Background and Video events
0,0,"backgroundlol.jpg",0,0
//Break Periods
//Storyboard Layer 0 (Background)
//Storyboard Layer 1 (Fail)
//Storyboard Layer 2 (Pass)
//Storyboard Layer 3 (Foreground)
//Storyboard Sound Samples

[TimingPoints]
620,292.682926829268,4,1,0,50,1,0
912,-133.333333333333,4,2,0,50,0,0
9107,-100,4,2,0,50,0,0
10278,-100,4,1,0,75,0,0
23449,-100,4,1,0,100,0,0
57254,-100,4,2,0,50,0,0
58278,-100,4,1,0,20,0,0
58863,-100,4,1,0,27,0,0
59449,-100,4,1,0,35,0,0
60034,-100,4,1,0,45,0,0
60619,-100,4,1,0,60,0,0
61498,-100,4,1,0,100,0,0
61790,291.26213592233,4,1,0,100,1,1
80285,-100,4,1,0,100,0,0
80430,-100,4,1,0,100,0,1
96741,-100,4,1,0,100,0,0

[HitObjects]
140,144,620,5,0,0:0:0:0:
116,232,766,1,0,0:0:0:0:
204,208,912,2,0,P|264:228|204:112,1,315.000012016297
112,140,2083,6,0,P|64:220|212:344,1,315.000012016297
268,264,3254,6,0,P|388:216|344:332,1,315.000012016297
448,372,4424,6,0,P|488:280|380:104,1,315.000012016297
312,88,5449,1,0,0:0:0:0:
228,116,5595,6,0,P|104:172|52:24,1,315.000012016297
132,84,6766,6,0,B|116:204|116:204|164:244|164:244|148:376,1,315.000012016297
248,340,7937,6,0,P|356:264|504:380,1,315.000012016297
480,192,9107,5,2,0:0:0:0:
408,148,9254,2,0,L|412:108,2,35,0|0|0,1:0|0:0|1:0,0:0:0:0:
328,176,9546,2,0,L|232:172,1,70,0|0,1:0|1:0,1:0:0:0:
196,116,9839,2,0,L|100:112,1,70,0|0,1:0|1:0,1:0:0:0:
64,52,10132,1,0,1:0:0:0:
48,136,10278,6,0,L|32:300,1,140,4|8,0:0|0:0,0:0:0:0:
32,360,10717,2,0,P|88:348|112:316,1,70
140,268,11010,1,0,0:0:0:0:
176,344,11156,2,0,L|328:352,1,140,8|0,0:0|0:0,0:0:0:0:
476,304,11741,5,8,0:0:0:0:
392,300,11888,1,0,0:0:0:0:
440,232,12034,2,0,L|464:156,1,70
440,84,12327,2,0,P|360:104|304:48,1,140,8|4,0:0|0:0,0:0:0:0:
244,120,12766,5,0,0:0:0:0:
240,36,12912,2,0,L|168:20,1,70,8|0,0:0|0:0,0:0:0:0:
128,92,13205,2,0,L|56:108,1,70
40,188,13498,2,0,P|72:284|44:344,1,140,8|0,0:0|0:0,0:0:0:0:
132,368,13937,5,0,0:0:0:0:
192,308,14083,2,0,L|280:320,1,70,8|0,0:0|0:0,0:0:0:0:
332,268,14376,1,0,0:0:0:0:
332,268,14449,1,0,0:0:0:0:
332,268,14522,2,0,L|424:280,1,70,0|8,0:0|0:0,0:0:0:0:
472,324,14815,1,0,0:0:0:0:
476,240,14961,6,0,L|464:76,1,140,0|8,0:0|0:0,0:0:0:0:
308,44,15546,2,0,L|320:208,1,140,0|8,0:0|0:0,0:0:0:0:
216,316,16132,2,0,L|204:152,1,140,0|8,0:0|0:0,0:0:0:0:
68,76,16717,2,0,L|72:140,7,35,0|0|0|0|8|0|0|0,0:0|0:0|0:0|0:0|0:0|0:0|0:0|0:0,0:0:0:0:
70,110,18473,5,2,2:0:0:0:
56,192,18619,1,0,2:0:0:0:
72,276,18766,1,2,2:0:0:0:
136,332,18912,1,0,2:0:0:0:
220,336,19059,2,0,L|236:264,1,70,2|0,0:2|0:0,0:0:0:0:
308,224,19351,2,0,L|324:296,1,70,2|0,0:2|0:0,0:0:0:0:
392,340,19644,6,0,P|456:296|448:224,1,140,4|8,0:0|0:0,0:0:0:0:
396,184,20083,1,0,0:0:0:0:
476,160,20229,2,0,L|492:84,2,70,0|0|8,0:0|0:0|0:0,0:0:0:0:
408,108,20668,1,0,0:0:0:0:
328,128,20815,2,0,P|240:148|208:92,1,140,0|8,0:0|0:0,0:0:0:0:
152,64,21254,1,0,0:0:0:0:
100,132,21400,2,0,L|16:148,1,70
76,216,21693,2,0,L|160:232,1,70,8|0,0:0|0:0,0:0:0:0:
156,312,21985,5,0,0:0:0:0:
232,280,22132,1,0,0:0:0:0:
312,300,22278,2,0,P|368:312|440:248,1,140,8|0,0:0|0:0,0:0:0:0:
356,228,22717,1,0,0:0:0:0:
424,180,22863,2,0,L|432:100,1,70,8|0,0:0|0:0,0:0:0:0:
384,40,23156,6,0,L|224:44,1,140,0|8,0:0|0:0,0:0:0:0:
128,164,23741,2,0,L|288:160,1,140,0|8,0:0|0:0,0:0:0:0:
120,80,24327,5,0,0:0:0:0:
44,112,24473,1,0,0:0:0:0:
32,196,24619,2,0,P|60:252|88:276,1,70,8|0,0:0|0:0,0:0:0:0:
104,332,24912,1,0,0:0:0:0:
180,296,25059,1,0,0:0:0:0:
264,300,25205,2,0,P|324:320|336:332,1,70,8|0,0:0|0:0,0:0:0:0:
412,344,25498,6,0,P|392:256|420:192,1,140,0|8,0:0|0:0,0:0:0:0:
448,140,25937,1,0,0:0:0:0:
488,64,26083,2,0,L|408:44,1,70
356,100,26376,2,0,L|276:116,1,70,8|0,0:0|0:0,0:0:0:0:
220,60,26668,5,0,0:0:0:0:
136,56,26815,1,0,0:0:0:0:
52,52,26961,1,8,0:0:0:0:
64,220,27254,5,0,0:0:0:0:
148,216,27400,1,0,0:0:0:0:
232,212,27546,1,8,0:0:0:0:
392,268,27839,6,0,P|424:172|460:132,3,140,0|8|0|8,0:0|0:0|0:0|0:0,0:0:0:0:
504,80,28863,1,0,0:0:0:0:
420,64,29010,2,0,L|344:52,1,70
280,100,29302,2,0,L|204:112,1,70,8|0,0:0|0:0,0:0:0:0:
148,164,29595,2,0,P|64:168|24:116,1,140,0|8,0:0|0:0,0:0:0:0:
104,92,30034,1,0,0:0:0:0:
40,40,30180,2,0,P|68:16|116:16,1,70
176,44,30473,2,0,P|204:68|252:68,1,70,8|0,0:0|0:0,0:0:0:0:
316,48,30766,5,0,0:0:0:0:
396,72,30912,1,0,0:0:0:0:
432,148,31059,2,0,L|420:220,1,70,8|0,0:0|0:0,0:0:0:0:
452,296,31351,2,0,P|356:268|320:308,1,140,0|8,0:0|0:0,0:0:0:0:
256,252,31790,1,0,0:0:0:0:
264,336,31937,2,0,P|148:332|136:304,1,140,0|8,0:0|0:0,0:0:0:0:
108,252,32376,1,0,0:0:0:0:
80,172,32522,2,0,L|4:160,1,70
48,84,32815,2,0,L|124:72,1,70,8|0,0:0|0:0,0:0:0:0:
184,120,33107,5,0,0:0:0:0:
256,160,33254,1,0,0:0:0:0:
248,76,33400,1,8,0:0:0:0:
324,108,33546,1,0,0:0:0:0:
404,132,33693,2,0,P|400:80|384:48,2,70,0|0|8,0:0|0:0|0:0,0:0:0:0:
344,192,34132,1,0,0:0:0:0:
344,192,34278,2,0,P|336:240|344:268,2,70,0|0|8,0:0|0:0|0:0,0:0:0:0:
424,216,34717,1,0,0:0:0:0:
432,300,34863,6,0,P|380:356|300:336,1,140,0|8,0:0|0:0,0:0:0:0:
248,312,35302,1,0,0:0:0:0:
176,272,35449,2,0,L|100:296,1,70
60,224,35741,2,0,L|136:200,1,70,8|0,0:0|0:0,0:0:0:0:
184,140,36034,1,0,0:0:0:0:
268,156,36180,1,0,0:0:0:0:
240,76,36327,1,8,0:0:0:0:
292,236,36619,6,0,P|268:304|260:312,2,70,0|0|8,0:0|0:0|0:0,0:0:0:0:
420,124,37205,2,0,P|444:56|452:48,2,70,0|0|8,0:0|0:0|0:0,0:0:0:0:
404,208,37644,1,0,0:0:0:0:
428,288,37790,2,0,L|500:300,1,70
456,372,38083,2,0,L|384:360,1,70,8|0,0:0|0:0,0:0:0:0:
324,308,38376,2,0,P|248:288|196:324,1,140,0|8,0:0|0:0,0:0:0:0:
120,348,38815,1,0,0:0:0:0:
140,268,38961,2,0,P|76:272|56:284,1,70
4,220,39254,2,0,L|16:144,1,70,8|0,0:0|0:0,0:0:0:0:
32,68,39546,6,0,P|128:48|168:84,1,140,0|8,0:0|0:0,0:0:0:0:
160,152,39985,1,0,0:0:0:0:
232,104,40132,2,0,L|304:88,1,70
380,120,40424,2,0,L|452:104,1,70,8|0,0:0|0:0,0:0:0:0:
496,36,40717,2,0,P|532:80|516:160,1,140,0|8,0:0|0:0,0:0:0:0:
464,220,41156,1,0,0:0:0:0:
400,272,41302,2,0,L|412:344,1,70
328,324,41595,2,0,L|316:248,1,70,8|0,0:0|0:0,0:0:0:0:
244,212,41888,6,0,P|144:224|112:268,3,140,0|8|0|8,0:0|0:0|0:0|0:0,0:0:0:0:
68,316,42912,5,0,0:0:0:0:
44,236,43059,2,0,L|24:160,1,70
96,124,43351,2,0,L|116:48,1,70,8|0,0:0|0:0,0:0:0:0:
196,64,43644,1,0,0:0:0:0:
260,116,43790,1,0,0:0:0:0:
260,116,43863,1,0,0:0:0:0:
260,116,43937,2,0,P|316:120|340:104,1,70,8|0,0:0|0:0,0:0:0:0:
396,68,44229,2,0,P|472:96|460:164,1,140,0|8,0:0|0:0,0:0:0:0:
404,196,44668,1,0,0:0:0:0:
480,232,44815,6,0,L|468:308,1,70
396,340,45107,2,0,L|384:264,1,70,8|0,0:0|0:0,0:0:0:0:
320,220,45400,2,0,P|272:244|196:196,1,140,0|8,0:0|0:0,0:0:0:0:
140,148,45839,1,0,0:0:0:0:
120,228,45985,2,0,L|36:224,1,70
16,300,46278,2,0,L|100:304,1,70,8|0,0:0|0:0,0:0:0:0:
160,344,46571,2,0,P|248:336|272:308,4,105
200,272,47595,5,0,0:0:0:0:
280,248,47741,1,0,0:0:0:0:
336,312,47888,2,0,P|392:336|420:336,1,70,0|8,0:0|0:0,0:0:0:0:
468,288,48180,1,0,0:0:0:0:
468,288,48254,1,0,0:0:0:0:
468,288,48327,2,0,L|464:216,1,70
412,152,48619,2,0,L|408:80,1,70,8|0,0:0|0:0,0:0:0:0:
328,60,48912,2,0,P|284:80|216:24,1,140,0|8,0:0|0:0,0:0:0:0:
132,44,49351,1,0,0:0:0:0:
124,128,49498,2,0,L|48:136,1,70
72,216,49790,2,0,L|-4:208,1,70,8|0,0:0|0:0,0:0:0:0:
28,288,50083,6,0,P|96:332|168:304,1,140,0|8,0:0|0:0,0:0:0:0:
224,276,50522,1,0,0:0:0:0:
296,232,50668,2,0,L|380:260,2,70,0|0|8,0:0|0:0|0:0,0:0:0:0:
260,156,51107,1,0,0:0:0:0:
236,76,51254,2,0,P|120:80|100:100,2,140,0|8|0,0:0|0:0|0:0,0:0:0:0:
316,56,51985,2,0,L|392:88,1,70,0|8,0:0|0:0,0:0:0:0:
456,119,52278,1,0,0:0:0:0:
328,172,52571,5,0,0:0:0:0:
248,152,52717,2,0,L|160:172,1,70,8|0,0:0|0:0,0:0:0:0:
107,123,53010,2,0,P|93:193|149:253,1,140,0|8,0:0|0:0,0:0:0:0:
205,286,53449,1,0,0:0:0:0:
288,280,53595,2,0,L|368:288,1,70
432,328,53888,1,8,0:0:0:0:
428,244,54034,1,0,0:0:0:0:
428,244,54107,1,0,0:0:0:0:
428,244,54180,2,0,P|420:196|424:160,1,70
428,96,54473,6,0,P|396:44|372:28,1,70,8|0,0:0|0:0,0:0:0:0:
340,112,54766,2,0,P|212:108|180:92,1,140,0|8,0:0|0:0,0:0:0:0:
84,216,55351,2,0,P|212:220|244:236,1,140,0|8,0:0|0:0,0:0:0:0:
292,268,55790,1,0,0:0:0:0:
360,316,55937,2,0,L|440:308,1,70
456,228,56229,2,0,L|376:236,1,70,8|0,0:0|0:0,0:0:0:0:
344,160,56522,2,0,L|424:152,1,70
440,72,56814,2,0,L|360:80,1,70,8|0,0:0|0:0,0:0:0:0:
288,84,57107,1,4,0:0:0:0:
256,192,57254,12,0,61498,0:0:0:0:
80,308,61790,6,0,P|128:336|196:296,1,140,0|8,0:0|0:0,0:0:0:0:
132,240,62226,1,0,0:0:0:0:
80,176,62372,2,0,L|60:100,1,70
148,108,62663,2,0,L|168:32,1,70,8|0,0:0|0:0,0:0:0:0:
236,84,62955,6,0,P|284:108|372:88,1,140,0|8,0:0|0:0,0:0:0:0:
448,72,63391,1,0,0:0:0:0:
424,152,63537,1,0,0:0:0:0:
424,152,63610,1,0,0:0:0:0:
424,152,63683,2,0,L|416:224,2,70,0|8|0,0:0|0:0|0:0,0:0:0:0:
500,184,64120,2,0,P|500:264|440:312,1,140,0|8,0:0|0:0,0:0:0:0:
380,328,64556,1,0,0:0:0:0:
340,256,64702,2,0,L|240:244,1,70
188,272,64993,2,0,L|88:260,1,70,8|0,0:0|0:0,0:0:0:0:
40,296,65285,6,0,P|36:228|92:180,1,140,0|8,0:0|0:0,0:0:0:0:
168,188,65722,1,0,0:0:0:0:
132,112,65867,2,0,L|84:48,1,70
160,8,66158,2,0,L|208:72,1,70,8|0,0:0|0:0,0:0:0:0:
256,128,66450,6,0,P|352:124|392:72,1,140,0|8,0:0|0:0,0:0:0:0:
456,60,66887,1,0,0:0:0:0:
444,144,67032,1,0,0:0:0:0:
444,228,67178,1,0,0:0:0:0:
476,304,67323,2,0,L|404:324,1,70,8|0,0:0|0:0,0:0:0:0:
340,276,67615,6,0,P|264:268|216:328,1,140,0|8,0:0|0:0,0:0:0:0:
156,360,68052,2,0,P|136:324|148:272,1,70
152,212,68343,2,0,P|176:160|176:136,1,70,0|8,0:0|0:0,0:0:0:0:
128,80,68634,1,0,0:0:0:0:
212,72,68780,6,0,L|380:84,1,140,0|8,0:0|0:0,0:0:0:0:
432,56,69217,1,0,0:0:0:0:
420,140,69362,2,0,P|432:240|472:272,1,140,0|8,0:0|0:0,0:0:0:0:
488,344,69799,1,0,0:0:0:0:
404,328,69945,2,0,L|252:316,1,140,0|8,0:0|0:0,0:0:0:0:
184,348,70382,1,0,0:0:0:0:
116,300,70527,2,0,L|100:232,1,70
148,164,70819,2,0,L|132:96,1,70,8|0,0:0|0:0,0:0:0:0:
188,32,71110,6,0,P|260:60|320:40,1,140,0|8,0:0|0:0,0:0:0:0:
364,112,71547,1,0,0:0:0:0:
432,68,71692,2,0,P|448:104|436:152,1,70
400,208,71984,2,0,P|384:244|396:292,1,70,8|0,0:0|0:0,0:0:0:0:
464,308,72275,2,0,P|400:364|336:332,1,140,0|8,0:0|0:0,0:0:0:0:
284,304,72712,1,0,0:0:0:0:
200,296,72857,2,0,P|132:312|108:328,1,70
56,352,73149,1,8,0:0:0:0:
60,268,73294,1,0,0:0:0:0:
48,192,73440,6,0,L|96:48,1,140,0|8,0:0|0:0,0:0:0:0:
164,108,73877,1,0,0:0:0:0:
164,108,73950,1,0,0:0:0:0:
164,108,74023,2,0,P|216:116|248:112,1,70
312,84,74314,2,0,P|368:80|400:92,1,70,8|0,0:0|0:0,0:0:0:0:
460,112,74605,2,0,P|456:192|400:240,1,140,0|8,0:0|0:0,0:0:0:0:
336,212,75042,1,0,0:0:0:0:
360,292,75188,2,0,L|448:344,2,70,0|0|8,0:0|0:0|0:0,0:0:0:0:
280,272,75624,1,0,0:0:0:0:
196,260,75770,6,0,L|108:272,1,70
80,200,76061,2,0,L|168:188,1,70,8|0,0:0|0:0,0:0:0:0:
196,120,76353,1,0,0:0:0:0:
120,84,76498,1,0,0:0:0:0:
188,36,76644,1,8,0:0:0:0:
264,72,76790,1,0,0:0:0:0:
336,112,76935,6,0,L|412:120,1,70
432,200,77226,2,0,L|356:192,1,70,8|0,0:0|0:0,0:0:0:0:
280,180,77518,1,0,0:0:0:0:
204,216,77663,1,0,0:0:0:0:
204,300,77809,1,8,0:0:0:0:
280,264,77955,1,0,0:0:0:0:
284,348,78100,6,0,P|372:356|416:312,1,140,0|8,0:0|0:0,0:0:0:0:
376,248,78537,1,0,0:0:0:0:
344,168,78683,2,0,L|360:80,1,70
272,116,78974,2,0,L|256:28,1,70,8|0,0:0|0:0,0:0:0:0:
188,92,79265,6,0,L|40:80,1,140,0|8,0:0|0:0,0:0:0:0:
32,248,79848,2,0,L|180:260,1,140,0|8,0:0|0:0,0:0:0:0:
332,312,80430,6,0,P|400:312|424:320,1,70
484,324,80722,2,0,P|472:264|472:228,1,70,8|0,0:0|0:0,0:0:0:0:
492,172,81013,2,0,P|448:128|376:144,1,140,0|8,0:0|0:0,0:0:0:0:
296,128,81450,1,0,0:0:0:0:
332,204,81595,2,0,P|244:196|216:152,1,140,0|8,0:0|0:0,0:0:0:0:
204,76,82032,1,0,0:0:0:0:
140,128,82178,2,0,L|52:124,1,70
52,208,82469,2,0,L|140:204,1,70,8|0,0:0|0:0,0:0:0:0:
172,272,82760,6,0,P|252:348|280:348,1,140,0|8,0:0|0:0,0:0:0:0:
328,284,83197,1,0,0:0:0:0:
408,312,83343,1,0,0:0:0:0:
384,232,83489,2,0,L|376:140,1,70,0|8,0:0|0:0,0:0:0:0:
368,80,83780,1,0,0:0:0:0:
368,80,83853,1,0,0:0:0:0:
368,80,83925,2,0,P|228:80|216:88,1,140,0|8,0:0|0:0,0:0:0:0:
168,128,84362,1,0,0:0:0:0:
152,212,84508,6,0,P|100:184|84:148,1,70
84,92,84799,2,0,P|56:40|20:24,1,70,8|0,0:0|0:0,0:0:0:0:
8,108,85090,2,0,L|0:252,1,140,0|8,0:0|0:0,0:0:0:0:
36,324,85527,1,0,0:0:0:0:
116,300,85673,2,0,L|188:308,1,70
248,252,85964,2,0,L|320:260,1,70,8|0,0:0|0:0,0:0:0:0:
368,328,86256,6,0,P|396:284|372:200,1,140,0|8,0:0|0:0,0:0:0:0:
320,144,86692,1,0,0:0:0:0:
260,84,86838,2,0,L|320:36,2,70,0|0|8,0:0|0:0|0:0,0:0:0:0:
176,88,87275,1,0,0:0:0:0:
200,168,87421,6,0,P|128:160|96:92,1,140,0|8,0:0|0:0,0:0:0:0:
20,68,87857,1,0,0:0:0:0:
28,152,88003,2,0,L|8:236,1,70
68,284,88294,2,0,L|48:368,1,70,8|0,0:0|0:0,0:0:0:0:
136,336,88586,2,0,P|252:328|284:348,1,140,0|8,0:0|0:0,0:0:0:0:
348,368,89023,1,0,0:0:0:0:
332,284,89168,2,0,L|312:196,1,70
400,196,89459,2,0,L|380:108,1,70,8|0,0:0|0:0,0:0:0:0:
356,48,89751,6,0,P|232:64|216:80,1,140
172,132,90188,2,0,P|72:116|28:76,1,140
16,172,90624,2,0,P|32:236|20:308,1,140
92,352,91061,2,0,P|152:332|236:348,1,140
292,288,91498,6,0,P|340:304|368:304,1,70
444,312,91789,1,8,0:0:0:0:
444,312,91862,1,0,0:0:0:0:
444,312,91935,1,0,0:0:0:0:
408,236,92081,2,0,P|408:148|448:88,1,140
376,44,92518,2,0,P|280:60|224:40,1,140
212,128,92955,2,0,P|116:108|60:128,1,140
112,196,93391,2,0,L|132:352,1,140
212,312,93828,6,0,P|268:328|280:328,1,70
364,316,94120,2,0,P|408:288|440:256,1,70,8|0,0:0|0:0,0:0:0:0:
460,200,94411,2,0,P|384:160|328:184,1,140,0|8,0:0|0:0,0:0:0:0:
268,228,94848,1,0,0:0:0:0:
200,180,94993,2,0,L|128:168,1,70
84,100,95285,2,0,L|156:88,1,70,8|0,0:0|0:0,0:0:0:0:
236,68,95576,6,0,P|344:72|380:104,1,140,0|8,0:0|0:0,0:0:0:0:
368,172,96013,1,0,0:0:0:0:
344,252,96158,2,0,P|384:256|416:240,2,70,0|0|8,0:0|0:0|0:0,0:0:0:0:
292,188,96595,1,0,0:0:0:0:
220,236,96741,2,0,P|172:236|144:220,1,70
80,184,97032,2,0,P|34:167|14:142,1,70,8|0,0:0|0:0,0:0:0:0:
88,100,97323,6,0,L|128:72,8,35
256,64,99071,6,0,P|360:104|408:80,1,140,0|8,0:0|0:0,0:0:0:0:
456,56,99508,2,0,P|480:160|456:188,1,140
388,216,99945,1,8,0:0:0:0:
388,216,100018,1,0,0:0:0:0:
388,216,100090,1,0,0:0:0:0:
424,292,100236,2,0,P|389:298|356:290,1,70
292,240,100527,2,0,P|257:233|224:241,1,70,8|0,0:0|0:0,0:0:0:0:
148,280,100819,5,0,0:0:0:0:
80,332,100964,1,0,0:0:0:0:
72,248,101110,1,8,0:0:0:0:
136,192,101256,1,0,0:0:0:0:
92,120,101401,2,0,P|132:76|208:80,1,140,0|8,0:0|0:0,0:0:0:0:
272,132,101838,2,0,P|376:156|408:124,1,140
436,68,102275,2,0,P|476:100|476:140,1,70,8|0,0:0|0:0,0:0:0:0:
464,200,102566,6,0,P|448:276|480:328,2,140,0|8|0,0:0|0:0|0:0,0:0:0:0:
320,288,103440,1,8,0:0:0:0:
280,124,103731,5,0,0:0:0:0:
280,124,103804,1,0,0:0:0:0:
280,124,103877,2,0,L|188:108,1,70,0|8,0:0|0:0,0:0:0:0:
132,140,104168,1,0,0:0:0:0:
48,128,104314,1,0,0:0:0:0:
72,208,104459,1,0,0:0:0:0:
104,288,104605,2,0,P|180:312|188:312,1,70,8|0,0:0|0:0,0:0:0:0:
228,252,104896,5,0,0:0:0:0:
308,228,105042,1,0,0:0:0:0:
392,248,105188,2,0,P|404:292|400:336,1,70,8|0,0:0|0:0,0:0:0:0:
480,352,105479,1,0,0:0:0:0:
504,272,105624,1,0,0:0:0:0:
488,188,105770,1,8,0:0:0:0:
420,136,105916,1,0,0:0:0:0:
340,116,106061,6,0,L|260:132,1,70
188,124,106353,2,0,L|112:136,1,70,8|0,0:0|0:0,0:0:0:0:
48,88,106644,2,0,P|24:156|76:208,1,140,0|8,0:0|0:0,0:0:0:0:
108,276,107081,1,0,0:0:0:0:
192,268,107226,2,0,P|264:272|300:348,1,140,0|8,0:0|0:0,0:0:0:0:
380,348,107663,1,0,0:0:0:0:
408,268,107809,2,0,L|436:192,1,70
396,128,108100,2,0,L|424:56,1,70,8|0,0:0|0:0,0:0:0:0:
336,68,108391,6,0,P|208:80|172:64,1,140
144,140,108828,2,0,P|28:176|16:208,1,140
28,268,109265,2,0,P|72:332|148:332,1,140
192,284,109702,2,0,P|288:260|344:292,1,140
380,336,110139,5,0,0:0:0:0:
380,336,110212,1,0,0:0:0:0:
380,336,110285,2,0,P|404:304|404:272,1,70,0|8,0:0|0:0,0:0:0:0:
364,200,110576,1,0,0:0:0:0:
388,120,110722,2,0,L|444:76,2,70
312,80,111158,2,0,P|232:76|176:112,1,140
232,172,111595,2,0,P|152:208|96:192,1,140
20,180,112032,2,0,L|32:104,2,70
44,260,112469,5,0,0:0:0:0:
108,316,112615,1,0,0:0:0:0:
192,320,112760,1,8,0:0:0:0:
260,272,112906,1,0,0:0:0:0:
288,192,113052,2,0,P|336:180|408:240,2,140,0|8|0,0:0|0:0|0:0,0:0:0:0:
400,68,113925,1,8,0:0:0:0:
252,64,114217,2,0,L|224:144,1,70
156,88,114508,2,0,L|184:8,1,70,8|0,0:0|0:0,0:0:0:0:
95,17,114799,6,0,L|75:65,8,35,0|0|0|0|8|0|0|0|4,0:0|0:0|0:0|0:0|0:0|0:0|0:0|0:0|0:0,0:0:0:0:
186,340,115964,1,0,0:0:0:0:
431,110,116547,1,0,0:0:0:0:
105,190,117129,1,0,0:0:0:0:
420,306,117712,5,4,0:0:0:0:
256,192,117857,12,0,120042,0:0:0:0:
