osu file format v14

[General]
AudioFilename: audio.mp3
AudioLeadIn: 0
PreviewTime: 61626
Countdown: 1
SampleSet: Normal
StackLeniency: 0.7
Mode: 0
LetterboxInBreaks: 0
WidescreenStoryboard: 1

[Editor]
Bookmarks: 5582,10265,12607,14948,17290,18460,19631,21973,24314,26656,28997,31339,33680,36021,38363,40704,43046,45387,47729,50070,52412,54753,57095,59436,61772,64102,66432,68762,71092,73422,75752,78082,80412,82742,85073,87403,89733,92063,94393,96723,99053,101383,103713,106043,108373,110704,113034,115364,116529,117694
DistanceSpacing: 0.1
BeatDivisor: 4
GridSize: 32
TimelineZoom: 5.099998

[Metadata]
Title:LegenD.
TitleUnicode:LegenD.
Artist:Yooh
ArtistUnicode:Yooh
Creator:Kui
Version:Lepw p2
Source:SOUND VOLTEX III GRAVITY WARS
Tags:
BeatmapID:1177590
BeatmapSetID:555652

[Difficulty]
HPDrainRate:6
CircleSize:4
OverallDifficulty:8.5
ApproachRate:9.3
SliderMultiplier:1.85
SliderTickRate:1

[Events]
//Background and Video events
0,0,"tempbg.jpg",0,0
//Break Periods
2,21412,57419
//Storyboard Layer 0 (Background)
//Storyboard Layer 1 (Fail)
//Storyboard Layer 2 (Pass)
//Storyboard Layer 3 (Foreground)
//Storyboard Layer 4 (Overlay)
//Storyboard Sound Samples

[TimingPoints]
314,292.682926829268,4,1,0,50,1,0
606,-133.333333333333,4,1,0,25,0,0
900,292.682926829268,4,1,0,50,1,0
900,-100,4,1,0,30,0,0
2070,-100,4,1,0,35,0,0
3241,-100,4,1,0,40,0,0
4412,-100,4,1,0,45,0,0
5582,-200,4,1,0,50,0,0
5656,-200,4,1,0,25,0,0
5875,-200,4,1,0,50,0,0
6095,-200,4,1,0,25,0,0
6314,-200,4,1,0,50,0,0
6534,-200,4,1,0,25,0,0
6753,-100,4,1,0,50,0,0
6826,-100,4,1,0,30,0,0
7046,-100,4,1,0,50,0,0
7265,-100,4,1,0,30,0,0
7485,-100,4,1,0,50,0,0
7704,-100,4,1,0,30,0,0
7924,-80,4,1,0,50,0,0
7997,-80,4,1,0,15,0,0
8363,-80,4,1,0,50,0,0
8436,-80,4,1,0,15,0,0
8802,-80,4,1,0,50,0,0
17290,-133.333333333333,4,1,0,15,0,0
19631,-100,4,1,0,50,0,0
19631,-80,4,1,0,50,0,0
57095,-66.6666666666667,4,1,0,65,0,0
57973,-66.6666666666667,4,1,0,25,0,0
58265,-66.6666666666667,4,1,0,35,0,0
58558,-66.6666666666667,4,1,0,45,0,0
58851,-66.6666666666667,4,1,0,55,0,0
59436,-100,4,1,0,65,0,0
60607,291.26213592233,4,1,0,75,1,0
60752,-66.6666666666667,4,1,0,75,0,0
61626,-66.6666666666667,4,1,0,75,0,1
61772,-57.1428571428571,4,1,0,75,0,1
63228,-66.6666666666667,4,1,0,75,0,1
63519,-80,4,1,0,75,0,1
64102,-66.6666666666667,4,1,0,75,0,1
65558,-80,4,1,0,75,0,1
65849,-66.6666666666667,4,1,0,75,0,1
66140,-80,4,1,0,75,0,1
66432,-80,4,1,0,75,0,1
67014,-66.6666666666667,4,1,0,75,0,1
67306,-100,4,1,0,75,0,1
67597,-80,4,1,0,75,0,1
68179,-66.6666666666667,4,1,0,75,0,1
68471,-100,4,1,0,75,0,1
68762,-80,4,1,0,75,0,1
71092,-57.1428571428571,4,1,0,75,0,1
72548,-66.6666666666667,4,1,0,75,0,1
72840,-80,4,1,0,75,0,1
73422,-66.6666666666667,4,1,0,75,0,1
74878,-80,4,1,0,75,0,1
75170,-66.6666666666667,4,1,0,75,0,1
75461,-80,4,1,0,75,0,1
75752,-80,4,1,0,75,0,1
76335,-66.6666666666667,4,1,0,75,0,1
76626,-100,4,1,0,75,0,1
76917,-80,4,1,0,75,0,1
77500,-66.6666666666667,4,1,0,75,0,1
77791,-100,4,1,0,75,0,1
78082,-80,4,1,0,75,0,1
80412,-80,4,1,0,75,0,1
80704,-100,4,1,0,75,0,1
80995,-80,4,1,0,75,0,1
82160,-66.6666666666667,4,1,0,75,0,1
82742,-80,4,1,0,75,0,1
83034,-100,4,1,0,75,0,1
83325,-80,4,1,0,75,0,1
85364,-100,4,1,0,75,0,1
85655,-80,4,1,0,75,0,1
89150,-66.6666666666667,4,1,0,75,0,1
89733,-100,4,1,0,75,0,1
94393,-80,4,1,0,75,0,0
98907,-80,4,1,0,5,0,1
98980,-80,4,1,0,5,0,0
99053,-80,4,1,0,75,0,0
99126,-80,4,1,0,75,0,0
101820,-66.6666666666667,4,1,0,75,0,0
103713,-80,4,1,0,75,0,0
104296,-66.6666666666667,4,1,0,75,0,0
104587,-100,4,1,0,75,0,0
104878,-80,4,1,0,75,0,0
105461,-66.6666666666667,4,1,0,75,0,0
105752,-100,4,1,0,75,0,0
106043,-66.6666666666667,4,1,0,75,0,0
106626,-57.1428571428571,4,1,0,75,0,0
107791,-66.6666666666667,4,1,0,75,0,0
108373,-80,4,1,0,75,0,0
112160,-66.6666666666667,4,1,0,75,0,0
114781,-100,4,1,0,75,0,0
119951,-100,4,1,0,5,0,0

[HitObjects]
157,133,606,6,0,L|67:133,1,69.3750026464463
230,24,900,5,0,0:0:0:0:
227,52,1339,1,0,0:0:0:0:
225,80,1778,1,0,0:0:0:0:
157,133,2070,5,0,0:0:0:0:
179,168,2510,1,0,0:0:0:0:
201,206,2949,1,0,0:0:0:0:
337,215,3241,5,0,0:0:0:0:
294,249,3681,1,0,0:0:0:0:
251,285,4120,1,0,0:0:0:0:
33,311,4412,5,0,0:0:0:0:
99,328,4851,1,0,0:0:0:0:
157,133,5290,1,0,0:0:0:0:
166,346,5436,1,0,0:0:0:0:
294,249,5582,6,0,L|316:255,1,23.125
187,196,5875,1,0,0:0:0:0:
286,130,6021,6,0,L|280:108,1,23.125
294,249,6314,1,0,0:0:0:0:
187,196,6460,6,0,L|170:212,1,23.125
286,130,6753,6,0,L|274:76,1,46.25
294,249,7046,1,0,0:0:0:0:
178,151,7192,6,0,L|189:204,1,46.25
170,32,7485,1,0,0:0:0:0:
391,181,7631,6,0,L|379:127,1,46.25
399,300,7924,6,0,B|459:243|459:243|481:184,2,115.625
462,93,8363,2,0,B|402:150|402:150|380:209,2,115.625
260,33,8802,6,0,B|252:115|252:115|234:143,1,115.625
155,78,9095,1,0,0:0:0:0:
131,318,9241,6,0,P|109:247|68:216,2,115.625
40,307,9680,1,0,0:0:0:0:
40,307,9753,1,0,0:0:0:0:
40,307,9826,1,0,0:0:0:0:
262,225,9973,5,0,0:0:0:0:
208,242,10046,1,0,0:0:0:0:
208,300,10119,1,0,0:0:0:0:
262,318,10192,1,0,0:0:0:0:
295,270,10265,6,0,P|351:269|394:232,1,115.625
512,361,10558,1,0,0:0:0:0:
512,157,10704,2,0,P|474:199|473:255,1,115.625
394,231,10997,1,0,0:0:0:0:
290,42,11143,6,0,P|306:95|274:175,1,115.625
110,113,11436,2,0,L|225:100,1,115.625
45,56,11729,1,0,0:0:0:0:
45,167,11875,2,0,P|30:111|46:56,1,115.625
110,113,12168,1,0,0:0:0:0:
281,376,12314,6,0,P|265:320|281:265,1,115.625
136,209,12534,1,0,0:0:0:0:
128,204,12607,2,0,P|144:258|129:314,1,115.625
349,323,12899,1,0,0:1:0:0:
481,384,13046,6,0,B|459:330|459:330|459:262,1,115.625
459,273,13339,1,0,0:0:0:0:
366,98,13485,2,0,B|388:152|388:152|388:220,1,115.625
222,93,13778,6,0,B|162:93|162:93|95:74,1,115.625
296,153,14070,1,0,0:0:0:0:
280,266,14217,2,0,B|295:212|295:212|295:152,1,115.625
296,153,14436,1,0,0:0:0:0:
296,153,14509,1,0,0:0:0:0:
388,383,14656,5,0,0:0:0:0:
388,325,14729,1,0,0:0:0:0:
388,267,14802,1,0,0:0:0:0:
388,209,14875,1,0,0:0:0:0:
388,151,14948,1,0,0:0:0:0:
388,151,15095,1,0,0:0:0:0:
123,288,15241,5,0,0:0:0:0:
388,383,15387,5,0,0:0:0:0:
388,383,15460,1,0,0:0:0:0:
388,383,15534,1,0,0:0:0:0:
388,383,15680,1,0,0:0:0:0:
123,288,15826,5,0,0:0:0:0:
58,59,15973,5,0,0:0:0:0:
58,59,16046,1,0,0:0:0:0:
58,59,16119,2,0,L|79:211,1,115.625
219,207,16412,2,0,L|203:321,1,115.625
353,303,16704,5,0,0:0:0:0:
383,267,16778,1,0,0:0:0:0:
358,235,16851,1,0,0:0:0:0:
326,249,16924,1,0,0:0:0:0:
328,277,16997,1,0,0:0:0:0:
350,271,17070,1,0,0:0:0:0:
340,256,17143,1,0,0:0:0:0:
332,264,17217,1,0,0:0:0:0:
325,263,17290,6,0,L|288:197,1,69.3750026464463
344,152,17582,2,0,L|291:97,1,69.3750026464463
333,40,17875,2,0,L|267:1,1,69.3750026464463
206,68,18168,2,0,L|133:47,1,69.3750026464463
43,126,18460,5,0,0:0:0:0:
144,314,18607,1,0,0:0:0:0:
185,158,18753,1,0,0:0:0:0:
248,252,18899,1,0,0:0:0:0:
305,173,19046,1,0,0:0:0:0:
360,204,19192,1,0,0:0:0:0:
388,174,19339,1,0,0:0:0:0:
414,177,19485,1,0,0:0:0:0:
423,178,19631,6,0,P|436:114|402:57,1,92.5
493,283,19924,2,0,P|484:327|498:371,1,92.5
166,181,20217,1,0,0:0:0:0:
343,266,20363,1,0,0:0:0:0:
428,89,20509,1,0,0:0:0:0:
251,4,20656,1,0,0:0:0:0:
56,80,20802,6,0,P|43:131|76:183,1,92.5
233,221,21095,2,0,P|246:170|213:118,1,92.5
299,122,57973,6,0,P|327:89|371:60,3,69.3750026464463
255,198,58265,6,0,P|233:224|206:246,3,69.3750026464463
316,149,58558,6,0,P|359:145|410:156,3,69.3750026464463
231,171,58850,6,0,P|196:174|162:171,3,69.3750026464463
320,185,59143,6,0,P|353:213|382:257,3,69.3750026464463
373,253,59436,1,0,0:0:0:0:
395,292,59509,1,0,0:0:0:0:
392,338,59582,1,0,0:0:0:0:
363,372,59655,1,0,0:0:0:0:
322,352,59728,1,0,0:0:0:0:
277,339,59801,1,0,0:0:0:0:
232,332,59875,1,0,0:0:0:0:
185,333,59948,1,0,0:0:0:0:
140,340,60021,1,0,0:0:0:0:
97,356,60094,5,0,0:0:0:0:
128,323,60167,1,0,0:0:0:0:
152,283,60240,1,0,0:0:0:0:
164,239,60314,1,0,0:0:0:0:
159,193,60387,1,0,0:0:0:0:
138,152,60460,1,0,0:0:0:0:
105,120,60533,1,0,0:0:0:0:
64,99,60606,5,0,0:0:0:0:
108,89,60679,1,0,0:0:0:0:
154,91,60752,2,0,B|194:87|194:87|272:96,1,69.3750026464463
383,139,60898,2,0,B|343:143|343:143|265:134,1,69.3750026464463
159,193,61043,2,0,B|198:188|198:188|276:197,1,69.3750026464463
377,264,61189,5,0,0:0:0:0:
331,264,61261,1,0,0:0:0:0:
280,264,61334,1,0,0:0:0:0:
225,264,61407,1,0,0:0:0:0:
377,264,61480,1,0,0:0:0:0:
0,124,61626,6,0,B|35:129|35:129|91:151,1,69.3750026464463
51,305,61772,2,0,B|111:273|111:273|162:185,1,161.87500154376
343,82,62063,2,0,P|269:87|246:196,1,161.87500154376
393,327,62354,2,0,L|312:187,1,161.87500154376
145,68,62645,6,0,P|75:9|75:8,1,80.9375007718802
277,45,62791,2,0,P|347:104|347:105,1,80.9375007718802
452,186,62937,2,0,P|387:299|323:249,1,242.81250231564
324,253,63228,2,0,P|259:140|195:190,1,242.81250231564
196,185,63519,1,0,0:0:0:0:
250,204,63591,1,0,0:0:0:0:
285,160,63664,1,0,0:0:0:0:
272,105,63737,1,0,0:0:0:0:
216,89,63810,1,0,0:0:0:0:
66,85,63956,6,0,B|93:95|93:95|126:125,1,57.8125
57,197,64102,2,0,P|33:259|96:348,1,138.750005292893
298,329,64393,2,0,L|165:286,1,138.750005292893
358,67,64684,6,0,P|277:119|271:144,1,69.3750026464463
416,175,64830,2,0,P|322:156|300:169,1,69.3750026464463
353,229,64975,2,0,P|334:258|328:292,1,69.3750026464463
410,288,65121,2,0,P|416:321|436:350,1,69.3750026464463
493,296,65267,2,0,P|512:267|458:114,1,208.125007939339
450,127,65558,2,0,L|283:127,1,115.625
67,162,65849,6,0,P|48:191|102:344,1,208.125007939339
110,331,66140,2,0,L|215:330,1,57.8125
264,255,66286,2,0,L|159:254,1,57.8125
481,249,66432,5,0,0:0:0:0:
428,266,66504,1,0,0:0:0:0:
387,229,66577,1,0,0:0:0:0:
399,175,66650,1,0,0:0:0:0:
452,159,66723,1,0,0:0:0:0:
428,266,66869,1,0,0:0:0:0:
281,168,67014,6,0,P|327:98|319:66,1,69.3750026464463
369,4,67160,2,0,L|261:72,1,69.3750026464463
177,212,67306,2,0,B|182:166|182:166|200:124,1,92.5
15,234,67597,5,0,0:0:0:0:
67,216,67669,1,0,0:0:0:0:
108,253,67742,1,0,0:0:0:0:
96,307,67815,1,0,0:0:0:0:
43,323,67888,1,0,0:0:0:0:
67,216,68034,1,0,0:0:0:0:
304,19,68179,6,0,P|350:89|342:121,1,69.3750026464463
392,183,68325,2,0,L|284:115,1,69.3750026464463
241,179,68471,2,0,B|246:133|246:133|264:91,1,92.5
14,210,68762,6,0,P|55:132|160:126,1,173.4375
154,193,69053,2,0,B|176:251|176:251|211:291,1,115.625,0|0,0:3|0:3,0:3:0:0:
417,300,69272,1,0,0:0:0:0:
460,275,69344,6,0,P|377:231|350:122,1,173.4375
290,0,69635,2,0,B|351:12|351:12|426:57,1,115.625
190,211,69854,1,0,0:0:0:0:
170,218,69927,6,0,P|163:303|271:335,1,173.4375
440,363,70218,2,0,B|378:350|378:350|303:305,1,115.625
118,96,70437,1,0,0:0:0:0:
109,78,70509,6,0,L|98:145,1,57.8125
181,42,70655,2,0,L|192:109,1,57.8125
281,203,70801,2,0,L|271:145,1,57.8125
353,167,70947,2,0,L|362:109,1,57.8125
471,165,71092,6,0,P|460:248|436:324,1,161.87500154376
218,259,71383,2,0,P|301:279|368:196,1,161.87500154376
185,329,71674,2,0,B|181:249|181:249|153:161,1,161.87500154376
52,214,71966,6,0,P|118:271|126:271,1,80.9375007718802
228,155,72111,2,0,P|209:119|174:99,1,80.9375007718802
53,144,72257,2,0,P|3:186|121:254,1,242.81250231564
188,229,72548,2,0,P|282:254|341:350,1,208.125007939339
299,348,72840,1,0,0:0:0:0:
300,291,72912,1,0,0:0:0:0:
343,255,72985,1,0,0:0:0:0:
398,262,73058,1,0,0:0:0:0:
431,307,73131,1,0,0:0:0:0:
490,214,73276,6,0,P|487:180|491:144,1,57.8125
433,55,73422,2,0,B|375:68|375:68|269:44,1,138.750005292893
165,0,73713,2,0,P|173:83|134:155,1,138.750005292893
70,285,74005,6,0,L|158:283,1,69.3750026464463
254,251,74150,2,0,P|291:249|344:242,1,69.3750026464463
439,210,74296,2,0,P|460:182|494:101,1,69.3750026464463
396,78,74441,2,0,P|398:34|341:-27,1,69.3750026464463
275,51,74587,6,0,P|204:75|203:195,1,208.125007939339
278,135,74878,2,0,P|225:140|201:195,1,115.625
425,326,75170,6,0,B|284:307|284:307|192:337,1,208.125007939339
336,324,75461,2,0,L|197:328,1,115.625
11,248,75752,5,0,0:0:0:0:
65,250,75824,1,0,0:0:0:0:
88,201,75897,1,0,0:0:0:0:
51,161,75970,1,0,0:0:0:0:
0,181,76043,1,0,0:0:0:0:
65,250,76189,1,0,0:0:0:0:
133,53,76335,6,0,B|168:47|168:47|202:52,1,69.3750026464463
264,132,76480,2,0,P|229:136|194:133,1,69.3750026464463
303,37,76626,2,0,B|334:62|334:62|365:104,1,92.5
502,276,76917,5,0,0:0:0:0:
447,273,76989,1,0,0:0:0:0:
424,322,77062,1,0,0:0:0:0:
461,362,77135,1,0,0:0:0:0:
512,342,77208,1,0,0:0:0:0:
447,273,77354,1,0,0:0:0:0:
115,149,77500,6,0,B|109:183|109:183|113:217,1,69.3750026464463
327,372,77645,2,0,P|331:337|328:303,1,69.3750026464463
220,203,77791,2,0,B|216:244|216:244|224:295,1,92.5
469,35,78082,6,0,P|446:118|334:111,1,173.4375
180,96,78373,2,0,B|192:157|192:157|237:232,1,115.625
429,263,78592,1,0,0:0:0:0:
440,275,78665,6,0,P|397:350|290:314,1,173.4375
171,328,78956,2,0,B|136:276|136:276|115:191,1,115.625
275,112,79174,1,0,0:0:0:0:
274,93,79247,6,0,P|318:19|425:55,1,173.4375
353,111,79539,2,0,P|309:185|202:149,1,173.4375
30,255,79830,2,0,P|74:181|181:217,1,173.4375
230,180,80121,2,0,L|78:244,1,115.625
435,301,80412,5,0,0:0:0:0:
390,264,80484,1,0,0:0:0:0:
334,253,80557,1,0,0:0:0:0:
279,269,80630,1,0,0:0:0:0:
237,308,80703,1,0,0:0:0:0:
200,282,80776,1,0,0:0:0:0:
179,241,80848,1,0,0:0:0:0:
179,195,80921,1,0,0:0:0:0:
201,154,80995,6,0,B|221:90|185:22,1,115.625
293,100,81213,2,0,B|351:111|351:111|411:95,1,115.625
287,193,81432,1,0,0:0:0:0:
21,200,81577,6,0,B|79:189|79:189|133:203,1,115.625
82,384,81796,2,0,B|56:336|76:272,1,115.625
171,292,82014,1,0,0:0:0:0:
430,213,82160,6,0,L|386:271,1,69.3750026464463
369,126,82306,2,0,L|353:197,1,69.3750026464463
292,137,82451,2,0,L|276:69,1,69.3750026464463
183,29,82597,1,0,0:0:0:0:
22,259,82742,5,0,0:0:0:0:
63,297,82814,1,0,0:0:0:0:
119,308,82887,1,0,0:0:0:0:
173,288,82960,1,0,0:0:0:0:
207,242,83033,1,0,0:0:0:0:
164,257,83107,1,0,0:0:0:0:
136,221,83179,1,0,0:0:0:0:
144,177,83252,1,0,0:0:0:0:
181,152,83325,6,0,P|234:88|237:32,1,115.625
335,156,83543,2,0,B|384:162|384:162|449:157,1,115.625
381,36,83762,1,0,0:0:0:0:
276,322,83907,6,0,P|352:228|344:191,1,115.625
95,177,84199,2,0,P|138:289|174:301,1,115.625
273,241,84490,2,0,P|153:222|125:247,1,115.625
276,322,84781,2,0,P|301:270|350:243,1,115.625
219,70,85073,5,0,0:0:0:0:
224,126,85145,1,0,0:0:0:0:
267,162,85218,1,0,0:0:0:0:
323,156,85291,1,0,0:0:0:0:
359,112,85364,1,0,0:0:0:0:
338,111,85437,1,0,0:0:0:0:
295,126,85509,1,0,0:0:0:0:
267,162,85582,1,0,0:0:0:0:
266,208,85655,6,0,P|263:285|237:317,1,115.625
47,215,85873,2,0,B|107:202|107:202|166:214,1,115.625
120,327,86092,1,0,0:0:0:0:
309,228,86238,6,0,P|273:296|236:314,1,115.625
56,166,86456,2,0,B|116:180|116:180|164:215,1,115.625
120,327,86675,1,0,0:0:0:0:
226,126,86820,6,0,P|179:158|159:212,1,115.625
240,312,87038,2,0,B|283:344|283:344|344:359,1,115.625
120,327,87257,1,0,0:0:0:0:
344,128,87403,6,0,P|343:234|363:261,1,115.625
429,348,87621,2,0,L|453:235,1,115.625
478,102,87840,1,0,0:0:0:0:
168,256,87985,6,0,P|169:150|149:123,1,115.625
83,36,88203,2,0,L|59:149,1,115.625
34,282,88422,1,0,0:0:0:0:
241,177,88568,5,0,0:0:0:0:
263,204,88640,1,0,0:0:0:0:
253,173,88713,1,0,0:0:0:0:
250,207,88785,1,0,0:0:0:0:
265,179,88859,1,0,0:0:0:0:
238,201,88931,1,0,0:0:0:0:
269,192,89005,1,0,0:0:0:0:
234,188,89077,1,0,0:0:0:0:
263,204,89150,6,0,P|283:242|350:291,1,69.3750026464463
424,226,89296,2,0,P|389:223|357:212,1,69.3750026464463
341,134,89441,2,0,P|372:119|399:97,1,69.3750026464463
290,23,89587,2,0,P|287:58|275:91,1,69.3750026464463
93,210,89733,5,0,0:0:0:0:
385,303,90170,1,0,0:0:0:0:
238,29,90606,1,0,0:0:0:0:
145,321,91043,1,0,0:0:0:0:
426,116,91480,5,0,0:0:0:0:
330,239,91626,1,0,0:0:0:0:
360,148,91772,1,0,0:0:0:0:
391,297,91918,1,0,0:0:0:0:
284,174,92063,5,0,0:0:0:0:
104,298,92500,1,0,0:0:0:0:
146,43,92937,1,0,0:0:0:0:
356,293,93373,1,0,0:0:0:0:
112,312,93810,5,0,0:0:0:0:
332,167,93956,1,0,0:0:0:0:
190,200,94102,1,0,0:0:0:0:
232,344,94247,5,0,0:0:0:0:
242,359,94320,1,0,0:0:0:0:
259,374,94393,2,0,P|279:326|289:272,1,57.8125
272,117,94539,1,0,0:0:0:0:
250,124,94611,1,0,0:0:0:0:
226,124,94684,2,0,P|181:106|157:87,1,57.8125
325,27,94830,5,0,0:0:0:0:
346,35,94903,1,0,0:0:0:0:
365,46,94975,2,0,P|403:91|413:119,1,57.8125
426,243,95121,1,0,0:0:0:0:
406,255,95194,1,0,0:0:0:0:
383,257,95267,2,0,P|327:252|290:256,1,57.8125
105,307,95412,1,0,0:0:0:0:
123,321,95485,1,0,0:0:0:0:
145,326,95558,2,0,P|171:272|159:242,1,57.8125
133,132,95704,5,0,0:0:0:0:
140,110,95776,1,0,0:0:0:0:
129,89,95849,2,0,P|129:32|137:21,1,57.8125
234,206,95995,5,0,0:0:0:0:
227,184,96067,1,0,0:0:0:0:
238,163,96140,2,0,P|238:106|230:95,1,57.8125
345,289,96286,5,0,0:0:0:0:
352,267,96358,1,0,0:0:0:0:
341,246,96432,2,0,P|341:189|349:178,1,57.8125
440,35,96577,5,0,0:0:0:0:
432,68,96650,1,0,0:0:0:0:
431,102,96723,1,0,0:0:0:0:
436,136,96796,1,0,0:0:0:0:
451,167,96869,1,0,0:0:0:0:
466,197,96941,1,0,0:0:0:0:
474,230,97014,1,0,0:0:0:0:
474,264,97087,1,0,0:0:0:0:
452,291,97160,1,0,0:0:0:0:
423,311,97233,1,0,0:0:0:0:
388,311,97306,2,0,L|419:337,1,28.90625
352,311,97378,2,0,L|379:338,1,28.90625
306,315,97451,2,0,L|337:334,1,28.90625
270,327,97524,2,0,L|305:343,1,28.90625
232,342,97597,2,0,L|263:353,1,28.90625
194,341,97670,2,0,L|229:360,1,28.90625
165,330,97742,1,0,0:0:0:0:
256,192,97779,12,0,98980,0:0:0:0:
256,287,99053,6,0,B|343:283|343:283|428:308,1,173.4375
411,279,99344,1,0,0:0:0:0:
256,97,99490,2,0,B|169:101|169:101|84:76,1,173.4375
101,105,99781,1,0,0:0:0:0:
10,238,99927,6,0,P|93:260|162:210,1,173.4375
114,220,100218,1,0,0:0:0:0:
501,145,100364,6,0,P|418:123|349:173,1,173.4375
397,163,100655,1,0,0:0:0:0:
131,269,100801,5,0,0:0:0:0:
82,293,100873,1,0,0:0:0:0:
84,347,100946,1,0,0:0:0:0:
135,367,101019,1,0,0:0:0:0:
174,329,101092,1,0,0:0:0:0:
82,293,101238,1,0,0:0:0:0:
483,232,101383,5,0,0:0:0:0:
425,235,101455,1,0,0:0:0:0:
367,239,101528,1,0,0:0:0:0:
309,243,101601,1,0,0:0:0:0:
252,247,101674,1,0,0:0:0:0:
26,39,101820,6,0,L|41:167,1,69.3750026464463
127,130,101966,2,0,L|136:62,1,69.3750026464463
224,26,102111,1,0,0:0:0:0:
487,118,102257,6,0,L|396:119,1,69.3750026464463
324,158,102403,2,0,L|226:160,1,69.3750026464463
184,265,102548,2,0,P|307:305|348:254,1,208.125007939339
429,223,102840,2,0,P|306:183|265:234,1,208.125007939339
21,272,103131,2,0,P|144:312|185:261,1,208.125007939339
266,230,103422,2,0,L|116:237,1,138.750005292893
86,49,103713,5,0,0:0:0:0:
127,13,103785,1,0,0:0:0:0:
175,38,103858,1,0,0:0:0:0:
171,92,103931,1,0,0:0:0:0:
119,109,104004,1,0,0:0:0:0:
127,13,104150,1,0,0:0:0:0:
228,155,104296,6,0,P|302:150|315:151,1,69.3750026464463
473,135,104441,2,0,B|479:100|479:100|475:66,1,69.3750026464463
384,42,104587,2,0,P|429:49|514:27,1,92.5
426,335,104878,5,0,0:0:0:0:
384,370,104950,1,0,0:0:0:0:
336,345,105023,1,0,0:0:0:0:
340,291,105096,1,0,0:0:0:0:
392,274,105169,1,0,0:0:0:0:
384,370,105315,1,0,0:0:0:0:
284,229,105461,6,0,P|210:234|197:233,1,69.3750026464463
39,249,105606,2,0,B|33:284|33:284|36:317,1,69.3750026464463
128,342,105752,2,0,P|83:335|-2:357,1,92.5
240,167,106043,5,8,0:0:0:0:
169,144,106116,1,8,0:0:0:0:
169,70,106189,1,8,0:0:0:0:
240,47,106262,1,8,0:0:0:0:
283,107,106335,1,12,0:0:0:0:
169,144,106480,5,0,0:0:0:0:
83,272,106626,2,0,B|162:250|162:250|254:273,1,161.87500154376
277,384,106844,2,0,P|374:358|408:308,1,161.87500154376
440,53,107063,1,0,0:0:0:0:
512,131,107208,6,0,P|433:153|341:130,1,161.87500154376
344,25,107427,2,0,B|257:39|257:39|207:109,1,161.87500154376
151,356,107645,1,0,0:0:0:0:
88,36,107791,6,0,P|145:96|149:107,1,69.3750026464463
69,115,107937,2,0,P|66:197|61:208,1,69.3750026464463
7,220,108082,2,0,P|67:277|78:281,1,69.3750026464463
48,342,108228,2,0,P|130:339|141:334,1,69.3750026464463
373,193,108373,6,0,B|398:361|398:361|418:263,1,231.25
301,237,108810,1,0,0:0:0:0:
139,191,109247,6,0,B|114:23|114:23|94:121,1,231.25
211,147,109684,1,0,0:0:0:0:
409,90,109975,5,0,0:0:0:0:
409,90,110048,1,0,0:0:0:0:
409,90,110121,2,0,L|314:97,1,57.8125
268,142,110267,2,0,L|210:146,1,57.8125
376,229,110412,2,0,L|319:233,1,57.8125
235,281,110558,2,0,L|178:285,1,57.8125
471,184,110704,5,0,0:0:0:0:
471,184,110776,1,0,0:0:0:0:
471,184,110849,1,0,0:0:0:0:
471,184,110922,1,0,0:0:0:0:
471,184,110995,1,0,0:0:0:0:
503,23,111140,1,0,0:0:0:0:
394,62,111286,1,0,0:0:0:0:
84,155,111577,5,0,0:0:0:0:
84,155,111649,1,0,0:0:0:0:
84,155,111722,1,0,0:0:0:0:
84,155,111795,1,0,0:0:0:0:
84,155,111868,1,0,0:0:0:0:
52,316,112013,1,0,0:0:0:0:
161,277,112160,2,0,P|231:296|309:265,1,138.750005292893
347,120,112451,2,0,L|356:217,1,69.3750026464463
298,346,112597,2,0,L|291:276,1,69.3750026464463
230,114,112742,6,0,L|151:183,1,69.3750026464463
32,201,112888,2,0,L|83:154,1,69.3750026464463
319,41,113034,6,0,P|409:51|456:82,1,138.750005292893
460,82,113252,1,0,0:0:0:0:
470,90,113325,2,0,P|474:179|445:222,1,138.750005292893
435,222,113543,1,0,0:0:0:0:
421,224,113616,2,0,P|422:320|446:360,1,138.750005292893
455,352,113835,1,0,0:0:0:0:
466,343,113907,2,0,P|384:309|315:369,1,138.750005292893
329,324,114126,1,0,0:0:0:0:
319,334,114199,6,0,P|295:268|251:231,1,69.3750026464463
201,195,114344,2,0,P|225:261|269:298,1,69.3750026464463
250,139,114490,2,0,P|226:73|182:36,1,69.3750026464463
132,0,114635,2,0,P|156:66|200:103,1,69.3750026464463
465,199,114781,5,0,0:0:0:0:
420,211,114853,1,0,0:0:0:0:
374,214,114926,1,0,0:0:0:0:
329,203,114999,1,0,0:0:0:0:
290,179,115072,1,0,0:0:0:0:
246,166,115145,1,0,0:0:0:0:
200,166,115217,1,0,0:0:0:0:
156,178,115290,1,0,0:0:0:0:
116,201,115363,5,0,0:0:0:0:
436,97,115946,1,0,0:0:0:0:
76,97,116529,5,0,0:0:0:0:
395,201,117112,1,0,0:0:0:0:
177,192,117694,1,0,0:0:0:0:
256,192,117767,12,0,120024,0:0:0:0:
