osu file format v14

[General]
AudioFilename: LegenD.mp3
AudioLeadIn: 0
PreviewTime: 61744
Countdown: 0
SampleSet: Normal
StackLeniency: 0.7
Mode: 2
LetterboxInBreaks: 0
WidescreenStoryboard: 1

[Editor]
DistanceSpacing: 1
BeatDivisor: 4
GridSize: 32
TimelineZoom: 1

[Metadata]
Title:LegenD.
TitleUnicode:LegenD.
Artist:Yooh
ArtistUnicode:Yooh
Creator:Du5t
Version:SalaD.
Source:SOUND VOLTEX III GRAVITY WARS
Tags:instrumental video game the 4th kac sdvx konami arcade championship 帝国海軍大将 嬬武器烈風刀 dust idust idu5t daletto -hex- hex
BeatmapID:2190558
BeatmapSetID:1047989

[Difficulty]
HPDrainRate:4
CircleSize:3
OverallDifficulty:7
ApproachRate:7
SliderMultiplier:1.2
SliderTickRate:1

[Events]
//Background and Video events
0,0,"bg.jpg",0,0
//Break Periods
2,1362,4652
//Storyboard Layer 0 (Background)
//Storyboard Layer 1 (Fail)
//Storyboard Layer 2 (Pass)
//Storyboard Layer 3 (Foreground)
//Storyboard Layer 4 (Overlay)
//Storyboard Sound Samples

[TimingPoints]
1162,292.682926829268,4,1,1,65,1,0
5844,-100,4,1,1,30,0,0
6430,-100,4,1,1,35,0,0
7015,-100,4,1,1,40,0,0
8186,-100,4,1,1,45,0,0
8771,-100,4,1,1,50,0,0
9357,-100,4,1,1,55,0,0
9503,-100,4,1,1,60,0,0
10527,-100,4,1,1,70,0,0
15210,-100,4,1,1,75,0,0
16381,-100,4,1,1,65,0,0
16674,-100,4,1,1,60,0,0
16966,-100,4,1,1,55,0,0
17259,-100,4,1,1,50,0,0
18722,-100,4,1,1,40,0,0
19893,-100,4,1,1,60,0,0
26918,-100,4,1,1,65,0,0
29259,-100,4,1,1,70,0,0
33357,-100,4,1,1,65,0,0
33942,-100,4,1,1,70,0,0
38332,-100,4,1,1,60,0,0
38625,-100,4,1,1,70,0,0
40674,-100,4,1,1,60,0,0
40966,-100,4,1,1,70,0,0
42137,-100,4,1,1,45,0,0
42430,-100,4,1,1,55,0,0
42722,-100,4,1,1,65,0,0
43161,-100,4,1,1,65,0,0
43308,-100,4,1,1,70,0,0
45064,-100,4,1,1,60,0,0
45649,-100,4,1,1,70,0,0
46820,-100,4,1,1,65,0,0
47991,-100,4,1,1,75,0,0
52674,-100,4,1,1,40,0,0
52966,-100,4,1,1,75,0,0
54722,-100,4,1,1,50,0,0
55015,-100,4,1,1,75,0,0
55601,-100,4,1,1,70,0,0
56186,-100,4,1,1,65,0,0
56771,-100,4,1,1,60,0,0
57357,-100,4,1,1,70,0,0
58235,-100,4,1,1,40,0,0
58820,-100,4,1,1,45,0,0
59405,-100,4,1,1,50,0,0
59991,-100,4,1,1,55,0,0
60576,-100,4,1,1,60,0,0
60871,291.26213592233,4,1,1,65,1,0
61160,-100,4,1,1,65,0,0
61742,-100,4,1,1,70,0,0
62036,-100,4,2,2,90,0,1
62108,-100,4,1,2,90,0,1
69026,-100,4,1,2,85,0,1
71356,-100,4,2,2,90,0,1
71429,-100,4,1,2,90,0,1
78346,-100,4,1,2,85,0,1
79511,-100,4,1,2,80,0,1
80385,-100,4,1,2,65,0,1
80604,-100,4,1,2,75,0,0
80676,-100,4,2,2,85,0,1
80749,-100,4,1,2,85,0,1
89997,-100,4,1,1,75,0,0
94657,-100,4,1,2,80,0,0
95822,-100,4,1,2,85,0,0
96987,-100,4,1,2,75,0,0
98152,-100,4,1,2,30,0,0
99026,-100,4,1,1,55,0,0
99317,-100,4,2,2,90,0,1
99390,-100,4,1,2,90,0,1
108637,-100,4,1,2,85,0,1
110385,-100,4,1,2,85,0,1
110968,-100,4,1,2,85,0,1
112715,-100,4,1,2,85,0,1
113298,-100,4,1,2,65,0,1
113589,-100,4,1,2,65,0,1
113880,-100,4,1,2,65,0,1
114171,-100,4,1,2,65,0,1
114463,-100,4,1,2,65,0,1
115045,-100,4,1,2,65,0,1
115628,-100,4,1,1,65,0,0
115919,-100,4,1,1,25,0,0
116210,-100,4,1,1,65,0,0
116502,-100,4,1,1,25,0,0
116793,-100,4,1,1,65,0,0
117084,-100,4,1,1,25,0,0
117375,-100,4,1,1,65,0,0
117667,-100,4,1,1,25,0,0
117958,-100,4,2,2,80,0,0
118104,-100,4,1,1,30,0,0
118540,-100,4,1,1,40,0,0
119123,-100,4,1,1,50,0,0
119414,-100,4,1,1,60,0,0
119705,-100,4,1,1,70,0,0
119997,-100,4,1,1,80,0,0
120142,-100,4,1,1,85,0,0
120288,-100,4,1,1,10,0,0

[Colours]
Combo1 : 125,62,62
Combo2 : 255,9,27
Combo3 : 9,9,255

[HitObjects]
333,249,869,6,0,L|336:169,1,60,0|0,0:0|0:0,0:0:0:0:
166,182,1162,1,6,0:0:0:0:
380,236,5552,6,0,L|384:176,1,60,8|2,0:0|0:0,0:0:0:0:
256,192,5991,12,0,9210,0:0:0:0:
308,200,9503,6,0,L|375:203,2,60,0|8|0,0:0|0:0|0:0,0:0:0:0:
226,176,9942,2,0,L|229:112,1,60,0|0,0:0|0:0,0:0:0:0:
297,116,10235,1,2,0:0:0:0:
69,279,10527,6,0,L|65:131,1,120,6|8,0:0|0:0,0:0:0:0:
144,160,10966,1,0,0:0:0:0:
333,150,11405,2,0,L|399:148,1,60,8|0,0:0|0:0,0:0:0:0:
322,242,11698,6,0,L|190:244,1,120,2|8,0:0|0:0,0:0:0:0:
268,244,12137,1,0,0:0:0:0:
439,165,12576,2,0,L|376:168,1,60,8|0,0:0|0:0,0:0:0:0:
211,186,12869,6,0,P|176:159|231:110,1,120,6|8,0:0|0:0,0:0:0:0:
277,100,13308,1,0,0:0:0:0:
94,65,13747,2,0,L|84:134,1,60,8|0,0:0|0:0,0:0:0:0:
146,197,14040,6,0,L|4:201,1,120,2|8,0:0|0:0,0:0:0:0:
91,193,14479,1,0,0:0:0:0:
213,186,14771,2,0,L|217:117,1,60,0|10,0:0|0:0,0:0:0:0:
147,118,15064,1,2,0:0:0:0:
313,105,15210,6,0,L|499:109,2,180,6|0|10,0:0|0:0|0:0,0:0:0:0:
194,301,16381,5,10,0:0:0:0:
253,302,16527,1,0,0:0:0:0:
313,301,16674,1,0,0:0:0:0:
372,297,16820,1,0,0:0:0:0:
211,225,16966,2,0,P|184:204|241:151,1,120
296,148,17405,5,0,0:0:0:0:
256,192,17698,12,0,18430,0:0:0:0:
256,192,18722,12,0,19601,0:0:0:0:
345,252,19893,6,0,L|351:126,1,120,6|0,0:0|0:0,0:0:0:0:
214,88,20479,2,0,L|205:219,1,120,0|2,0:0|0:0,0:0:0:0:
71,272,21064,6,0,L|212:278,1,120,2|0,0:0|0:0,0:0:0:0:
324,268,21649,2,0,L|460:276,1,120,0|2,0:0|0:0,0:0:0:0:
203,107,22235,6,0,L|57:105,1,120,2|0,0:0|0:0,0:0:0:0:
227,199,22820,2,0,L|365:207,1,120,0|2,0:0|0:0,0:0:0:0:
118,253,23405,6,0,L|262:261,2,120,2|2|2,0:0|0:0|0:0,0:0:0:0:
274,199,24283,2,0,L|280:130,1,60,2|2,0:0|0:0,0:0:0:0:
109,116,24576,6,0,L|39:112,2,60,2|0|0,0:0|0:0|0:0,0:0:0:0:
244,289,25161,2,0,L|249:152,1,120,2|2,0:0|0:0,0:0:0:0:
182,161,25601,1,2,0:0:0:0:
249,118,25747,6,0,L|382:119,1,120,2|0,0:0|0:0,0:0:0:0:
227,245,26332,2,0,L|92:240,1,120,2|2,0:0|0:0,0:0:0:0:
173,208,26771,1,0,0:0:0:0:
342,210,26918,6,0,L|411:211,2,60,2|2|8,0:0|0:0|0:0,0:0:0:0:
215,119,27503,1,2,0:0:0:0:
280,121,27649,1,2,0:0:0:0:
346,121,27796,1,8,0:0:0:0:
100,293,28088,5,10,0:0:0:0:
197,261,28283,2,0,L|263:268,1,40,0|10,0:0|0:0,0:0:0:0:
324,172,28576,2,0,L|319:211,1,40,0|10,0:0|0:0,0:0:0:0:
223,143,28869,1,2,0:0:0:0:
173,128,28966,1,0,0:0:0:0:
427,313,29259,6,0,L|434:186,1,120,6|8,0:0|0:0,0:0:0:0:
295,126,29844,2,0,L|421:118,1,120,2|10,0:0|0:0,0:0:0:0:
183,264,30430,6,0,L|62:258,1,120,2|8,0:0|0:0,0:0:0:0:
214,199,31015,2,0,L|221:134,1,60,2|2,0:0|0:0,0:0:0:0:
148,132,31308,2,0,L|143:65,1,60,10|2,0:0|0:0,0:0:0:0:
314,54,31601,6,0,P|351:87|290:122,1,120,2|8,0:0|0:0,0:0:0:0:
167,259,32186,2,0,P|127:248|175:203,1,120,2|10,0:0|0:0,0:0:0:0:
386,150,32771,6,0,L|239:141,1,120,2|8,0:0|0:0,0:0:0:0:
396,211,33357,1,10,0:0:0:0:
452,245,33503,1,2,0:0:0:0:
441,310,33649,1,10,0:0:0:0:
376,324,33796,1,2,0:0:0:0:
208,293,33942,6,0,L|198:159,1,120,6|8,0:0|0:0,0:0:0:0:
329,170,34527,2,0,L|337:23,1,120,2|10,0:0|0:0,0:0:0:0:
105,194,35113,6,0,P|63:169|113:130,1,120,6|8,0:0|0:0,0:0:0:0:
222,119,35698,2,0,L|229:57,1,60,10|2,0:0|0:0,0:0:0:0:
159,70,35991,2,0,L|149:7,1,60,10|2,0:0|0:0,0:0:0:0:
318,262,36283,6,0,L|382:266,2,60,14|10|0,0:0|0:0|0:0,0:0:0:0:
178,162,36869,2,0,L|108:167,2,60,10|10|0,0:0|0:0|0:0,0:0:0:0:
438,130,37454,5,10,0:0:0:0:
305,127,37747,1,10,0:0:0:0:
173,118,38040,1,10,0:0:0:0:
399,188,38332,1,8,0:0:0:0:
148,293,38625,6,0,L|142:166,1,120,6|8,0:0|0:0,0:0:0:0:
291,197,39210,2,0,L|301:56,1,120,2|10,0:0|0:0,0:0:0:0:
148,74,39796,6,0,L|289:74,1,120,2|8,0:0|0:0,0:0:0:0:
401,234,40381,1,2,0:0:0:0:
419,175,40527,1,2,0:0:0:0:
437,119,40674,1,2,0:0:0:0:
375,114,40820,1,2,0:0:0:0:
206,276,40966,6,0,L|72:263,1,120,2|8,0:0|0:0,0:0:0:0:
210,210,41552,2,0,L|343:204,1,120,2|10,0:0|0:0,0:0:0:0:
188,150,42137,2,0,P|141:145|176:89,1,120,0|2,0:0|0:0,0:0:0:0:
210,80,42576,1,2,0:0:0:0:
379,76,42722,6,0,P|437:99|375:174,1,180,8|0,0:0|0:0,0:0:0:0:
217,268,43308,6,0,L|214:146,1,120,2|8,0:0|0:0,0:0:0:0:
348,179,43893,2,0,L|361:44,1,120,2|10,0:0|0:0,0:0:0:0:
213,58,44479,6,0,L|345:51,1,120,2|8,0:0|0:0,0:0:0:0:
205,263,45064,1,2,0:0:0:0:
147,219,45210,1,2,0:0:0:0:
139,147,45357,1,2,0:0:0:0:
198,106,45503,1,2,0:0:0:0:
366,107,45649,6,0,L|374:250,1,120,2|8,0:0|0:0,0:0:0:0:
227,276,46235,2,0,L|101:267,1,120,2|10,0:0|0:0,0:0:0:0:
343,148,46820,6,0,L|454:145,2,90,10|10|10,0:0|0:0|0:0,0:0:0:0:
252,150,47479,1,10,0:0:0:0:
354,274,47698,2,0,L|358:205,1,60,10|2,0:0|0:0,0:0:0:0:
187,224,47991,6,0,P|150:202|201:158,1,120,6|8,0:0|0:0,0:0:0:0:
327,128,48576,2,0,L|318:258,1,120,2|10,0:0|0:0,0:0:0:0:
443,57,49161,6,0,L|307:62,1,120,2|8,0:0|0:0,0:0:0:0:
194,156,49747,2,0,L|187:225,1,60,2|0,0:0|0:0,0:0:0:0:
264,211,50040,2,0,L|272:274,1,60,10|2,0:0|0:0,0:0:0:0:
101,285,50332,6,0,P|69:272|111:220,1,120,2|8,0:0|0:0,0:0:0:0:
238,146,50918,2,0,L|108:139,1,120,2|10,0:0|0:0,0:0:0:0:
358,264,51503,6,0,L|219:272,2,120,10|10|10,0:0|0:0|0:0,0:0:0:0:
465,205,52381,2,0,L|397:208,1,60,10|2,0:0|0:0,0:0:0:0:
84,213,52966,6,0,L|101:78,1,120,10|2,0:0|0:0,0:0:0:0:
253,78,53552,1,10,0:0:0:0:
109,36,53844,6,0,L|237:31,1,120,2|8,0:0|0:0,0:0:0:0:
358,139,54430,2,0,L|367:205,1,60,2|0,0:0|0:0,0:0:0:0:
290,190,54722,2,0,L|281:253,1,60,2|0,0:0|0:0,0:0:0:0:
449,300,55015,5,10,0:0:0:0:
459,223,55308,1,10,0:0:0:0:
203,293,55601,1,10,0:0:0:0:
76,283,55893,1,10,0:0:0:0:
317,240,56186,6,0,L|299:98,1,120,10|10,0:0|0:0,0:0:0:0:
167,108,56771,1,2,0:0:0:0:
396,136,57064,2,0,L|400:60,1,60,10|2,0:0|0:0,0:0:0:0:
228,62,57357,5,6,0:0:0:0:
256,192,57649,12,10,61744,0:0:0:0:
232,215,62036,6,0,L|226:94,1,120,6|8,0:0|0:0,0:0:0:0:
349,83,62618,1,2,0:0:0:0:
224,35,62909,2,0,L|150:39,1,60,8|0,0:0|0:0,0:0:0:0:
337,250,63201,6,0,P|370:227|316:177,1,120,2|10,0:0|0:0,0:0:0:0:
196,131,63783,2,0,L|331:122,1,120,2|8,0:0|0:0,0:0:0:0:
381,117,64220,1,0,0:0:0:0:
218,293,64366,6,0,L|213:157,1,120,2|8,0:0|0:0,0:0:0:0:
339,123,64948,2,0,L|260:119,1,60,2|0,0:0|0:0,0:0:0:0:
203,77,65239,2,0,L|194:145,1,60,10|0,0:0|0:0,0:0:0:0:
364,280,65531,6,0,L|504:275,2,120,10|10|10,0:0|0:0|0:0,0:0:0:0:
234,222,66404,2,0,L|231:146,1,60,10|0,0:0|0:0,0:0:0:0:
401,166,66696,6,0,P|453:150|383:101,1,180,2|2,0:0|0:0,0:0:0:0:
324,100,67278,1,2,0:0:0:0:
194,111,67570,2,0,L|187:177,1,60,10|0,0:0|0:0,0:0:0:0:
357,293,67861,6,0,P|397:277|335:193,1,180,2|2,0:0|0:0,0:0:0:0:
281,187,68443,1,2,0:0:0:0:
152,88,68735,2,0,L|147:165,1,60,10|2,0:0|0:0,0:0:0:0:
318,274,69026,6,0,L|334:177,1,90,2|2,0:0|0:0,0:0:0:0:
293,185,69317,1,8,0:0:0:0:
177,189,69608,2,0,L|73:185,1,90,2|2,0:0|0:0,0:0:0:0:
126,182,69900,1,8,0:0:0:0:
263,161,70191,6,0,L|273:53,1,90,2|2,0:0|0:0,0:0:0:0:
238,65,70482,1,8,0:0:0:0:
87,239,70773,1,10,0:0:0:0:
35,197,70919,1,0,0:0:0:0:
22,132,71065,1,10,0:0:0:0:
73,90,71210,1,2,0:0:0:0:
242,238,71356,6,0,L|364:230,1,120,6|8,0:0|0:0,0:0:0:0:
219,152,71938,1,2,0:0:0:0:
341,75,72230,2,0,L|271:71,1,60,8|0,0:0|0:0,0:0:0:0:
113,262,72521,6,0,P|90:236|141:190,1,120,2|10,0:0|0:0,0:0:0:0:
280,156,73104,2,0,L|155:140,1,120,2|8,0:0|0:0,0:0:0:0:
223,122,73540,1,0,0:0:0:0:
383,296,73686,6,0,P|417:276|368:223,1,120,2|8,0:0|0:0,0:0:0:0:
256,216,74269,2,0,L|252:138,1,60,2|0,0:0|0:0,0:0:0:0:
327,96,74560,2,0,L|328:167,1,60,10|0,0:0|0:0,0:0:0:0:
167,293,74851,6,0,L|32:275,2,120,10|10|10,0:0|0:0|0:0,0:0:0:0:
278,208,75725,2,0,L|205:192,1,60,10|2,0:0|0:0,0:0:0:0:
62,190,76016,6,0,P|28:172|99:86,1,180,2|0,0:0|0:0,0:0:0:0:
153,74,76599,1,2,0:0:0:0:
286,92,76890,2,0,L|277:170,1,60,10|0,0:0|0:0,0:0:0:0:
110,293,77181,6,0,P|69:278|135:191,1,180,2|0,0:0|0:0,0:0:0:0:
183,187,77764,1,2,0:0:0:0:
318,104,78055,2,0,L|310:182,1,60,10|0,0:0|0:0,0:0:0:0:
141,291,78346,6,0,L|136:185,1,90,2|2,0:0|0:0,0:0:0:0:
172,202,78637,1,8,0:0:0:0:
313,215,78929,2,0,L|322:103,1,90,2|2,0:0|0:0,0:0:0:0:
284,121,79220,1,8,0:0:0:0:
62,282,79511,5,10,0:0:0:0:
206,288,79803,1,10,0:0:0:0:
349,294,80094,1,10,0:0:0:0:
114,208,80385,1,10,0:0:0:0:
336,212,80676,6,0,P|379:201|327:117,1,180,6|2,0:0|0:0,0:0:0:0:
269,104,81259,1,2,0:0:0:0:
143,98,81550,2,0,L|136:162,1,60,8|2,0:0|0:0,0:0:0:0:
306,268,81841,6,0,L|426:278,1,120,2|8,0:0|0:0,0:0:0:0:
359,236,82278,1,2,0:0:0:0:
204,231,82424,2,0,L|197:105,1,120,2|10,0:0|0:0,0:0:0:0:
406,84,83006,6,0,L|208:71,1,180,2|2,0:0|0:0,0:0:0:0:
154,62,83589,1,2,0:0:0:0:
275,129,83880,2,0,L|282:208,1,60,8|2,0:0|0:0,0:0:0:0:
114,290,84171,6,0,P|78:278|121:231,1,120,2|10,0:0|0:0,0:0:0:0:
336,149,84754,2,0,L|462:142,1,120,2|10,0:0|0:0,0:0:0:0:
234,289,85337,6,0,P|191:276|251:188,1,180,2|2,0:0|0:0,0:0:0:0:
296,176,85919,1,2,0:0:0:0:
172,138,86210,2,0,L|175:68,1,60,8|0,0:0|0:0,0:0:0:0:
237,59,86502,2,0,L|340:61,1,90,2|2,0:0|0:0,0:0:0:0:
359,62,86793,1,8,0:0:0:0:
227,211,87084,2,0,L|120:207,1,90,2|2,0:0|0:0,0:0:0:0:
104,204,87375,1,8,0:0:0:0:
326,195,87667,6,0,P|371:188|326:145,1,120,2|10,0:0|0:0,0:0:0:0:
214,127,88249,1,2,0:0:0:0:
344,81,88540,2,0,L|281:76,1,60,8|2,0:0|0:0,0:0:0:0:
111,283,88832,6,0,L|110:157,1,120,2|8,0:0|0:0,0:0:0:0:
248,196,89414,2,0,L|252:62,1,120,2|10,0:0|0:0,0:0:0:0:
471,265,89997,6,0,L|284:275,3,180,6|10|10|10,0:0|0:0|0:0|0:0,0:0:0:0:
456,205,91744,6,0,L|457:130,1,60,10|2,0:0|0:0,0:0:0:0:
390,139,92036,1,10,0:0:0:0:
156,259,92327,6,0,L|341:268,3,180,6|10|10|10,0:0|0:0|0:0|0:0,0:0:0:0:
165,195,94074,6,0,L|167:129,1,60,10|0,0:0|0:0,0:0:0:0:
233,140,94366,1,10,0:0:0:0:
460,255,94657,6,0,L|465:108,1,120,6|10,0:0|0:0,0:0:0:0:
340,81,95239,2,0,L|482:70,1,120,10|10,0:0|0:0,0:0:0:0:
246,256,95822,6,0,L|104:248,1,120,10|10,0:0|0:0,0:0:0:0:
276,196,96404,2,0,L|401:191,1,120,10|10,0:0|0:0,0:0:0:0:
175,126,96987,5,10,0:0:0:0:
306,120,97278,1,10,0:0:0:0:
175,126,97570,2,0,P|115:148|159:292,1,240,8|2,0:0|0:0,0:0:0:0:
256,192,98443,12,2,99026,0:0:0:0:
356,247,99317,6,0,L|361:124,1,120,6|8,0:0|0:0,0:0:0:0:
218,113,99900,2,0,L|212:250,1,120,2|8,0:0|0:0,0:0:0:0:
278,237,100337,1,0,0:0:0:0:
110,296,100482,6,0,P|73:275|123:228,1,120,2|8,0:0|0:0,0:0:0:0:
255,150,101065,2,0,L|126:144,1,120,2|8,0:0|0:0,0:0:0:0:
201,138,101502,1,0,0:0:0:0:
369,240,101647,6,0,L|436:242,2,60,2|2|10,0:0|0:0|0:0,0:0:0:0:
250,206,102230,2,0,L|246:135,1,60,0|2,0:0|0:0,0:0:0:0:
319,136,102521,2,0,L|323:67,1,60,10|2,0:0|0:0,0:0:0:0:
154,101,102812,6,0,L|7:96,3,120,8|8|8|8,0:0|0:0|0:0|0:0,0:0:0:0:
263,291,103977,6,0,P|305:277|256:187,1,180,2|2,0:0|0:0,0:0:0:0:
188,178,104560,1,2,0:0:0:0:
308,129,104851,2,0,L|317:62,1,60,10|2,0:0|0:0,0:0:0:0:
151,255,105142,6,0,P|109:243|163:156,1,180,2|2,0:0|0:0,0:0:0:0:
218,152,105725,1,2,0:0:0:0:
97,105,106016,2,0,L|91:42,1,60,10|2,0:0|0:0,0:0:0:0:
261,214,106307,5,2,0:0:0:0:
327,217,106453,2,0,L|333:141,1,60,2|10,0:0|0:0,0:0:0:0:
194,103,106890,2,0,L|322:97,1,120,2|8,0:0|0:0,0:0:0:0:
95,282,107472,6,0,L|91:156,1,120,2|8,0:0|0:0,0:0:0:0:
214,138,108055,2,0,L|283:144,1,60,2|2,0:0|0:0,0:0:0:0:
208,83,108346,2,0,L|135:86,1,60,10|2,0:0|0:0,0:0:0:0:
318,263,108637,6,0,L|506:273,3,180,6|10|10|10,0:0|0:0|0:0|0:0,0:0:0:0:
301,192,110385,6,0,L|295:121,1,60,10|2,0:0|0:0,0:0:0:0:
361,120,110676,2,0,L|428:117,1,60,10|2,0:0|0:0,0:0:0:0:
253,265,110968,6,0,L|59:257,3,180,2|10|10|10,0:0|0:0|0:0|0:0,0:0:0:0:
183,185,112570,5,0,0:0:0:0:
20,185,112715,2,0,P|11:132|69:88,1,120,10|10,0:0|0:0,0:0:0:0:
286,295,113298,5,6,0:0:0:0:
141,285,113589,1,10,0:0:0:0:
286,295,113880,1,10,0:0:0:0:
57,296,114171,1,10,0:0:0:0:
287,190,114463,6,0,L|360:184,1,60,10|10,0:0|0:0,0:0:0:0:
283,126,114754,2,0,L|208:130,1,60,10|10,0:0|0:0,0:0:0:0:
60,67,115045,2,0,P|51:156|136:195,1,180,10|8,0:0|0:0,0:0:0:0:
288,186,115628,5,10,0:0:0:0:
75,232,116210,1,10,0:0:0:0:
318,293,116793,1,10,0:0:0:0:
34,327,117375,1,10,0:0:0:0:
420,159,117958,5,2,0:0:0:0:
256,192,118249,12,0,120288,0:0:0:0:
