osu file format v14

[General]
AudioFilename: LegenD.mp3
AudioLeadIn: 0
PreviewTime: 61744
Countdown: 0
SampleSet: Normal
StackLeniency: 0.7
Mode: 2
LetterboxInBreaks: 0
WidescreenStoryboard: 1

[Editor]
DistanceSpacing: 1
BeatDivisor: 4
GridSize: 32
TimelineZoom: 1

[Metadata]
Title:LegenD.
TitleUnicode:LegenD.
Artist:Yooh
ArtistUnicode:Yooh
Creator:Du5t
Version:RaiN.
Source:SOUND VOLTEX III GRAVITY WARS
Tags:instrumental video game the 4th kac sdvx konami arcade championship 帝国海軍大将 嬬武器烈風刀 dust idust idu5t daletto -hex- hex
BeatmapID:2211266
BeatmapSetID:1047989

[Difficulty]
HPDrainRate:5
CircleSize:3.8
OverallDifficulty:9
ApproachRate:9
SliderMultiplier:1.6
SliderTickRate:2

[Events]
//Background and Video events
0,0,"bg.jpg",0,0
//Break Periods
2,1362,4952
//Storyboard Layer 0 (Background)
//Storyboard Layer 1 (Fail)
//Storyboard Layer 2 (Pass)
//Storyboard Layer 3 (Foreground)
//Storyboard Layer 4 (Overlay)
//Storyboard Sound Samples

[TimingPoints]
1162,292.682926829268,4,1,1,65,1,0
5844,-100,4,1,1,30,0,0
6430,-100,4,1,1,35,0,0
7015,-100,4,1,1,40,0,0
8186,-100,4,1,1,45,0,0
8771,-100,4,1,1,50,0,0
9357,-100,4,1,1,55,0,0
9503,-100,4,1,1,60,0,0
10527,-100,4,1,1,70,0,0
15210,-100,4,1,1,75,0,0
16381,-100,4,1,1,65,0,0
16674,-100,4,1,1,60,0,0
16966,-100,4,1,1,55,0,0
17259,-100,4,1,1,50,0,0
18722,-100,4,1,1,40,0,0
19893,-100,4,1,1,60,0,0
26918,-100,4,1,1,65,0,0
29259,-100,4,1,1,70,0,0
33357,-100,4,1,1,65,0,0
33942,-100,4,1,1,70,0,0
38332,-100,4,1,1,60,0,0
38625,-100,4,1,1,70,0,0
40674,-100,4,1,1,60,0,0
40966,-100,4,1,1,70,0,0
42137,-100,4,1,1,45,0,0
42430,-100,4,1,1,55,0,0
42722,-66.6666666666667,4,1,1,65,0,0
43161,-100,4,1,1,65,0,0
43308,-100,4,1,1,70,0,0
45064,-100,4,1,1,60,0,0
45649,-100,4,1,1,70,0,0
46820,-100,4,1,1,65,0,0
47991,-100,4,1,1,75,0,0
52674,-100,4,1,1,40,0,0
52966,-100,4,1,1,75,0,0
54722,-100,4,1,1,50,0,0
55015,-100,4,1,1,75,0,0
55601,-100,4,1,1,70,0,0
56186,-100,4,1,1,65,0,0
56771,-100,4,1,1,60,0,0
57357,-100,4,1,1,70,0,0
58235,-100,4,1,1,40,0,0
58820,-100,4,1,1,45,0,0
59405,-100,4,1,1,50,0,0
59991,-100,4,1,1,55,0,0
60576,-100,4,1,1,60,0,0
60871,291.26213592233,4,1,1,65,1,0
61160,-100,4,1,1,65,0,0
61742,-100,4,1,1,70,0,0
62036,-100,4,2,2,90,0,1
62108,-100,4,1,2,90,0,1
69026,-100,4,1,2,85,0,1
71356,-100,4,2,2,90,0,1
71429,-100,4,1,2,90,0,1
78346,-100,4,1,2,85,0,1
79511,-100,4,1,2,80,0,1
80385,-100,4,1,2,65,0,1
80604,-100,4,1,2,75,0,0
80676,-100,4,2,2,85,0,1
80749,-100,4,1,2,85,0,1
89997,-100,4,1,1,75,0,0
94657,-100,4,1,2,80,0,0
95822,-100,4,1,2,85,0,0
96987,-100,4,1,2,75,0,0
98152,-100,4,1,2,30,0,0
99026,-100,4,1,1,55,0,0
99317,-100,4,2,2,90,0,1
99390,-100,4,1,2,90,0,1
108637,-100,4,1,2,85,0,1
110385,-100,4,1,2,85,0,1
110968,-100,4,1,2,85,0,1
112715,-100,4,1,2,85,0,1
113298,-100,4,1,2,65,0,1
113589,-100,4,1,2,65,0,1
113880,-100,4,1,2,65,0,1
114171,-100,4,1,2,65,0,1
114463,-100,4,1,2,65,0,1
115045,-100,4,1,2,65,0,1
115628,-100,4,1,1,65,0,0
115919,-100,4,1,1,25,0,0
116210,-100,4,1,1,65,0,0
116502,-100,4,1,1,25,0,0
116793,-100,4,1,1,65,0,0
117084,-100,4,1,1,25,0,0
117375,-100,4,1,1,65,0,0
117667,-100,4,1,1,25,0,0
117958,-100,4,2,2,80,0,0
118104,-100,4,1,1,30,0,0
118540,-100,4,1,1,40,0,0
119123,-100,4,1,1,50,0,0
119414,-100,4,1,1,60,0,0
119705,-100,4,1,1,70,0,0
119997,-100,4,1,1,80,0,0
120142,-100,4,1,1,85,0,0
120288,-100,4,1,1,10,0,0

[Colours]
Combo1 : 125,62,62
Combo2 : 255,9,27
Combo3 : 9,9,255

[HitObjects]
216,209,869,6,0,L|326:203,1,80,0|0,0:0|0:0,0:0:0:0:
82,203,1162,1,6,0:0:0:0:
327,204,5552,5,8,0:0:0:0:
182,194,5698,1,2,0:0:0:0:
256,192,5844,12,0,9357,0:0:0:0:
196,199,9503,5,0,0:0:0:0:
325,212,9649,2,0,L|328:126,1,80,8|0,0:0|0:0,0:0:0:0:
200,113,9942,2,0,L|145:115,2,40,0|0|0,0:0|0:0|0:0,0:0:0:0:
326,74,10235,2,0,L|384:77,1,40,2|2,0:0|0:0,0:0:0:0:
365,76,10381,2,0,L|312:74,1,40,2|2,0:0|0:0,0:0:0:0:
119,295,10527,6,0,P|71:283|125:215,1,160,6|8,0:0|0:0,0:0:0:0:
241,203,10966,2,0,L|332:209,2,80,0|0|0,0:0|0:0|0:0,0:0:0:0:
112,56,11405,2,0,L|107:135,1,80,8|0,0:0|0:0,0:0:0:0:
319,310,11698,6,0,P|375:307|376:209,1,160,2|8,0:0|0:0,0:0:0:0:
259,207,12137,2,0,L|175:210,2,80,0|0|0,0:0|0:0|0:0,0:0:0:0:
389,54,12576,2,0,L|394:156,1,80,8|0,0:0|0:0,0:0:0:0:
185,276,12869,6,0,L|363:271,1,160,6|8,0:0|0:0,0:0:0:0:
216,206,13308,1,0,0:0:0:0:
136,209,13454,2,0,L|132:99,1,80,0|0,0:0|0:0,0:0:0:0:
261,64,13747,2,0,L|168:69,1,80,8|0,0:0|0:0,0:0:0:0:
393,263,14040,6,0,P|439:244|378:181,1,160,2|8,0:0|0:0,0:0:0:0:
263,174,14479,2,0,L|166:167,1,80,0|0,0:0|0:0,0:0:0:0:
223,170,14698,1,0,0:0:0:0:
262,171,14771,1,0,0:0:0:0:
136,107,14918,2,0,L|87:110,1,40,10|0,0:0|0:0,0:0:0:0:
96,109,15064,2,0,L|142:105,1,40,2|0,0:0|0:0,0:0:0:0:
299,264,15210,6,0,L|398:268,2,80,6|0|8,0:0|0:0|0:0,0:0:0:0:
170,212,15649,2,0,L|115:218,1,40,0|0,0:0|0:0,0:0:0:0:
90,220,15796,2,0,L|184:210,1,80,8|0,0:0|0:0,0:0:0:0:
378,122,16088,6,0,L|479:115,1,80,10|2,0:0|0:0,0:0:0:0:
328,189,16381,2,0,L|416:226,1,80,10|0,0:0|0:0,0:0:0:0:
274,240,16674,2,0,L|315:331,1,80,10|0,0:0|0:0,0:0:0:0:
178,250,16966,1,10,0:0:0:0:
129,246,17040,1,0,0:0:0:0:
93,213,17113,1,0,0:0:0:0:
76,168,17186,1,0,0:0:0:0:
80,120,17259,1,0,0:0:0:0:
110,82,17332,1,0,0:0:0:0:
154,63,17405,1,0,0:0:0:0:
202,56,17479,1,0,0:0:0:0:
256,192,17698,12,0,18576,0:0:0:0:
333,267,18722,5,0,0:0:0:0:
417,242,18869,1,0,0:0:0:0:
418,154,19015,1,0,0:0:0:0:
337,119,19161,1,0,0:0:0:0:
209,172,19308,2,0,L|205:266,1,80,0|0,0:0|0:0,0:0:0:0:
336,98,19601,2,0,L|434:102,1,80,0|0,0:0|0:0,0:0:0:0:
148,301,19893,5,6,0:0:0:0:
80,244,20040,1,0,0:0:0:0:
90,156,20186,1,0,0:0:0:0:
168,116,20332,1,0,0:0:0:0:
299,261,20479,2,0,L|305:170,1,80,0|0,0:0|0:0,0:0:0:0:
177,169,20771,2,0,L|169:264,1,80,2|0,0:0|0:0,0:0:0:0:
382,93,21064,5,2,0:0:0:0:
465,119,21210,1,0,0:0:0:0:
468,207,21357,1,0,0:0:0:0:
391,250,21503,1,0,0:0:0:0:
262,190,21649,2,0,L|258:288,1,80,0|0,0:0|0:0,0:0:0:0:
388,188,21942,2,0,L|390:95,1,80,2|0,0:0|0:0,0:0:0:0:
180,73,22235,5,2,0:0:0:0:
259,75,22381,1,0,0:0:0:0:
338,75,22527,1,0,0:0:0:0:
418,75,22674,1,0,0:0:0:0:
289,196,22820,2,0,L|193:192,1,80,0|0,0:0|0:0,0:0:0:0:
337,264,23113,2,0,L|428:268,1,80,2|0,0:0|0:0,0:0:0:0:
207,78,23405,6,0,L|204:168,1,80,2|0,0:0|0:0,0:0:0:0:
333,207,23698,2,0,L|246:205,1,80,2|0,0:0|0:0,0:0:0:0:
124,251,23991,2,0,L|127:146,1,80,2|0,0:0|0:0,0:0:0:0:
254,133,24283,1,2,0:0:0:0:
128,96,24430,1,2,0:0:0:0:
337,261,24576,5,2,0:0:0:0:
424,263,24722,1,0,0:0:0:0:
337,261,24869,1,0,0:0:0:0:
249,253,25015,1,0,0:0:0:0:
378,171,25161,2,0,L|380:87,1,80,2|0,0:0|0:0,0:0:0:0:
251,42,25454,2,0,L|364:44,1,80,2|2,0:0|0:0,0:0:0:0:
121,167,25747,6,0,L|117:260,1,80,2|0,0:0|0:0,0:0:0:0:
245,123,26040,1,0,0:0:0:0:
116,110,26186,1,0,0:0:0:0:
245,227,26332,2,0,L|335:229,1,80,2|0,0:0|0:0,0:0:0:0:
196,166,26625,2,0,L|112:163,1,80,2|0,0:0|0:0,0:0:0:0:
330,101,26918,5,2,0:0:0:0:
218,85,27064,1,2,0:0:0:0:
348,163,27210,2,0,L|355:258,1,80,8|0,0:0|0:0,0:0:0:0:
97,213,27503,1,2,0:0:0:0:
210,227,27649,1,2,0:0:0:0:
79,147,27796,2,0,L|69:52,1,80,8|0,0:0|0:0,0:0:0:0:
308,207,28088,6,0,P|362:185|322:128,1,106.666666666667,10|0,0:0|0:0,0:0:0:0:
260,145,28381,2,0,P|202:118|231:73,1,106.666666666667,10|0,0:0|0:0,0:0:0:0:
319,52,28674,2,0,L|377:58,2,53.3333333333333,10|2|2,0:0|0:0|0:0,0:0:0:0:
144,263,28966,2,0,P|85:249|67:174,1,120,0|0,0:0|0:0,0:0:0:0:
276,209,29259,6,0,L|375:211,1,80,6|0,0:0|0:0,0:0:0:0:
274,142,29552,2,0,L|171:138,1,80,8|0,0:0|0:0,0:0:0:0:
322,111,29844,2,0,L|325:8,1,80,2|0,0:0|0:0,0:0:0:0:
193,25,30137,2,0,L|190:112,1,80,10|0,0:0|0:0,0:0:0:0:
401,273,30430,6,0,L|491:274,1,80,2|0,0:0|0:0,0:0:0:0:
400,221,30722,2,0,L|401:132,1,80,8|0,0:0|0:0,0:0:0:0:
255,138,31015,2,0,L|152:137,1,80,2|2,0:0|0:0,0:0:0:0:
322,62,31308,2,0,L|410:61,1,80,10|2,0:0|0:0,0:0:0:0:
191,241,31601,5,2,0:0:0:0:
110,238,31747,1,0,0:0:0:0:
191,241,31893,1,8,0:0:0:0:
271,242,32040,1,0,0:0:0:0:
142,150,32186,1,2,0:0:0:0:
134,75,32332,1,0,0:0:0:0:
264,62,32479,1,10,0:0:0:0:
272,147,32625,1,0,0:0:0:0:
64,251,32771,6,0,L|60:157,1,80,2|0,0:0|0:0,0:0:0:0:
144,160,33064,2,0,L|227:156,1,80,8|0,0:0|0:0,0:0:0:0:
95,70,33357,2,0,L|189:65,1,80,10|2,0:0|0:0,0:0:0:0:
305,55,33649,2,0,L|366:51,1,40,10|0,0:0|0:0,0:0:0:0:
344,52,33796,2,0,L|298:57,1,40,2|0,0:0|0:0,0:0:0:0:
144,225,33942,6,0,L|52:230,1,80,6|0,0:0|0:0,0:0:0:0:
145,172,34235,2,0,L|143:88,1,80,8|0,0:0|0:0,0:0:0:0:
271,112,34527,2,0,L|275:211,1,80,2|0,0:0|0:0,0:0:0:0:
146,312,34820,2,0,L|143:223,1,80,10|0,0:0|0:0,0:0:0:0:
354,238,35113,6,0,L|442:232,1,80,6|0,0:0|0:0,0:0:0:0:
227,175,35405,2,0,L|128:178,1,80,8|0,0:0|0:0,0:0:0:0:
357,73,35698,2,0,L|359:169,1,80,10|2,0:0|0:0,0:0:0:0:
148,123,35991,2,0,L|146:30,1,80,10|2,0:0|0:0,0:0:0:0:
356,281,36283,5,14,0:0:0:0:
468,276,36430,1,10,0:0:0:0:
387,210,36576,1,0,0:0:0:0:
356,184,36649,1,0,0:0:0:0:
360,137,36722,1,0,0:0:0:0:
401,114,36796,1,0,0:0:0:0:
213,256,36869,1,10,0:0:0:0:
102,242,37015,1,10,0:0:0:0:
183,185,37161,1,0,0:0:0:0:
224,154,37235,1,0,0:0:0:0:
225,114,37308,1,0,0:0:0:0:
193,89,37381,1,0,0:0:0:0:
330,272,37454,6,0,L|424:275,1,80,10|0,0:0|0:0,0:0:0:0:
304,172,37747,2,0,L|300:265,1,80,10|0,0:0|0:0,0:0:0:0:
91,169,38040,2,0,L|94:81,1,80,10|0,0:0|0:0,0:0:0:0:
305,83,38332,2,0,L|351:84,1,40,8|8,0:0|0:0,0:0:0:0:
385,83,38479,2,0,L|333:83,1,40,8|8,0:0|0:0,0:0:0:0:
180,278,38625,6,0,L|75:272,1,80,6|0,0:0|0:0,0:0:0:0:
191,207,38918,2,0,L|92:202,1,80,8|0,0:0|0:0,0:0:0:0:
240,150,39210,2,0,L|244:61,1,80,2|0,0:0|0:0,0:0:0:0:
203,66,39430,1,0,0:0:0:0:
159,63,39503,2,0,L|154:160,1,80,10|0,0:0|0:0,0:0:0:0:
364,278,39796,6,0,L|466:284,1,80,2|0,0:0|0:0,0:0:0:0:
355,203,40088,1,8,0:0:0:0:
394,205,40161,1,0,0:0:0:0:
434,207,40235,1,0,0:0:0:0:
303,107,40381,2,0,L|299:206,1,80,2|2,0:0|0:0,0:0:0:0:
390,65,40674,1,2,0:0:0:0:
264,46,40820,1,2,0:0:0:0:
473,305,40966,6,0,L|476:209,1,80,2|0,0:0|0:0,0:0:0:0:
391,212,41259,2,0,L|304:208,1,80,8|0,0:0|0:0,0:0:0:0:
181,176,41552,2,0,L|185:79,1,80,2|0,0:0|0:0,0:0:0:0:
223,100,41771,1,0,0:0:0:0:
262,103,41844,2,0,L|258:199,1,80,10|0,0:0|0:0,0:0:0:0:
127,269,42137,6,0,P|89:246|121:186,1,120,0|0,0:0|0:0,0:0:0:0:
281,184,42430,2,0,L|334:186,1,40,2|2,0:0|0:0,0:0:0:0:
360,187,42576,2,0,L|414:190,1,40,2|2,0:0|0:0,0:0:0:0:
204,291,42722,2,0,P|96:244|194:80,1,360.000013732911,8|0,0:0|0:0,0:0:0:0:
404,272,43308,5,2,0:0:0:0:
481,231,43454,1,0,0:0:0:0:
470,143,43601,1,8,0:0:0:0:
390,105,43747,1,0,0:0:0:0:
264,173,43893,2,0,L|173:169,1,80,2|0,0:0|0:0,0:0:0:0:
224,171,44113,1,0,0:0:0:0:
264,173,44186,2,0,L|352:178,1,80,10|0,0:0|0:0,0:0:0:0:
133,243,44479,5,2,0:0:0:0:
231,254,44625,1,0,0:0:0:0:
102,168,44771,2,0,L|44:164,2,40,8|0|0,0:0|0:0|0:0,0:0:0:0:
243,182,45064,2,0,L|246:83,1,80,2|2,0:0|0:0,0:0:0:0:
116,67,45357,2,0,L|71:65,1,40,2|2,0:0|0:0,0:0:0:0:
76,65,45503,2,0,L|120:67,1,40,2|2,0:0|0:0,0:0:0:0:
277,275,45649,6,0,L|376:279,1,80,2|0,0:0|0:0,0:0:0:0:
274,219,45942,2,0,L|272:319,1,80,8|0,0:0|0:0,0:0:0:0:
400,146,46235,2,0,L|299:143,1,80,2|0,0:0|0:0,0:0:0:0:
280,141,46454,1,0,0:0:0:0:
320,143,46527,2,0,L|406:147,1,80,10|0,0:0|0:0,0:0:0:0:
184,266,46820,6,0,P|134:257|175:200,1,120,10|10,0:0|0:0,0:0:0:0:
268,192,47259,1,10,0:0:0:0:
86,116,47479,1,10,0:0:0:0:
400,144,47698,2,0,L|457:148,1,40,10|2,0:0|0:0,0:0:0:0:
439,146,47844,2,0,L|385:144,1,40,2|2,0:0|0:0,0:0:0:0:
231,275,47991,6,0,L|130:268,1,80,6|0,0:0|0:0,0:0:0:0:
276,219,48283,2,0,L|371:225,1,80,8|0,0:0|0:0,0:0:0:0:
227,124,48576,2,0,L|222:220,1,80,2|0,0:0|0:0,0:0:0:0:
289,189,48796,1,0,0:0:0:0:
352,122,48869,2,0,L|356:36,1,80,10|0,0:0|0:0,0:0:0:0:
148,266,49161,5,2,0:0:0:0:
68,211,49308,1,0,0:0:0:0:
78,123,49454,1,8,0:0:0:0:
161,94,49601,1,0,0:0:0:0:
289,176,49747,2,0,L|206:171,1,80,2|0,0:0|0:0,0:0:0:0:
338,108,50040,2,0,L|423:112,1,80,10|2,0:0|0:0,0:0:0:0:
210,274,50332,6,0,L|203:368,1,80,2|0,0:0|0:0,0:0:0:0:
333,277,50625,2,0,L|341:171,1,80,8|0,0:0|0:0,0:0:0:0:
210,172,50918,2,0,L|118:168,1,80,2|0,0:0|0:0,0:0:0:0:
195,131,51137,1,0,0:0:0:0:
259,95,51210,2,0,L|347:99,1,80,10|0,0:0|0:0,0:0:0:0:
106,236,51503,6,0,L|103:330,1,80,10|0,0:0|0:0,0:0:0:0:
232,180,51796,2,0,L|230:270,1,80,10|0,0:0|0:0,0:0:0:0:
361,121,52088,2,0,L|461:122,1,80,10|0,0:0|0:0,0:0:0:0:
312,61,52381,2,0,L|212:60,1,80,10|2,0:0|0:0,0:0:0:0:
440,268,52674,2,0,L|497:269,2,53.3333333333333,2|2|2,0:0|0:0|0:0,0:0:0:0:
222,242,52966,6,0,L|128:240,1,80,10|0,0:0|0:0,0:0:0:0:
271,183,53259,2,0,L|273:84,1,80,2|0,0:0|0:0,0:0:0:0:
207,90,53479,1,0,0:0:0:0:
143,81,53552,2,0,L|139:177,1,80,10|0,0:0|0:0,0:0:0:0:
349,287,53844,6,0,L|430:288,1,80,2|0,0:0|0:0,0:0:0:0:
301,195,54137,2,0,L|281:243,2,40,8|0|0,0:0|0:0|0:0,0:0:0:0:
430,141,54430,1,2,0:0:0:0:
302,121,54576,1,0,0:0:0:0:
430,141,54722,1,2,0:0:0:0:
455,230,54869,1,0,0:0:0:0:
246,264,55015,6,0,L|154:262,1,80,10|0,0:0|0:0,0:0:0:0:
296,197,55308,2,0,L|382:198,1,80,10|0,0:0|0:0,0:0:0:0:
163,57,55601,2,0,L|160:159,1,80,10|0,0:0|0:0,0:0:0:0:
290,109,55893,2,0,L|293:12,1,80,10|0,0:0|0:0,0:0:0:0:
83,256,56186,6,0,L|171:258,1,80,10|0,0:0|0:0,0:0:0:0:
290,260,56479,2,0,L|376:262,1,80,10|0,0:0|0:0,0:0:0:0:
159,89,56771,2,0,L|156:192,1,80,2|0,0:0|0:0,0:0:0:0:
285,180,57064,1,10,0:0:0:0:
155,206,57210,1,2,0:0:0:0:
395,323,57357,6,0,P|448:314|347:117,1,400,6|0,0:0|0:0,0:0:0:0:
230,223,58235,2,0,L|175:220,2,40,10|0|0,0:0|0:0|0:0,0:0:0:0:
357,198,58527,2,0,L|366:150,2,40,8|0|0,0:0|0:0|0:0,0:0:0:0:
226,110,58820,1,10,0:0:0:0:
265,108,58893,1,0,0:0:0:0:
304,107,58966,1,0,0:0:0:0:
175,182,59113,2,0,L|131:179,2,40,8|0|0,0:0|0:0|0:0,0:0:0:0:
386,294,59405,6,0,L|432:293,2,40,10|0|0,0:0|0:0|0:0,0:0:0:0:
258,273,59698,2,0,L|256:212,1,40,8|0,0:0|0:0,0:0:0:0:
296,233,59844,1,0,0:0:0:0:
86,218,59991,2,0,L|34:215,2,40,10|0|0,0:0|0:0|0:0,0:0:0:0:
214,139,60283,1,8,0:0:0:0:
173,135,60357,1,0,0:0:0:0:
133,130,60430,1,0,0:0:0:0:
342,161,60576,1,10,0:0:0:0:
381,163,60649,2,0,L|386:107,1,40,0|0,0:0|0:0,0:0:0:0:
169,290,60871,5,10,0:0:0:0:
121,283,60943,1,0,0:0:0:0:
87,248,61016,1,8,0:0:0:0:
74,201,61089,1,0,0:0:0:0:
80,153,61162,1,10,0:0:0:0:
108,113,61235,1,0,0:0:0:0:
152,89,61307,1,8,0:0:0:0:
199,82,61380,1,0,0:0:0:0:
343,202,61453,2,0,L|390:207,1,40,10|8,0:0|0:0,0:0:0:0:
226,148,61599,2,0,L|174:150,1,40,10|8,0:0|0:0,0:0:0:0:
394,283,61744,2,0,P|470:277|478:216,1,120,10|0,0:0|0:0,0:0:0:0:
232,238,62036,6,0,P|205:195|291:142,1,160,6|8,0:0|0:0,0:0:0:0:
358,144,62472,1,0,0:0:0:0:
148,148,62618,2,0,L|146:48,1,80,2|0,0:0|0:0,0:0:0:0:
275,56,62909,1,8,0:0:0:0:
147,16,63055,1,0,0:0:0:0:
357,259,63201,6,0,L|446:252,1,80,2|0,0:0|0:0,0:0:0:0:
309,187,63492,2,0,L|408:181,1,80,10|0,0:0|0:0,0:0:0:0:
259,106,63783,1,2,0:0:0:0:
210,124,63856,1,2,0:0:0:0:
179,165,63929,1,2,0:0:0:0:
182,217,64002,1,2,0:0:0:0:
210,259,64074,1,8,0:0:0:0:
261,269,64147,1,0,0:0:0:0:
314,274,64220,2,0,L|318:227,1,40,0|0,0:0|0:0,0:0:0:0:
116,280,64366,6,0,L|24:277,1,80,2|0,0:0|0:0,0:0:0:0:
164,205,64657,2,0,L|252:207,1,80,8|0,0:0|0:0,0:0:0:0:
36,85,64948,2,0,L|124:88,1,80,2|0,0:0|0:0,0:0:0:0:
329,79,65239,2,0,L|420:82,1,80,10|0,0:0|0:0,0:0:0:0:
196,182,65531,6,0,L|193:268,1,80,10|0,0:0|0:0,0:0:0:0:
322,143,65822,2,0,L|319:246,1,80,10|0,0:0|0:0,0:0:0:0:
450,79,66113,2,0,L|446:176,1,80,10|0,0:0|0:0,0:0:0:0:
317,57,66404,1,10,0:0:0:0:
451,34,66550,1,0,0:0:0:0:
242,283,66696,5,2,0:0:0:0:
194,258,66769,1,2,0:0:0:0:
175,211,66841,1,2,0:0:0:0:
184,159,66914,1,2,0:0:0:0:
231,128,66987,1,8,0:0:0:0:
358,126,67133,1,2,0:0:0:0:
151,68,67278,2,0,L|58:63,2,80,2|2|10,0:0|0:0|0:0,0:0:0:0:
24,153,67715,1,0,0:0:0:0:
235,274,67861,5,2,0:0:0:0:
283,253,67934,1,2,0:0:0:0:
309,209,68006,1,2,0:0:0:0:
304,157,68079,1,2,0:0:0:0:
266,121,68152,1,8,0:0:0:0:
141,111,68298,1,2,0:0:0:0:
349,69,68443,2,0,L|443:71,2,80,2|2|10,0:0|0:0|0:0,0:0:0:0:
476,162,68880,1,2,0:0:0:0:
256,300,69026,6,0,P|209:286|225:215,1,120,2|2,0:0|0:0,0:0:0:0:
257,208,69317,1,8,0:0:0:0:
175,164,69463,1,0,0:0:0:0:
301,97,69608,2,0,L|172:88,1,120,2|2,0:0|0:0,0:0:0:0:
225,91,69900,1,8,0:0:0:0:
305,163,70045,1,0,0:0:0:0:
96,282,70191,6,0,P|57:259|104:206,1,120,2|2,0:0|0:0,0:0:0:0:
131,201,70482,1,8,0:0:0:0:
216,197,70628,1,0,0:0:0:0:
89,126,70773,2,0,L|191:121,1,80,10|0,0:0|0:0,0:0:0:0:
380,67,71065,2,0,L|473:62,1,80,10|2,0:0|0:0,0:0:0:0:
229,292,71356,6,0,P|184:283|243:219,1,160,6|8,0:0|0:0,0:0:0:0:
301,214,71793,1,0,0:0:0:0:
93,163,71938,2,0,L|88:70,1,80,2|0,0:0|0:0,0:0:0:0:
217,46,72230,2,0,L|132:40,1,80,8|0,0:0|0:0,0:0:0:0:
346,262,72521,6,0,L|430:257,1,80,2|0,0:0|0:0,0:0:0:0:
299,202,72812,2,0,L|295:115,1,80,10|0,0:0|0:0,0:0:0:0:
425,147,73104,1,2,0:0:0:0:
385,144,73176,1,2,0:0:0:0:
344,143,73249,1,2,0:0:0:0:
304,139,73322,1,2,0:0:0:0:
264,136,73395,1,8,0:0:0:0:
392,86,73540,1,0,0:0:0:0:
183,284,73686,6,0,L|179:375,1,80,2|0,0:0|0:0,0:0:0:0:
308,278,73977,2,0,L|311:191,1,80,8|0,0:0|0:0,0:0:0:0:
184,142,74269,2,0,L|291:135,1,80,2|0,0:0|0:0,0:0:0:0:
476,57,74560,2,0,L|391:50,1,80,10|0,0:0|0:0,0:0:0:0:
189,233,74851,6,0,L|88:227,1,80,10|0,0:0|0:0,0:0:0:0:
236,165,75142,2,0,L|146:158,1,80,10|0,0:0|0:0,0:0:0:0:
285,94,75434,2,0,L|380:102,1,80,10|0,0:0|0:0,0:0:0:0:
235,37,75725,2,0,L|228:130,1,80,10|2,0:0|0:0,0:0:0:0:
443,322,76016,5,2,0:0:0:0:
473,280,76089,1,2,0:0:0:0:
466,228,76162,1,2,0:0:0:0:
427,192,76235,1,2,0:0:0:0:
375,186,76307,1,8,0:0:0:0:
496,137,76453,1,0,0:0:0:0:
288,169,76599,1,2,0:0:0:0:
192,169,76744,2,0,L|189:72,1,80,2|10,0:0|0:0,0:0:0:0:
321,76,77036,1,0,0:0:0:0:
113,296,77181,5,2,0:0:0:0:
82,259,77254,1,0,0:0:0:0:
80,210,77327,1,2,0:0:0:0:
109,172,77400,1,0,0:0:0:0:
155,162,77472,1,8,0:0:0:0:
26,130,77618,1,0,0:0:0:0:
238,159,77764,1,2,0:0:0:0:
334,164,77909,2,0,L|339:65,1,80,2|10,0:0|0:0,0:0:0:0:
195,79,78201,1,0,0:0:0:0:
405,318,78346,6,0,P|447:308|417:236,1,120,2|2,0:0|0:0,0:0:0:0:
401,236,78637,1,8,0:0:0:0:
319,234,78783,1,0,0:0:0:0:
449,142,78929,2,0,L|312:136,1,120,2|2,0:0|0:0,0:0:0:0:
289,135,79220,1,8,0:0:0:0:
369,78,79366,1,0,0:0:0:0:
160,289,79511,6,0,L|156:191,1,80,10|0,0:0|0:0,0:0:0:0:
286,192,79803,2,0,L|284:105,1,80,10|0,0:0|0:0,0:0:0:0:
74,98,80094,2,0,L|68:8,1,80,10|0,0:0|0:0,0:0:0:0:
281,260,80385,2,0,L|131:253,1,120,10|0,0:0|0:0,0:0:0:0:
361,220,80676,5,6,0:0:0:0:
408,206,80749,1,2,0:0:0:0:
440,170,80822,1,2,0:0:0:0:
444,122,80895,1,2,0:0:0:0:
423,78,80968,1,10,0:0:0:0:
379,59,81040,1,2,0:0:0:0:
241,57,81113,2,0,L|224:102,1,40,2|2,0:0|0:0,0:0:0:0:
405,296,81259,2,0,P|454:281|414:229,1,120,2|2,0:0|0:0,0:0:0:0:
392,227,81550,1,8,0:0:0:0:
265,223,81696,1,2,0:0:0:0:
472,123,81841,6,0,L|337:117,1,120,2|2,0:0|0:0,0:0:0:0:
311,115,82133,1,8,0:0:0:0:
440,53,82278,1,2,0:0:0:0:
228,199,82424,2,0,L|123:193,1,80,2|2,0:0|0:0,0:0:0:0:
276,263,82715,2,0,L|365:268,1,80,10|2,0:0|0:0,0:0:0:0:
146,300,83006,5,2,0:0:0:0:
98,278,83079,1,2,0:0:0:0:
66,236,83152,1,2,0:0:0:0:
67,183,83225,1,2,0:0:0:0:
89,135,83298,1,10,0:0:0:0:
137,116,83371,1,2,0:0:0:0:
268,109,83443,2,0,L|282:160,1,40,2|2,0:0|0:0,0:0:0:0:
91,224,83589,6,0,P|50:207|97:143,1,120,2|2,0:0|0:0,0:0:0:0:
106,145,83880,1,8,0:0:0:0:
234,147,84026,1,2,0:0:0:0:
26,58,84171,6,0,L|121:53,1,80,2|0,0:0|0:0,0:0:0:0:
235,38,84463,2,0,L|322:36,1,80,10|0,0:0|0:0,0:0:0:0:
75,238,84754,2,0,L|72:135,1,80,2|0,0:0|0:0,0:0:0:0:
315,137,85045,2,0,L|320:231,1,80,10|0,0:0|0:0,0:0:0:0:
108,306,85337,5,2,0:0:0:0:
58,291,85409,1,2,0:0:0:0:
27,248,85482,1,2,0:0:0:0:
34,196,85555,1,2,0:0:0:0:
72,158,85628,1,10,0:0:0:0:
122,145,85701,1,2,0:0:0:0:
83,135,85773,1,2,0:0:0:0:
44,122,85846,1,2,0:0:0:0:
247,274,85919,2,0,P|296:270|301:192,1,120,2|2,0:0|0:0,0:0:0:0:
273,201,86210,1,8,0:0:0:0:
148,200,86356,1,0,0:0:0:0:
357,115,86502,6,0,L|229:106,1,120,2|2,0:0|0:0,0:0:0:0:
197,101,86793,1,8,0:0:0:0:
328,42,86938,1,0,0:0:0:0:
91,274,87084,2,0,L|219:268,1,120,2|2,0:0|0:0,0:0:0:0:
250,267,87375,1,8,0:0:0:0:
123,197,87521,1,0,0:0:0:0:
372,222,87667,6,0,P|413:215|373:146,1,120,2|2,0:0|0:0,0:0:0:0:
367,146,87958,1,10,0:0:0:0:
239,140,88104,1,0,0:0:0:0:
479,59,88249,2,0,L|347:52,1,120,2|2,0:0|0:0,0:0:0:0:
319,49,88540,1,8,0:0:0:0:
452,115,88686,1,2,0:0:0:0:
243,295,88832,5,2,0:0:0:0:
193,279,88904,1,2,0:0:0:0:
163,235,88977,1,2,0:0:0:0:
168,183,89050,1,2,0:0:0:0:
201,142,89123,1,8,0:0:0:0:
249,123,89196,1,0,0:0:0:0:
382,123,89269,2,0,L|399:170,1,40,2|0,0:0|0:0,0:0:0:0:
230,66,89414,1,2,0:0:0:0:
134,56,89560,1,2,0:0:0:0:
263,238,89705,1,10,0:0:0:0:
359,234,89851,1,2,0:0:0:0:
126,312,89997,6,0,P|59:282|102:206,1,160,6|0,0:0|0:0,0:0:0:0:
211,150,90434,2,0,L|22:140,1,160,10|0,0:0|0:0,0:0:0:0:
180,71,90870,2,0,L|11:63,1,160,10|0,0:0|0:0,0:0:0:0:
231,269,91307,6,0,P|288:264|256:167,1,160,10|0,0:0|0:0,0:0:0:0:
156,133,91744,2,0,L|251:122,1,80,10|2,0:0|0:0,0:0:0:0:
366,73,92036,2,0,L|298:66,1,40,10|0,0:0|0:0,0:0:0:0:
286,64,92181,2,0,L|215:58,1,40,2|0,0:0|0:0,0:0:0:0:
412,312,92327,6,0,P|460:307|420:226,1,160,6|0,0:0|0:0,0:0:0:0:
307,219,92764,2,0,L|136:211,1,160,10|0,0:0|0:0,0:0:0:0:
277,139,93201,2,0,L|444:126,1,160,10|0,0:0|0:0,0:0:0:0:
219,300,93637,6,0,P|165:283|219:221,1,160,10|0,0:0|0:0,0:0:0:0:
341,220,94074,2,0,L|343:134,1,80,10|0,0:0|0:0,0:0:0:0:
134,133,94366,2,0,L|40:129,1,80,10|2,0:0|0:0,0:0:0:0:
262,280,94657,5,6,0:0:0:0:
359,262,94803,2,0,L|371:214,2,40,0|0|10,0:0|0:0|0:0,0:0:0:0:
229,193,95094,1,0,0:0:0:0:
438,156,95239,1,10,0:0:0:0:
320,143,95385,2,0,L|308:89,2,40,0|0|10,0:0|0:0|0:0,0:0:0:0:
440,73,95676,1,0,0:0:0:0:
229,249,95822,5,10,0:0:0:0:
133,217,95968,2,0,L|127:166,1,40,0|0,0:0|0:0,0:0:0:0:
167,167,96113,1,10,0:0:0:0:
297,159,96259,1,0,0:0:0:0:
86,117,96404,1,10,0:0:0:0:
183,99,96550,2,0,L|188:44,1,40,0|0,0:0|0:0,0:0:0:0:
146,55,96696,1,10,0:0:0:0:
20,52,96841,1,0,0:0:0:0:
229,267,96987,6,0,L|136:259,3,80,10|10|10|10,0:0|0:0|0:0|0:0,0:0:0:0:
280,201,97570,2,0,L|330:204,1,40,8|8,0:0|0:0,0:0:0:0:
319,203,97715,2,0,L|272:200,1,40,8|8,0:0|0:0,0:0:0:0:
134,118,97861,2,0,L|118:161,1,40,8|8,0:0|0:0,0:0:0:0:
279,96,98006,2,0,L|296:47,1,40,8|8,0:0|0:0,0:0:0:0:
101,287,98152,5,2,0:0:0:0:
256,192,98298,12,0,98880,0:0:0:0:
384,217,99026,6,0,L|433:219,1,40,2|0,0:0|0:0,0:0:0:0:
423,218,99171,2,0,L|374:215,1,40,2|0,0:0|0:0,0:0:0:0:
182,219,99317,6,0,L|84:214,1,80,6|0,0:0|0:0,0:0:0:0:
229,149,99608,2,0,L|119:143,1,80,8|0,0:0|0:0,0:0:0:0:
361,147,99900,2,0,L|367:53,1,80,2|0,0:0|0:0,0:0:0:0:
238,55,100191,1,8,0:0:0:0:
366,27,100337,1,0,0:0:0:0:
157,217,100482,6,0,L|152:303,1,80,2|0,0:0|0:0,0:0:0:0:
281,217,100773,2,0,L|285:128,1,80,8|0,0:0|0:0,0:0:0:0:
154,57,101065,1,2,0:0:0:0:
103,66,101137,1,0,0:0:0:0:
71,107,101210,1,0,0:0:0:0:
66,158,101283,1,0,0:0:0:0:
89,204,101356,1,8,0:0:0:0:
134,230,101429,1,0,0:0:0:0:
272,233,101502,2,0,L|291:277,1,40,0|0,0:0|0:0,0:0:0:0:
126,310,101647,5,2,0:0:0:0:
78,289,101720,1,2,0:0:0:0:
59,240,101793,1,2,0:0:0:0:
75,190,101866,1,2,0:0:0:0:
120,165,101938,1,10,0:0:0:0:
250,156,102084,1,0,0:0:0:0:
121,73,102230,2,0,L|114:161,1,80,0|2,0:0|0:0,0:0:0:0:
325,55,102521,2,0,L|418:59,1,80,10|2,0:0|0:0,0:0:0:0:
192,293,102812,6,0,L|197:201,1,80,8|0,0:0|0:0,0:0:0:0:
328,211,103104,2,0,L|332:110,1,80,8|0,0:0|0:0,0:0:0:0:
461,122,103395,2,0,L|464:34,1,80,8|0,0:0|0:0,0:0:0:0:
334,317,103686,2,0,L|430:319,1,80,8|0,0:0|0:0,0:0:0:0:
204,249,103977,5,2,0:0:0:0:
168,212,104050,1,2,0:0:0:0:
174,160,104123,1,2,0:0:0:0:
210,122,104196,1,2,0:0:0:0:
261,118,104269,1,10,0:0:0:0:
387,132,104414,1,2,0:0:0:0:
179,313,104560,2,0,L|81:308,2,80,2|2|10,0:0|0:0|0:0,0:0:0:0:
51,237,104997,1,2,0:0:0:0:
264,262,105142,5,2,0:0:0:0:
310,236,105215,1,2,0:0:0:0:
328,188,105288,1,2,0:0:0:0:
319,136,105361,1,2,0:0:0:0:
275,106,105434,1,10,0:0:0:0:
146,89,105579,1,2,0:0:0:0:
365,316,105725,2,0,L|473:323,2,80,2|2|10,0:0|0:0|0:0,0:0:0:0:
493,261,106162,1,2,0:0:0:0:
286,228,106307,6,0,L|266:181,1,40,2|2,0:0|0:0,0:0:0:0:
415,135,106453,2,0,L|433:187,1,40,2|2,0:0|0:0,0:0:0:0:
247,294,106599,2,0,L|156:289,1,80,10|0,0:0|0:0,0:0:0:0:
376,197,106890,2,0,P|432:158|403:124,1,120,2|2,0:0|0:0,0:0:0:0:
372,124,107181,1,8,0:0:0:0:
241,122,107327,1,0,0:0:0:0:
450,47,107472,6,0,L|296:40,1,120,2|2,0:0|0:0,0:0:0:0:
289,38,107764,1,8,0:0:0:0:
415,80,107909,1,0,0:0:0:0:
285,200,108055,2,0,L|200:197,1,80,2|2,0:0|0:0,0:0:0:0:
413,273,108346,2,0,L|498:278,1,80,10|2,0:0|0:0,0:0:0:0:
261,316,108637,6,0,P|188:301|215:240,1,160,6|0,0:0|0:0,0:0:0:0:
344,175,109074,2,0,L|182:165,1,160,10|0,0:0|0:0,0:0:0:0:
317,101,109511,2,0,L|483:98,1,160,10|0,0:0|0:0,0:0:0:0:
249,11,109948,2,0,P|201:39|266:106,1,160,10|0,0:0|0:0,0:0:0:0:
376,273,110385,2,0,L|380:179,1,80,10|2,0:0|0:0,0:0:0:0:
252,162,110676,2,0,L|198:162,1,40,10|0,0:0|0:0,0:0:0:0:
212,162,110822,2,0,L|262:162,1,40,2|0,0:0|0:0,0:0:0:0:
421,318,110968,5,2,0:0:0:0:
464,298,111040,1,2,0:0:0:0:
483,254,111113,1,2,0:0:0:0:
473,206,111186,1,2,0:0:0:0:
436,174,111259,1,2,0:0:0:0:
305,110,111404,2,0,L|475:96,1,160,10|0,0:0|0:0,0:0:0:0:
336,249,111841,2,0,L|502:233,1,160,10|0,0:0|0:0,0:0:0:0:
282,308,112278,2,0,P|236:300|269:211,1,160,10|0,0:0|0:0,0:0:0:0:
472,121,112715,2,0,L|369:116,1,80,10|0,0:0|0:0,0:0:0:0:
180,98,113006,2,0,L|80:92,1,80,10|0,0:0|0:0,0:0:0:0:
315,230,113298,6,0,L|414:236,1,80,6|0,0:0|0:0,0:0:0:0:
317,189,113516,1,0,0:0:0:0:
235,183,113589,2,0,L|144:180,1,80,10|0,0:0|0:0,0:0:0:0:
236,117,113807,1,0,0:0:0:0:
318,118,113880,2,0,L|412:120,1,80,10|0,0:0|0:0,0:0:0:0:
357,118,114099,1,0,0:0:0:0:
192,108,114171,2,0,L|92:105,1,80,10|0,0:0|0:0,0:0:0:0:
358,239,114463,6,0,L|457:243,1,80,10|10,0:0|0:0,0:0:0:0:
232,292,114754,2,0,L|126:287,1,80,10|10,0:0|0:0,0:0:0:0:
363,159,115045,2,0,L|423:162,1,40,10|8,0:0|0:0,0:0:0:0:
363,159,115191,2,0,L|302:156,1,40,8|8,0:0|0:0,0:0:0:0:
155,106,115337,2,0,L|122:138,1,40,8|8,0:0|0:0,0:0:0:0:
297,74,115482,2,0,L|337:32,1,40,8|8,0:0|0:0,0:0:0:0:
107,243,115628,6,0,P|68:229|135:160,1,160,10|0,0:0|0:0,0:0:0:0:
361,98,116210,2,0,L|177:88,1,160,10|0,0:0|0:0,0:0:0:0:
460,319,116793,2,0,P|495:300|444:214,1,160,10|0,0:0|0:0,0:0:0:0:
176,147,117375,2,0,L|6:143,1,160,10|0,0:0|0:0,0:0:0:0:
489,104,117958,5,2,0:0:0:0:
256,192,118104,12,0,120288,0:0:0:0:
