osu file format v14

[General]
AudioFilename: LegenD.mp3
AudioLeadIn: 0
PreviewTime: 61744
Countdown: 0
SampleSet: Normal
StackLeniency: 0.7
Mode: 2
LetterboxInBreaks: 0
WidescreenStoryboard: 1

[Editor]
DistanceSpacing: 1
BeatDivisor: 4
GridSize: 32
TimelineZoom: 1

[Metadata]
Title:LegenD.
TitleUnicode:LegenD.
Artist:Yooh
ArtistUnicode:Yooh
Creator:Du5t
Version:PlatteR.
Source:SOUND VOLTEX III GRAVITY WARS
Tags:instrumental video game the 4th kac sdvx konami arcade championship 帝国海軍大将 嬬武器烈風刀 dust idust idu5t daletto -hex- hex
BeatmapID:2190557
BeatmapSetID:1047989

[Difficulty]
HPDrainRate:5
CircleSize:3.5
OverallDifficulty:8
ApproachRate:8
SliderMultiplier:1.4
SliderTickRate:2

[Events]
//Background and Video events
0,0,"bg.jpg",0,0
//Break Periods
2,1362,4802
//Storyboard Layer 0 (Background)
//Storyboard Layer 1 (Fail)
//Storyboard Layer 2 (Pass)
//Storyboard Layer 3 (Foreground)
//Storyboard Layer 4 (Overlay)
//Storyboard Sound Samples

[TimingPoints]
1162,292.682926829268,4,1,1,65,1,0
5844,-100,4,1,1,30,0,0
6430,-100,4,1,1,35,0,0
7015,-100,4,1,1,40,0,0
8186,-100,4,1,1,45,0,0
8771,-100,4,1,1,50,0,0
9357,-100,4,1,1,55,0,0
9503,-100,4,1,1,60,0,0
10527,-100,4,1,1,70,0,0
15210,-100,4,1,1,75,0,0
16381,-100,4,1,1,65,0,0
16674,-100,4,1,1,60,0,0
16966,-100,4,1,1,55,0,0
17259,-100,4,1,1,50,0,0
18722,-100,4,1,1,40,0,0
19893,-100,4,1,1,60,0,0
26918,-100,4,1,1,65,0,0
29259,-100,4,1,1,70,0,0
33357,-100,4,1,1,65,0,0
33942,-100,4,1,1,70,0,0
38332,-100,4,1,1,60,0,0
38625,-100,4,1,1,70,0,0
40674,-100,4,1,1,60,0,0
40966,-100,4,1,1,70,0,0
42137,-100,4,1,1,45,0,0
42430,-100,4,1,1,55,0,0
42722,-100,4,1,1,65,0,0
43161,-100,4,1,1,65,0,0
43308,-100,4,1,1,70,0,0
45064,-100,4,1,1,60,0,0
45649,-100,4,1,1,70,0,0
46820,-100,4,1,1,65,0,0
47991,-100,4,1,1,75,0,0
52674,-100,4,1,1,40,0,0
52966,-100,4,1,1,75,0,0
54722,-100,4,1,1,50,0,0
55015,-100,4,1,1,75,0,0
55601,-100,4,1,1,70,0,0
56186,-100,4,1,1,65,0,0
56771,-100,4,1,1,60,0,0
57357,-100,4,1,1,70,0,0
58235,-100,4,1,1,40,0,0
58820,-100,4,1,1,45,0,0
59405,-100,4,1,1,50,0,0
59991,-100,4,1,1,55,0,0
60576,-100,4,1,1,60,0,0
60871,291.26213592233,4,1,1,65,1,0
61160,-100,4,1,1,65,0,0
61742,-100,4,1,1,70,0,0
62036,-100,4,2,2,90,0,1
62108,-100,4,1,2,90,0,1
69026,-100,4,1,2,85,0,1
71356,-100,4,2,2,90,0,1
71429,-100,4,1,2,90,0,1
78346,-100,4,1,2,85,0,1
79511,-100,4,1,2,80,0,1
80385,-100,4,1,2,65,0,1
80604,-100,4,1,2,75,0,0
80676,-100,4,2,2,85,0,1
80749,-100,4,1,2,85,0,1
89997,-100,4,1,1,75,0,0
94657,-100,4,1,2,80,0,0
95822,-100,4,1,2,85,0,0
96987,-100,4,1,2,75,0,0
98152,-100,4,1,2,30,0,0
99026,-100,4,1,1,55,0,0
99317,-100,4,2,2,90,0,1
99390,-100,4,1,2,90,0,1
108637,-100,4,1,2,85,0,1
110385,-100,4,1,2,85,0,1
110968,-100,4,1,2,85,0,1
112715,-100,4,1,2,85,0,1
113298,-100,4,1,2,65,0,1
113589,-100,4,1,2,65,0,1
113880,-100,4,1,2,65,0,1
114171,-100,4,1,2,65,0,1
114463,-100,4,1,2,65,0,1
115045,-100,4,1,2,65,0,1
115628,-100,4,1,1,65,0,0
115919,-100,4,1,1,25,0,0
116210,-100,4,1,1,65,0,0
116502,-100,4,1,1,25,0,0
116793,-100,4,1,1,65,0,0
117084,-100,4,1,1,25,0,0
117375,-100,4,1,1,65,0,0
117667,-100,4,1,1,25,0,0
117958,-100,4,2,2,80,0,0
118104,-100,4,1,1,30,0,0
118540,-100,4,1,1,40,0,0
119123,-100,4,1,1,50,0,0
119414,-100,4,1,1,60,0,0
119705,-100,4,1,1,70,0,0
119997,-100,4,1,1,80,0,0
120142,-100,4,1,1,85,0,0
120288,-100,4,1,1,10,0,0

[Colours]
Combo1 : 125,62,62
Combo2 : 255,9,27
Combo3 : 9,9,255

[HitObjects]
319,265,869,6,0,L|320:186,1,70,0|0,0:0|0:0,0:0:0:0:
151,187,1162,1,6,0:0:0:0:
333,225,5552,5,8,0:0:0:0:
173,216,5698,1,2,0:0:0:0:
256,192,5844,12,0,9210,0:0:0:0:
334,273,9503,6,0,L|419:275,2,70,0|8|0,0:0|0:0|0:0,0:0:0:0:
170,223,9942,2,0,L|157:168,2,35,0|0|0,0:0|0:0|0:0,0:0:0:0:
243,135,10235,1,2,0:0:0:0:
201,130,10308,1,2,0:0:0:0:
159,122,10381,1,2,0:0:0:0:
369,219,10527,6,0,P|409:199|363:127,1,140,6|8,0:0|0:0,0:0:0:0:
297,141,10966,2,0,P|301:88|397:50,1,140,0|0,0:0|0:0,0:0:0:0:
441,47,11405,1,8,0:0:0:0:
216,269,11698,6,0,P|171:262|156:169,1,140,2|8,0:0|0:0,0:0:0:0:
228,178,12137,2,0,P|226:137|141:106,1,140,0|0,0:0|0:0,0:0:0:0:
57,103,12576,1,8,0:0:0:0:
287,300,12869,6,0,L|138:291,1,140,6|8,0:0|0:0,0:0:0:0:
230,231,13308,2,0,L|388:225,1,140,0|0,0:0|0:0,0:0:0:0:
441,224,13747,1,8,0:0:0:0:
213,291,14040,6,0,P|137:265|146:192,1,140,2|8,0:0|0:0,0:0:0:0:
215,194,14479,2,0,L|223:113,1,70,0|0,0:0|0:0,0:0:0:0:
180,119,14698,1,0,0:0:0:0:
138,114,14771,1,0,0:0:0:0:
60,66,14918,1,10,0:0:0:0:
101,61,14991,1,0,0:0:0:0:
142,57,15064,1,2,0:0:0:0:
359,252,15210,6,0,L|443:253,2,70,6|0|8,0:0|0:0|0:0,0:0:0:0:
196,202,15649,2,0,L|117:207,2,70,0|8|0,0:0|0:0|0:0,0:0:0:0:
361,182,16088,2,0,L|364:107,1,70,10|2,0:0|0:0,0:0:0:0:
149,129,16381,6,0,L|68:123,1,70,10|0,0:0|0:0,0:0:0:0:
162,210,16674,2,0,L|82:216,1,70,10|0,0:0|0:0,0:0:0:0:
253,246,16966,1,10,0:0:0:0:
279,285,17040,1,0,0:0:0:0:
263,323,17113,1,0,0:0:0:0:
228,346,17186,1,0,0:0:0:0:
186,343,17259,1,0,0:0:0:0:
159,310,17332,1,0,0:0:0:0:
171,270,17405,1,0,0:0:0:0:
205,245,17479,5,0,0:0:0:0:
256,192,17698,12,0,18430,0:0:0:0:
348,293,18722,5,0,0:0:0:0:
415,242,18869,1,0,0:0:0:0:
406,158,19015,1,0,0:0:0:0:
338,108,19161,1,0,0:0:0:0:
253,115,19308,1,0,0:0:0:0:
209,186,19454,1,0,0:0:0:0:
300,179,19601,1,0,0:0:0:0:
331,256,19747,1,0,0:0:0:0:
121,273,19893,6,0,P|80:262|123:191,1,140,6|0,0:0|0:0,0:0:0:0:
175,183,20332,1,0,0:0:0:0:
250,191,20479,2,0,L|257:108,1,70,0|0,0:0|0:0,0:0:0:0:
172,121,20771,1,2,0:0:0:0:
399,302,21064,6,0,P|409:256|321:205,1,140,2|0,0:0|0:0,0:0:0:0:
261,213,21503,1,0,0:0:0:0:
181,200,21649,2,0,L|194:120,1,70,0|0,0:0|0:0,0:0:0:0:
271,127,21942,1,2,0:0:0:0:
49,287,22235,6,0,P|16:256|77:200,1,140,2|0,0:0|0:0,0:0:0:0:
137,199,22674,1,0,0:0:0:0:
212,172,22820,2,0,L|205:97,1,70,0|0,0:0|0:0,0:0:0:0:
132,114,23113,1,2,0:0:0:0:
361,297,23405,6,0,L|444:291,1,70,2|0,0:0|0:0,0:0:0:0:
344,238,23698,2,0,L|333:153,1,70,2|0,0:0|0:0,0:0:0:0:
410,175,23991,2,0,P|456:162|412:93,1,140,2|2,0:0|0:0,0:0:0:0:
361,86,24430,1,2,0:0:0:0:
147,245,24576,6,0,L|76:239,2,70,2|0|0,0:0|0:0|0:0,0:0:0:0:
372,233,25161,2,0,L|379:143,1,70,2|0,0:0|0:0,0:0:0:0:
300,152,25454,2,0,L|381:144,1,70,2|2,0:0|0:0,0:0:0:0:
206,279,25747,6,0,P|143:256|188:200,1,140,2|0,0:0|0:0,0:0:0:0:
242,199,26186,1,0,0:0:0:0:
166,131,26332,2,0,L|241:125,1,70,2|0,0:0|0:0,0:0:0:0:
313,81,26625,2,0,L|212:75,1,70,2|0,0:0|0:0,0:0:0:0:
457,299,26918,6,0,L|491:218,2,70,2|2|8,0:0|0:0|0:0,0:0:0:0:
231,189,27503,1,2,0:0:0:0:
300,182,27649,1,2,0:0:0:0:
300,115,27796,1,8,0:0:0:0:
62,244,28088,6,0,P|23:211|24:156,1,93.3333333333333,10|0,0:0|0:0,0:0:0:0:
65,167,28381,1,10,0:0:0:0:
160,161,28576,1,0,0:0:0:0:
114,148,28674,1,10,0:0:0:0:
85,111,28771,1,2,0:0:0:0:
83,64,28869,1,2,0:0:0:0:
118,34,28966,1,0,0:0:0:0:
476,305,29259,6,0,P|500:274|428:218,1,140,6|8,0:0|0:0,0:0:0:0:
209,216,29844,2,0,L|200:137,1,70,2|0,0:0|0:0,0:0:0:0:
284,134,30137,2,0,L|293:53,1,70,10|0,0:0|0:0,0:0:0:0:
130,295,30430,6,0,P|88:281|136:216,1,140,2|8,0:0|0:0,0:0:0:0:
345,195,31015,2,0,L|351:106,1,70,2|2,0:0|0:0,0:0:0:0:
273,98,31308,2,0,L|187:91,1,70,10|2,0:0|0:0,0:0:0:0:
368,317,31601,6,0,P|409:302|352:240,1,140,2|8,0:0|0:0,0:0:0:0:
146,148,32186,2,0,L|235:142,1,70,2|0,0:0|0:0,0:0:0:0:
289,143,32479,2,0,L|303:55,1,70,10|0,0:0|0:0,0:0:0:0:
139,302,32771,6,0,P|86:269|95:193,1,140,2|8,0:0|0:0,0:0:0:0:
326,188,33357,2,0,L|358:97,1,70,10|2,0:0|0:0,0:0:0:0:
279,98,33649,1,10,0:0:0:0:
244,96,33722,1,0,0:0:0:0:
208,94,33796,1,2,0:0:0:0:
418,334,33942,6,0,P|459:320|403:263,1,140,6|8,0:0|0:0,0:0:0:0:
196,231,34527,2,0,L|116:229,1,70,2|0,0:0|0:0,0:0:0:0:
203,172,34820,2,0,L|282:169,1,70,10|0,0:0|0:0,0:0:0:0:
53,281,35113,6,0,P|28:226|76:158,1,140,6|8,0:0|0:0,0:0:0:0:
294,114,35698,2,0,L|368:109,1,70,10|2,0:0|0:0,0:0:0:0:
199,180,35991,2,0,L|121:171,1,70,10|2,0:0|0:0,0:0:0:0:
346,275,36283,6,0,L|419:269,1,70,14|10,0:0|0:0,0:0:0:0:
333,221,36576,2,0,L|329:157,1,35,0|0,0:0|0:0,0:0:0:0:
365,181,36722,1,0,0:0:0:0:
224,267,36869,2,0,L|146:261,1,70,10|10,0:0|0:0,0:0:0:0:
235,200,37161,2,0,L|230:145,1,35,0|0,0:0|0:0,0:0:0:0:
196,164,37308,1,0,0:0:0:0:
341,252,37454,6,0,L|422:245,1,70,10|0,0:0|0:0,0:0:0:0:
321,188,37747,2,0,L|241:182,1,70,10|0,0:0|0:0,0:0:0:0:
413,115,38040,2,0,L|500:105,1,70,10|0,0:0|0:0,0:0:0:0:
270,308,38332,2,0,L|183:286,1,70,8|8,0:0|0:0,0:0:0:0:
418,301,38625,6,0,P|456:290|407:231,1,140,6|8,0:0|0:0,0:0:0:0:
265,203,39210,2,0,L|262:121,1,70,2|0,0:0|0:0,0:0:0:0:
342,96,39503,2,0,L|265:87,1,70,10|0,0:0|0:0,0:0:0:0:
109,280,39796,6,0,P|72:258|121:190,1,140,2|8,0:0|0:0,0:0:0:0:
198,184,40235,1,0,0:0:0:0:
206,111,40381,2,0,L|122:103,1,70,2|2,0:0|0:0,0:0:0:0:
62,57,40674,2,0,L|139:53,1,70,2|2,0:0|0:0,0:0:0:0:
345,300,40966,6,0,P|384:288|334:228,1,140,2|8,0:0|0:0,0:0:0:0:
201,160,41552,2,0,L|195:82,1,70,2|0,0:0|0:0,0:0:0:0:
269,89,41844,2,0,L|282:7,1,70,10|0,0:0|0:0,0:0:0:0:
110,275,42137,6,0,L|253:260,1,140,0|2,0:0|0:0,0:0:0:0:
217,256,42503,1,2,0:0:0:0:
185,252,42576,1,2,0:0:0:0:
406,253,42722,2,0,P|448:243|387:140,1,210,8|0,0:0|0:0,0:0:0:0:
182,204,43308,6,0,P|139:194|184:132,1,140,2|8,0:0|0:0,0:0:0:0:
310,133,43893,2,0,L|231:127,1,70,2|0,0:0|0:0,0:0:0:0:
167,87,44186,2,0,L|249:82,1,70,10|0,0:0|0:0,0:0:0:0:
399,283,44479,6,0,L|407:198,1,70,2|0,0:0|0:0,0:0:0:0:
322,211,44771,2,0,L|280:140,1,70,8|0,0:0|0:0,0:0:0:0:
452,156,45064,2,0,L|458:82,1,70,2|2,0:0|0:0,0:0:0:0:
388,54,45357,1,2,0:0:0:0:
422,49,45430,1,2,0:0:0:0:
456,42,45503,1,2,0:0:0:0:
242,294,45649,6,0,P|200:283|247:222,1,140,2|8,0:0|0:0,0:0:0:0:
376,205,46235,2,0,L|378:119,1,70,2|0,0:0|0:0,0:0:0:0:
307,133,46527,2,0,L|391:136,1,70,10|0,0:0|0:0,0:0:0:0:
217,276,46820,6,0,L|143:268,1,70,10|0,0:0|0:0,0:0:0:0:
182,264,47040,1,10,0:0:0:0:
371,238,47259,2,0,L|445:231,1,70,10|0,0:0|0:0,0:0:0:0:
405,231,47479,1,10,0:0:0:0:
228,152,47698,1,10,0:0:0:0:
262,152,47771,1,2,0:0:0:0:
296,151,47844,1,2,0:0:0:0:
67,289,47991,6,0,P|28:271|81:213,1,140,6|8,0:0|0:0,0:0:0:0:
139,206,48430,1,0,0:0:0:0:
299,225,48576,2,0,L|209:218,1,70,2|0,0:0|0:0,0:0:0:0:
158,212,48869,1,10,0:0:0:0:
388,310,49161,6,0,L|462:311,2,70,2|0|8,0:0|0:0|0:0,0:0:0:0:
317,305,49601,1,0,0:0:0:0:
241,244,49747,2,0,L|318:246,1,70,2|0,0:0|0:0,0:0:0:0:
476,248,50040,2,0,L|480:165,1,70,10|2,0:0|0:0,0:0:0:0:
260,180,50332,6,0,P|222:172|265:109,1,140,2|8,0:0|0:0,0:0:0:0:
324,101,50771,1,0,0:0:0:0:
162,55,50918,2,0,L|171:138,1,70,2|0,0:0|0:0,0:0:0:0:
249,125,51210,1,10,0:0:0:0:
25,304,51503,6,0,L|20:217,1,70,10|0,0:0|0:0,0:0:0:0:
110,228,51796,2,0,L|106:145,1,70,10|0,0:0|0:0,0:0:0:0:
266,149,52088,2,0,L|336:152,1,70,10|0,0:0|0:0,0:0:0:0:
166,76,52381,2,0,L|111:75,2,35,10|0|2,0:0|0:0|0:0,0:0:0:0:
469,321,52966,6,0,L|437:253,1,70,10|0,0:0|0:0,0:0:0:0:
346,228,53259,2,0,L|274:230,1,70,2|0,0:0|0:0,0:0:0:0:
360,164,53552,2,0,L|446:168,1,70,10|0,0:0|0:0,0:0:0:0:
273,92,53844,6,0,P|256:135|329:193,1,140,2|8,0:0|0:0,0:0:0:0:
315,194,54283,1,0,0:0:0:0:
237,227,54430,2,0,L|232:316,1,70,2|0,0:0|0:0,0:0:0:0:
319,271,54722,2,0,L|324:358,1,70,2|0,0:0|0:0,0:0:0:0:
109,199,55015,6,0,L|202:195,1,70,10|0,0:0|0:0,0:0:0:0:
255,192,55308,2,0,L|344:187,1,70,10|0,0:0|0:0,0:0:0:0:
233,139,55601,2,0,L|226:50,1,70,10|0,0:0|0:0,0:0:0:0:
320,82,55893,2,0,L|326:7,1,70,10|0,0:0|0:0,0:0:0:0:
104,260,56186,6,0,L|26:255,1,70,10|0,0:0|0:0,0:0:0:0:
194,215,56479,2,0,L|295:207,1,70,10|0,0:0|0:0,0:0:0:0:
103,179,56771,2,0,L|97:101,1,70,2|0,0:0|0:0,0:0:0:0:
172,74,57064,2,0,L|81:66,1,70,10|2,0:0|0:0,0:0:0:0:
336,274,57357,5,6,0:0:0:0:
256,192,57649,12,10,61744,0:0:0:0:
389,236,62036,6,0,P|435:226|398:161,1,140,6|8,0:0|0:0,0:0:0:0:
336,156,62472,1,0,0:0:0:0:
176,180,62618,2,0,L|326:165,1,140,2|8,0:0|0:0,0:0:0:0:
241,161,63055,1,0,0:0:0:0:
399,300,63201,6,0,P|421:260|348:206,1,140,2|10,0:0|0:0,0:0:0:0:
294,209,63637,1,0,0:0:0:0:
454,205,63783,1,2,0:0:0:0:
480,177,63856,1,2,0:0:0:0:
478,138,63929,1,2,0:0:0:0:
449,111,64002,1,2,0:0:0:0:
412,100,64074,2,0,L|487:85,1,70,8|0,0:0|0:0,0:0:0:0:
264,295,64366,6,0,P|224:257|278:206,1,140,2|8,0:0|0:0,0:0:0:0:
341,210,64803,1,0,0:0:0:0:
263,161,64948,2,0,L|173:149,1,70,2|0,0:0|0:0,0:0:0:0:
356,101,65239,2,0,L|362:27,1,70,10|0,0:0|0:0,0:0:0:0:
144,267,65531,6,0,L|290:278,2,140,10|10|10,0:0|0:0|0:0,0:0:0:0:
287,176,66404,2,0,L|208:171,1,70,10|0,0:0|0:0,0:0:0:0:
381,219,66696,5,2,0:0:0:0:
416,196,66769,1,2,0:0:0:0:
428,156,66841,1,2,0:0:0:0:
409,118,66914,1,2,0:0:0:0:
370,101,66987,2,0,L|284:100,1,70,8|2,0:0|0:0,0:0:0:0:
467,318,67278,2,0,L|471:228,1,70,2|2,0:0|0:0,0:0:0:0:
390,202,67570,2,0,L|482:197,1,70,10|0,0:0|0:0,0:0:0:0:
295,273,67861,5,2,0:0:0:0:
260,249,67934,1,2,0:0:0:0:
244,210,68006,1,2,0:0:0:0:
259,170,68079,1,2,0:0:0:0:
299,157,68152,2,0,L|380:148,1,70,8|2,0:0|0:0,0:0:0:0:
204,188,68443,2,0,L|200:97,1,70,2|2,0:0|0:0,0:0:0:0:
276,95,68735,2,0,L|356:87,1,70,10|2,0:0|0:0,0:0:0:0:
126,303,69026,6,0,P|86:296|95:221,1,105,2|2,0:0|0:0,0:0:0:0:
115,228,69317,1,8,0:0:0:0:
198,225,69463,1,0,0:0:0:0:
42,185,69608,2,0,P|21:144|68:96,1,105,2|2,0:0|0:0,0:0:0:0:
94,99,69900,1,8,0:0:0:0:
184,100,70045,1,0,0:0:0:0:
340,291,70191,6,0,P|370:257|320:212,1,105,2|2,0:0|0:0,0:0:0:0:
299,215,70482,1,8,0:0:0:0:
211,217,70628,1,0,0:0:0:0:
376,161,70773,2,0,L|383:73,1,70,10|0,0:0|0:0,0:0:0:0:
218,88,71065,2,0,L|169:90,2,35,10|0|2,0:0|0:0|0:0,0:0:0:0:
432,318,71356,6,0,P|465:290|394:232,1,140,6|8,0:0|0:0,0:0:0:0:
342,225,71793,1,0,0:0:0:0:
182,225,71938,2,0,L|331:212,1,140,2|8,0:0|0:0,0:0:0:0:
251,214,72375,1,0,0:0:0:0:
86,301,72521,6,0,P|43:262|93:207,1,140,2|10,0:0|0:0,0:0:0:0:
156,213,72958,1,0,0:0:0:0:
318,227,73104,1,2,0:0:0:0:
338,191,73176,1,2,0:0:0:0:
328,150,73249,1,2,0:0:0:0:
294,125,73322,1,2,0:0:0:0:
252,116,73395,2,0,L|337:107,1,70,8|0,0:0|0:0,0:0:0:0:
111,238,73686,6,0,P|71:212|139:163,1,140,2|8,0:0|0:0,0:0:0:0:
185,156,74123,1,0,0:0:0:0:
263,168,74269,2,0,L|271:94,1,70,2|0,0:0|0:0,0:0:0:0:
108,92,74560,2,0,L|103:17,1,70,10|0,0:0|0:0,0:0:0:0:
318,290,74851,6,0,L|174:277,2,140,10|10|10,0:0|0:0|0:0,0:0:0:0:
458,255,75725,2,0,L|463:208,1,35,10|0,0:0|0:0,0:0:0:0:
427,213,75871,1,2,0:0:0:0:
262,194,76016,5,2,0:0:0:0:
233,175,76089,1,2,0:0:0:0:
227,140,76162,1,2,0:0:0:0:
251,113,76235,1,2,0:0:0:0:
290,111,76307,2,0,L|295:42,1,70,8|0,0:0|0:0,0:0:0:0:
126,309,76599,2,0,L|117:217,1,70,2|2,0:0|0:0,0:0:0:0:
205,200,76890,1,10,0:0:0:0:
113,179,77036,1,0,0:0:0:0:
274,271,77181,5,2,0:0:0:0:
305,248,77254,1,0,0:0:0:0:
299,209,77327,1,2,0:0:0:0:
267,186,77400,1,0,0:0:0:0:
229,182,77472,2,0,L|225:103,1,70,8|0,0:0|0:0,0:0:0:0:
389,301,77764,2,0,L|395:216,1,70,2|2,0:0|0:0,0:0:0:0:
311,197,78055,1,10,0:0:0:0:
391,168,78201,1,0,0:0:0:0:
176,280,78346,6,0,P|125:264|140:208,1,105,2|2,0:0|0:0,0:0:0:0:
164,211,78637,1,8,0:0:0:0:
241,206,78783,1,0,0:0:0:0:
79,168,78929,2,0,P|49:138|100:82,1,105,2|2,0:0|0:0,0:0:0:0:
109,87,79220,1,8,0:0:0:0:
186,83,79366,1,0,0:0:0:0:
344,275,79511,6,0,L|201:263,1,140,10|10,0:0|0:0,0:0:0:0:
377,192,80094,1,10,0:0:0:0:
137,182,80385,2,0,L|136:103,1,70,10|0,0:0|0:0,0:0:0:0:
346,310,80676,5,6,0:0:0:0:
370,275,80749,1,2,0:0:0:0:
358,234,80822,1,2,0:0:0:0:
322,211,80895,1,2,0:0:0:0:
279,209,80968,1,10,0:0:0:0:
352,154,81113,1,2,0:0:0:0:
187,178,81259,2,0,P|148:143|189:105,1,105,2|2,0:0|0:0,0:0:0:0:
214,107,81550,1,8,0:0:0:0:
294,108,81696,1,2,0:0:0:0:
131,289,81841,6,0,L|263:283,1,105,2|2,0:0|0:0,0:0:0:0:
278,281,82133,1,8,0:0:0:0:
194,222,82278,1,2,0:0:0:0:
357,220,82424,2,0,L|362:134,1,70,2|2,0:0|0:0,0:0:0:0:
282,139,82715,2,0,L|363:129,1,70,10|2,0:0|0:0,0:0:0:0:
136,237,83006,5,2,0:0:0:0:
110,203,83079,1,2,0:0:0:0:
110,160,83152,1,2,0:0:0:0:
143,134,83225,1,2,0:0:0:0:
185,134,83298,1,10,0:0:0:0:
113,86,83443,1,2,0:0:0:0:
277,256,83589,2,0,P|317:241|285:182,1,105,2|2,0:0|0:0,0:0:0:0:
265,181,83880,1,8,0:0:0:0:
179,172,84026,1,2,0:0:0:0:
341,129,84171,6,0,L|346:44,1,70,2|0,0:0|0:0,0:0:0:0:
257,78,84463,2,0,L|251:164,1,70,10|0,0:0|0:0,0:0:0:0:
414,262,84754,2,0,L|335:260,1,70,2|0,0:0|0:0,0:0:0:0:
428,198,85045,2,0,L|431:121,1,70,10|0,0:0|0:0,0:0:0:0:
211,289,85337,5,2,0:0:0:0:
184,256,85409,1,2,0:0:0:0:
185,213,85482,1,2,0:0:0:0:
214,183,85555,1,2,0:0:0:0:
255,175,85628,1,10,0:0:0:0:
172,118,85773,1,2,0:0:0:0:
254,129,85919,2,0,P|288:109|254:56,1,105,2|2,0:0|0:0,0:0:0:0:
224,57,86210,1,8,0:0:0:0:
141,62,86356,1,0,0:0:0:0:
64,266,86502,6,0,P|26:246|58:191,1,105,2|2,0:0|0:0,0:0:0:0:
87,190,86793,1,8,0:0:0:0:
171,193,86938,1,0,0:0:0:0:
333,226,87084,2,0,P|368:207|318:162,1,105,2|2,0:0|0:0,0:0:0:0:
295,152,87375,1,8,0:0:0:0:
207,151,87521,1,0,0:0:0:0:
426,310,87667,6,0,P|459:297|427:248,1,105,2|2,0:0|0:0,0:0:0:0:
384,248,87958,1,10,0:0:0:0:
462,191,88104,1,0,0:0:0:0:
303,152,88249,2,0,L|300:230,1,70,2|2,0:0|0:0,0:0:0:0:
395,127,88540,2,0,L|484:129,1,70,8|2,0:0|0:0,0:0:0:0:
251,285,88832,5,2,0:0:0:0:
217,268,88904,1,2,0:0:0:0:
195,235,88977,1,2,0:0:0:0:
198,196,89050,1,2,0:0:0:0:
224,168,89123,1,8,0:0:0:0:
301,166,89269,1,2,0:0:0:0:
141,115,89414,2,0,L|64:112,1,70,2|2,0:0|0:0,0:0:0:0:
156,52,89705,2,0,L|74:50,1,70,10|2,0:0|0:0,0:0:0:0:
306,294,89997,6,0,P|357:289|372:193,1,140,6|0,0:0|0:0,0:0:0:0:
221,207,90434,2,0,P|177:198|155:105,1,140,10|0,0:0|0:0,0:0:0:0:
303,138,90870,2,0,P|351:123|302:71,1,140,10|0,0:0|0:0,0:0:0:0:
149,255,91307,6,0,L|295:248,1,140,10|0,0:0|0:0,0:0:0:0:
126,190,91744,2,0,L|124:116,1,70,10|2,0:0|0:0,0:0:0:0:
201,81,92036,1,10,0:0:0:0:
239,79,92108,1,0,0:0:0:0:
277,80,92181,1,2,0:0:0:0:
65,295,92327,6,0,P|40:261|105:199,1,140,6|0,0:0|0:0,0:0:0:0:
258,199,92764,2,0,P|279:147|214:100,1,140,10|0,0:0|0:0,0:0:0:0:
60,145,93201,2,0,P|25:115|84:49,1,140,10|0,0:0|0:0,0:0:0:0:
227,276,93637,6,0,L|77:268,1,140,10|0,0:0|0:0,0:0:0:0:
249,221,94074,2,0,L|256:139,1,70,10|0,0:0|0:0,0:0:0:0:
174,108,94366,2,0,L|257:102,1,70,10|2,0:0|0:0,0:0:0:0:
459,298,94657,6,0,P|481:251|440:204,1,105,6|0,0:0|0:0,0:0:0:0:
416,211,94948,1,10,0:0:0:0:
336,211,95094,1,0,0:0:0:0:
173,243,95239,2,0,P|147:200|191:161,1,105,10|0,0:0|0:0,0:0:0:0:
216,168,95531,1,10,0:0:0:0:
300,172,95676,1,0,0:0:0:0:
84,144,95822,6,0,P|45:116|85:70,1,105,10|0,0:0|0:0,0:0:0:0:
105,74,96113,1,10,0:0:0:0:
191,75,96259,1,0,0:0:0:0:
351,270,96404,2,0,L|230:264,1,105,10|0,0:0|0:0,0:0:0:0:
207,260,96696,1,10,0:0:0:0:
290,203,96841,1,0,0:0:0:0:
79,229,96987,5,10,0:0:0:0:
29,170,97133,1,10,0:0:0:0:
44,94,97278,1,10,0:0:0:0:
116,68,97424,1,10,0:0:0:0:
278,186,97570,1,8,0:0:0:0:
316,186,97642,1,8,0:0:0:0:
278,186,97715,1,8,0:0:0:0:
240,177,97788,1,8,0:0:0:0:
223,142,97861,1,8,0:0:0:0:
224,103,97934,1,8,0:0:0:0:
239,68,98006,1,8,0:0:0:0:
271,47,98079,1,8,0:0:0:0:
309,42,98152,1,2,0:0:0:0:
256,192,98298,12,2,99026,0:0:0:0:
343,301,99317,6,0,P|395:278|333:229,1,140,6|8,0:0|0:0,0:0:0:0:
289,219,99754,1,0,0:0:0:0:
122,212,99900,2,0,L|119:133,1,70,2|0,0:0|0:0,0:0:0:0:
195,117,100191,1,8,0:0:0:0:
116,82,100337,1,0,0:0:0:0:
328,274,100482,6,0,L|196:350,1,140,2|8,0:0|0:0,0:0:0:0:
136,274,100919,1,0,0:0:0:0:
299,220,101065,2,0,L|308:143,1,70,2|0,0:0|0:0,0:0:0:0:
228,115,101356,1,8,0:0:0:0:
305,97,101502,1,0,0:0:0:0:
142,234,101647,5,2,0:0:0:0:
108,208,101720,1,2,0:0:0:0:
97,167,101793,1,2,0:0:0:0:
111,127,101866,1,2,0:0:0:0:
148,108,101938,1,10,0:0:0:0:
227,104,102084,1,0,0:0:0:0:
146,114,102230,2,0,L|142:195,1,70,0|2,0:0|0:0,0:0:0:0:
303,211,102521,2,0,L|358:212,2,35,10|0|2,0:0|0:0|0:0,0:0:0:0:
90,299,102812,6,0,L|7:302,1,70,8|0,0:0|0:0,0:0:0:0:
106,247,103104,2,0,L|113:160,1,70,8|0,0:0|0:0,0:0:0:0:
275,192,103395,2,0,L|282:108,1,70,8|0,0:0|0:0,0:0:0:0:
200,120,103686,2,0,L|197:35,1,70,8|0,0:0|0:0,0:0:0:0:
410,316,103977,5,2,0:0:0:0:
442,288,104050,1,2,0:0:0:0:
440,245,104123,1,2,0:0:0:0:
405,220,104196,1,2,0:0:0:0:
365,204,104269,2,0,L|454:194,1,70,10|2,0:0|0:0,0:0:0:0:
272,226,104560,2,0,L|266:142,1,70,2|2,0:0|0:0,0:0:0:0:
355,143,104851,2,0,L|361:88,1,35,10|0,0:0|0:0,0:0:0:0:
316,99,104997,1,2,0:0:0:0:
110,302,105142,5,2,0:0:0:0:
78,273,105215,1,2,0:0:0:0:
74,231,105288,1,2,0:0:0:0:
94,194,105361,1,2,0:0:0:0:
133,178,105434,1,10,0:0:0:0:
58,147,105579,1,2,0:0:0:0:
228,178,105725,2,0,L|232:93,1,70,2|2,0:0|0:0,0:0:0:0:
152,111,106016,2,0,L|145:27,1,70,10|2,0:0|0:0,0:0:0:0:
358,290,106307,5,2,0:0:0:0:
319,285,106380,1,2,0:0:0:0:
281,277,106453,1,2,0:0:0:0:
243,269,106526,1,2,0:0:0:0:
204,264,106599,1,10,0:0:0:0:
287,206,106744,1,0,0:0:0:0:
125,200,106890,2,0,L|120:110,1,70,2|0,0:0|0:0,0:0:0:0:
200,92,107181,2,0,L|123:83,1,70,8|0,0:0|0:0,0:0:0:0:
349,270,107472,6,0,P|391:253|344:208,1,105,2|2,0:0|0:0,0:0:0:0:
334,204,107764,1,8,0:0:0:0:
258,203,107909,1,0,0:0:0:0:
329,154,108055,2,0,L|333:67,1,70,2|2,0:0|0:0,0:0:0:0:
171,78,108346,2,0,L|80:71,1,70,10|2,0:0|0:0,0:0:0:0:
317,301,108637,6,0,P|361:280|306:220,1,140,6|0,0:0|0:0,0:0:0:0:
165,215,109074,2,0,P|131:197|189:138,1,140,10|0,0:0|0:0,0:0:0:0:
336,126,109511,2,0,P|355:86|276:55,1,140,10|0,0:0|0:0,0:0:0:0:
444,274,109948,6,0,L|295:262,1,140,10|0,0:0|0:0,0:0:0:0:
466,222,110385,2,0,L|469:145,1,70,10|2,0:0|0:0,0:0:0:0:
381,134,110676,2,0,L|428:133,1,35,10|0,0:0|0:0,0:0:0:0:
450,139,110822,1,2,0:0:0:0:
206,288,110968,5,2,0:0:0:0:
172,270,111040,1,2,0:0:0:0:
158,233,111113,1,2,0:0:0:0:
165,195,111186,1,2,0:0:0:0:
198,176,111259,1,2,0:0:0:0:
358,192,111404,2,0,P|396:172|335:122,1,140,10|0,0:0|0:0,0:0:0:0:
186,84,111841,2,0,L|326:74,1,140,10|0,0:0|0:0,0:0:0:0:
164,255,112278,6,0,L|308:240,1,140,10|0,0:0|0:0,0:0:0:0:
143,203,112715,2,0,L|137:127,1,70,10|0,0:0|0:0,0:0:0:0:
228,122,113006,2,0,L|328:118,1,70,10|0,0:0|0:0,0:0:0:0:
81,303,113298,6,0,L|75:217,1,70,6|0,0:0|0:0,0:0:0:0:
165,232,113589,2,0,L|163:154,1,70,10|0,0:0|0:0,0:0:0:0:
332,140,113880,2,0,L|410:142,1,70,10|0,0:0|0:0,0:0:0:0:
187,67,114171,2,0,L|103:74,1,70,10|0,0:0|0:0,0:0:0:0:
331,260,114463,6,0,L|407:251,3,70,10|10|10|10,0:0|0:0|0:0|0:0,0:0:0:0:
239,225,115045,1,10,0:0:0:0:
200,208,115118,1,8,0:0:0:0:
183,169,115191,1,8,0:0:0:0:
190,127,115264,1,8,0:0:0:0:
211,90,115337,1,8,0:0:0:0:
247,69,115409,1,8,0:0:0:0:
289,69,115482,1,8,0:0:0:0:
76,274,115628,6,0,P|32:266|81:213,1,140,10|0,0:0|0:0,0:0:0:0:
296,176,116210,2,0,L|151:167,1,140,10|0,0:0|0:0,0:0:0:0:
386,314,116793,2,0,P|435:295|374:249,1,140,10|0,0:0|0:0,0:0:0:0:
127,109,117375,2,0,B|59:104|59:104|134:109,1,140,10|0,0:0|0:0,0:0:0:0:
487,141,117958,5,2,0:0:0:0:
256,192,118104,12,0,120288,0:0:0:0:
