osu file format v14

[General]
AudioFilename: Yooh - LegenD.mp3
AudioLeadIn: 0
PreviewTime: 61746
Countdown: 1
SampleSet: Normal
StackLeniency: 0.7
Mode: 0
LetterboxInBreaks: 1
WidescreenStoryboard: 0

[Editor]
DistanceSpacing: 1
BeatDivisor: 4
GridSize: 4
TimelineZoom: 2.6

[Metadata]
Title:LegenD.
TitleUnicode:LegenD.
Artist:Yooh
ArtistUnicode:Yooh
Creator:Beardaru
Version:INFINITE
Source:
Tags:
BeatmapID:1929333
BeatmapSetID:923869

[Difficulty]
HPDrainRate:6
CircleSize:4.2
OverallDifficulty:9
ApproachRate:9.7
SliderMultiplier:2.2
SliderTickRate:1

[Events]
//Background and Video events
0,0,"bg.png",0,0
//Break Periods
//Storyboard Layer 0 (Background)
//Storyboard Layer 1 (Fail)
//Storyboard Layer 2 (Pass)
//Storyboard Layer 3 (Foreground)
//Storyboard Sound Samples

[TimingPoints]
1015,292.682926829268,4,1,0,65,1,0
10380,-83.3333333333333,4,1,0,65,0,0
18575,-83.3333333333333,4,2,0,60,0,0
19307,-333,4,2,0,60,0,0
19673,-333,4,2,0,5,0,0
19746,-83.3333333333333,4,1,0,65,0,0
27063,-83.3333333333333,4,1,0,45,0,0
27356,-83.3333333333333,4,1,0,65,0,0
27649,-83.3333333333333,4,1,0,45,0,0
27941,-83.3333333333333,4,1,0,65,0,0
29039,-83.3333333333333,4,1,0,5,0,0
29112,-83.3333333333333,4,1,0,65,0,0
34380,-76.9230769230769,4,1,0,65,0,0
34966,-71.4285714285714,4,1,0,65,0,0
35551,-83.3333333333333,4,1,0,65,0,0
36429,-83.3333333333333,4,1,0,45,0,0
36722,-83.3333333333333,4,1,0,65,0,0
37014,-83.3333333333333,4,1,0,45,0,0
37307,-83.3333333333333,4,1,0,65,0,0
42210,-83.3333333333333,4,1,0,5,0,0
42283,-83.3333333333333,4,1,0,65,0,0
47551,-83.3333333333333,4,1,0,25,0,0
47624,-83.3333333333333,4,1,0,35,0,0
47697,-83.3333333333333,4,1,0,45,0,0
47771,-83.3333333333333,4,1,0,55,0,0
47844,-83.3333333333333,4,1,0,65,0,0
57283,-83.3333333333333,4,1,0,20,0,0
58088,-83.3333333333333,4,1,0,40,0,0
58673,-83.3333333333333,4,1,0,50,0,0
59258,-83.3333333333333,4,1,0,60,0,0
59844,-83.3333333333333,4,1,0,70,0,0
60722,-83.3333333333333,4,1,0,80,0,0
61893,291.26213592233,4,1,0,75,1,0
61893,-62.5,4,1,0,75,0,1
62184,-71.4285714285714,4,1,0,75,0,1
64732,-71.4285714285714,4,1,0,5,0,1
64805,-83.3333333333333,4,1,0,75,0,1
65388,-71.4285714285714,4,1,0,75,0,1
78203,-71.4285714285714,4,1,0,75,0,0
80533,-71.4285714285714,4,1,0,75,0,1
89562,-71.4285714285714,4,1,0,75,0,0
90291,-83.3333333333333,4,1,0,75,0,0
92184,-71.4285714285714,4,1,0,75,0,0
94368,-90.9090909090909,4,1,0,75,0,0
96844,-71.4285714285714,4,1,0,75,0,0
99028,-71.4285714285714,4,1,0,5,0,0
99174,-76.9230769230769,4,1,0,75,0,0
100339,-58.8235294117647,4,1,0,75,0,0
100485,-76.9230769230769,4,1,0,75,0,0
101504,-76.9230769230769,4,1,0,45,0,0
101795,-76.9230769230769,4,1,0,75,0,0

[Colours]
Combo1 : 0,255,255
Combo2 : 255,255,255
Combo3 : 155,34,221
Combo4 : 255,136,252
Combo5 : 0,115,255
Combo6 : 255,0,51

[HitObjects]
116,152,722,6,0,P|144:92|162:88,1,55,8|0,0:0|0:0,0:0:0:0:
204,48,868,1,0,0:0:0:0:
204,48,941,1,0,0:0:0:0:
204,48,1015,1,12,0:0:0:0:
64,168,5405,6,0,P|128:184|202:141,1,110,8|0,0:0|0:0,0:0:0:0:
168,171,5624,1,0,0:0:0:0:
168,171,5697,1,0,0:0:0:0:
372,92,9356,6,0,L|416:164,1,55
452,240,9502,1,8,0:0:0:0:
296,220,9649,1,0,0:0:0:0:
228,344,9795,1,8,0:0:0:0:
228,344,9868,1,8,0:0:0:0:
228,344,9941,1,8,0:0:0:0:
36,220,10088,5,0,0:0:0:0:
36,220,10161,1,0,0:0:0:0:
36,220,10234,1,0,0:0:0:0:
64,228,10307,1,0,0:0:0:0:
84,248,10380,2,0,P|140:276|216:244,1,131.99999597168,4|0,0:0|0:0,0:0:0:0:
352,64,10673,6,0,B|300:118|300:118|296:185,1,131.99999597168,8|0,0:0|0:0,0:0:0:0:
291,326,10966,1,0,0:0:0:0:
461,223,11112,1,0,0:0:0:0:
436,320,11258,2,0,P|379:268|380:170,1,131.99999597168,8|0,0:0|0:0,0:0:0:0:
381,91,11551,1,0,0:0:0:0:
222,191,11697,1,0,0:0:0:0:
52,200,11844,6,0,B|98:146|98:146|184:97,1,131.99999597168,8|0,0:0|0:0,0:0:0:0:
256,60,12136,1,0,0:0:0:0:
294,199,12283,1,0,0:0:0:0:
380,63,12429,2,0,B|431:108|431:108|460:218,1,131.99999597168,8|0,0:0|0:0,0:0:0:0:
474,273,12649,1,8,0:0:0:0:
474,273,12722,2,0,L|383:382,1,131.99999597168,8|0,0:0|0:0,0:0:0:0:
280,314,13014,6,0,P|324:266|284:182,1,131.99999597168,8|0,0:0|0:0,0:0:0:0:
223,91,13307,1,0,0:0:0:0:
383,38,13454,1,0,0:0:0:0:
206,98,13600,2,0,L|70:151,1,131.99999597168,8|0,0:0|0:0,0:0:0:0:
5,258,13893,1,0,0:0:0:0:
119,352,14039,1,0,0:0:0:0:
224,232,14185,2,0,P|240:152|180:82,1,131.99999597168,8|0,0:0|0:0,0:0:0:0:
69,24,14478,6,0,L|132:63,1,65.9999979858399,8|0,0:0|0:0,0:0:0:0:
141,140,14624,1,8,0:0:0:0:
141,152,14697,1,8,0:0:0:0:
141,164,14771,2,0,L|70:123,1,65.9999979858399,8|0,0:0|0:0,0:0:0:0:
77,226,14917,2,0,L|150:268,1,65.9999979858399,8|0,0:0|0:0,0:0:0:0:
217,296,15063,2,0,P|277:312|366:264,1,131.99999597168,4|0,0:0|0:0,0:0:0:0:
468,152,15356,6,0,L|343:212,1,131.99999597168,8|0,0:0|0:0,0:0:0:0:
220,252,15575,1,0,0:0:0:0:
212,252,15649,2,0,L|112:151,1,131.99999597168
40,68,15941,2,0,P|-10:128|6:211,1,131.99999597168,8|0,0:0|0:0,0:0:0:0:
4,292,16161,5,0,0:0:0:0:
4,292,16234,2,0,L|140:293,1,131.99999597168,8|0,0:0|0:0,0:0:0:0:
112,200,16454,1,0,0:0:0:0:
112,200,16527,2,0,L|229:115,1,131.99999597168,8|0,0:0|0:0,0:0:0:0:
215,227,16746,1,0,0:0:0:0:
215,227,16819,2,0,L|371:228,1,131.99999597168,8|0,0:0|0:0,0:0:0:0:
396,224,17039,5,0,0:0:0:0:
440,196,17112,1,0,0:0:0:0:
464,152,17185,1,0,0:0:0:0:
464,100,17258,1,0,0:0:0:0:
432,60,17332,1,0,0:0:0:0:
84,64,18575,5,2,0:0:0:0:
244,112,18722,1,2,0:0:0:0:
112,160,18868,1,2,0:0:0:0:
184,32,19014,1,2,0:0:0:0:
184,232,19161,1,2,0:0:0:0:
282,320,19307,2,2,P|318:292|333:254,1,82.5825825825826
336,224,19746,6,0,B|323:170|323:170|301:155|301:155|272:79,1,131.99999597168,4|0,0:0|0:0,0:0:0:0:
362,68,20039,1,8,0:0:0:0:
219,181,20185,1,0,0:0:0:0:
249,24,20332,1,8,0:0:0:0:
395,174,20478,1,0,0:0:0:0:
312,282,20624,1,8,0:0:0:0:
204,184,20771,1,0,0:0:0:0:
128,268,20917,6,0,B|174:324|174:324|246:343,1,131.99999597168,12|0,0:0|0:0,0:0:0:0:
370,353,21210,1,8,0:0:0:0:
312,193,21356,1,0,0:0:0:0:
452,245,21502,1,8,0:0:0:0:
280,280,21649,1,0,0:0:0:0:
240,136,21795,1,8,0:0:0:0:
416,92,21941,1,0,0:0:0:0:
232,116,22088,6,0,L|81:153,1,131.99999597168,12|0,0:0|0:0,0:0:0:0:
20,244,22380,1,8,0:0:0:0:
145,339,22527,1,0,0:0:0:0:
213,153,22673,1,8,0:0:0:0:
280,272,22819,1,0,0:0:0:0:
112,196,22966,1,8,0:0:0:0:
200,56,23112,1,0,0:0:0:0:
264,184,23258,6,0,L|405:77,1,131.99999597168,8|0,0:0|0:0,0:0:0:0:
456,40,23551,2,0,L|456:212,1,131.99999597168,8|0,0:0|0:0,0:0:0:0:
272,326,23844,2,0,L|394:225,1,131.99999597168,8|0,0:0|0:0,0:0:0:0:
264,184,24136,2,0,L|100:184,1,131.99999597168,8|8,0:0|0:0,0:0:0:0:
31,133,24429,6,0,B|99:113|99:113|151:61,1,131.99999597168,12|0,0:0|0:0,0:0:0:0:
219,0,24722,1,8,0:0:0:0:
300,161,24868,1,0,0:0:0:0:
197,117,25014,2,0,B|207:197|207:197|247:256,1,131.99999597168,12|0,0:0|0:0,0:0:0:0:
340,320,25307,5,8,0:0:0:0:
468,264,25454,1,8,0:0:0:0:
336,272,25600,5,8,0:0:0:0:
404,140,25746,1,0,0:0:0:0:
320,224,25893,5,8,0:0:0:0:
266,95,26040,1,0,0:0:0:0:
271,227,26185,5,8,0:0:0:0:
141,156,26332,1,0,0:0:0:0:
192,324,26478,5,8,0:0:0:0:
192,324,26624,1,0,0:0:0:0:
24,316,26771,6,12,L|24:167,1,131.99999597168
80,120,27063,1,8,0:0:0:0:
80,120,27136,1,8,0:0:0:0:
80,120,27210,1,8,0:0:0:0:
172,236,27356,6,12,L|170:100,1,131.99999597168
228,40,27648,1,8,0:0:0:0:
228,40,27722,1,8,0:0:0:0:
228,40,27795,1,8,0:0:0:0:
312,60,27941,6,0,P|305:142|414:154,1,175.999994628906,4|4,0:0|0:0,0:0:0:0:
458,174,28234,2,0,P|522:230|482:310,1,175.999994628906,4|0,0:0|0:0,0:0:0:0:
428,324,28527,1,4,0:0:0:0:
348,348,28624,1,4,0:0:0:0:
272,312,28722,1,4,0:0:0:0:
208,260,28819,2,12,P|184:208|264:116,1,175.999994628906,4|0,0:0|0:0,0:0:0:0:
331,61,29112,6,0,B|432:108|432:108|392:117,1,131.99999597168
431,278,29405,2,0,B|330:231|330:231|370:222,1,131.99999597168,8|0,0:0|0:0,0:0:0:0:
211,79,29697,6,0,B|191:188|191:188|172:152,1,131.99999597168
27,231,29990,2,0,B|46:121|46:121|65:157,1,131.99999597168,8|0,0:0|0:0,0:0:0:0:
168,160,30283,2,0,L|306:174,1,131.99999597168
290,319,30576,2,0,L|438:338,1,131.99999597168,8|0,0:0|0:0,0:0:0:0:
457,189,30868,5,8,0:0:0:0:
504,51,31014,1,8,0:0:0:0:
327,240,31161,5,8,0:0:0:0:
374,102,31307,1,8,0:0:0:0:
209,190,31454,6,0,L|323:308,1,131.99999597168,4|0,0:0|0:0,0:0:0:0:
92,252,31746,2,0,L|0:158,1,131.99999597168,8|0,0:0|0:0,0:0:0:0:
120,113,32039,5,0,0:0:0:0:
318,41,32185,1,0,0:0:0:0:
188,19,32332,5,8,0:0:0:0:
233,186,32478,1,0,0:0:0:0:
316,56,32624,2,0,L|437:121,1,131.99999597168
320,183,32917,2,0,L|279:315,1,131.99999597168,8|0,0:0|0:0,0:0:0:0:
407,202,33210,5,8,0:0:0:0:
477,319,33356,1,8,0:0:0:0:
483,100,33502,5,8,0:0:0:0:
463,60,33575,1,8,0:0:0:0:
419,40,33649,1,8,0:0:0:0:
379,60,33722,1,8,0:0:0:0:
387,100,33795,6,0,P|327:96|303:30,1,131.99999597168,4|0,0:0|0:0,0:0:0:0:
123,100,34088,2,8,P|183:96|207:29,1,131.99999597168,8|0,0:0|0:0,0:0:0:0:
416,233,34380,6,0,P|343:228|311:141,1,142.99999345398
95,233,34673,2,0,P|167:228|199:150,1,142.99999345398,8|0,0:0|0:0,0:0:0:0:
456,355,34966,6,0,P|364:348|320:253,1,153.999995300293,4|0,0:0|0:0,0:0:0:0:
55,355,35259,2,0,P|146:348|190:256,1,153.999995300293,8|0,0:0|0:0,0:0:0:0:
208,204,35551,5,12,0:0:0:0:
320,52,35697,1,8,0:0:0:0:
320,52,35771,1,8,0:0:0:0:
320,52,35844,1,8,0:0:0:0:
136,112,35990,1,0,0:0:0:0:
224,36,36136,6,12,B|248:88|248:88|214:203,1,131.99999597168
186,278,36429,1,8,0:0:0:0:
186,278,36502,1,8,0:0:0:0:
186,278,36575,1,8,0:0:0:0:
364,124,36722,6,12,B|388:176|388:176|348:294,1,131.99999597168
320,366,37015,1,8,0:0:0:0:
320,366,37088,1,8,0:0:0:0:
320,366,37161,1,8,0:0:0:0:
96,276,37307,5,8,0:0:0:0:
232,80,37454,1,0,0:0:0:0:
264,280,37600,1,8,0:0:0:0:
72,168,37746,1,0,0:0:0:0:
312,180,37893,1,8,0:0:0:0:
408,316,38039,1,0,0:0:0:0:
458,121,38185,1,8,0:0:0:0:
461,116,38258,1,8,0:0:0:0:
464,112,38332,1,8,0:0:0:0:
466,107,38405,1,8,0:0:0:0:
469,102,38478,6,0,B|477:82|477:82|325:44,1,131.99999597168
228,49,38771,2,0,B|180:47|180:47|137:107|226:138,1,131.99999597168,8|0,0:0|0:0,0:0:0:0:
255,221,39063,2,0,B|280:261|280:261|357:265|344:177,1,131.99999597168
368,166,39283,1,0,0:0:0:0:
396,116,39356,2,0,B|457:27|457:27|483:95,1,131.99999597168,8|0,0:0|0:0,0:0:0:0:
483,178,39649,2,0,P|422:309|422:309,1,131.99999597168
286,342,39941,6,0,L|232:295,1,65.9999979858399,8|0,0:0|0:0,0:0:0:0:
162,222,40088,1,0,0:0:0:0:
122,190,40161,1,0,0:0:0:0:
106,142,40234,1,0,0:0:0:0:
122,94,40307,1,0,0:0:0:0:
166,70,40380,1,4,0:0:0:0:
338,24,40819,6,0,L|219:109,1,131.99999597168,4|0,0:0|0:0,0:0:0:0:
116,175,41112,1,8,0:0:0:0:
273,303,41258,1,0,0:0:0:0:
275,159,41405,1,0,0:0:0:0:
154,306,41551,1,0,0:0:0:0:
137,322,41624,1,0,0:0:0:0:
120,337,41697,2,0,B|91:354|91:354|47:351|19:279,1,131.99999597168,8|0,0:0|0:0,0:0:0:0:
20,152,41990,6,4,P|48:188|192:179,1,197.99999395752,0|0,0:0|0:0,0:0:0:0:
236,133,42283,5,8,0:0:0:0:
261,69,42356,1,8,0:0:0:0:
211,18,42429,1,8,0:0:0:0:
146,51,42502,1,8,0:0:0:0:
157,123,42575,2,0,B|193:166|142:202|142:202|142:216|198:303,2,197.99999395752,8|0|0,0:0|0:0|0:0,0:0:0:0:
292,48,43161,6,0,P|316:120|387:146,1,131.99999597168,4|0,0:0|0:0,0:0:0:0:
502,177,43454,2,0,P|490:247|424:288,1,131.99999597168,8|0,0:0|0:0,0:0:0:0:
288,336,43746,1,0,0:0:0:0:
204,184,43893,1,0,0:0:0:0:
204,184,43966,1,0,0:0:0:0:
204,184,44039,1,8,0:0:0:0:
43,152,44185,1,0,0:0:0:0:
139,76,44332,6,0,B|203:96|203:96|298:66,1,131.99999597168,4|0,0:0|0:0,0:0:0:0:
335,62,44551,1,0,0:0:0:0:
335,62,44624,1,8,0:0:0:0:
335,62,44697,1,0,0:0:0:0:
335,62,44771,1,0,0:0:0:0:
441,161,44917,5,8,0:0:0:0:
259,336,45063,1,8,0:0:0:0:
447,346,45210,5,8,0:0:0:0:
286,161,45356,1,8,0:0:0:0:
118,241,45502,6,0,B|154:213|154:213|202:229|235:176,1,131.99999597168,4|0,0:0|0:0,0:0:0:0:
285,71,45795,2,8,B|355:83|355:83|405:127,1,131.99999597168,8|0,0:0|0:0,0:0:0:0:
410,304,46088,2,0,B|472:267|472:267|498:208,1,131.99999597168
402,209,46307,1,0,0:0:0:0:
402,209,46380,2,0,L|263:210,1,131.99999597168,8|0,0:0|0:0,0:0:0:0:
160,184,46673,5,4,0:0:0:0:
412,79,46893,5,4,0:0:0:0:
296,328,47112,5,4,0:0:0:0:
212,68,47332,5,4,0:0:0:0:
16,240,47551,5,8,0:0:0:0:
68,244,47624,1,8,0:0:0:0:
104,272,47697,1,8,0:0:0:0:
128,308,47771,1,8,0:0:0:0:
160,339,47844,6,0,B|216:323|216:323|264:347|315:297,1,131.99999597168,4|0,0:0|0:0,0:0:0:0:
362,241,48136,2,0,B|386:217|386:217|450:208|473:147,1,131.99999597168,8|0,0:0|0:0,0:0:0:0:
381,122,48356,1,0,0:0:0:0:
381,122,48429,2,0,L|237:149,1,131.99999597168
74,180,48649,1,0,0:0:0:0:
74,180,48722,2,0,L|51:326,1,131.99999597168,8|0,0:0|0:0,0:0:0:0:
148,336,49014,1,0,0:0:0:0:
324,200,49161,1,0,0:0:0:0:
120,124,49307,1,8,0:0:0:0:
104,116,49380,1,8,0:0:0:0:
92,104,49454,1,8,0:0:0:0:
84,88,49527,1,8,0:0:0:0:
80,72,49600,6,0,B|88:36|88:36|141:51|192:15,1,131.99999597168,4|0,0:0|0:0,0:0:0:0:
300,32,49893,2,0,P|336:84|289:172,1,131.99999597168,8|0,0:0|0:0,0:0:0:0:
237,274,50185,1,0,0:0:0:0:
85,356,50332,1,0,0:0:0:0:
149,200,50478,1,8,0:0:0:0:
205,372,50624,1,0,0:0:0:0:
44,248,50771,2,0,B|30:187|30:187|61:118,1,131.99999597168
160,31,50990,1,0,0:0:0:0:
160,31,51063,2,0,L|282:80,1,131.99999597168,8|0,0:0|0:0,0:0:0:0:
408,132,51356,6,0,L|343:181,1,65.9999979858399,12|0,0:0|0:0,0:0:0:0:
272,224,51502,1,0,0:0:0:0:
453,196,51649,2,0,L|388:241,1,65.9999979858399,12|0,0:0|0:0,0:0:0:0:
316,288,51795,1,0,0:0:0:0:
501,260,51941,2,0,L|440:306,1,65.9999979858399,12|0,0:0|0:0,0:0:0:0:
364,352,52087,1,0,0:0:0:0:
242,341,52234,5,8,0:0:0:0:
174,313,52307,1,8,0:0:0:0:
124,257,52380,1,8,0:0:0:0:
107,184,52454,1,8,0:0:0:0:
278,16,52819,6,0,B|208:36|208:36|153:88,1,131.99999597168,12|0,0:0|0:0,0:0:0:0:
72,156,53112,2,0,B|82:224|82:224|124:277,1,131.99999597168
218,353,53332,1,0,0:0:0:0:
218,353,53405,2,0,L|76:353,1,131.99999597168,8|0,0:0|0:0,0:0:0:0:
28,208,53697,5,0,0:0:0:0:
112,72,53844,1,0,0:0:0:0:
224,192,53990,1,8,0:0:0:0:
272,172,54063,1,8,0:0:0:0:
304,132,54136,1,8,0:0:0:0:
316,80,54210,1,8,0:0:0:0:
312,28,54283,1,8,0:0:0:0:
412,176,54429,5,4,0:0:0:0:
80,96,54868,6,0,L|207:38,1,131.99999597168,8|0,0:0|0:0,0:0:0:0:
296,103,55161,2,0,L|427:44,1,131.99999597168,8|0,0:0|0:0,0:0:0:0:
84,224,55454,6,0,L|217:163,1,131.99999597168,8|0,0:0|0:0,0:0:0:0:
300,231,55673,1,8,0:0:0:0:
300,231,55747,2,0,L|429:171,1,131.99999597168,8|0,0:0|0:0,0:0:0:0:
100,356,56039,6,0,L|254:282,1,131.99999597168,8|0,0:0|0:0,0:0:0:0:
420,316,56332,2,0,L|266:389,1,131.99999597168,8|0,0:0|0:0,0:0:0:0:
172,353,56624,2,0,L|171:266,1,65.9999979858399,2|0,0:0|0:0,0:0:0:0:
88,185,56771,2,0,L|88:252,1,65.9999979858399
172,200,56917,2,0,L|171:115,1,65.9999979858399,2|0,0:0|0:0,0:0:0:0:
88,36,57064,2,0,L|88:107,1,65.9999979858399,2|0,0:0|0:0,0:0:0:0:
88,208,57210,5,0,0:0:0:0:
88,224,57283,1,0,0:0:0:0:
92,240,57356,1,0,0:0:0:0:
100,256,57429,1,0,0:0:0:0:
108,272,57502,1,4,0:0:0:0:
120,284,57575,1,0,0:0:0:0:
132,296,57649,1,0,0:0:0:0:
144,308,57722,1,0,0:0:0:0:
160,316,57795,1,4,0:0:0:0:
176,324,57868,1,0,0:0:0:0:
192,328,57941,1,0,0:0:0:0:
208,332,58014,1,0,0:0:0:0:
236,336,58088,5,4,0:0:0:0:
264,336,58161,1,0,0:0:0:0:
292,336,58234,1,0,0:0:0:0:
320,324,58307,1,0,0:0:0:0:
340,304,58380,1,4,0:0:0:0:
348,276,58454,1,0,0:0:0:0:
352,248,58527,1,0,0:0:0:0:
344,220,58600,1,0,0:0:0:0:
320,188,58673,5,4,0:0:0:0:
284,200,58746,1,0,0:0:0:0:
264,232,58819,1,0,0:0:0:0:
224,232,58893,1,0,0:0:0:0:
192,212,58966,1,4,0:0:0:0:
184,172,59039,1,0,0:0:0:0:
204,140,59112,1,0,0:0:0:0:
212,100,59185,1,0,0:0:0:0:
200,52,59258,5,4,0:0:0:0:
148,40,59332,1,0,0:0:0:0:
112,76,59405,1,0,0:0:0:0:
104,128,59478,1,0,0:0:0:0:
136,168,59551,1,4,0:0:0:0:
184,180,59624,1,0,0:0:0:0:
216,220,59697,1,0,0:0:0:0:
264,236,59771,1,0,0:0:0:0:
300,272,59844,1,4,0:0:0:0:
348,284,59917,1,0,0:0:0:0:
392,260,59990,1,0,0:0:0:0:
420,220,60063,1,0,0:0:0:0:
424,156,60136,5,4,0:0:0:0:
400,96,60210,1,0,0:0:0:0:
348,64,60283,1,0,0:0:0:0:
292,92,60356,1,0,0:0:0:0:
276,152,60429,1,4,0:0:0:0:
304,208,60502,1,0,0:0:0:0:
300,272,60575,1,0,0:0:0:0:
260,320,60649,1,0,0:0:0:0:
196,324,60722,6,0,L|111:324,1,65.9999979858399,12|0,0:0|0:0,0:0:0:0:
40,248,60868,2,0,L|117:247,1,65.9999979858399,12|0,0:0|0:0,0:0:0:0:
204,168,61014,2,0,L|117:169,1,65.9999979858399,12|0,0:0|0:0,0:0:0:0:
44,92,61160,2,0,L|120:92,1,65.9999979858399,12|0,0:0|0:0,0:0:0:0:
176,92,61307,5,8,0:0:0:0:
248,96,61380,1,8,0:0:0:0:
308,140,61454,1,8,0:0:0:0:
344,204,61527,1,8,0:0:0:0:
348,276,61600,1,12,0:0:0:0:
232,348,61746,5,0,0:0:0:0:
184,320,61819,1,0,0:0:0:0:
144,288,61893,2,0,P|98:215|171:289,1,352,4|8,0:0|0:0,0:0:0:0:
84,344,62329,5,0,0:0:0:0:
24,208,62475,2,0,B|59:134|59:134|138:92|132:80,1,153.999995300293
248,32,62766,1,8,0:0:0:0:
176,200,62912,1,0,0:0:0:0:
316,124,63058,2,0,B|340:172|340:172|315:204|314:246|394:280,1,153.999995300293
472,364,63349,2,0,B|480:304|511:285|511:285|481:214,1,153.999995300293,8|0,0:0|0:0,0:0:0:0:
406,105,63640,5,0,0:0:0:0:
362,61,63713,1,0,0:0:0:0:
306,37,63786,1,0,0:0:0:0:
246,37,63859,1,0,0:0:0:0:
194,61,63931,1,8,0:0:0:0:
68,144,64077,5,0,0:0:0:0:
178,74,64223,6,0,B|180:104|196:125|196:125|200:164|225:184|225:184|223:216|249:232|249:232|247:259|273:281,1,230.99999295044
121,346,64514,6,0,B|118:315|103:295|103:295|98:255|74:236|74:236|75:203|50:188|50:188|52:161|26:139,1,230.99999295044,8|0,0:0|0:0,0:0:0:0:
208,352,64805,2,0,L|242:286,1,65.9999979858399
288,196,64951,2,0,L|388:196,1,65.9999979858399
394,312,65096,2,0,L|281:277,1,65.9999979858399,8|0,0:0|0:0,0:0:0:0:
180,244,65242,2,0,L|180:131,1,65.9999979858399
317,199,65388,6,0,B|285:151|285:151|229:147|210:83,1,153.999995300293,12|0,0:0|0:0,0:0:0:0:
147,272,65679,2,0,B|83:272|83:272|32:260|32:189,1,153.999995300293,12|0,0:0|0:0,0:0:0:0:
48,71,65970,2,0,B|84:39|84:39|116:51|116:51|140:27|204:27,1,153.999995300293,8|0,0:0|0:0,0:0:0:0:
327,68,66261,5,8,0:0:0:0:
269,237,66407,1,8,0:0:0:0:
444,84,66553,5,0,0:0:0:0:
384,116,66626,1,0,0:0:0:0:
352,172,66698,1,0,0:0:0:0:
352,240,66771,1,0,0:0:0:0:
388,296,66844,1,8,0:0:0:0:
444,200,66990,5,0,0:0:0:0:
264,244,67135,6,0,L|327:198,1,76.9999976501466
240,164,67281,2,0,L|171:115,1,76.9999976501466
176,216,67426,2,0,B|167:259|167:259|190:311,1,76.9999976501466,8|0,0:0|0:0,0:0:0:0:
249,254,67572,2,0,L|312:209,1,76.9999976501466
92,328,67718,5,0,0:0:0:0:
48,284,67791,1,0,0:0:0:0:
68,228,67863,1,0,0:0:0:0:
96,176,67936,1,0,0:0:0:0:
104,116,68009,1,8,0:0:0:0:
200,36,68155,1,0,0:0:0:0:
316,156,68300,6,0,L|252:110,1,76.9999976501466
420,260,68446,2,0,L|485:308,1,76.9999976501466
420,156,68591,2,0,L|483:107,1,76.9999976501466,8|0,0:0|0:0,0:0:0:0:
316,260,68737,2,0,L|246:303,1,76.9999976501466
171,343,68883,6,0,P|87:363|12:313,1,153.999995300293
105,257,69101,5,0,0:0:0:0:
105,257,69174,2,0,P|185:233|257:285,1,153.999995300293,8|0,0:0|0:0,0:0:0:0:
372,260,69393,5,0,0:0:0:0:
372,260,69465,2,0,P|356:177|423:115,1,153.999995300293
459,209,69683,5,0,0:0:0:0:
459,209,69756,2,0,P|467:290|421:350,1,153.999995300293,8|0,0:0|0:0,0:0:0:0:
300,344,69975,5,0,0:0:0:0:
300,344,70048,2,0,P|231:359|138:311,1,153.999995300293
240,236,70266,5,0,0:0:0:0:
240,236,70339,2,0,P|179:204|85:249,1,153.999995300293,8|0,0:0|0:0,0:0:0:0:
32,272,70630,6,0,P|24:304|34:357,1,76.9999976501466,8|4,0:0|0:0,0:0:0:0:
82,219,70776,2,0,P|49:242|29:280,1,76.9999976501466
176,176,70922,6,0,P|184:208|173:257,1,76.9999976501466,8|0,0:0|0:0,0:0:0:0:
124,118,71068,2,0,P|158:143|175:175,1,76.9999976501466,8|0,0:0|0:0,0:0:0:0:
32,94,71213,6,0,P|76:38|186:46,1,153.999995300293,4|0,0:0|0:0,0:0:0:0:
284,56,71504,1,8,0:0:0:0:
385,220,71650,1,0,0:0:0:0:
170,279,71795,1,0,0:0:0:0:
221,133,71941,1,0,0:0:0:0:
323,361,72087,1,8,0:0:0:0:
469,249,72232,1,0,0:0:0:0:
477,237,72305,1,0,0:0:0:0:
485,225,72378,2,0,B|480:141|480:141|432:73,1,153.999995300293
339,0,72669,6,0,B|301:46|245:42|245:42|280:96,1,153.999995300293,8|0,0:0|0:0,0:0:0:0:
352,200,72960,1,0,0:0:0:0:
368,252,73033,1,0,0:0:0:0:
352,304,73106,1,0,0:0:0:0:
320,348,73179,1,0,0:0:0:0:
268,360,73252,1,8,0:0:0:0:
126,359,73397,5,0,0:0:0:0:
32,232,73543,2,0,B|105:250|105:250|217:222,1,153.999995300293
303,100,73834,2,0,B|226:88|226:88|138:108,1,153.999995300293,8|0,0:0|0:0,0:0:0:0:
32,232,74126,5,0,0:0:0:0:
344,196,74271,1,0,0:0:0:0:
120,36,74417,1,8,0:0:0:0:
176,324,74562,1,0,0:0:0:0:
145,182,74708,6,0,B|167:241|222:222|222:222|179:290|233:366,1,230.99999295044,12|0,0:0|0:0,0:0:0:0:
398,219,74999,2,8,B|375:137|319:163|319:163|287:229|223:214|156:245,1,230.99999295044,12|0,0:0|0:0,0:0:0:0:
163,28,75291,6,0,B|178:86|218:79|218:79|245:119|223:158|223:158|233:233,1,230.99999295044,12|0,0:0|0:0,0:0:0:0:
28,261,75582,2,0,B|68:247|93:262|93:262|127:248|131:221|131:221|208:255|247:202,1,230.99999295044,12|0,0:0|0:0,0:0:0:0:
136,336,75873,5,0,0:0:0:0:
196,352,75946,1,0,0:0:0:0:
256,336,76019,1,0,0:0:0:0:
296,288,76092,1,0,0:0:0:0:
312,232,76164,1,8,0:0:0:0:
400,340,76310,5,0,0:0:0:0:
405,194,76456,6,0,L|470:148,1,76.9999976501466
421,62,76602,2,0,L|355:16,1,76.9999976501466
297,126,76747,2,0,L|298:210,1,76.9999976501466,8|0,0:0|0:0,0:0:0:0:
392,155,76893,2,0,L|479:158,1,76.9999976501466
297,202,77038,5,0,0:0:0:0:
249,222,77111,1,0,0:0:0:0:
197,214,77184,1,0,0:0:0:0:
149,190,77257,1,0,0:0:0:0:
101,214,77329,1,8,0:0:0:0:
38,109,77475,5,0,0:0:0:0:
164,48,77621,6,0,L|101:4,1,76.9999976501466
284,168,77767,2,0,L|349:214,1,76.9999976501466
284,48,77912,2,0,L|348:0,1,76.9999976501466,8|0,0:0|0:0,0:0:0:0:
164,168,78058,2,0,L|99:217,1,76.9999976501466
78,257,78203,6,0,P|122:321|225:312,1,153.999995300293,4|0,0:0|0:0,0:0:0:0:
166,237,78422,1,0,0:0:0:0:
166,237,78494,2,0,L|331:237,1,153.999995300293,8|0,0:0|0:0,0:0:0:0:
58,282,78786,2,0,P|106:342|204:335,1,153.999995300293
249,319,79004,1,0,0:0:0:0:
249,319,79077,2,0,L|412:319,1,153.999995300293,8|0,0:0|0:0,0:0:0:0:
414,230,79368,6,0,P|465:129|362:154,1,230.99999295044,12|0,0:0|0:0,0:0:0:0:
356,144,79659,2,0,B|320:168|320:168|313:222|229:264|168:185,1,230.99999295044,12|0,0:0|0:0,0:0:0:0:
139,157,79951,2,0,B|102:156|84:124|84:124|-12:192|30:298,1,230.99999295044,12|0,0:0|0:0,0:0:0:0:
92,230,80242,2,0,P|140:318|277:330,1,230.99999295044,12|0,0:0|0:0,0:0:0:0:
296,316,80533,5,4,0:0:0:0:
324,296,80606,1,0,0:0:0:0:
348,272,80679,1,0,0:0:0:0:
372,248,80752,1,0,0:0:0:0:
388,220,80825,1,8,0:0:0:0:
396,188,80897,1,0,0:0:0:0:
396,156,80970,1,0,0:0:0:0:
388,124,81043,1,0,0:0:0:0:
376,92,81116,6,0,B|345:74|325:60|325:60|248:147|159:66,1,230.99999295044
93,31,81407,2,0,B|53:58|53:58|28:102,1,76.9999976501466,8|0,0:0|0:0,0:0:0:0:
36,227,81553,1,0,0:0:0:0:
36,227,81626,1,0,0:0:0:0:
36,227,81698,2,0,B|8:251|8:251|55:307|126:281,1,153.999995300293
173,270,81917,1,0,0:0:0:0:
229,251,81990,2,0,B|350:207|350:207|262:164,1,153.999995300293,8|0,0:0|0:0,0:0:0:0:
244,126,82281,6,0,L|316:83,1,76.9999976501466
200,50,82426,2,0,L|270:9,1,76.9999976501466
100,42,82572,2,0,L|30:83,1,76.9999976501466,8|0,0:0|0:0,0:0:0:0:
144,118,82718,2,0,L|47:182,1,76.9999976501466
20,257,82863,5,4,0:0:0:0:
20,257,82936,1,0,0:0:0:0:
20,257,83009,1,0,0:0:0:0:
20,257,83082,1,0,0:0:0:0:
52,316,83154,5,8,0:0:0:0:
116,338,83227,1,0,0:0:0:0:
178,311,83300,1,0,0:0:0:0:
206,249,83373,1,0,0:0:0:0:
194,180,83446,6,0,B|191:144|168:128|168:128|245:125|266:107|241:48|323:52,1,230.99999295044
393,140,83737,2,0,B|410:178|410:178|392:254,1,76.9999976501466,8|0,0:0|0:0,0:0:0:0:
351,330,83883,1,0,1:0:0:0:
346,343,83956,1,0,1:0:0:0:
343,358,84028,2,0,B|421:338|421:338|493:351,1,153.999995300293,8|0,0:0|0:0,0:0:0:0:
480,166,84320,2,0,B|402:186|402:186|296:166,1,153.999995300293,8|0,0:0|0:0,0:0:0:0:
96,84,84611,2,0,B|110:154|110:154|180:232,1,153.999995300293,8|0,0:0|0:0,0:0:0:0:
415,299,84902,2,0,B|396:226|396:226|331:151,1,153.999995300293,8|0,0:0|0:0,0:0:0:0:
156,90,85193,5,4,0:0:0:0:
156,90,85266,1,0,0:0:0:0:
156,90,85339,1,0,0:0:0:0:
156,90,85412,1,0,0:0:0:0:
85,94,85484,5,8,0:0:0:0:
33,138,85557,1,0,0:0:0:0:
20,205,85630,1,0,0:0:0:0:
52,265,85703,1,0,0:0:0:0:
109,306,85776,2,0,B|161:302|161:302|189:334|189:334|257:279|325:323,1,230.99999295044
403,355,86067,6,0,L|447:286,1,76.9999976501466,8|0,0:0|0:0,0:0:0:0:
491,171,86213,2,0,L|384:170,1,76.9999976501466
336,206,86359,2,0,B|304:187|276:214|276:214|216:120|111:213,1,230.99999295044
19,148,86650,2,0,B|54:126|54:126|139:102,1,76.9999976501466,8|0,0:0|0:0,0:0:0:0:
253,70,86795,5,0,0:0:0:0:
293,60,86868,1,0,0:0:0:0:
333,51,86941,2,0,P|404:59|386:200,1,230.99999295044
361,126,87232,2,0,L|278:166,1,76.9999976501466,8|0,0:0|0:0,0:0:0:0:
173,207,87378,1,0,0:0:0:0:
103,225,87451,1,0,0:0:0:0:
47,181,87524,2,0,P|-1:138|29:32,1,153.999995300293
75,100,87815,6,0,B|91:164|91:164|79:204|79:204|126:259,1,153.999995300293,8|0,0:0|0:0,0:0:0:0:
140,272,88033,1,0,0:0:0:0:
172,300,88106,2,0,B|224:300|224:300|238:349|302:355|328:336,1,153.999995300293
292,272,88325,1,0,0:0:0:0:
292,272,88397,2,0,B|279:222|279:222|304:169|258:120,1,153.999995300293,8|0,0:0|0:0,0:0:0:0:
220,32,88689,5,0,0:0:0:0:
168,44,88761,1,0,0:0:0:0:
128,80,88834,1,0,0:0:0:0:
116,132,88907,1,0,0:0:0:0:
132,184,88980,1,8,0:0:0:0:
184,212,89053,1,0,0:0:0:0:
240,172,89126,5,0,0:0:0:0:
300,204,89198,1,0,0:0:0:0:
316,268,89271,2,0,B|261:320|261:320|176:340,1,153.999995300293
44,292,89562,5,8,0:0:0:0:
88,244,89635,1,8,0:0:0:0:
112,180,89708,1,8,0:0:0:0:
112,116,89780,1,8,0:0:0:0:
84,56,89854,2,0,B|128:48|128:48|182:56|192:136,1,153.999995300293,4|0,0:0|0:0,0:0:0:0:
336,196,90145,5,8,0:0:0:0:
344,208,90218,1,8,0:0:0:0:
352,220,90291,2,4,L|470:146,1,131.99999597168,4|0,0:0|0:0,0:0:0:0:
264,128,90582,5,8,0:0:0:0:
274,117,90655,1,8,0:0:0:0:
284,107,90727,2,0,L|189:7,1,131.99999597168,4|0,0:0|0:0,0:0:0:0:
92,24,91019,1,8,0:0:0:0:
84,32,91092,1,8,0:0:0:0:
76,40,91164,6,0,B|179:112|28:220|128:284,1,263.99999194336,4|0,0:0|0:0,0:0:0:0:
192,348,91601,1,4,0:0:0:0:
268,60,91747,1,4,0:0:0:0:
476,204,91892,1,12,0:0:0:0:
248,316,92038,1,8,0:0:0:0:
232,320,92111,1,8,0:0:0:0:
216,324,92184,6,0,B|81:294|226:100|43:92,1,307.999990600586,4|8,0:0|0:0,0:0:0:0:
16,168,92548,5,8,0:0:0:0:
40,192,92621,2,0,B|108:257|220:113|349:220,1,307.999990600586,4|8,0:0|0:0,0:0:0:0:
392,120,92985,5,8,0:0:0:0:
412,92,93058,2,0,B|368:60|344:36|344:36|324:44|320:148|192:116|152:47,1,307.999990600586,4|8,0:0|0:0,0:0:0:0:
252,24,93422,5,8,0:0:0:0:
260,56,93494,2,0,B|288:100|280:160|280:160|384:136|403:300,1,307.999990600586,4|8,0:0|0:0,0:0:0:0:
407,321,93859,5,8,0:0:0:0:
415,353,93931,1,4,0:0:0:0:
208,120,94077,1,4,0:0:0:0:
92,312,94223,1,12,0:0:0:0:
364,200,94368,1,0,0:0:0:0:
364,200,94441,1,0,0:0:0:0:
364,200,94514,2,0,P|384:140|395:94,1,60.5000018463135,8|0,0:0|0:0,0:0:0:0:
244,128,94659,5,0,0:0:0:0:
244,128,94732,1,0,0:0:0:0:
244,128,94805,2,0,P|192:112|168:85,1,60.5000018463135,8|0,0:0|0:0,0:0:0:0:
184,272,94951,5,0,0:0:0:0:
184,272,95024,1,0,0:0:0:0:
184,272,95096,2,0,P|196:323|221:370,1,60.5000018463135,8|0,0:0|0:0,0:0:0:0:
372,336,95242,5,0,0:0:0:0:
372,336,95315,1,0,0:0:0:0:
372,336,95387,2,0,P|436:312|457:285,1,60.5000018463135,8|0,0:0|0:0,0:0:0:0:
264,224,95533,5,0,0:0:0:0:
264,224,95606,1,0,0:0:0:0:
264,224,95679,2,0,P|203:186|178:178,1,60.5000018463135,8|0,0:0|0:0,0:0:0:0:
96,104,95825,5,0,0:0:0:0:
96,104,95898,1,0,0:0:0:0:
96,104,95970,2,0,P|116:168|138:196,1,60.5000018463135,8|0,0:0|0:0,0:0:0:0:
232,84,96116,5,0,0:0:0:0:
232,84,96189,1,0,0:0:0:0:
232,84,96261,2,0,P|296:60|323:44,1,60.5000018463135,8|0,0:0|0:0,0:0:0:0:
248,236,96407,5,0,0:0:0:0:
248,236,96480,1,0,0:0:0:0:
248,236,96553,2,0,P|184:204|156:203,1,60.5000018463135,8|0,0:0|0:0,0:0:0:0:
20,200,96698,6,0,L|106:257,1,60.5000018463135,8|0,0:0|0:0,0:0:0:0:
216,324,96844,5,8,0:0:0:0:
268,340,96917,1,0,0:0:0:0:
320,336,96990,1,8,0:0:0:0:
368,316,97062,1,0,0:0:0:0:
404,276,97135,1,8,0:0:0:0:
424,228,97208,1,0,0:0:0:0:
432,176,97281,1,8,0:0:0:0:
420,124,97354,1,0,0:0:0:0:
396,76,97426,6,0,L|340:5,1,76.9999976501466,8|8,0:0|0:0,0:0:0:0:
236,36,97572,2,0,L|296:115,1,76.9999976501466,8|8,0:0|0:0,0:0:0:0:
384,88,97718,6,0,L|327:15,1,76.9999976501466,8|8,0:0|0:0,0:0:0:0:
224,48,97864,2,0,L|280:124,1,76.9999976501466,8|8,0:0|0:0,0:0:0:0:
328,180,98009,5,4,0:0:0:0:
256,192,98082,12,0,99028,0:0:0:0:
470,274,99174,6,0,B|470:223|433:203|433:203|371:133,1,142.99999345398,4|0,0:0|0:0,0:0:0:0:
288,44,99465,1,8,0:0:0:0:
152,192,99611,1,0,0:0:0:0:
36,72,99757,1,0,0:0:0:0:
188,80,99902,5,8,0:0:0:0:
212,108,99975,1,8,0:0:0:0:
232,140,100048,2,0,P|240:240|212:306,1,142.99999345398,4|0,0:0|0:0,0:0:0:0:
350,300,100339,6,0,P|369:233|342:108,1,187.000003566742,8|0,0:0|0:0,0:0:0:0:
204,48,100630,1,0,0:0:0:0:
204,48,100703,1,0,0:0:0:0:
204,48,100776,1,8,0:0:0:0:
204,48,100849,1,8,0:0:0:0:
172,80,100922,5,0,0:0:0:0:
144,136,100994,1,0,0:0:0:0:
104,184,101067,1,8,0:0:0:0:
108,244,101140,1,0,0:0:0:0:
144,296,101213,5,0,0:0:0:0:
400,200,101359,1,0,0:0:0:0:
336,336,101504,5,8,0:0:0:0:
328,328,101577,1,8,0:0:0:0:
320,320,101650,1,8,0:0:0:0:
312,312,101723,1,8,0:0:0:0:
304,304,101795,2,0,B|280:256|280:256|296:209|266:163,1,142.99999345398,12|0,0:0|0:0,0:0:0:0:
336,76,102087,6,0,P|328:44|347:-40,1,71.4999967269899
390,126,102232,2,0,P|349:94|323:34,1,71.4999967269899
500,176,102378,6,0,P|508:144|493:81,1,71.4999967269899,8|0,0:0|0:0,0:0:0:0:
450,225,102524,2,0,P|481:203|503:167,1,71.4999967269899,8|0,0:0|0:0,0:0:0:0:
416,44,102669,6,0,B|356:52|356:52|337:111|194:91,1,214.49999018097,8|0,0:0|0:0,0:0:0:0:
159,36,102960,2,0,B|127:92|127:92|143:128|143:128|114:176|160:234,1,214.49999018097,8|0,0:0|0:0,0:0:0:0:
87,295,103252,2,0,P|191:319|260:218,1,214.49999018097,8|0,0:0|0:0,0:0:0:0:
160,220,103543,2,0,B|136:178|160:142|160:142|144:106|144:106|216:70|184:13,1,214.49999018097,8|0,0:0|0:0,0:0:0:0:
296,32,103834,5,0,0:0:0:0:
312,84,103907,1,0,0:0:0:0:
344,132,103980,1,0,0:0:0:0:
396,152,104053,1,0,0:0:0:0:
452,152,104126,1,8,0:0:0:0:
416,40,104271,5,0,0:0:0:0:
292,172,104417,6,0,L|252:91,1,71.4999967269899
200,27,104562,2,0,L|126:26,1,71.4999967269899
100,188,104708,2,0,L|195:118,1,71.4999967269899,8|0,0:0|0:0,0:0:0:0:
267,86,104854,2,0,L|304:159,1,71.4999967269899
409,322,104999,5,0,0:0:0:0:
409,322,105072,1,0,0:0:0:0:
409,322,105145,1,0,0:0:0:0:
409,322,105218,1,0,0:0:0:0:
409,322,105291,2,0,B|465:272|465:272|489:194,1,142.99999345398,8|0,0:0|0:0,0:0:0:0:
412,120,105582,6,0,L|290:120,1,71.4999967269899
171,126,105727,2,0,L|248:72,1,71.4999967269899
312,40,105873,2,0,L|396:39,1,71.4999967269899,8|0,0:0|0:0,0:0:0:0:
364,232,106019,2,0,L|269:169,1,71.4999967269899
72,14,106164,5,8,0:0:0:0:
120,50,106237,1,8,0:0:0:0:
169,85,106310,1,8,0:0:0:0:
212,123,106383,1,8,0:0:0:0:
258,164,106456,1,8,0:0:0:0:
153,238,106601,6,0,L|213:288,1,71.4999967269899
244,312,106747,2,0,B|292:344|292:344|328:372|405:301,1,142.99999345398,8|0,0:0|0:0,0:0:0:0:
428,232,106965,1,0,0:0:0:0:
428,232,107038,2,0,B|358:205|358:205|299:135,1,142.99999345398,0|8,0:0|0:0,0:0:0:0:
231,54,107329,6,0,P|173:98|73:62,1,142.99999345398
28,56,107548,1,0,0:0:0:0:
16,136,107621,2,0,P|18:224|56:276,1,142.99999345398,8|0,0:0|0:0,0:0:0:0:
156,319,107912,6,0,P|215:338|248:315,1,71.4999967269899,8|0,0:0|0:0,0:0:0:0:
320,256,108058,2,0,P|286:240|228:260,1,71.4999967269899
184,188,108203,2,0,P|185:157|211:125,1,71.4999967269899,8|0,0:0|0:0,0:0:0:0:
160,300,108349,2,0,P|133:275|128:234,1,71.4999967269899
91,124,108494,6,0,B|143:104|147:60|147:60|191:24|235:52|235:52|276:18|335:36,1,285.99998690796,12|0,0:0|0:0,0:0:0:0:
420,116,108931,2,0,B|408:176|376:176|376:176|344:160|336:208|336:208|269:195|264:244|264:244|230:252|224:288,1,285.99998690796,12|0,0:0|0:0,0:0:0:0:
168,336,109368,2,0,B|96:284|96:284|148:256|116:188|116:188|134:142|104:104,1,285.99998690796,12|0,0:0|0:0,0:0:0:0:
157,11,109805,2,8,B|229:63|229:63|177:91|209:159|209:159|192:195|221:243,1,285.99998690796,12|8,0:0|0:0,0:0:0:0:
219,241,110169,5,8,0:0:0:0:
219,241,110242,1,8,0:0:0:0:
368,328,110388,1,8,0:0:0:0:
272,120,110533,1,8,0:0:0:0:
444,188,110679,1,8,0:0:0:0:
286,329,110825,5,0,0:0:0:0:
217,347,110897,1,0,0:0:0:0:
147,335,110970,1,0,0:0:0:0:
90,293,111043,1,0,0:0:0:0:
57,230,111116,5,8,0:0:0:0:
54,159,111189,1,0,0:0:0:0:
68,90,111261,2,0,B|82:24|166:7|166:7|209:102|295:36,1,285.99998690796,12|0,0:0|0:0,0:0:0:0:
146,138,111698,2,0,B|197:146|222:211|222:211|242:167|272:154|272:154|334:126|373:182,1,285.99998690796,12|0,0:0|0:0,0:0:0:0:
398,25,112135,2,0,B|416:75|458:109|458:109|498:200|406:298,1,285.99998690796,12|0,0:0|0:0,0:0:0:0:
284,340,112572,5,8,0:0:0:0:
92,244,112718,1,0,0:0:0:0:
188,80,112863,1,8,0:0:0:0:
272,232,113009,1,0,0:0:0:0:
58,86,113155,6,0,L|30:189,1,71.4999967269899,8|0,0:0|0:0,0:0:0:0:
12,252,113300,1,0,0:0:0:0:
150,50,113446,6,0,L|121:156,1,71.4999967269899,8|0,0:0|0:0,0:0:0:0:
104,216,113591,1,0,0:0:0:0:
217,138,113737,6,0,L|189:245,1,71.4999967269899,8|0,0:0|0:0,0:0:0:0:
172,304,113882,1,0,0:0:0:0:
311,107,114028,6,0,L|279:212,1,71.4999967269899,8|0,0:0|0:0,0:0:0:0:
264,268,114173,1,0,0:0:0:0:
400,304,114320,6,0,L|340:352,1,71.4999967269899,8|0,0:0|0:0,0:0:0:0:
398,232,114465,2,0,L|399:303,1,71.4999967269899,8|0,0:0|0:0,0:0:0:0:
342,187,114611,2,0,L|399:233,1,71.4999967269899,8|0,0:0|0:0,0:0:0:0:
341,115,114757,2,0,L|342:187,1,71.4999967269899,8|0,0:0|0:0,0:0:0:0:
287,48,114902,5,0,0:0:0:0:
283,44,114975,1,0,0:0:0:0:
279,40,115048,1,0,0:0:0:0:
275,36,115121,1,0,0:0:0:0:
271,33,115193,1,0,0:0:0:0:
266,29,115266,1,0,0:0:0:0:
262,25,115339,1,0,0:0:0:0:
258,21,115412,1,0,0:0:0:0:
254,17,115485,1,4,0:0:0:0:
84,128,116067,5,4,0:0:0:0:
200,288,116650,5,4,0:0:0:0:
356,104,117232,5,4,0:0:0:0:
216,188,117815,5,4,0:0:0:0:
