osu file format v14

[General]
AudioFilename: audio.mp3
AudioLeadIn: 0
PreviewTime: 61566
Countdown: 0
SampleSet: Normal
StackLeniency: 0.7
Mode: 0
LetterboxInBreaks: 0
WidescreenStoryboard: 1

[Editor]
DistanceSpacing: 1
BeatDivisor: 2
GridSize: 4
TimelineZoom: 0.7000002

[Metadata]
Title:LegenD.
TitleUnicode:LegenD.
Artist:Yooh
ArtistUnicode:Yooh
Creator:001thefish
Version:Normal
Source:SOUND VOLTEX III GRAVITY WARS
Tags:sdvx Yooh legend The 4th KAC Original Song Contest konami gravity wars sound voltex
BeatmapID:1062994
BeatmapSetID:498698

[Difficulty]
HPDrainRate:5
CircleSize:3
OverallDifficulty:4
ApproachRate:4
SliderMultiplier:0.799999999999999
SliderTickRate:1

[Events]
//Background and Video events
0,0,"niceeee.png",0,0
//Break Periods
2,17441,18263
//Storyboard Layer 0 (Background)
//Storyboard Layer 1 (Fail)
//Storyboard Layer 2 (Pass)
//Storyboard Layer 3 (Foreground)
//Storyboard Sound Samples

[TimingPoints]
852,292.682926829268,4,1,0,60,1,0
10217,-100,4,1,0,80,0,0
61723,291.26213592233,4,1,0,80,1,1
89684,-100,4,1,0,80,0,0
99004,-100,4,1,0,80,0,1
115315,-100,4,1,0,60,0,0
119975,-100,4,1,0,5,0,0

[Colours]
Combo1 : 0,46,91
Combo2 : 0,101,202

[HitObjects]
201,75,852,6,0,P|154:92|131:187,2,120,2|2|2,2:0|2:0|2:0,2:0:0:0:
204,154,2022,2,0,P|251:137|274:42,2,120,2|2|2,2:0|2:0|2:0,2:0:0:0:
216,233,3193,2,0,P|176:236|128:299,2,120,2|2|2,2:0|2:0|2:0,2:0:0:0:
296,233,4364,2,0,P|336:236|384:299,2,120,2|2|8,2:0|2:0|1:0,2:0:0:0:
223,200,5534,6,0,P|227:136|280:95,2,120,2|2|2,2:0|2:0|2:0,2:0:0:0:
296,172,6705,2,0,P|338:162|384:95,2,120,2|2|2,2:0|2:0|2:0,2:0:0:0:
216,172,7876,6,0,P|174:162|128:95,2,120,2|2|2,2:0|2:0|2:0,2:0:0:0:
209,92,9047,2,0,P|178:41|122:23,2,120,0|0|0,1:0|2:0|2:0,2:0:0:0:
128,103,10217,6,0,P|107:148|114:191,1,79.9999999999999,0|8,0:0|0:0,0:0:0:0:
160,241,10803,2,0,P|188:187|181:144,1,79.9999999999999,0|8,0:0|0:0,0:0:0:0:
209,93,11388,1,0,0:0:0:0:
267,38,11681,1,8,0:0:0:0:
341,78,11973,2,0,P|361:125|335:172,1,79.9999999999999,0|8,0:0|0:0,0:0:0:0:
291,201,12559,5,0,0:0:0:0:
334,267,12851,1,8,0:0:0:0:
381,331,13144,2,0,P|339:348|286:329,1,79.9999999999999,0|8,0:0|0:0,0:0:0:0:
252,282,13730,1,0,0:0:0:0:
174,261,14022,2,0,P|196:226|234:204,2,79.9999999999999,8|0|8,0:0|0:0|0:0,0:0:0:0:
134,327,14900,5,0,0:0:0:0:
82,265,15193,2,0,P|69:217|90:176,1,79.9999999999999,8|0,0:0|0:0,0:0:0:0:
135,133,15778,2,0,P|183:119|224:140,1,79.9999999999999,8|0,0:0|0:0,0:0:0:0:
261,191,16364,1,8,0:0:0:0:
314,250,16656,2,0,P|338:209|284:115,1,160,0|0,0:0|2:0,0:0:0:0:
64,93,19583,5,0,0:0:0:0:
120,149,19876,1,0,0:0:0:0:
176,205,20169,2,0,P|198:155|194:124,1,79.9999999999999
247,68,20754,5,0,0:0:0:0:
327,68,21047,1,0,0:0:0:0:
385,123,21339,2,0,P|338:149|302:144,1,79.9999999999999
230,148,21925,5,0,0:0:0:0:
185,221,22217,1,0,0:0:0:0:
103,243,22510,2,0,P|94:203|109:157,1,79.9999999999999
130,89,23095,5,0,0:0:0:0:
173,21,23388,1,0,0:0:0:0:
210,89,23681,1,0,0:0:0:0:
303,165,24266,6,0,P|313:120|296:83,1,79.9999999999999
210,89,24851,2,0,P|198:127|208:165,1,79.9999999999999
256,229,25437,1,0,0:0:0:0:
313,286,25730,1,0,0:0:0:0:
237,308,26022,2,0,P|199:288|177:247,1,79.9999999999999
194,177,26608,6,0,P|243:149|331:200,1,160,4|0,1:0|0:0,0:0:0:0:
183,257,27778,2,0,P|116:195|140:117,1,160,4|0,0:0|0:0,0:0:0:0:
201,104,28656,1,8,0:0:0:0:
275,136,28949,6,0,P|307:114|346:109,1,79.9999999999999,0|8,0:0|0:0,0:0:0:0:
375,184,29534,2,0,P|361:222|370:263,1,79.9999999999999,0|8,0:0|0:0,0:0:0:0:
343,336,30120,2,0,P|303:331|271:308,1,79.9999999999999,0|8,0:0|0:0,0:0:0:0:
242,233,30705,1,0,0:0:0:0:
165,256,30998,1,8,0:0:0:0:
108,199,31291,6,0,P|139:162|151:120,1,79.9999999999999,0|8,0:0|0:0,0:0:0:0:
221,97,31876,2,0,P|262:82|298:98,1,79.9999999999999,0|8,0:0|0:0,0:0:0:0:
362,132,32461,2,0,P|377:169|404:199,1,79.9999999999999,0|8,0:0|0:0,0:0:0:0:
480,176,33047,2,8,P|455:261|368:271,1,160,8|0,0:0|0:0,0:0:0:0:
325,236,33925,5,8,0:0:0:0:
267,291,34217,2,0,P|226:290|188:263,1,79.9999999999999,0|8,0:0|0:0,0:0:0:0:
128,223,34803,2,0,P|144:187|134:144,1,79.9999999999999,0|8,0:0|0:0,0:0:0:0:
192,90,35388,2,0,P|239:102|288:81,1,79.9999999999999,0|8,0:0|0:0,0:0:0:0:
337,53,35973,6,0,P|372:87|377:138,1,79.9999999999999,0|8,0:0|0:0,0:0:0:0:
382,198,36559,2,0,P|325:177|303:143,1,79.9999999999999,0|8,0:0|0:0,0:0:0:0:
250,117,37144,1,0,0:0:0:0:
169,114,37437,1,8,0:0:0:0:
110,168,37730,1,0,0:0:0:0:
92,246,38022,1,8,0:0:0:0:
148,302,38315,6,0,P|201:286|192:189,1,160
214,115,39193,1,8,0:0:0:0:
235,37,39486,2,0,P|290:85|277:167,1,160
177,224,40656,6,0,P|181:271|213:309,1,79.9999999999999,0|8,0:0|0:0,0:0:0:0:
312,299,41242,2,0,P|335:264|335:224,1,79.9999999999999,0|8,0:0|0:0,0:0:0:0:
256,241,41827,1,0,0:0:0:0:
256,81,42412,1,8,0:0:0:0:
130,180,42998,6,0,P|135:245|214:297,1,160
275,252,43876,1,8,0:0:0:0:
340,297,44169,2,0,P|406:257|417:180,1,160
293,80,45339,2,0,P|263:113|195:132,1,79.9999999999999,0|8,0:0|0:0,0:0:0:0:
156,98,45925,2,0,P|186:65|254:46,1,79.9999999999999,0|8,0:0|0:0,0:0:0:0:
293,80,46510,2,8,P|343:112|354:203,2,120
271,163,47681,5,0,0:0:0:0:
251,240,47973,2,0,P|313:235|336:210,2,79.9999999999999,8|0|8,0:0|0:0|0:0,0:0:0:0:
196,181,48851,2,8,B|174:211|174:211|174:257,1,79.9999999999999
97,272,49437,2,0,B|98:187|98:187|146:120,1,160
198,69,50315,5,8,0:0:0:0:
278,69,50608,1,0,0:0:0:0:
334,125,50900,1,8,0:0:0:0:
309,201,51193,2,0,P|269:177|250:135,1,79.9999999999999
334,125,51778,2,0,P|379:116|406:88,1,79.9999999999999
400,231,52656,2,0,P|393:280|366:308,1,79.9999999999999,8|0,0:0|0:0,0:0:0:0:
294,310,53242,2,0,P|250:325|212:313,1,79.9999999999999,8|0,0:0|0:0,0:0:0:0:
167,249,53827,1,8,0:0:0:0:
247,241,54120,1,0,0:0:0:0:
178,96,54705,6,0,P|140:81|90:87,1,79.9999999999999,8|0,2:0|2:0,2:0:0:0:
125,160,55291,2,0,P|162:174|212:168,1,79.9999999999999,8|0,2:0|2:0,2:0:0:0:
253,234,55876,2,0,B|266:317|266:317|189:254|90:311,1,240,8|0,0:0|0:0,0:0:0:0:
74,231,57047,1,4,0:0:0:0:
256,192,58217,12,12,61437,1:0:0:0:
173,239,62596,5,8,0:0:0:0:
243,199,62888,2,0,P|283:168|387:200,1,160
423,261,63761,1,8,0:0:0:0:
369,320,64053,6,0,P|342:286|342:242,1,79.9999999999999,0|8,0:0|0:0,0:0:0:0:
388,187,64635,2,0,P|387:141|362:111,1,79.9999999999999,0|8,0:0|0:0,0:0:0:0:
294,80,65218,2,0,P|255:73|216:89,1,79.9999999999999,0|8,0:0|0:0,0:0:0:0:
189,161,65800,2,0,P|225:167|267:150,1,79.9999999999999,0|8,0:0|0:0,0:0:0:0:
345,153,66383,5,0,0:0:0:0:
401,209,66674,1,8,0:0:0:0:
401,288,66965,2,0,P|360:302|322:288,1,79.9999999999999,0|8,0:0|0:0,0:0:0:0:
246,291,67548,1,0,0:0:0:0:
189,234,67839,1,8,0:0:0:0:
124,187,68130,2,0,P|156:159|197:154,1,79.9999999999999,0|8,0:0|0:0,0:0:0:0:
264,189,68713,5,0,0:0:0:0:
423,183,69295,1,8,0:0:0:0:
342,352,69878,6,0,P|335:300|304:269,1,79.9999999999999,0|8,0:0|0:0,0:0:0:0:
292,203,70460,2,0,P|249:240|240:278,1,79.9999999999999,0|8,0:0|0:0,0:0:0:0:
262,339,71043,6,0,P|210:337|170:224,1,160
186,176,71917,1,8,0:0:0:0:
198,94,72208,2,0,P|125:117|107:192,1,160
159,253,73082,1,8,0:0:0:0:
238,236,73373,6,0,P|264:190|260:147,1,79.9999999999999,0|8,0:0|0:0,0:0:0:0:
277,84,73956,2,0,P|319:46|372:49,1,79.9999999999999,0|8,0:0|0:0,0:0:0:0:
348,121,74538,1,0,0:0:0:0:
401,178,74829,1,8,0:0:0:0:
421,256,75121,2,0,P|456:238|478:189,1,79.9999999999999,0|8,0:0|0:0,0:0:0:0:
461,127,75703,5,0,0:0:0:0:
438,40,75994,1,8,0:0:0:0:
376,101,76286,2,0,B|307:142|307:142|227:117,1,160
189,186,77159,1,8,0:0:0:0:
231,254,77451,2,0,B|308:231|308:231|381:279,1,160
258,164,78616,1,8,0:0:0:0:
97,188,79198,2,0,P|64:217|58:270,1,79.9999999999999,0|8,0:0|0:0,0:0:0:0:
134,265,79781,1,0,0:0:0:0:
213,265,80072,1,8,0:0:0:0:
254,333,80363,6,0,P|293:282|229:190,1,160
202,144,81237,1,8,0:0:0:0:
258,87,81528,2,0,P|318:41|386:95,1,160
438,137,82402,1,8,0:0:0:0:
380,192,82693,2,0,P|366:240|376:285,1,79.9999999999999,0|8,0:0|0:0,0:0:0:0:
421,331,83276,2,0,P|372:351|322:332,1,79.9999999999999,0|8,0:0|0:0,0:0:0:0:
290,289,83858,6,0,P|237:280|213:258,1,79.9999999999999,0|8,0:0|0:0,0:0:0:0:
276,209,84441,2,0,P|315:211|348:233,1,79.9999999999999,0|8,0:0|0:0,0:0:0:0:
420,268,85023,6,0,P|428:221|395:170,1,79.9999999999999,0|8,0:0|0:0,0:0:0:0:
373,124,85606,2,0,P|315:132|289:125,1,79.9999999999999,0|8,0:0|0:0,0:0:0:0:
238,183,86189,2,0,P|249:233|231:270,1,79.9999999999999,0|8,0:0|0:0,0:0:0:0:
295,315,86771,2,0,P|334:303|371:313,1,79.9999999999999,0|8,0:0|0:0,0:0:0:0:
427,256,87354,5,0,0:0:0:0:
427,176,87645,1,8,0:0:0:0:
370,119,87936,2,0,P|341:88|296:75,1,79.9999999999999,0|8,0:0|0:0,0:0:0:0:
294,162,88519,1,0,0:0:0:0:
154,239,89101,1,8,0:0:0:0:
286,335,89684,6,8,P|254:293|276:212,1,120
362,163,90557,2,8,P|348:117|280:80,1,120
170,102,91431,1,8,0:0:0:0:
216,167,91722,1,8,0:0:0:0:
217,248,92014,6,8,P|162:229|136:177,1,120
161,59,92888,2,8,P|201:25|293:37,1,120
351,107,93761,1,8,0:0:0:0:
294,163,94053,1,8,0:0:0:0:
214,163,94344,2,8,P|231:218|262:236,1,79.9999999999999
326,237,94926,2,8,P|360:211|374:168,1,79.9999999999999
390,99,95509,6,8,P|446:144|427:244,1,160
392,289,96383,1,8,0:0:0:0:
340,350,96674,2,0,P|291:371|228:346,2,120,8|0|0,0:0|0:0|0:0,0:0:0:0:
186,77,99004,6,0,P|145:104|121:202,1,120,4|0,0:0|0:0,0:0:0:0:
301,88,100169,2,0,P|338:66|382:65,1,79.9999999999999
441,106,100752,2,0,P|456:158|447:198,1,79.9999999999999
409,248,101334,2,0,P|335:278|249:250,1,160
205,198,102208,1,8,0:0:0:0:
140,151,102499,2,0,P|144:106|177:73,1,79.9999999999999
243,61,103082,2,0,P|297:69|324:99,1,79.9999999999999
339,160,103664,6,0,B|352:201|391:178|433:157|451:215,1,120
469,312,104538,1,8,0:0:0:0:
394,341,104829,2,0,P|327:333|286:275,1,120,8|8,0:0|0:0,0:0:0:0:
255,181,105703,2,0,L|256:96,1,79.9999999999999
112,149,106577,5,8,0:0:0:0:
194,286,107159,2,0,P|234:281|266:247,1,79.9999999999999,8|0,0:0|0:0,0:0:0:0:
311,191,107742,2,0,P|358:176|396:188,1,79.9999999999999
451,230,108324,6,0,P|465:170|425:113,2,120
346,290,109635,1,0,0:0:0:0:
261,204,110072,2,0,P|242:164|209:140,1,79.9999999999999
177,217,110655,6,0,P|199:260|284:287,2,120
182,136,111820,1,0,0:0:0:0:
242,83,112111,1,0,0:0:0:0:
310,124,112402,2,0,P|356:128|397:104,1,79.9999999999999
456,152,112985,6,0,P|459:202|428:240,1,79.9999999999999
364,231,113567,2,0,P|315:234|283:253,1,79.9999999999999
258,322,114150,1,0,0:0:0:0:
185,287,114441,1,0,0:0:0:0:
161,210,114732,2,0,P|168:164|190:134,1,79.9999999999999
256,97,115315,5,0,0:0:0:0:
385,190,115897,1,0,0:0:0:0:
255,284,116480,1,0,0:0:0:0:
125,190,117062,1,0,0:0:0:0:
256,192,117645,12,0,119975,2:0:0:0:
