osu file format v14

[General]
AudioFilename: audio.mp3
AudioLeadIn: 0
PreviewTime: 159544
Countdown: 0
SampleSet: Normal
StackLeniency: 0.7
Mode: 0
LetterboxInBreaks: 0
WidescreenStoryboard: 1

[Editor]
DistanceSpacing: 1.4
BeatDivisor: 4
GridSize: 16
TimelineZoom: 3.699999

[Metadata]
Title:Las ta Fear feat.akaandsia
TitleUnicode:Las ta Fear feat.akaandsia
Artist:Yooh
ArtistUnicode:Yooh
Creator:Yooh
Version:Doctor Priaa
Source:
Tags:jcore SDVX Sound Voltex eubiquitous
BeatmapID:1282463
BeatmapSetID:583457

[Difficulty]
HPDrainRate:6
CircleSize:4
OverallDifficulty:7
ApproachRate:9.3
SliderMultiplier:2.3
SliderTickRate:1

[Events]
//Background and Video events
0,0,"tumblr_static_b8se1ht5zzcogwg88g8wocc0k.jpg",0,0
//Break Periods
2,75038,89637
//Storyboard Layer 0 (Background)
//Storyboard Layer 1 (Fail)
//Storyboard Layer 2 (Pass)
//Storyboard Layer 3 (Foreground)
//Storyboard Sound Samples

[TimingPoints]
1427,352.941176470588,4,1,0,80,1,0
12015,-80,4,1,0,80,0,0
12721,-100,4,1,0,80,0,0
17662,-111.111111111111,4,1,0,60,0,0
18015,-125,4,1,0,45,0,0
18368,-100,4,1,0,12,0,0
18412,-100,4,1,0,5,0,0
18544,-100,4,1,0,18,0,0
18588,-100,4,1,0,5,0,0
18721,-100,4,1,0,18,0,0
18765,-100,4,1,0,5,0,0
18897,-100,4,1,0,24,0,0
18941,-100,4,1,0,5,0,0
19074,-100,4,1,0,30,0,0
19118,-100,4,1,0,5,0,0
19250,-100,4,1,0,36,0,0
19294,-100,4,1,0,5,0,0
19426,-100,4,1,0,42,0,0
19471,-100,4,1,0,5,0,0
19603,-100,4,1,0,48,0,0
19647,-100,4,1,0,5,0,0
19779,-100,4,1,0,54,0,0
19824,-100,4,1,0,5,0,0
19956,-100,4,1,0,60,0,0
20000,-100,4,1,0,5,0,0
20132,-100,4,1,0,66,0,0
20176,-100,4,1,0,5,0,0
20309,-100,4,1,0,72,0,0
20353,-100,4,1,0,5,0,0
20485,-100,4,1,0,78,0,0
20529,-100,4,1,0,5,0,0
20662,-100,4,1,0,84,0,0
20706,-100,4,1,0,5,0,0
20838,-100,4,1,0,86,0,0
20882,-100,4,1,0,5,0,0
21015,-100,4,1,0,80,0,0
21059,-100,4,1,0,5,0,0
21191,-100,4,1,0,80,0,0
22603,-100,4,1,0,35,0,0
23132,-76.9230769230769,4,1,0,80,0,0
23485,-100,4,1,0,80,0,0
29309,-76.9230769230769,4,1,0,80,0,0
29662,-100,4,1,0,80,0,0
40603,-76.9230769230769,4,1,0,80,0,0
41309,-100,4,1,0,80,0,0
45897,-52.6315789473684,4,1,0,80,0,0
45941,-52.6315789473684,4,1,0,5,0,0
46074,-52.6315789473684,4,1,0,80,0,0
46118,-52.6315789473684,4,1,0,5,0,0
46250,-52.6315789473684,4,1,0,80,0,0
46294,-52.6315789473684,4,1,0,5,0,0
46426,-52.6315789473684,4,1,0,80,0,0
46471,-52.6315789473684,4,1,0,5,0,0
46603,-52.6315789473684,4,1,0,80,0,0
46779,-100,4,1,0,80,0,0
60015,-83.3333333333333,4,1,0,80,0,0
62838,-100,4,1,0,80,0,0
67779,-100,4,1,0,80,0,0
69544,-100,4,1,0,60,0,0
69897,-100,4,1,0,40,0,0
70250,-100,4,1,0,20,0,0
70603,-100,4,1,0,15,0,0
70956,-100,4,1,0,10,0,0
91779,-100,4,1,0,80,0,0
91956,-133.333333333333,4,1,0,80,0,0
102721,-100,4,1,0,80,0,0
103074,-90.9090909090909,4,1,0,80,0,0
105544,-100,4,1,0,80,0,0
105897,-90.9090909090909,4,1,0,80,0,0
112250,-133.333333333333,4,1,0,80,0,0
114368,-90.9090909090909,4,1,0,80,0,0
125309,-100,4,1,0,80,0,0
126897,-100,4,1,0,80,0,0
135544,-71.4285714285714,4,1,0,80,0,0
136603,-200,4,1,0,80,0,0
136779,-71.4285714285714,4,1,0,5,0,0
136956,-71.4285714285714,4,1,0,80,0,0
148250,-76.9230769230769,4,1,0,80,0,0
153897,-100,4,1,0,80,0,0
153941,-100,4,1,0,5,0,0
154074,-100,4,1,0,80,0,0
154118,-100,4,1,0,5,0,0
154250,-100,4,1,0,80,0,0
154294,-100,4,1,0,5,0,0
154426,-100,4,1,0,80,0,0
154471,-100,4,1,0,5,0,0
154603,-100,4,1,0,80,0,0
154647,-100,4,1,0,5,0,0
154779,-100,4,1,0,80,0,0
154824,-100,4,1,0,5,0,0
154956,-100,4,1,0,80,0,0
155000,-100,4,1,0,5,0,0
155132,-100,4,1,0,80,0,0
155176,-100,4,1,0,5,0,0
155309,-100,4,1,0,80,0,0
155353,-100,4,1,0,5,0,0
155485,-100,4,1,0,80,0,0
155529,-100,4,1,0,5,0,0
155662,-100,4,1,0,80,0,0
155706,-100,4,1,0,5,0,0
155838,-100,4,1,0,80,0,0
155882,-100,4,1,0,5,0,0
156015,-100,4,1,0,80,0,0
156059,-100,4,1,0,5,0,0
156191,-100,4,1,0,80,0,0
156235,-100,4,1,0,5,0,0
156368,-100,4,1,0,80,0,0
156412,-100,4,1,0,5,0,0
156544,-100,4,1,0,80,0,0
156588,-100,4,1,0,5,0,0
156721,-71.4285714285714,4,1,0,80,0,0
159544,-71.4285714285714,4,1,0,80,0,1
165897,-90.9090909090909,4,1,0,80,0,1
167132,-71.4285714285714,4,1,0,80,0,1
177191,-90.9090909090909,4,1,0,80,0,1
177721,-71.4285714285714,4,1,0,80,0,1
179309,-76.9230769230769,4,1,0,80,0,0
180721,-71.4285714285714,4,1,0,40,0,0
181074,-71.4285714285714,4,1,0,80,0,0
193074,-58.8235294117647,4,1,0,80,0,0
193250,-55.5555555555556,4,1,0,5,0,0
193426,-83.3333333333333,4,1,0,80,0,0
199074,-100,4,1,0,80,0,0
199103,-100,4,1,0,5,0,0
199250,-100,4,1,0,80,0,0
199279,-100,4,1,0,5,0,0
199426,-100,4,1,0,80,0,0
199456,-100,4,1,0,5,0,0
199603,-100,4,1,0,80,0,0
199632,-100,4,1,0,5,0,0
199779,-100,4,1,0,80,0,0
199809,-100,4,1,0,5,0,0
199956,-100,4,1,0,80,0,0
199985,-100,4,1,0,5,0,0
200132,-100,4,1,0,80,0,0
200162,-100,4,1,0,5,0,0
200309,-100,4,1,0,80,0,0
200338,-100,4,1,0,5,0,0
200485,-100,4,1,0,80,0,0
200515,-100,4,1,0,5,0,0
200662,-100,4,1,0,80,0,0
200691,-100,4,1,0,5,0,0
200838,-100,4,1,0,80,0,0
200868,-100,4,1,0,5,0,0
201015,-100,4,1,0,80,0,0
201044,-100,4,1,0,5,0,0
201191,-100,4,1,0,80,0,0
201221,-100,4,1,0,5,0,0
201368,-100,4,1,0,80,0,0
201397,-100,4,1,0,5,0,0
201544,-100,4,1,0,80,0,0
201574,-100,4,1,0,5,0,0
201721,-100,4,1,0,80,0,0
201750,-100,4,1,0,5,0,0
201897,-71.4285714285714,4,1,0,80,0,0
203662,-83.3333333333333,4,1,0,80,0,0
203838,-71.4285714285714,4,1,0,80,0,0
226603,-100,4,1,0,80,0,0
226647,-100,4,1,0,5,0,0
226779,-100,4,1,0,80,0,0
226824,-100,4,1,0,5,0,0
226956,-100,4,1,0,80,0,0
227000,-100,4,1,0,5,0,0
227132,-100,4,1,0,80,0,0
227176,-100,4,1,0,5,0,0
227309,-71.4285714285714,4,1,0,80,0,0
249897,-71.4285714285714,4,1,0,80,0,1
271074,-71.4285714285714,4,1,0,30,0,0
271426,-71.4285714285714,4,1,0,80,0,0
283426,-90.9090909090909,4,1,0,80,0,0
283779,-83.3333333333333,4,1,0,80,0,0
286250,-71.4285714285714,4,1,0,80,0,0
289426,-100,4,1,0,80,0,0
289471,-100,4,1,0,5,0,0
289603,-100,4,1,0,80,0,0
289647,-100,4,1,0,5,0,0
289779,-100,4,1,0,80,0,0
289824,-100,4,1,0,5,0,0
289956,-100,4,1,0,80,0,0
290000,-100,4,1,0,5,0,0
290132,-100,4,1,0,80,0,0
290176,-100,4,1,0,5,0,0
290309,-100,4,1,0,80,0,0
290353,-100,4,1,0,5,0,0
290485,-100,4,1,0,80,0,0
290529,-100,4,1,0,5,0,0
290662,-100,4,1,0,80,0,0
290706,-100,4,1,0,5,0,0
290838,-100,4,1,0,80,0,0
290882,-100,4,1,0,5,0,0
291015,-100,4,1,0,80,0,0
291059,-100,4,1,0,5,0,0
291191,-100,4,1,0,80,0,0
291235,-100,4,1,0,5,0,0
291368,-100,4,1,0,80,0,0
291412,-100,4,1,0,5,0,0
291544,-100,4,1,0,80,0,0
291588,-100,4,1,0,5,0,0
291721,-100,4,1,0,80,0,0
291765,-100,4,1,0,5,0,0
291897,-100,4,1,0,80,0,0
291941,-100,4,1,0,5,0,0
292074,-100,4,1,0,80,0,0
292118,-100,4,1,0,5,0,0
292250,-71.4285714285714,4,1,0,80,0,0
293662,-71.4285714285714,4,1,0,70,0,0
294191,-71.4285714285714,4,1,0,80,0,0
295074,-80,4,1,0,80,0,0
306368,-80,4,1,0,80,0,0
306721,-83.3333333333333,4,1,0,80,0,0
307074,-86.9565217391304,4,1,0,80,0,0
307426,-90.9090909090909,4,1,0,80,0,0
307779,-80,4,1,0,80,0,0
308132,-83.3333333333333,4,1,0,80,0,0
308485,-86.9565217391304,4,1,0,80,0,0
308838,-86.9565217391304,4,1,0,80,0,0
334603,-100,4,1,0,60,0,0
334647,-100,4,1,0,5,0,0
334779,-100,4,1,0,60,0,0
334824,-100,4,1,0,5,0,0
334956,-100,4,1,0,60,0,0
335000,-100,4,1,0,5,0,0
335132,-100,4,1,0,60,0,0
335176,-100,4,1,0,5,0,0
335309,-100,4,1,0,60,0,0
335353,-100,4,1,0,5,0,0
335485,-100,4,1,0,60,0,0
335529,-100,4,1,0,5,0,0
335662,-100,4,1,0,60,0,0
335706,-100,4,1,0,5,0,0
335838,-100,4,1,0,60,0,0
335882,-100,4,1,0,5,0,0
336015,-100,4,1,0,60,0,0
336059,-100,4,1,0,5,0,0
336191,-100,4,1,0,60,0,0
336235,-100,4,1,0,5,0,0
336368,-100,4,1,0,60,0,0
336412,-100,4,1,0,5,0,0
336544,-100,4,1,0,60,0,0
336588,-100,4,1,0,5,0,0
336721,-100,4,1,0,60,0,0
336765,-100,4,1,0,5,0,0
336897,-100,4,1,0,60,0,0
336941,-100,4,1,0,5,0,0
337074,-100,4,1,0,60,0,0
337118,-100,4,1,0,5,0,0
337250,-100,4,1,0,60,0,0
337294,-100,4,1,0,5,0,0
337426,-86.9565217391304,4,1,0,60,0,0
340603,-86.9565217391304,4,1,0,45,0,0
340956,-86.9565217391304,4,1,0,35,0,0
341309,-86.9565217391304,4,1,0,25,0,0
341662,-86.9565217391304,4,1,0,20,0,0
342015,-86.9565217391304,4,1,0,10,0,0
342368,-86.9565217391304,4,1,0,7,0,0
345897,-86.9565217391304,4,1,0,5,0,0

[Colours]
Combo1 : 205,193,188
Combo2 : 204,57,98
Combo3 : 173,139,121
Combo4 : 151,104,72

[HitObjects]
209,336,1427,5,8,0:0:0:0:
276,202,1603,1,0,0:0:0:0:
276,202,1691,1,0,0:0:0:0:
276,202,1779,2,0,L|330:72,1,115
127,29,2132,2,0,B|145:77|145:77|227:111,1,115
383,168,2485,1,0,0:0:0:0:
210,227,2662,1,0,0:0:0:0:
384,282,2838,5,8,0:0:0:0:
282,109,3015,1,0,0:0:0:0:
282,109,3103,1,0,0:0:0:0:
282,109,3191,2,0,L|354:237,1,115
172,127,3544,2,8,B|129:175|129:175|72:196,1,115,0|0,0:0|0:0,0:0:0:0:
167,342,3897,2,0,L|258:243,1,115
358,123,4250,5,8,0:0:0:0:
172,127,4427,1,0,0:0:0:0:
172,127,4515,1,0,0:0:0:0:
172,127,4603,2,0,B|207:180|207:180|263:202,1,115
437,231,4956,2,8,P|481:201|492:123,1,115,0|0,0:0|0:0,0:0:0:0:
311,181,5309,1,0,0:0:0:0:
408,336,5485,1,0,0:0:0:0:
415,151,5662,5,8,0:0:0:0:
241,209,5838,1,0,0:0:0:0:
241,209,5926,1,0,0:0:0:0:
241,209,6015,1,0,0:0:0:0:
421,282,6191,1,0,0:0:0:0:
345,85,6368,2,8,L|307:208,1,115,0|0,0:0|0:0,0:0:0:0:
257,371,6721,1,0,0:0:0:0:
421,282,6897,1,0,0:0:0:0:
261,189,7074,5,10,0:0:0:0:
141,328,7250,1,0,0:0:0:0:
130,289,7338,1,0,0:0:0:0:
120,250,7426,1,0,0:0:0:0:
200,83,7603,1,0,0:0:0:0:
245,232,7779,2,0,L|278:352,1,115
395,202,8132,1,0,0:0:0:0:
238,103,8309,1,0,0:0:0:0:
348,263,8485,5,8,0:0:0:0:
308,70,8662,1,0,0:0:0:0:
308,70,8750,1,0,0:0:0:0:
308,70,8838,1,0,0:0:0:0:
134,160,9015,1,0,0:0:0:0:
305,278,9191,2,8,P|359:265|386:209,1,115,0|0,0:0|0:0,0:0:0:0:
226,83,9544,1,0,0:0:0:0:
231,259,9721,1,0,0:0:0:0:
389,145,9897,5,8,0:0:0:0:
351,336,10074,1,0,0:0:0:0:
351,336,10162,1,0,0:0:0:0:
351,336,10250,1,0,0:0:0:0:
182,231,10426,1,0,0:0:0:0:
386,183,10603,1,0,0:0:0:0:
254,311,10779,1,0,0:0:0:0:
232,127,10956,1,0,0:0:0:0:
73,218,11132,1,0,0:0:0:0:
257,221,11309,5,8,0:0:0:0:
212,43,11485,1,0,0:0:0:0:
212,43,11574,1,0,0:0:0:0:
212,43,11662,1,0,0:0:0:0:
257,221,11838,1,0,0:0:0:0:
419,203,12015,6,0,B|461:162|461:162|461:47,1,143.75,8|0,0:0|0:0,0:0:0:0:
332,105,12368,2,0,B|290:146|290:146|290:261,1,143.75,8|0,0:0|0:0,0:0:0:0:
291,346,12721,5,8,0:0:0:0:
172,236,12898,1,0,0:0:0:0:
143,207,12986,1,0,0:0:0:0:
115,177,13074,1,0,0:0:0:0:
257,106,13250,1,2,0:0:0:0:
410,159,13426,5,0,0:0:0:0:
382,189,13514,1,0,0:0:0:0:
353,218,13602,1,0,0:0:0:0:
190,129,13779,1,0,0:0:0:0:
299,270,13956,1,2,0:0:0:0:
259,90,14132,5,8,0:0:0:0:
119,211,14309,1,0,0:0:0:0:
119,211,14397,1,0,0:0:0:0:
119,211,14485,1,0,0:0:0:0:
284,261,14662,1,0,0:0:0:0:
386,137,14838,5,0,0:0:0:0:
215,194,15015,1,0,0:0:0:0:
215,194,15103,1,0,0:0:0:0:
215,194,15191,1,0,0:0:0:0:
343,291,15368,1,0,0:0:0:0:
285,118,15544,5,8,0:0:0:0:
102,148,15721,1,0,0:0:0:0:
102,148,15809,1,0,0:0:0:0:
102,148,15897,1,0,0:0:0:0:
124,317,16074,1,0,0:0:0:0:
298,253,16250,2,0,B|358:224|358:224|392:158,1,115
423,64,16603,2,0,B|376:49|376:49|314:71,1,115
148,158,16956,5,8,0:0:0:0:
296,225,17132,1,0,0:0:0:0:
331,239,17221,1,0,0:0:0:0:
368,252,17309,1,0,0:0:0:0:
498,156,17485,1,0,0:0:0:0:
408,43,17662,2,0,P|356:43|308:61,1,103.499996841431
357,164,18015,2,0,P|308:181|257:182,1,103.499996841431
214,132,18368,6,0,L|198:107,1,28.75,8|0,0:0|0:0,0:0:0:0:
297,252,18544,2,0,L|312:276,1,28.75,8|8,0:0|0:0,0:0:0:0:
255,107,18721,2,0,L|256:77,1,28.75,8|0,0:0|0:0,0:0:0:0:
258,286,18897,2,0,L|256:315,1,28.75,8|8,0:0|0:0,0:0:0:0:
293,83,19074,6,0,L|309:42,1,28.75,8|8,0:0|0:0,0:0:0:0:
220,301,19250,2,0,L|204:342,1,28.75,8|8,0:0|0:0,0:0:0:0:
331,94,19426,2,0,L|364:64,1,28.75,8|8,0:0|0:0,0:0:0:0:
179,289,19602,2,0,L|146:319,1,28.75,8|8,0:0|0:0,0:0:0:0:
361,127,19779,6,0,L|388:117,1,28.75,8|0,0:0|0:0,0:0:0:0:
147,253,19955,2,0,L|121:267,1,28.75,8|8,0:0|0:0,0:0:0:0:
393,199,20132,2,0,L|366:194,1,28.75,8|0,0:0|0:0,0:0:0:0:
108,189,20309,2,0,L|137:191,1,28.75,8|0,0:0|0:0,0:0:0:0:
375,264,20485,6,0,L|350:250,1,28.75,8|0,0:0|0:0,0:0:0:0:
137,118,20662,2,0,L|161:133,1,28.75,8|0,0:0|0:0,0:0:0:0:
256,256,20838,2,0,L|256:285,1,28.75,8|0,0:0|0:0,0:0:0:0:
256,112,21015,2,0,L|256:84,1,28.75,8|0,0:0|0:0,0:0:0:0:
371,332,21191,5,8,0:0:0:0:
400,306,21279,1,0,0:0:0:0:
416,274,21368,1,0,0:0:0:0:
417,233,21456,1,0,0:0:0:0:
413,192,21544,5,8,0:0:0:0:
384,211,21632,1,0,0:0:0:0:
351,221,21720,1,0,0:0:0:0:
317,220,21808,1,0,0:0:0:0:
284,210,21896,5,8,0:0:0:0:
256,191,21985,1,0,0:0:0:0:
235,163,22073,1,0,0:0:0:0:
222,131,22161,1,0,0:0:0:0:
220,97,22249,5,8,0:0:0:0:
228,64,22338,1,0,0:0:0:0:
246,34,22426,1,0,0:0:0:0:
271,11,22514,1,0,0:0:0:0:
310,72,22603,6,0,L|336:81,12,19.1666666666667,8|0|0|0|0|0|0|0|0|0|0|0|0,0:0|0:0|0:0|0:0|0:0|0:0|0:0|0:0|0:0|0:0|0:0|0:0|0:0,0:0:0:0:
159,35,23132,1,0,0:0:0:0:
159,35,23221,1,0,0:0:0:0:
159,35,23309,6,0,P|92:40|83:123,1,149.499993156433
146,281,23662,1,8,0:0:0:0:
447,73,24015,6,2,P|402:38|346:32,1,115,10|2,3:3|3:3,3:3:0:0:
360,169,24368,2,2,L|305:287,1,115,10|2,0:0|0:0,0:0:0:0:
356,378,24721,1,10,3:3:0:0:
210,310,24897,1,2,3:3:0:0:
192,149,25074,2,2,B|163:108|163:108|160:87|160:87|134:46,1,115,10|2,0:0|0:0,0:0:0:0:
11,107,25426,2,2,B|27:139|27:139|46:159|46:159|68:205,1,115,10|2,3:3|3:3,3:3:0:0:
209,284,25779,2,2,P|255:252|278:199,1,115,10|2,0:0|0:0,0:0:0:0:
310,49,26132,1,10,3:3:0:0:
422,164,26309,1,2,3:3:0:0:
319,287,26485,2,2,P|323:341|400:355,1,115,10|2,0:0|0:0,0:0:0:0:
287,175,26838,6,2,B|195:264,1,115,10|2,3:3|3:3,3:3:0:0:
98,343,27191,2,2,P|46:313|47:241,1,115,10|2,0:0|0:0,0:0:0:0:
82,107,27544,2,2,L|153:199,1,115,10|2,3:3|3:3,3:3:0:0:
312,214,27897,2,2,P|300:159|251:133,1,115,10|2,0:0|0:0,0:0:0:0:
224,292,28250,1,10,3:3:0:0:
383,275,28426,1,2,3:3:0:0:
285,145,28603,2,2,B|292:79|292:79|322:19,1,115,10|2,0:0|0:0,0:0:0:0:
436,139,28956,2,2,B|430:194|430:194|404:249,1,115,10|2,3:3|3:3,3:3:0:0:
264,346,29309,6,0,L|264:196,2,149.499993156433,8|8|12,0:0|0:0|0:0,0:0:0:0:
102,346,29838,1,0,0:0:0:0:
54,191,30015,6,2,P|101:157|106:91,1,115,10|2,3:3|3:3,3:3:0:0:
246,18,30368,2,2,L|306:145,1,115,10|2,0:0|0:0,0:0:0:0:
450,79,30721,1,10,3:3:0:0:
362,230,30897,1,2,3:3:0:0:
261,91,31074,2,2,P|265:151|325:191,1,115,10|2,0:0|0:0,0:0:0:0:
450,79,31426,1,10,3:3:0:0:
362,230,31603,1,2,3:3:0:0:
188,257,31779,2,2,P|185:313|145:351,1,115,10|2,0:0|0:0,0:0:0:0:
35,178,32132,2,2,B|47:238|47:238|104:278,1,115,10|2,3:3|3:3,3:3:0:0:
248,341,32485,6,2,P|299:360|367:319,1,115,10|2,0:0|0:0,0:0:0:0:
469,210,32838,1,10,3:3:0:0:
293,286,33015,1,2,3:3:0:0:
175,176,33191,2,2,B|128:140|128:140|101:85,1,115,10|2,0:0|0:0,0:0:0:0:
250,46,33544,2,2,B|300:75|300:75|325:131,1,115,10|2,3:3|3:3,3:3:0:0:
390,274,33897,2,2,L|439:397,1,115,10|2,0:0|0:0,0:0:0:0:
293,298,34250,2,2,L|249:191,1,115,10|2,3:3|3:3,3:3:0:0:
190,41,34603,5,2,0:0:0:0:
171,223,34779,1,2,0:0:0:0:
333,126,34956,1,2,0:0:0:0:
139,99,35132,1,2,0:0:0:0:
39,254,35309,6,2,P|52:329|104:364,1,115,10|2,3:3|3:3,3:3:0:0:
216,263,35662,2,2,L|147:115,1,115,10|2,0:0|0:0,0:0:0:0:
36,28,36015,2,2,P|98:41|152:10,1,115,10|2,3:3|3:3,3:3:0:0:
316,81,36368,2,2,P|240:71|190:115,1,115,10|2,0:0|0:0,0:0:0:0:
97,228,36721,1,10,3:3:0:0:
270,168,36897,1,2,3:3:0:0:
155,312,37074,2,2,P|98:339|36:348,1,115,10|2,0:0|0:0,0:0:0:0:
245,294,37426,2,2,P|316:330|325:401,1,115,10|2,3:3|3:3,3:3:0:0:
245,159,37779,2,2,P|300:154|340:105,1,115,10|2,0:0|0:0,0:0:0:0:
157,153,38132,6,2,P|103:146|41:161,1,115,10|2,3:3|3:3,3:3:0:0:
220,72,38485,2,2,P|276:72|336:17,1,115,10|2,0:0|0:0,0:0:0:0:
459,125,38838,1,10,3:3:0:0:
311,216,39015,1,2,3:3:0:0:
141,155,39191,2,2,L|229:61,1,115,10|2,0:0|0:0,0:0:0:0:
200,243,39544,1,10,3:3:0:0:
344,338,39720,1,2,3:3:0:0:
371,155,39897,2,2,L|283:61,1,115,10|2,0:0|0:0,0:0:0:0:
312,243,40250,1,10,3:3:0:0:
168,338,40426,1,2,3:3:0:0:
255,178,40603,6,10,L|255:28,1,149.499993156433,10|10,3:3|3:3,3:3:0:0:
146,146,40956,1,8,0:0:0:0:
366,145,41132,1,0,0:0:0:0:
203,158,41309,6,2,P|187:228|117:270,1,115,10|2,3:3|3:3,3:3:0:0:
40,128,41662,2,2,L|92:25,1,115,10|2,0:0|0:0,0:0:0:0:
227,132,42015,1,10,3:3:0:0:
368,33,42191,1,2,3:3:0:0:
393,203,42367,2,2,P|400:268|462:316,1,115,10|2,0:0|0:0,0:0:0:0:
297,194,42720,2,2,L|234:312,1,115,10|2,3:3|3:3,3:3:0:0:
151,148,43073,2,2,B|169:94|169:94|207:50,1,115,10|2,0:0|0:0,0:0:0:0:
322,178,43426,1,10,3:3:0:0:
143,226,43603,1,2,3:3:0:0:
213,81,43779,6,2,P|263:32|337:45,1,115,10|2,0:0|0:0,0:0:0:0:
434,126,44132,2,2,P|398:169|342:176,1,115,10|2,3:3|3:3,3:3:0:0:
322,336,44485,2,2,P|266:327|230:284,1,115,10|2,0:0|0:0,0:0:0:0:
342,176,44838,2,2,P|397:182|433:226,1,115,10|2,3:3|3:3,3:3:0:0:
298,315,45191,2,2,L|191:357,1,115,10|2,0:0|0:0,0:0:0:0:
54,270,45544,2,2,L|192:216,1,115,10|2,3:3|3:3,3:3:0:0:
346,159,45897,6,0,L|405:132,1,54.6249985413552,8|0,0:0|0:0,0:0:0:0:
211,206,46074,2,0,L|160:227,1,54.6249985413552,8|0,0:0|0:0,0:0:0:0:
347,193,46250,6,0,L|407:215,1,54.6249985413552,8|0,0:0|0:0,0:0:0:0:
218,130,46427,2,0,L|167:109,1,54.6249985413552,8|0,0:0|0:0,0:0:0:0:
353,47,46603,5,10,0:0:0:0:
218,96,46779,1,0,0:0:0:0:
218,130,46868,1,0,0:0:0:0:
217,164,46956,2,0,P|174:222|114:214,1,115,8|0,0:0|0:0,0:0:0:0:
6,273,47309,5,10,0:0:0:0:
207,360,47485,1,0,0:0:0:0:
207,360,47574,1,0,0:0:0:0:
207,360,47662,1,8,0:0:0:0:
359,243,47838,1,0,0:0:0:0:
151,255,48015,5,10,0:0:0:0:
312,142,48191,1,0,0:0:0:0:
312,142,48279,1,0,0:0:0:0:
312,142,48368,1,8,0:0:0:0:
228,280,48544,1,0,0:0:0:0:
178,126,48721,6,0,P|136:75|78:61,1,115,10|0,0:0|0:0,0:0:0:0:
57,67,48985,1,0,0:0:0:0:
25,82,49074,1,8,0:0:0:0:
135,220,49250,1,0,0:0:0:0:
280,60,49426,5,10,0:0:0:0:
248,197,49603,1,0,0:0:0:0:
240,230,49691,1,0,0:0:0:0:
231,263,49779,2,0,L|200:391,1,115,8|0,0:0|0:0,0:0:0:0:
101,227,50132,5,10,0:0:0:0:
300,290,50309,1,0,0:0:0:0:
332,301,50397,1,0,0:0:0:0:
365,309,50485,1,8,0:0:0:0:
258,159,50662,1,0,0:0:0:0:
72,130,50838,5,10,0:0:0:0:
249,88,51015,1,0,0:0:0:0:
282,81,51103,1,0,0:0:0:0:
315,73,51191,2,0,B|375:61|375:61|354:162,1,115,8|0,0:0|0:0,0:0:0:0:
335,303,51544,5,8,0:0:0:0:
145,205,51721,1,8,0:0:0:0:
326,259,51897,1,8,0:0:0:0:
116,241,52074,1,8,0:0:0:0:
317,212,52250,6,0,L|468:189,1,115,10|0,0:0|0:0,0:0:0:0:
464,188,52515,1,0,0:0:0:0:
498,184,52603,1,8,0:0:0:0:
340,49,52779,1,0,0:0:0:0:
247,227,52956,5,10,0:0:0:0:
90,67,53132,1,0,0:0:0:0:
122,78,53221,1,0,0:0:0:0:
154,89,53309,1,8,0:0:0:0:
328,142,53485,1,0,0:0:0:0:
143,175,53662,6,0,P|77:181|57:251,1,115,10|0,0:0|0:0,0:0:0:0:
53,253,53926,1,0,0:0:0:0:
55,287,54015,1,8,0:0:0:0:
11,110,54191,1,0,0:0:0:0:
224,215,54368,6,0,L|336:275,1,115,10|0,0:0|0:0,0:0:0:0:
355,286,54632,1,0,0:0:0:0:
386,301,54721,1,8,0:0:0:0:
360,128,54897,1,0,0:0:0:0:
157,180,55074,5,10,0:0:0:0:
25,51,55250,1,0,0:0:0:0:
27,85,55338,1,0,0:0:0:0:
30,119,55426,2,0,L|40:261,1,115,8|0,0:0|0:0,0:0:0:0:
177,202,55779,5,10,0:0:0:0:
274,299,55956,1,0,0:0:0:0:
300,321,56044,1,0,0:0:0:0:
326,343,56132,2,0,B|386:381|386:381|436:307,1,115,8|0,0:0|0:0,0:0:0:0:
471,198,56485,5,10,0:0:0:0:
313,234,56662,1,0,0:0:0:0:
279,242,56750,1,0,0:0:0:0:
246,252,56838,2,0,L|122:288,1,115,8|0,0:0|0:0,0:0:0:0:
149,127,57191,5,8,0:0:0:0:
348,69,57368,1,8,0:0:0:0:
304,270,57544,1,8,0:0:0:0:
273,64,57721,1,8,0:0:0:0:
226,218,57897,6,2,L|180:350,1,115,10|2,3:3|3:3,3:3:0:0:
102,194,58250,1,2,0:0:0:0:
165,46,58426,1,2,0:0:0:0:
320,90,58603,6,2,B|370:122|370:122|399:170,1,115,10|2,3:3|3:3,3:3:0:0:
257,293,58955,1,2,0:0:0:0:
238,86,59132,1,2,0:0:0:0:
299,268,59309,6,2,L|334:158,1,115,10|2,3:3|3:3,3:3:0:0:
201,116,59662,2,2,L|166:225,1,115
121,338,60015,6,2,B|65:323|65:323|15:209,1,137.999995788574,10|2,3:3|3:3,3:3:0:0:
26,97,60368,2,2,L|130:229,1,137.999995788574
202,305,60721,2,2,B|241:261|241:261|241:153,1,137.999995788574,10|2,3:3|3:3,3:3:0:0:
121,204,61074,2,2,B|121:132|121:132|156:77,1,137.999995788574
391,338,61426,6,2,B|447:323|447:323|497:209,1,137.999995788574,10|2,3:3|3:3,3:3:0:0:
486,97,61779,2,2,L|382:229,1,137.999995788574
310,305,62132,2,2,B|271:261|271:261|271:153,1,137.999995788574,10|2,3:3|3:3,3:3:0:0:
391,204,62485,2,2,B|391:132|391:132|356:77,1,137.999995788574
256,160,62838,6,2,L|256:46,1,115,2|2,3:3|3:3,3:3:0:0:
103,158,63191,1,8,0:0:0:0:
407,159,63368,1,8,0:0:0:0:
160,36,63544,6,10,B|144:96|144:96|160:161,1,115,10|10,3:3|3:3,3:3:0:0:
255,183,63897,2,2,L|210:317,1,115,2|2,3:3|3:3,3:3:0:0:
41,253,64250,2,10,L|120:338,1,115,10|10,3:3|3:3,3:3:0:0:
264,340,64603,2,2,B|326:323|326:323|386:272,1,115,2|2,3:3|3:3,3:3:0:0:
204,236,64956,2,10,B|253:198|253:198|307:187,1,115,10|10,3:3|3:3,3:3:0:0:
359,332,65309,2,10,P|401:295|418:241,1,115,10|10,3:3|3:3,3:3:0:0:
215,137,65662,2,2,P|267:113|324:103,1,115,2|2,3:3|3:3,3:3:0:0:
386,160,66015,2,2,L|484:67,1,115,2|2,3:3|3:3,3:3:0:0:
379,48,66368,5,8,0:0:0:0:
353,82,66456,1,0,0:0:0:0:
320,110,66544,1,0,0:0:0:0:
282,130,66632,1,0,0:0:0:0:
239,139,66720,5,8,0:0:0:0:
196,137,66809,1,0,0:0:0:0:
155,125,66897,1,0,0:0:0:0:
118,104,66985,1,0,0:0:0:0:
81,85,67074,5,12,0:0:0:0:
58,138,67162,1,0,0:0:0:0:
50,194,67250,1,0,0:0:0:0:
58,251,67338,1,0,0:0:0:0:
79,308,67426,5,12,0:0:0:0:
125,276,67514,1,0,0:0:0:0:
146,222,67602,1,0,0:0:0:0:
149,167,67691,1,0,0:0:0:0:
109,123,67779,6,0,P|70:177|64:259,1,115,6|0,0:0|0:0,0:0:0:0:
182,335,68132,2,0,P|215:277|210:193,1,115,2|0,0:0|0:0,0:0:0:0:
217,45,68485,1,0,0:0:0:0:
85,226,68662,1,0,0:0:0:0:
298,157,68838,1,0,0:0:0:0:
85,88,69015,1,0,0:0:0:0:
217,269,69191,5,4,0:0:0:0:
256,192,69279,12,0,74838,2:2:0:0:
256,192,90191,12,0,91779,2:2:0:0:
261,323,91956,6,0,P|337:301|367:206,1,172.500006580353,0|0,2:2|2:2,2:2:0:0:
192,311,92485,1,0,2:2:0:0:
279,132,92662,2,0,P|322:244|445:227,1,258.75000987053,0|0,2:2|2:2,2:2:0:0:
368,159,93368,5,0,2:2:0:0:
188,76,93544,1,0,2:2:0:0:
188,223,93721,2,0,P|108:208|186:82,1,258.75000987053,0|0,2:2|2:2,2:2:0:0:
338,143,94426,6,0,P|304:99|244:80,1,86.2500032901765,0|0,2:2|2:2,2:2:0:0:
122,247,94779,2,0,P|263:286|340:181,1,258.75000987053,0|0,2:2|2:2,2:2:0:0:
386,78,95485,2,0,P|433:145|430:185,1,86.2500032901765,0|0,2:2|2:2,2:2:0:0:
401,270,95838,1,0,2:2:0:0:
311,82,96015,2,0,P|188:50|123:181,1,258.75000987053,0|0,2:2|2:2,2:2:0:0:
158,285,96721,6,0,P|187:316|227:332,1,86.2500032901765,0|0,2:2|2:2,2:2:0:0:
408,251,97074,2,0,P|367:213|308:203,1,86.2500032901765,0|0,2:2|2:2,2:2:0:0:
261,337,97426,2,0,P|177:311|181:157,1,258.75000987053,0|0,2:2|2:2,2:2:0:0:
297,64,98132,1,0,2:2:0:0:
361,252,98309,2,0,P|394:201|386:155,1,86.2500032901765,0|0,2:2|2:2,2:2:0:0:
186,168,98662,1,0,2:2:0:0:
78,360,98838,6,0,P|84:271|259:235,1,258.75000987053,0|0,2:2|2:2,2:2:0:0:
360,276,99544,2,0,P|334:309|293:324,1,86.2500032901765,0|0,2:2|2:2,2:2:0:0:
236,188,99897,2,0,P|262:154|302:140,1,86.2500032901765,0|0,2:2|2:2,2:2:0:0:
221,263,100250,2,0,P|228:312|191:371,1,86.2500032901765,0|0,2:2|2:2,2:2:0:0:
137,201,100603,2,0,P|138:129|158:100,1,86.2500032901765,0|0,2:2|2:2,2:2:0:0:
223,241,100956,2,0,P|282:257|332:221,1,86.2500032901765,0|0,2:2|2:2,2:2:0:0:
304,84,101309,2,0,P|263:76|224:93,1,86.2500032901765,0|0,2:2|2:2,2:2:0:0:
117,195,101662,6,0,P|99:257|120:294,1,86.2500032901765,0|0,2:2|2:2,2:2:0:0:
223,320,102015,1,0,2:2:0:0:
327,260,102191,1,0,2:2:0:0:
232,184,102368,1,0,2:2:0:0:
329,113,102544,1,0,2:2:0:0:
287,269,102721,2,0,P|238:268|180:188,1,115,0|0,2:2|2:2,2:2:0:0:
110,61,103074,6,0,P|78:145|12:177,1,126.500003860474
122,227,103426,2,0,P|154:311|220:340,1,126.500003860474
353,288,103779,1,0,0:0:0:0:
169,46,104132,1,0,0:0:0:0:
411,79,104485,6,0,P|443:163|509:195,1,126.500003860474
410,240,104838,2,0,P|378:324|312:356,1,126.500003860474
276,233,105191,5,0,0:0:0:0:
411,128,105368,1,0,0:0:0:0:
404,287,105544,1,0,0:0:0:0:
203,330,105897,6,0,P|171:246|105:214,1,126.500003860474
213,159,106250,2,0,P|245:75|311:43,1,126.500003860474
382,46,106603,1,0,0:0:0:0:
126,301,106956,1,0,0:0:0:0:
257,254,107309,6,0,P|198:231|147:194,1,126.500003860474
33,149,107663,2,0,P|96:125|164:65,1,126.500003860474
225,39,108016,2,0,P|283:61|329:104,1,126.500003860474
485,262,108369,2,0,P|418:241|363:153,1,126.500003860474
306,216,108722,2,0,P|245:233|185:218,2,126.500003860474
464,160,109427,1,0,0:0:0:0:
288,48,109780,1,0,0:0:0:0:
363,241,110133,5,0,0:0:0:0:
244,313,110309,1,0,0:0:0:0:
206,185,110486,2,0,P|150:210|121:271,1,126.500003860474
115,352,110839,1,0,0:0:0:0:
217,216,111015,1,0,0:0:0:0:
370,215,111192,2,0,P|351:147|273:100,1,126.500003860474
173,87,111544,5,0,0:0:0:0:
132,96,111632,1,0,0:0:0:0:
97,121,111720,1,0,0:0:0:0:
74,156,111808,1,0,0:0:0:0:
66,198,111896,1,0,0:0:0:0:
74,239,111985,1,0,0:0:0:0:
97,274,112073,1,0,0:0:0:0:
131,299,112161,1,0,0:0:0:0:
168,308,112250,6,0,L|168:351,3,43.1250016450883
247,247,112603,2,0,L|246:188,1,43.1250016450883
247,316,112779,2,0,L|247:379,1,43.1250016450883
170,227,112956,6,0,L|170:178,3,43.1250016450883
171,109,113309,2,0,L|127:109,1,43.1250016450883
235,112,113485,2,0,L|278:112,1,43.1250016450883
281,204,113662,6,0,L|324:204,3,43.1250016450883
379,205,114014,5,0,0:0:0:0:
369,144,114102,1,0,0:0:0:0:
334,94,114190,1,0,0:0:0:0:
280,65,114278,1,0,0:0:0:0:
219,64,114367,5,10,0:0:0:0:
55,112,114632,1,0,0:0:0:0:
68,140,114721,2,8,B|122:255,1,126.500003860474
231,151,115074,1,8,0:0:0:0:
401,159,115338,5,0,0:0:0:0:
388,187,115426,2,8,L|319:332,1,126.500003860474
232,185,115779,1,8,0:0:0:0:
151,335,116044,5,0,0:0:0:0:
123,320,116132,2,8,B|78:275|78:275|61:192,1,126.500003860474
44,100,116485,1,8,0:0:0:0:
249,223,116662,1,0,0:0:0:0:
32,123,116838,1,0,0:0:0:0:
232,21,117015,1,8,0:0:0:0:
249,223,117191,5,10,0:0:0:0:
113,348,117456,1,0,0:0:0:0:
85,333,117544,2,8,B|30:291|30:291|30:203,1,126.500003860474
203,226,117897,1,8,0:0:0:0:
101,91,118162,5,0,0:0:0:0:
100,122,118250,2,8,B|100:179|100:179|155:221,1,126.500003860474
331,226,118603,5,8,0:0:0:0:
165,309,118868,5,0,0:0:0:0:
133,305,118956,2,8,P|67:271|38:207,1,126.500003860474
5,71,119309,1,0,0:0:0:0:
144,178,119485,1,0,0:3:0:0:
265,48,119662,1,8,0:0:0:0:
110,154,119838,1,8,0:3:0:0:
255,256,120015,5,10,0:0:0:0:
313,55,120279,1,0,0:0:0:0:
338,74,120368,2,8,P|389:127|414:191,1,126.500003860474
255,228,120721,1,8,0:0:0:0:
139,149,120985,5,0,0:0:0:0:
129,179,121074,2,8,L|75:314,1,126.500003860474
255,197,121426,1,8,0:0:0:0:
78,301,121691,5,0,0:0:0:0:
102,320,121779,2,8,B|168:360|168:360|274:349,1,126.500003860474
424,341,122132,1,0,0:0:0:0:
243,339,122309,1,0,0:0:0:0:
347,261,122485,1,8,0:0:0:0:
169,259,122662,1,8,0:0:0:0:
396,260,122838,5,10,0:0:0:0:
73,258,123103,1,0,0:0:0:0:
87,230,123191,2,8,P|157:178|231:200,1,126.500003860474
332,201,123544,1,8,0:0:0:0:
486,90,123809,5,0,0:0:0:0:
479,120,123897,2,8,L|438:262,1,126.500003860474
303,187,124250,1,8,0:0:0:0:
249,47,124426,5,0,0:0:0:0:
230,80,124515,1,0,0:0:0:0:
75,89,124691,5,0,0:0:0:0:
94,122,124780,1,0,0:0:0:0:
185,276,124956,5,0,0:0:0:0:
359,174,125132,1,0,0:0:0:0:
326,355,125309,1,0,0:0:0:0:
353,173,125485,1,0,0:0:0:0:
161,128,125662,5,10,0:0:0:0:
257,318,125926,1,0,0:0:0:0:
257,318,126015,1,0,0:0:0:0:
366,191,126191,1,8,0:0:0:0:
440,345,126368,5,8,0:0:0:0:
234,185,126632,1,0,0:0:0:0:
234,185,126721,1,0,0:0:0:0:
359,302,126897,1,8,0:0:0:0:
388,131,127074,5,8,0:0:0:0:
163,258,127338,1,0,0:0:0:0:
163,258,127426,1,0,0:0:0:0:
124,89,127603,1,8,0:0:0:0:
281,59,127779,5,8,0:0:0:0:
115,175,127956,1,8,0:0:0:0:
320,228,128132,1,8,0:0:0:0:
201,53,128309,1,8,0:0:0:0:
384,52,128485,5,10,0:0:0:0:
154,261,128750,1,0,0:0:0:0:
154,261,128838,1,0,0:0:0:0:
329,150,129015,1,8,0:0:0:0:
147,51,129191,5,8,0:0:0:0:
74,281,129456,1,0,0:0:0:0:
74,281,129544,1,0,0:0:0:0:
247,166,129721,1,8,0:0:0:0:
151,348,129897,5,8,0:0:0:0:
316,85,130162,1,0,0:0:0:0:
316,85,130250,1,0,0:0:0:0:
122,156,130426,1,8,0:0:0:0:
282,254,130603,5,8,0:0:0:0:
66,225,130779,1,8,0:0:0:0:
202,353,130956,2,0,B|261:342|261:342|277:277,1,115,0|8,0:0|0:0,0:0:0:0:
307,96,131309,5,10,0:0:0:0:
396,320,131574,1,0,0:0:0:0:
396,320,131662,1,0,0:0:0:0:
225,203,131838,1,8,0:0:0:0:
360,45,132015,5,8,0:0:0:0:
302,278,132279,1,0,0:0:0:0:
302,278,132367,1,0,0:0:0:0:
470,158,132543,1,8,0:0:0:0:
266,198,132720,5,8,0:0:0:0:
89,32,132985,1,0,0:0:0:0:
89,32,133074,1,0,0:0:0:0:
152,228,133250,1,0,0:0:0:0:
304,91,133426,5,8,0:0:0:0:
186,260,133603,1,8,0:0:0:0:
332,127,133779,1,8,0:0:0:0:
140,186,133956,1,8,0:0:0:0:
256,356,134132,5,10,0:0:0:0:
405,166,134397,1,0,0:0:0:0:
405,166,134485,1,0,0:0:0:0:
217,255,134662,1,8,0:0:0:0:
119,72,134838,5,8,0:0:0:0:
332,184,135103,1,0,0:0:0:0:
332,184,135191,1,0,0:0:0:0:
124,191,135368,1,8,0:0:0:0:
335,62,135544,6,0,L|375:144,1,80.499997543335
390,169,135721,1,0,0:0:0:0:
409,204,135809,1,0,0:0:0:0:
295,239,135985,1,0,0:0:0:0:
256,227,136074,1,0,0:0:0:0:
142,184,136250,2,8,P|84:114|109:57,1,160.99999508667
235,95,136603,2,0,L|305:119,1,57.5
462,168,136956,5,8,0:0:0:0:
298,303,137132,1,0,0:0:0:0:
298,303,137221,1,0,0:0:0:0:
298,303,137309,1,0,0:0:0:0:
481,134,137485,1,0,0:0:0:0:
378,321,137662,5,8,0:0:0:0:
208,268,137838,1,0,0:0:0:0:
173,255,137926,1,0,0:0:0:0:
138,238,138015,2,0,P|70:156|78:86,1,160.99999508667
26,294,138368,5,8,0:0:0:0:
62,104,138544,1,0,0:0:0:0:
62,104,138632,1,0,0:0:0:0:
62,104,138721,1,0,0:0:0:0:
212,224,138897,1,0,0:0:0:0:
26,294,139074,6,0,B|39:232|39:232|110:152,1,160.99999508667,8|0,0:0|0:0,0:0:0:0:
135,134,139338,1,0,0:0:0:0:
173,123,139426,2,0,B|221:194|221:194|324:232,1,160.99999508667
455,79,139779,5,8,0:0:0:0:
429,271,139956,1,0,0:0:0:0:
429,271,140044,1,0,0:0:0:0:
429,271,140132,1,0,0:0:0:0:
289,135,140309,1,0,0:0:0:0:
264,326,140485,5,8,0:0:0:0:
124,191,140662,1,0,0:0:0:0:
119,230,140750,1,0,0:0:0:0:
111,269,140838,2,0,B|80:377|80:377|36:353,1,160.99999508667
24,161,141191,5,8,0:0:0:0:
204,230,141368,1,0,0:0:0:0:
242,242,141456,1,0,0:0:0:0:
279,255,141544,1,0,0:0:0:0:
446,158,141721,1,0,0:0:0:0:
323,137,141897,6,8,B|238:107|238:107|173:21,1,160.99999508667
180,219,142250,2,0,B|258:249|258:249|296:355,1,160.99999508667,8|0,0:0|0:0,0:0:0:0:
247,111,142603,1,0,0:0:0:0:
17,141,142779,1,0,0:0:0:0:
34,176,142867,1,0,0:0:0:0:
53,212,142956,1,0,0:0:0:0:
138,355,143132,1,0,0:0:0:0:
201,184,143309,5,8,0:0:0:0:
263,36,143485,1,0,0:0:0:0:
300,50,143574,1,0,0:0:0:0:
336,65,143662,2,0,B|416:97|416:97|454:202,1,160.99999508667
466,315,144015,5,8,0:0:0:0:
339,187,144191,1,0,0:0:0:0:
339,187,144279,1,0,0:0:0:0:
339,187,144368,1,0,0:0:0:0:
508,244,144544,1,0,0:0:0:0:
296,333,144721,5,8,0:0:0:0:
213,200,144897,1,0,0:0:0:0:
191,165,144985,1,0,0:0:0:0:
171,128,145074,2,0,B|117:33|117:33|59:143,1,160.99999508667
152,272,145426,5,8,0:0:0:0:
281,78,145603,1,0,0:0:0:0:
281,78,145691,1,0,0:0:0:0:
281,78,145779,1,0,0:0:0:0:
177,255,145956,1,0,0:0:0:0:
369,240,146132,5,8,0:0:0:0:
223,138,146309,1,0,0:0:0:0:
190,114,146397,1,0,0:0:0:0:
155,93,146485,2,0,B|61:42|61:42|64:109,1,160.99999508667
73,287,146838,5,8,0:0:0:0:
261,162,147015,1,0,0:0:0:0:
261,162,147103,1,0,0:0:0:0:
261,162,147191,1,0,0:0:0:0:
109,318,147368,1,0,0:0:0:0:
317,300,147544,5,8,0:0:0:0:
149,202,147721,1,8,0:0:0:0:
344,312,147897,1,8,0:0:0:0:
121,350,148074,1,8,0:0:0:0:
48,175,148250,6,2,P|56:96|126:60,1,149.499993156433,14|2,3:3|3:3,3:3:0:0:
120,240,148603,1,2,0:0:0:0:
198,78,148779,1,2,0:0:0:0:
256,258,148956,6,2,B|256:108,1,149.499993156433,10|2,3:3|3:3,3:3:0:0:
137,21,149309,1,2,0:0:0:0:
375,22,149485,1,2,0:0:0:0:
464,175,149662,6,2,P|456:96|386:60,1,149.499993156433,14|2,3:3|3:3,3:3:0:0:
392,240,150015,1,2,0:0:0:0:
314,78,150191,1,2,0:0:0:0:
311,257,150368,6,2,B|266:297|266:297|238:174,1,149.499993156433,10|2,3:3|3:3,3:3:0:0:
203,34,150721,1,2,0:0:0:0:
165,217,150897,1,2,0:0:0:0:
31,89,151074,6,2,L|173:44,1,149.499993156433,14|2,3:3|3:3,3:3:0:0:
40,163,151426,2,2,P|75:249|154:265,1,149.499993156433
339,61,151779,6,2,L|197:106,1,149.499993156433,14|2,3:3|3:3,3:3:0:0:
375,125,152132,2,2,P|340:211|261:227,1,149.499993156433
54,147,152485,6,2,L|234:183,1,149.499993156433,10|2,3:3|3:3,3:3:0:0:
372,230,152838,2,2,B|319:299|319:299|218:323,1,149.499993156433
218,135,153191,2,2,P|128:145|115:206,1,149.499993156433,10|2,3:3|3:3,3:3:0:0:
179,358,153544,6,2,B|250:358|250:358|325:300,1,149.499993156433
394,241,153897,6,8,L|363:209,1,28.75
307,132,154074,2,8,L|272:96,1,28.75
229,197,154250,2,8,L|186:180,1,28.75
179,291,154426,2,8,L|127:296,1,28.75
48,208,154603,2,8,L|100:210,1,28.75
108,122,154779,2,8,L|154:137,1,28.75
182,44,154956,2,8,L|227:68,1,28.75
304,32,155132,2,8,L|334:66,1,28.75
459,162,155309,6,8,L|414:130,1,28.75
408,235,155485,2,8,L|365:206,1,28.75
355,306,155662,2,8,L|319:282,1,28.75
256,272,155838,2,8,L|256:220,1,28.75
53,162,156014,6,8,L|78:145,1,28.75
103,233,156191,2,8,L|139:209,1,28.75
157,306,156368,2,8,L|198:278,1,28.75
256,200,156544,2,8,L|255:151,1,28.75
270,58,156721,5,8,0:0:0:0:
287,80,156809,1,0,0:0:0:0:
290,108,156897,1,0,0:0:0:0:
279,133,156985,1,0,0:0:0:0:
261,155,157073,1,8,0:0:0:0:
242,175,157162,1,0,0:0:0:0:
223,196,157250,1,0,0:0:0:0:
206,219,157338,1,0,0:0:0:0:
195,258,157426,5,8,0:0:0:0:
216,303,157514,1,0,0:0:0:0:
265,321,157602,1,0,0:0:0:0:
309,294,157690,1,0,0:0:0:0:
349,262,157779,5,8,0:0:0:0:
382,200,157867,1,0,0:0:0:0:
356,136,157955,1,0,0:0:0:0:
288,115,158043,1,0,0:0:0:0:
230,154,158131,5,0,0:0:0:0:
112,243,158309,1,0,0:0:0:0:
112,243,158485,2,0,P|45:245|8:138,1,160.99999508667,0|8,0:0|0:0,0:0:0:0:
149,49,158838,1,8,0:0:0:0:
282,211,159015,1,0,0:0:0:0:
71,176,159191,1,12,0:0:0:0:
357,281,159544,5,12,2:2:0:0:
265,91,159721,1,0,2:2:0:0:
265,91,159809,1,0,2:2:0:0:
265,91,159897,1,8,2:2:0:0:
167,276,160074,1,0,2:2:0:0:
10,211,160250,5,10,2:2:0:0:
19,172,160338,1,0,2:2:0:0:
40,136,160426,1,0,2:2:0:0:
72,112,160515,1,0,2:2:0:0:
109,97,160603,2,0,P|195:76|283:99,1,160.99999508667,8|0,2:2|2:2,2:2:0:0:
440,175,160956,5,10,2:2:0:0:
320,326,161132,1,0,2:2:0:0:
320,326,161221,1,0,2:2:0:0:
320,326,161309,1,8,2:2:0:0:
134,272,161485,1,0,2:2:0:0:
307,192,161662,1,10,2:2:0:0:
88,191,161838,1,0,2:2:0:0:
300,269,162015,1,8,2:2:0:0:
89,348,162191,1,0,2:2:0:0:
327,347,162368,5,10,2:2:0:0:
209,216,162544,1,0,2:2:0:0:
209,216,162632,1,0,2:2:0:0:
209,216,162721,1,8,2:2:0:0:
395,168,162897,1,0,2:2:0:0:
297,275,163074,5,10,2:2:0:0:
266,295,163162,1,0,2:2:0:0:
226,302,163250,1,0,2:2:0:0:
186,291,163338,1,0,2:2:0:0:
152,269,163426,1,8,2:2:0:0:
132,236,163515,1,0,2:2:0:0:
117,199,163603,1,0,2:2:0:0:
115,162,163691,1,0,2:2:0:0:
129,126,163779,5,10,2:2:0:0:
280,92,163956,1,0,2:2:0:0:
304,123,164044,1,0,2:2:0:0:
336,146,164132,1,8,2:2:0:0:
491,32,164309,1,0,2:2:0:0:
456,221,164485,1,10,2:2:0:0:
268,171,164662,1,0,2:2:0:0:
352,344,164838,1,8,2:2:0:0:
374,159,165015,1,0,2:2:0:0:
200,269,165191,5,10,2:2:0:0:
75,80,165368,1,0,2:2:0:0:
75,80,165456,1,0,2:2:0:0:
75,80,165544,1,8,2:2:0:0:
295,127,165721,1,0,2:2:0:0:
217,285,165897,5,10,2:2:0:0:
181,274,165985,1,0,2:2:0:0:
150,250,166073,1,0,2:2:0:0:
131,217,166161,1,0,2:2:0:0:
126,179,166249,1,8,2:2:0:0:
135,142,166338,1,0,2:2:0:0:
158,111,166426,1,0,2:2:0:0:
27,33,166603,5,10,2:2:0:0:
50,182,166779,1,0,2:2:0:0:
57,213,166868,1,0,2:2:0:0:
64,243,166956,1,8,2:2:0:0:
232,157,167132,1,0,2:2:0:0:
407,191,167309,2,0,P|433:108|394:43,1,160.99999508667,10|0,2:2|2:2,2:2:0:0:
295,193,167662,2,0,P|260:285|297:345,1,160.99999508667,10|0,2:2|2:2,2:2:0:0:
121,232,168015,5,10,2:2:0:0:
250,48,168191,1,0,2:2:0:0:
250,48,168279,1,0,2:2:0:0:
250,48,168368,1,8,2:2:0:0:
49,147,168544,1,0,2:2:0:0:
274,158,168721,1,10,2:2:0:0:
274,158,168809,1,0,2:2:0:0:
274,158,168897,1,0,2:2:0:0:
125,32,169074,1,8,2:2:0:0:
125,32,169162,1,0,2:2:0:0:
125,32,169250,1,0,2:2:0:0:
205,211,169426,5,10,2:2:0:0:
112,347,169603,1,0,2:2:0:0:
112,347,169691,1,0,2:2:0:0:
112,347,169779,1,8,2:2:0:0:
235,176,169956,1,0,2:2:0:0:
460,176,170132,5,10,2:2:0:0:
337,347,170309,1,0,2:2:0:0:
337,347,170397,1,0,2:2:0:0:
337,347,170485,1,12,2:2:0:0:
52,192,170838,5,12,0:0:0:0:
260,105,171015,1,0,0:0:0:0:
243,314,171191,1,4,0:0:0:0:
141,111,171368,1,0,2:2:0:0:
113,323,171544,5,12,2:2:0:0:
321,236,171721,1,0,2:2:0:0:
141,111,171897,1,4,2:2:0:0:
243,314,172074,1,0,2:2:0:0:
297,95,172250,5,12,0:0:0:0:
168,278,172426,1,0,2:2:0:0:
403,279,172603,1,4,0:0:0:0:
233,132,172779,1,0,2:2:0:0:
136,336,172956,5,4,0:0:0:0:
238,136,173132,1,0,2:2:0:0:
403,279,173309,1,4,0:0:0:0:
183,229,173485,1,0,2:2:0:0:
403,177,173662,5,12,0:0:0:0:
269,37,173838,1,0,2:2:0:0:
269,37,173926,1,0,2:2:0:0:
269,37,174015,1,4,0:0:0:0:
473,129,174191,1,0,2:2:0:0:
422,266,174368,5,4,0:0:0:0:
388,289,174456,1,0,2:2:0:0:
352,305,174544,1,0,2:2:0:0:
312,311,174632,1,0,2:2:0:0:
273,303,174721,1,4,0:0:0:0:
236,286,174809,1,0,2:2:0:0:
207,258,174897,1,0,2:2:0:0:
123,83,175074,5,12,0:0:0:0:
287,182,175250,1,0,2:2:0:0:
287,182,175338,1,0,2:2:0:0:
287,182,175426,1,4,0:0:0:0:
185,16,175603,1,0,2:2:0:0:
154,206,175779,2,0,P|200:275|305:230,1,160.99999508667,4|0,0:0|2:2,2:2:0:0:
447,191,176132,1,4,0:0:0:0:
230,203,176309,1,0,2:2:0:0:
367,338,176485,5,12,0:0:0:0:
298,152,176662,1,0,2:2:0:0:
298,152,176750,1,0,2:2:0:0:
298,152,176838,1,4,2:2:0:0:
120,291,177015,1,0,2:2:0:0:
293,257,177191,2,0,L|358:245,2,63.2500019302369,4|0|0,2:2|2:2|2:2,2:2:0:0:
133,179,177544,2,0,L|95:124,2,63.2500019302369,4|0|0,2:2|2:2|2:2,2:2:0:0:
251,332,177897,5,12,0:0:0:0:
424,203,178074,1,0,2:2:0:0:
231,272,178250,1,4,2:2:0:0:
405,147,178426,1,0,2:2:0:0:
367,337,178603,1,4,2:2:0:0:
217,217,178779,1,0,2:2:0:0:
394,97,178956,1,4,2:2:0:0:
184,61,179132,1,0,2:2:0:0:
93,179,179309,6,0,L|137:325,1,149.499993156433
214,206,179662,2,0,L|260:359,1,149.499993156433
414,206,180015,6,0,L|370:60,1,149.499993156433
293,179,180368,2,0,L|247:26,1,149.499993156433
206,257,180721,6,0,L|188:291,12,26.833332514445
296,59,181250,5,0,0:0:0:0:
410,182,181426,1,0,0:0:0:0:
286,298,181603,1,0,0:0:0:0:
172,174,181779,1,8,0:0:0:0:
373,264,182132,5,8,0:0:0:0:
218,350,182309,1,0,0:0:0:0:
218,350,182397,1,0,0:0:0:0:
218,350,182485,1,0,0:0:0:0:
9,197,182662,1,0,0:0:0:0:
214,300,182838,1,8,0:0:0:0:
214,106,183015,1,0,0:0:0:0:
25,66,183191,1,0,0:0:0:0:
25,259,183368,1,0,0:0:0:0:
120,91,183544,5,8,0:0:0:0:
297,230,183721,1,0,0:0:0:0:
297,230,183809,1,0,0:0:0:0:
297,230,183897,1,8,0:0:0:0:
100,342,184074,1,0,0:0:0:0:
189,135,184250,1,8,0:0:0:0:
295,333,184426,1,0,0:0:0:0:
489,217,184603,1,8,0:0:0:0:
282,127,184779,1,0,0:0:0:0:
382,328,184956,5,8,0:0:0:0:
202,274,185132,1,0,0:0:0:0:
202,274,185221,1,0,0:0:0:0:
202,274,185309,1,0,0:0:0:0:
381,205,185485,1,0,0:0:0:0:
198,140,185662,1,8,0:0:0:0:
382,83,185838,1,0,0:0:0:0:
292,270,186015,1,0,0:0:0:0:
289,76,186191,1,0,0:0:0:0:
438,239,186368,5,8,0:0:0:0:
262,220,186544,1,0,0:0:0:0:
262,220,186632,1,0,0:0:0:0:
262,220,186721,1,8,0:0:0:0:
426,320,186897,1,0,0:0:0:0:
345,108,187074,1,8,0:0:0:0:
234,285,187250,1,0,0:0:0:0:
457,253,187426,1,8,0:0:0:0:
277,83,187603,1,0,0:0:0:0:
54,115,187779,6,0,B|69:175|69:175|43:232|43:232|86:314,1,160.99999508667,8|0,0:0|0:0,0:0:0:0:
208,349,188132,1,0,0:0:0:0:
155,162,188309,1,0,0:0:0:0:
337,232,188485,1,8,0:0:0:0:
146,261,188662,1,0,0:0:0:0:
297,142,188838,1,0,0:0:0:0:
177,345,189015,1,0,0:0:0:0:
281,253,189191,6,0,B|331:210|331:210|379:199|379:199|437:142,1,160.99999508667,8|0,0:0|0:0,0:0:0:0:
187,138,189544,1,8,0:0:0:0:
394,49,189721,1,0,0:0:0:0:
366,238,189897,1,8,0:0:0:0:
169,125,190074,1,0,0:0:0:0:
169,125,190162,1,0,0:0:0:0:
169,125,190251,1,8,0:0:0:0:
137,346,190426,1,0,0:0:0:0:
270,221,190603,6,0,B|325:172|325:172|349:131|349:131|385:90,1,160.99999508667,8|0,0:0|0:0,0:0:0:0:
473,277,190956,1,0,0:0:0:0:
408,71,191132,1,0,0:0:0:0:
473,277,191309,1,8,0:0:0:0:
264,271,191485,1,0,0:0:0:0:
264,271,191574,1,0,0:0:0:0:
264,271,191662,1,0,0:0:0:0:
384,100,191838,1,0,0:0:0:0:
200,32,192015,6,0,B|167:87|167:87|153:128|153:128|111:208,1,160.99999508667,8|0,0:0|0:0,0:0:0:0:
35,345,192368,1,8,0:0:0:0:
183,221,192544,1,0,0:0:0:0:
310,367,192721,2,0,B|311:367|378:322|368:218,1,160.99999508667,8|0,0:0|0:0,0:0:0:0:
241,268,193074,6,0,P|239:202|270:268,1,195.500003728867,8|0,3:3|0:0,0:0:0:0:
200,367,193426,6,0,P|153:305|149:194,1,137.999995788574,10|0,0:0|0:0,0:0:0:0:
17,240,193779,2,0,P|64:178|68:67,1,137.999995788574,10|0,0:0|0:0,0:0:0:0:
167,30,194132,2,0,P|183:96|226:149,1,137.999995788574,10|0,0:0|0:0,0:0:0:0:
241,268,194485,2,0,L|379:268,1,137.999995788574,10|0,0:0|0:0,0:0:0:0:
488,190,194838,6,0,P|420:182|367:139,1,137.999995788574,10|0,0:0|0:0,0:0:0:0:
425,38,195191,2,0,L|287:38,1,137.999995788574,10|0,0:0|0:0,0:0:0:0:
168,142,195544,2,0,P|259:139|324:83,1,137.999995788574,10|0,0:0|0:0,0:0:0:0:
263,226,195897,2,0,L|321:351,1,137.999995788574,10|0,0:0|0:0,0:0:0:0:
230,164,196250,5,10,0:0:0:0:
153,325,196426,1,0,0:0:0:0:
153,325,196515,1,0,0:0:0:0:
153,325,196603,1,10,0:0:0:0:
328,289,196779,1,0,0:0:0:0:
158,227,196956,1,8,0:0:0:0:
332,188,197132,1,0,0:0:0:0:
233,49,197309,2,0,B|185:74|185:74|163:113|163:113|91:146,1,137.999995788574,10|0,0:0|0:0,0:0:0:0:
231,258,197662,5,10,0:0:0:0:
336,131,197838,1,0,0:0:0:0:
336,131,197926,1,0,0:0:0:0:
336,131,198015,1,10,0:0:0:0:
390,286,198191,1,0,0:0:0:0:
265,178,198368,2,0,B|224:140|224:140|183:132|183:132|115:69,1,137.999995788574,10|0,0:0|0:0,0:0:0:0:
328,61,198721,1,10,0:0:0:0:
279,241,198897,1,0,0:0:0:0:
430,181,199074,6,0,L|394:148,1,28.75,8|0,0:0|0:0,0:0:0:0:
267,127,199250,2,0,L|230:101,1,28.75,8|0,0:0|0:0,0:0:0:0:
121,190,199426,2,0,L|74:180,1,28.75,8|0,0:0|0:0,0:0:0:0:
57,320,199603,2,0,L|21:345,1,28.75,8|0,0:0|0:0,0:0:0:0:
41,268,199779,6,0,L|82:291,1,28.75,8|0,0:0|0:0,0:0:0:0:
210,292,199956,2,0,L|246:309,1,28.75,8|0,0:0|0:0,0:0:0:0:
343,205,200132,2,0,L|388:206,1,28.75,8|0,0:0|0:0,0:0:0:0:
384,66,200309,2,0,L|415:35,1,28.75,8|0,0:0|0:0,0:0:0:0:
343,130,200485,6,0,L|306:151,1,28.75,8|0,0:0|0:0,0:0:0:0:
263,208,200662,2,0,L|221:231,1,28.75,8|0,0:0|0:0,0:0:0:0:
167,125,200838,2,0,L|125:153,1,28.75,8|0,0:0|0:0,0:0:0:0:
88,210,201015,2,0,L|55:231,1,28.75,8|0,0:0|0:0,0:0:0:0:
185,301,201191,6,0,L|155:265,1,28.75,8|0,0:0|0:0,0:0:0:0:
338,218,201368,2,0,L|328:180,1,28.75,8|0,0:0|0:0,0:0:0:0:
99,167,201544,2,0,L|63:137,1,28.75,8|0,0:0|0:0,0:0:0:0:
302,66,201721,2,0,L|321:24,1,28.75,8|0,0:0|0:0,0:0:0:0:
338,204,201897,5,8,0:0:0:0:
333,242,201985,1,0,0:0:0:0:
316,276,202073,1,0,0:0:0:0:
289,303,202161,1,0,0:0:0:0:
254,320,202249,1,8,0:0:0:0:
216,323,202338,1,0,0:0:0:0:
178,314,202426,1,0,0:0:0:0:
146,294,202514,1,0,0:0:0:0:
118,262,202603,5,8,0:0:0:0:
149,263,202691,1,0,0:0:0:0:
181,262,202779,1,0,0:0:0:0:
213,255,202867,1,0,0:0:0:0:
244,243,202955,1,8,0:0:0:0:
271,228,203044,1,0,0:0:0:0:
298,209,203132,1,0,0:0:0:0:
317,189,203221,1,0,0:0:0:0:
343,158,203309,6,0,L|374:201,6,40.2499987716675,8|0|0|0|0|0|0,0:0|0:0|0:0|0:0|0:0|0:0|0:0,0:0:0:0:
291,71,203662,2,0,B|225:108|225:108|217:198,1,137.999995788574
224,275,204015,1,0,0:0:0:0:
387,326,204192,1,0,0:0:0:0:
449,164,204368,1,8,0:0:0:0:
254,77,204721,6,2,B|188:57|188:57|137:77|137:77|79:60,1,160.99999508667,10|2,3:3|3:3,3:3:0:0:
103,292,205074,2,2,B|171:285|171:285|217:315|217:315|255:313,1,160.99999508667,10|2,0:0|0:0,0:0:0:0:
299,177,205426,1,2,3:3:0:0:
73,175,205603,1,10,3:3:0:0:
189,331,205779,2,2,B|240:284|240:284|249:230|249:230|293:189,1,160.99999508667,10|2,0:0|0:0,0:0:0:0:
398,99,206132,6,2,B|440:59|440:59|381:49|381:49|319:75,1,160.99999508667,10|2,3:3|3:3,3:3:0:0:
149,152,206485,2,2,B|185:229|185:229|259:242,1,160.99999508667,10|2,0:0|0:0,0:0:0:0:
451,267,206838,1,10,3:3:0:0:
340,127,207015,1,2,3:3:0:0:
323,303,207191,2,2,B|375:233|375:233|338:122,1,160.99999508667,10|2,0:0|0:0,0:0:0:0:
222,18,207544,6,2,L|164:187,1,160.99999508667,10|2,3:3|3:3,3:3:0:0:
20,222,207897,2,2,P|65:287|138:320,1,160.99999508667,10|2,0:0|0:0,0:0:0:0:
295,311,208250,2,2,B|347:244|347:244|338:152,1,160.99999508667,10|2,3:3|3:3,3:3:0:0:
270,22,208603,2,2,B|218:89|218:89|227:181,1,160.99999508667,10|2,0:0|0:0,0:0:0:0:
166,349,208956,6,2,P|106:313|152:208,1,160.99999508667,10|2,3:3|3:3,3:3:0:0:
127,37,209309,2,2,L|187:216,1,160.99999508667,10|2,0:0|0:0,0:0:0:0:
280,334,209662,2,2,P|346:312|385:204,1,160.99999508667,10|2,3:3|3:3,3:3:0:0:
406,60,210015,5,8,0:0:0:0:
472,243,210191,1,8,0:0:0:0:
256,175,210368,1,8,0:0:0:0:
285,343,210544,5,0,0:0:0:0:
285,343,210632,1,0,0:0:0:0:
285,343,210721,2,2,B|366:300|366:300|419:201,1,160.99999508667,10|2,3:3|3:3,3:3:0:0:
233,260,211074,2,2,B|91:336,1,160.99999508667,10|2,0:0|0:0,0:0:0:0:
182,202,211427,2,2,B|235:137|235:137|317:115,1,160.99999508667,10|2,3:3|3:3,3:3:0:0:
223,42,211780,2,2,B|119:167,1,160.99999508667,10|2,0:0|0:0,0:0:0:0:
11,284,212132,5,10,3:3:0:0:
225,238,212309,1,2,3:3:0:0:
115,119,212486,2,2,P|40:165|7:255,1,160.99999508667,10|2,0:0|0:0,0:0:0:0:
167,260,212838,2,2,P|230:227|273:139,1,160.99999508667,10|2,3:3|3:3,3:3:0:0:
61,52,213192,2,2,L|139:214,1,160.99999508667,10|2,0:0|0:0,0:0:0:0:
210,354,213544,1,10,3:3:0:0:
284,184,213721,1,2,3:3:0:0:
458,259,213898,6,2,P|402:201|325:183,1,160.99999508667,10|2,0:0|0:0,0:0:0:0:
297,30,214250,2,2,L|156:184,1,160.99999508667,10|2,3:3|3:3,3:3:0:0:
65,70,214603,2,2,P|48:143|115:216,1,160.99999508667,10|2,0:0|0:0,0:0:0:0:
264,289,214956,5,10,3:3:0:0:
474,209,215132,1,2,3:3:0:0:
328,153,215309,5,8,0:0:0:0:
118,233,215485,1,0,0:0:0:0:
288,336,215662,1,8,0:0:0:0:
337,116,215838,1,0,0:0:0:0:
160,272,216015,5,8,0:0:0:0:
320,224,216191,1,2,0:0:0:0:
192,128,216368,1,8,0:0:0:0:
38,183,216544,1,2,0:0:0:0:
224,256,216721,5,8,0:0:0:0:
320,96,216897,1,2,0:0:0:0:
96,144,217074,1,8,0:0:0:0:
32,304,217250,1,2,0:0:0:0:
208,202,217426,6,2,B|263:144|263:144|286:53,1,160.99999508667,10|2,3:3|3:3,3:3:0:0:
167,130,217779,2,2,B|53:243,1,160.99999508667
225,283,218132,2,2,B|343:167,1,160.99999508667,10|2,3:3|3:3,3:3:0:0:
200,78,218485,2,2,B|129:123|129:123|99:209,1,160.99999508667
73,354,218838,5,8,0:0:0:0:
249,194,219015,1,2,0:0:0:0:
103,126,219191,5,8,0:0:0:0:
295,286,219368,1,2,0:0:0:0:
380,131,219544,5,8,0:0:0:0:
220,307,219721,1,2,0:0:0:0:
103,126,219897,5,8,0:0:0:0:
295,286,220074,1,2,0:0:0:0:
432,208,220250,6,2,P|384:130|303:121,1,160.99999508667,10|2,0:0|0:0,0:0:0:0:
218,212,220603,2,2,B|153:264|153:264|54:246,1,160.99999508667,10|2,3:3|3:3,3:3:0:0:
156,128,220956,2,10,L|288:27,1,160.99999508667,10|2,0:0|0:0,0:0:0:0:
276,167,221309,2,10,B|218:211|218:211|184:294,1,160.99999508667,10|10,3:3|3:3,3:3:0:0:
359,207,221662,1,8,0:0:0:0:
279,31,221838,5,0,0:0:0:0:
215,158,222015,2,2,B|136:302,1,160.99999508667,10|2,3:3|3:3,3:3:0:0:
56,135,222368,1,8,0:0:0:0:
232,133,222544,1,2,0:0:0:0:
342,271,222721,2,2,B|420:314|420:314|494:280,1,160.99999508667,10|2,3:3|3:3,3:3:0:0:
279,323,223074,5,10,0:0:0:0:
404,188,223251,1,2,3:3:0:0:
220,184,223426,2,2,B|223:265|223:265|281:325,1,160.99999508667,10|2,3:3|3:3,3:3:0:0:
359,217,223779,2,2,B|357:95|357:95|296:137,1,160.99999508667,10|2,0:0|0:0,0:0:0:0:
158,224,224132,2,2,B|86:275|86:275|8:249,1,160.99999508667,10|2,3:3|3:3,3:3:0:0:
89,125,224485,6,2,P|196:93|289:146,1,160.99999508667,10|2,0:0|0:0,0:0:0:0:
381,184,224838,1,10,3:3:0:0:
258,312,225015,1,2,3:3:0:0:
141,180,225191,2,2,P|155:101|210:44,1,160.99999508667,10|2,0:0|0:0,0:0:0:0:
330,173,225544,1,10,3:3:0:0:
145,217,225721,1,2,3:3:0:0:
23,112,225897,6,2,B|107:37|107:37|149:86,1,160.99999508667,8|2,0:0|0:0,0:0:0:0:
250,212,226250,2,2,B|316:281|316:281|380:203,1,160.99999508667,10|2,3:3|3:3,3:3:0:0:
448,80,226603,6,0,L|426:118,1,28.75,8|0,0:0|0:0,0:0:0:0:
272,96,226779,2,0,L|252:131,1,28.75,8|0,0:0|0:0,0:0:0:0:
368,224,226956,2,0,L|349:257,1,28.75,8|0,0:0|0:0,0:0:0:0:
160,240,227132,2,0,L|143:270,1,28.75,8|0,0:0|0:0,0:0:0:0:
40,98,227309,5,8,0:0:0:0:
208,157,227485,1,0,0:0:0:0:
246,170,227574,1,0,0:0:0:0:
285,177,227662,2,0,B|367:154|367:154|415:82,1,160.99999508667,8|0,0:0|0:0,0:0:0:0:
456,234,228015,5,8,0:0:0:0:
319,38,228191,1,0,0:0:0:0:
298,72,228279,1,0,0:0:0:0:
274,105,228368,2,0,B|153:264,1,160.99999508667,8|0,0:0|0:0,0:0:0:0:
136,110,228721,5,8,0:0:0:0:
304,191,228897,1,0,0:0:0:0:
340,207,228985,1,0,0:0:0:0:
376,224,229074,2,0,B|446:258|446:258|349:338,1,160.99999508667,8|0,0:0|0:0,0:0:0:0:
499,215,229426,5,8,0:0:0:0:
356,346,229603,1,0,0:0:0:0:
356,346,229691,1,0,0:0:0:0:
356,346,229779,1,8,0:0:0:0:
237,179,229956,1,0,0:0:0:0:
12,178,230132,5,8,0:0:0:0:
113,304,230309,1,0,0:0:0:0:
151,299,230397,1,0,0:0:0:0:
190,294,230485,2,0,B|291:277|291:277|247:212,1,160.99999508667,8|0,0:0|0:0,0:0:0:0:
212,103,230838,5,8,0:0:0:0:
300,293,231015,1,0,0:0:0:0:
339,285,231103,1,0,0:0:0:0:
378,278,231191,2,0,B|478:255|478:255|467:330,1,160.99999508667,8|0,0:0|0:0,0:0:0:0:
500,136,231544,5,8,0:0:0:0:
270,205,231721,5,0,0:0:0:0:
270,205,231809,1,0,0:0:0:0:
270,205,231897,1,8,0:0:0:0:
466,108,232074,1,0,0:0:0:0:
244,202,232250,1,8,0:0:0:0:
456,275,232426,1,8,0:0:0:0:
215,202,232603,1,8,0:0:0:0:
466,83,232779,1,8,0:0:0:0:
270,211,232956,5,8,0:0:0:0:
127,81,233132,1,0,0:0:0:0:
127,81,233221,1,0,0:0:0:0:
127,81,233309,2,0,L|22:217,1,160.99999508667,8|0,0:0|0:0,0:0:0:0:
235,172,233662,5,8,0:0:0:0:
119,346,233838,1,0,0:0:0:0:
119,346,233926,1,0,0:0:0:0:
119,346,234015,2,0,B|187:252|187:252|233:316,1,160.99999508667,8|0,0:0|0:0,0:0:0:0:
116,138,234368,5,8,0:0:0:0:
231,312,234544,1,0,0:0:0:0:
231,312,234632,1,0,0:0:0:0:
231,312,234721,1,8,0:0:0:0:
421,227,234897,1,0,0:0:0:0:
259,361,235074,5,8,0:0:0:0:
270,152,235250,1,0,0:0:0:0:
270,152,235338,1,0,0:0:0:0:
270,152,235426,1,8,0:0:0:0:
204,351,235603,1,0,0:0:0:0:
160,163,235779,5,8,0:0:0:0:
309,237,235956,1,0,0:0:0:0:
338,250,236044,1,0,0:0:0:0:
367,261,236132,6,0,B|447:291|447:291|439:180,1,160.99999508667,8|0,0:0|0:0,0:0:0:0:
436,97,236485,5,8,0:0:0:0:
279,228,236662,1,0,0:0:0:0:
279,228,236750,1,0,0:0:0:0:
279,228,236838,1,8,0:0:0:0:
100,127,237015,1,0,0:0:0:0:
254,257,237191,5,8,0:0:0:0:
375,129,237368,1,0,1:1:0:0:
375,129,237456,1,0,1:1:0:0:
375,129,237544,1,8,1:1:0:0:
228,239,237721,5,0,0:0:0:0:
366,357,237897,1,8,0:0:0:0:
436,177,238074,1,0,0:0:0:0:
250,295,238250,1,8,0:0:0:0:
371,135,238426,1,8,0:0:0:0:
324,354,238603,6,0,B|348:275|348:275|321:145,1,160.99999508667,8|0,0:0|0:0,0:0:0:0:
176,57,238956,1,12,0:0:0:0:
332,198,239132,1,0,0:0:0:0:
187,353,239309,6,0,B|162:274|162:274|178:197,1,160.99999508667,8|0,0:0|0:0,0:0:0:0:
332,55,239662,1,8,0:0:0:0:
178,198,239838,1,0,0:0:0:0:
332,55,240015,6,0,B|408:92|408:92|506:65,1,160.99999508667,8|0,0:0|0:0,0:0:0:0:
473,232,240368,1,8,0:0:0:0:
283,149,240544,1,0,0:0:0:0:
412,25,240721,6,0,B|378:204,1,160.99999508667,8|0,0:0|0:0,0:0:0:0:
346,373,241074,1,8,0:3:0:0:
293,187,241250,1,0,0:3:0:0:
471,115,241426,5,12,0:0:0:0:
293,187,241603,1,0,0:0:0:0:
446,304,241779,1,8,0:0:0:0:
367,126,241956,1,0,0:0:0:0:
216,246,242132,5,0,0:0:0:0:
367,126,242309,1,0,0:0:0:0:
414,312,242485,1,8,0:0:0:0:
278,173,242662,1,0,0:0:0:0:
85,176,242838,5,8,0:0:0:0:
217,316,243015,1,0,0:0:0:0:
66,253,243191,1,8,0:0:0:0:
246,182,243368,1,0,0:0:0:0:
421,213,243544,6,0,P|354:284|295:261,1,160.99999508667,8|0,0:0|0:0,0:0:0:0:
175,170,243897,2,12,P|99:161|58:225,1,160.99999508667
191,317,244250,5,8,0:0:0:0:
191,317,244426,1,8,0:0:0:0:
316,150,244602,1,8,0:0:0:0:
316,150,244779,1,8,0:0:0:0:
386,347,244956,5,8,0:0:0:0:
386,347,245131,1,8,0:0:0:0:
225,212,245308,1,8,0:0:0:0:
225,212,245485,1,8,0:0:0:0:
427,160,245661,5,8,0:0:0:0:
427,160,245838,1,8,0:0:0:0:
248,49,246015,1,8,0:0:0:0:
248,49,246192,1,8,0:0:0:0:
360,224,246368,5,8,0:0:0:0:
360,224,246545,1,8,0:0:0:0:
153,191,246721,1,8,0:0:0:0:
153,191,246898,1,8,0:0:0:0:
242,336,247074,5,8,0:0:0:0:
275,347,247162,1,0,0:0:0:0:
310,348,247250,1,0,0:0:0:0:
342,337,247338,1,0,0:0:0:0:
372,319,247426,5,8,0:0:0:0:
392,290,247515,1,0,0:0:0:0:
402,257,247603,1,0,0:0:0:0:
401,223,247691,1,0,0:0:0:0:
394,188,247780,5,8,0:0:0:0:
357,220,247868,1,0,0:0:0:0:
312,239,247956,1,0,0:0:0:0:
263,245,248044,1,0,0:0:0:0:
216,245,248132,5,8,0:0:0:0:
168,233,248220,1,0,0:0:0:0:
126,208,248308,1,0,0:0:0:0:
92,172,248396,1,0,0:0:0:0:
65,131,248485,5,8,0:0:0:0:
17,17,248662,1,8,0:0:0:0:
169,62,248838,2,8,B|209:71|209:71|246:101|283:90|283:90|321:100,1,160.99999508667
464,144,249191,1,0,0:0:0:0:
445,179,249279,1,0,0:0:0:0:
420,211,249368,1,0,0:0:0:0:
386,233,249456,1,0,0:0:0:0:
347,245,249544,1,8,0:0:0:0:
233,336,249897,6,0,B|157:331|157:331|173:235,1,160.99999508667,8|0,0:0|0:0,0:0:0:0:
200,49,250250,1,8,0:0:0:0:
340,227,250426,1,0,0:0:0:0:
120,174,250603,5,8,0:0:0:0:
293,290,250779,1,0,0:0:0:0:
437,161,250956,1,8,0:0:0:0:
338,326,251132,1,0,0:0:0:0:
144,328,251309,2,0,P|60:283|71:195,1,160.99999508667,10|0,0:0|0:0,0:0:0:0:
132,47,251662,5,8,0:0:0:0:
281,169,251838,1,0,0:0:0:0:
47,154,252015,1,8,0:0:0:0:
275,114,252191,1,0,0:0:0:0:
60,207,252368,1,8,0:0:0:0:
292,222,252544,1,0,0:0:0:0:
74,111,252721,5,10,0:0:0:0:
253,295,252897,1,0,0:0:0:0:
253,295,252985,1,0,0:0:0:0:
253,295,253074,1,8,0:0:0:0:
278,71,253250,1,0,0:0:0:0:
377,192,253426,2,0,B|418:268|418:268|372:373,1,160.99999508667,8|0,0:0|0:0,0:0:0:0:
262,188,253779,2,8,P|197:125|88:147,1,160.99999508667,8|0,0:0|0:0,0:0:0:0:
8,228,254132,6,8,B|83:308|83:308|143:284,1,160.99999508667,8|0,0:0|0:0,0:0:0:0:
323,221,254485,1,8,0:0:0:0:
224,57,254662,1,0,0:0:0:0:
63,243,254838,5,8,0:0:0:0:
236,320,255015,1,0,0:0:0:0:
314,145,255191,1,8,0:0:0:0:
140,67,255368,1,0,0:0:0:0:
182,221,255544,5,10,0:0:0:0:
334,340,255721,1,0,0:0:0:0:
334,340,255809,1,0,0:0:0:0:
334,340,255897,1,8,0:0:0:0:
459,192,256074,1,0,0:0:0:0:
281,267,256250,1,8,0:0:0:0:
392,109,256426,1,0,0:0:0:0:
418,294,256603,1,8,0:0:0:0:
286,153,256779,1,0,0:0:0:0:
198,288,256956,6,0,P|129:325|54:300,1,160.99999508667,10|0,0:0|0:0,0:0:0:0:
8,112,257309,1,8,0:0:0:0:
186,223,257485,1,0,0:0:0:0:
184,29,257662,1,8,0:0:0:0:
186,223,257838,1,0,0:0:0:0:
361,141,258015,2,0,P|327:239|231:245,1,160.99999508667,8|0,0:0|0:0,0:0:0:0:
220,71,258368,6,0,P|144:61|97:185,1,160.99999508667,10|0,0:0|0:0,0:0:0:0:
80,156,258632,1,0,0:0:0:0:
76,199,258721,1,8,0:0:0:0:
66,359,258897,1,0,0:0:0:0:
247,253,259074,1,8,0:0:0:0:
84,112,259250,1,0,0:0:0:0:
68,320,259426,1,8,0:0:0:0:
215,187,259603,1,0,0:0:0:0:
389,67,259779,6,0,B|420:136|420:136|373:232,1,160.99999508667,10|0,0:0|0:0,0:0:0:0:
295,337,260132,1,8,0:0:0:0:
66,253,260309,1,0,0:0:0:0:
298,265,260485,1,8,0:0:0:0:
117,202,260662,1,0,0:0:0:0:
283,196,260838,2,2,B|377:158|377:158|269:121|269:121|200:135|200:135|118:113,1,321.99999017334
32,80,261368,5,0,0:0:0:0:
64,224,261544,2,2,B|90:272|90:272|226:287,1,160.99999508667,10|2,3:3|3:3,3:3:0:0:
218,159,261897,2,2,P|302:182|350:270,1,160.99999508667,10|2,0:0|0:0,0:0:0:0:
407,364,262250,2,2,L|486:215,1,160.99999508667,10|2,3:3|3:3,3:3:0:0:
426,102,262603,2,2,B|354:69|354:69|265:115,1,160.99999508667
140,185,262956,5,8,0:0:0:0:
253,298,263132,1,0,0:0:0:0:
366,185,263309,1,8,0:0:0:0:
253,71,263485,1,0,0:0:0:0:
112,240,263662,5,8,0:0:0:0:
400,240,263838,1,0,0:0:0:0:
256,144,264015,5,10,0:0:0:0:
256,336,264191,1,0,0:0:0:0:
256,336,264279,1,0,0:0:0:0:
256,336,264368,1,8,0:0:0:0:
112,176,264544,1,0,0:0:0:0:
400,311,264721,1,8,0:0:0:0:
113,310,264897,1,0,0:0:0:0:
401,172,265074,1,8,0:0:0:0:
256,289,265250,1,0,0:0:0:0:
217,100,265426,6,0,B|242:47|242:47|369:21,1,160.99999508667,8|0,0:0|0:0,0:0:0:0:
414,157,265779,1,8,0:0:0:0:
320,320,265956,1,0,0:0:0:0:
238,158,266132,1,8,0:0:0:0:
144,321,266309,1,0,0:0:0:0:
368,256,266485,2,0,P|413:165|382:55,1,160.99999508667,8|0,0:0|0:0,0:0:0:0:
143,48,266838,5,10,0:0:0:0:
64,217,267015,1,0,0:0:0:0:
64,217,267103,1,0,0:0:0:0:
64,217,267191,1,8,0:0:0:0:
265,155,267368,1,0,0:0:0:0:
188,317,267544,1,8,0:0:0:0:
92,123,267721,1,0,0:0:0:0:
338,82,267897,2,0,B|398:60|398:60|498:90,1,160.99999508667,8|0,0:0|0:0,0:0:0:0:
493,249,268250,2,0,B|400:221|400:221|340:243,1,160.99999508667,8|0,0:0|0:0,0:0:0:0:
165,311,268603,5,8,0:0:0:0:
24,156,268779,1,0,0:0:0:0:
209,284,268956,1,8,0:0:0:0:
131,72,269132,1,0,0:0:0:0:
259,277,269309,1,8,0:0:0:0:
259,36,269485,1,0,0:0:0:0:
104,222,269662,5,0,2:2:0:0:
263,145,269838,1,0,2:2:0:0:
298,126,269926,1,0,2:2:0:0:
333,105,270015,2,0,B|422:55|422:55|447:161,1,160.99999508667,0|0,2:2|2:2,2:2:0:0:
468,286,270368,6,0,B|477:344|477:344|376:332,1,160.99999508667,0|0,2:2|2:2,2:2:0:0:
200,307,270721,2,0,B|204:218|204:218|274:162,1,160.99999508667,0|0,2:2|2:2,2:2:0:0:
377,112,271074,6,0,L|414:124,12,26.833332514445
151,63,271603,1,0,0:0:0:0:
199,271,271780,1,0,0:0:0:0:
263,143,271956,1,0,0:0:0:0:
327,303,272132,1,8,0:0:0:0:
416,192,272485,5,8,0:0:0:0:
304,64,272662,1,0,0:0:0:0:
304,64,272750,1,0,0:0:0:0:
304,64,272838,1,8,0:0:0:0:
192,192,273015,1,0,0:0:0:0:
334,145,273191,2,0,B|425:157|425:157|465:226,1,160.99999508667,8|0,0:0|0:0,0:0:0:0:
297,277,273544,2,0,P|239:226|255:152,1,160.99999508667,8|0,0:0|0:0,0:0:0:0:
464,64,273897,5,8,0:0:0:0:
352,176,274074,1,0,0:0:0:0:
320,192,274162,1,0,0:0:0:0:
286,203,274250,1,8,0:0:0:0:
256,208,274338,1,0,0:0:0:0:
220,202,274426,1,0,0:0:0:0:
64,112,274603,1,8,0:0:0:0:
176,288,274779,1,0,0:0:0:0:
352,336,274956,2,0,B|438:355|438:355|421:231,1,160.99999508667,8|0,0:0|0:0,0:0:0:0:
404,103,275309,5,8,0:0:0:0:
288,224,275485,1,0,0:0:0:0:
288,224,275574,1,0,0:0:0:0:
288,224,275662,1,8,0:0:0:0:
336,128,275838,1,0,0:0:0:0:
336,320,276015,1,8,0:0:0:0:
336,128,276191,1,0,0:0:0:0:
176,240,276368,1,8,0:0:0:0:
336,128,276544,1,0,0:0:0:0:
240,320,276721,5,8,0:0:0:0:
96,192,276897,1,0,0:0:0:0:
128,176,276985,1,0,0:0:0:0:
153,150,277074,1,0,0:0:0:0:
177,120,277162,1,0,0:0:0:0:
187,79,277250,1,0,0:0:0:0:
288,160,277426,5,8,0:0:0:0:
308,195,277515,1,0,0:0:0:0:
336,222,277603,1,0,0:0:0:0:
448,304,277779,1,8,0:0:0:0:
224,272,277956,1,0,0:0:0:0:
400,260,278132,5,8,0:0:0:0:
432,56,278309,1,0,0:0:0:0:
432,56,278397,1,0,0:0:0:0:
432,56,278485,1,8,0:0:0:0:
287,208,278662,1,0,0:0:0:0:
99,99,278838,2,0,B|147:171|147:171|217:193,1,160.99999508667,8|0,0:0|0:0,0:0:0:0:
282,63,279191,2,0,B|356:88|356:88|390:164,1,160.99999508667,8|0,0:0|0:0,0:0:0:0:
434,302,279544,6,0,P|341:347|276:293,1,160.99999508667,8|0,0:0|0:0,0:0:0:0:
159,218,279897,1,8,0:0:0:0:
359,268,280074,1,0,0:0:0:0:
318,63,280250,1,8,0:0:0:0:
318,63,280426,1,0,0:0:0:0:
272,268,280603,2,0,B|217:166|217:166|172:134,1,160.99999508667,8|0,0:0|0:0,0:0:0:0:
14,76,280956,5,8,0:0:0:0:
96,250,281132,1,0,0:0:0:0:
198,71,281309,2,0,P|266:160|360:176,1,160.99999508667,8|0,0:0|0:0,0:0:0:0:
467,67,281662,1,8,0:0:0:0:
471,291,281838,1,0,0:0:0:0:
467,101,282015,1,8,0:0:0:0:
380,291,282191,1,0,0:0:0:0:
377,113,282368,6,0,B|374:41|374:41|260:104,1,160.99999508667,8|0,0:0|0:0,0:0:0:0:
128,180,282721,1,8,0:0:0:0:
128,180,282897,1,0,0:0:0:0:
336,250,283074,1,8,0:0:0:0:
388,77,283250,1,0,0:0:0:0:
336,250,283426,6,2,B|257:300|157:251|157:251|225:195|200:147,1,253.000007720947
320,48,283956,5,0,0:0:0:0:
320,48,284044,1,0,0:0:0:0:
320,48,284132,1,8,0:0:0:0:
247,227,284309,1,0,0:0:0:0:
227,57,284485,6,0,L|243:200,1,137.999995788574,8|0,0:0|0:0,0:0:0:0:
263,344,284838,1,8,0:0:0:0:
397,272,285015,1,0,0:0:0:0:
226,362,285191,5,8,0:0:0:0:
288,208,285368,1,0,0:0:0:0:
288,208,285456,1,0,0:0:0:0:
288,208,285544,2,0,L|355:52,1,137.999995788574,8|0,0:0|0:0,0:0:0:0:
202,171,285897,5,8,0:0:0:0:
438,174,286074,1,0,0:0:0:0:
438,174,286250,2,2,B|400:216|344:230|344:230|359:166|348:132,1,160.99999508667
295,332,286603,5,8,0:0:0:0:
363,151,286779,1,0,0:0:0:0:
363,151,286867,1,0,0:0:0:0:
363,151,286955,1,8,0:0:0:0:
164,258,287132,1,0,0:0:0:0:
321,315,287309,2,2,P|420:255|440:172,1,160.99999508667,10|2,3:3|3:3,3:3:0:0:
309,66,287662,2,2,P|232:142|219:251,1,160.99999508667,10|2,0:0|0:0,0:0:0:0:
343,189,288015,2,2,P|269:92|169:74,1,160.99999508667,10|2,3:3|3:3,3:3:0:0:
58,150,288368,2,2,P|81:248|159:294,1,160.99999508667,10|2,0:0|0:0,0:0:0:0:
296,331,288721,5,8,0:0:0:0:
358,131,288897,1,0,0:0:0:0:
188,266,289074,1,8,0:0:0:0:
390,216,289250,1,0,0:0:0:0:
288,48,289426,6,0,L|247:22,1,28.75,8|0,0:0|0:0,0:0:0:0:
193,99,289603,2,0,L|148:86,1,28.75,8|0,0:0|0:0,0:0:0:0:
124,196,289779,2,0,L|85:198,1,28.75,8|0,0:0|0:0,0:0:0:0:
151,300,289956,2,0,L|113:335,1,28.75,8|0,0:0|0:0,0:0:0:0:
305,140,290132,6,0,L|336:112,1,28.75,8|0,0:0|0:0,0:0:0:0:
382,204,290309,2,0,L|433:197,1,28.75,8|0,0:0|0:0,0:0:0:0:
370,289,290485,2,0,L|420:304,1,28.75,8|0,0:0|0:0,0:0:0:0:
288,332,290662,2,0,L|324:364,1,28.75,8|0,0:0|0:0,0:0:0:0:
224,272,290838,6,0,L|193:289,1,28.75,8|0,0:0|0:0,0:0:0:0:
157,190,291015,2,0,L|103:185,1,28.75,8|0,0:0|0:0,0:0:0:0:
177,99,291191,2,0,L|133:71,1,28.75,8|0,0:0|0:0,0:0:0:0:
272,64,291368,2,0,L|253:32,1,28.75,8|0,0:0|0:0,0:0:0:0:
192,176,291544,6,0,L|166:212,1,28.75,8|0,0:0|0:0,0:0:0:0:
247,263,291721,2,0,L|222:300,1,28.75,8|0,0:0|0:0,0:0:0:0:
326,315,291897,2,0,L|332:349,1,28.75,8|0,0:0|0:0,0:0:0:0:
427,285,292074,2,0,L|460:305,1,28.75,8|0,0:0|0:0,0:0:0:0:
447,198,292251,5,8,0:0:0:0:
449,159,292339,1,0,0:0:0:0:
439,122,292427,1,0,0:0:0:0:
416,91,292515,1,0,0:0:0:0:
385,69,292603,1,8,0:0:0:0:
347,59,292692,1,0,0:0:0:0:
309,63,292780,1,0,0:0:0:0:
274,79,292868,1,0,0:0:0:0:
280,132,292956,5,8,0:0:0:0:
284,165,293044,1,0,0:0:0:0:
283,199,293132,1,0,0:0:0:0:
272,230,293220,1,0,0:0:0:0:
248,253,293308,1,8,0:0:0:0:
216,265,293397,1,0,0:0:0:0:
182,268,293485,1,0,0:0:0:0:
143,258,293574,1,0,0:0:0:0:
107,239,293662,6,0,L|62:212,12,40.2499987716675
288,320,294368,1,0,0:0:0:0:
400,192,294544,1,0,0:0:0:0:
240,224,294721,1,8,0:0:0:0:
128,336,295074,5,0,0:0:0:0:
89,212,295250,1,0,0:0:0:0:
77,178,295338,1,0,0:0:0:0:
68,143,295426,1,0,0:0:0:0:
181,123,295603,1,0,0:0:0:0:
209,219,295779,2,0,B|229:283|229:283|336:293,1,143.75
435,295,296132,2,0,B|456:209|456:209|380:209,1,143.75
284,201,296485,5,0,0:0:0:0:
248,115,296662,1,0,0:0:0:0:
265,83,296750,1,0,0:0:0:0:
284,53,296838,1,0,0:0:0:0:
385,55,297015,1,0,0:0:0:0:
431,150,297191,2,0,B|375:203|375:203|302:204,1,143.75
193,199,297544,2,0,B|126:199|126:199|70:252,1,143.75
174,303,297897,5,0,0:0:0:0:
238,207,298074,1,0,0:0:0:0:
238,207,298162,1,0,0:0:0:0:
238,207,298250,1,0,0:0:0:0:
295,306,298426,1,0,0:0:0:0:
395,308,298603,2,0,B|446:307|446:307|480:220,1,143.75
393,189,298956,2,0,B|444:54,1,143.75
493,142,299309,5,0,0:0:0:0:
387,97,299485,1,0,0:0:0:0:
354,81,299573,1,0,0:0:0:0:
321,65,299662,1,0,0:0:0:0:
222,86,299838,1,0,0:0:0:0:
196,183,300015,2,0,P|265:194|317:242,1,143.75
364,332,300368,2,0,P|433:320|485:272,1,143.75
493,171,300721,6,0,B|424:132|424:132|314:126|314:126|212:77,1,287.5
119,128,301250,1,0,0:0:0:0:
180,224,301426,2,0,P|248:209|298:159,1,143.75
378,220,301779,2,0,P|327:269|312:338,1,143.75
215,311,302132,5,0,0:0:0:0:
151,232,302309,1,0,0:0:0:0:
151,232,302397,1,0,0:0:0:0:
151,232,302485,1,0,0:0:0:0:
37,208,302662,1,0,0:0:0:0:
110,139,302838,2,0,B|175:103|175:103|268:117,1,143.75
330,164,303191,2,0,B|265:200|265:200|196:189,1,143.75
172,91,303544,5,0,0:0:0:0:
142,178,303721,1,0,0:0:0:0:
126,209,303809,1,0,0:0:0:0:
108,240,303897,1,0,0:0:0:0:
208,251,304074,1,0,0:0:0:0:
257,163,304250,2,0,P|309:212|323:286,1,143.75
384,360,304603,2,0,L|451:202,1,143.75
482,136,304956,5,0,0:0:0:0:
410,48,305132,1,0,0:0:0:0:
410,48,305221,1,0,0:0:0:0:
410,48,305309,2,0,L|353:180,1,143.75
308,332,305662,5,0,0:0:0:0:
317,174,305838,1,0,0:0:0:0:
176,247,306015,1,0,0:0:0:0:
185,89,306191,1,0,0:0:0:0:
316,39,306368,6,0,P|393:101|461:76,1,143.75,4|0,2:2|0:0,0:0:0:0:
283,117,306721,2,0,P|336:184|440:186,1,137.999995788574,4|0,2:2|0:0,0:0:0:0:
222,172,307074,2,0,P|260:246|349:276,1,132.250002522469,4|0,2:2|0:0,0:0:0:0:
161,227,307426,2,0,P|180:294|243:348,1,126.500003860474,4|0,2:2|0:0,0:0:0:0:
352,336,307779,6,0,P|397:282|473:274,1,143.75,4|0,2:2|0:0,0:0:0:0:
319,257,308132,2,0,P|356:200|422:176,1,137.999995788574,4|0,2:2|0:0,0:0:0:0:
258,202,308485,2,0,P|283:141|343:103,1,132.250002522469,4|0,2:2|0:0,0:0:0:0:
197,147,308838,2,0,P|212:86|267:38,1,132.250002522469,4|0,2:2|0:0,0:0:0:0:
144,64,309191,6,0,P|62:129|56:167,1,132.250002522469,4|0,2:2|0:0,0:0:0:0:
136,235,309544,2,0,P|135:156|195:118,1,132.250002522469,4|0,2:2|0:0,0:0:0:0:
317,186,309897,2,0,P|241:191|191:245,1,132.250002522469,4|0,2:2|0:0,0:0:0:0:
234,349,310250,2,0,P|228:268|195:221,1,132.250002522469,4|0,2:2|0:0,0:0:0:0:
136,79,310603,6,0,P|81:193|108:236,1,132.250002522469,4|0,2:2|0:0,0:0:0:0:
196,174,310956,2,0,P|212:237|201:302,1,132.250002522469,4|0,2:2|0:0,0:0:0:0:
335,84,311309,2,0,P|312:180|351:249,1,132.250002522469,4|0,2:2|0:0,0:0:0:0:
448,176,311662,2,0,P|462:259|431:324,1,132.250002522469,4|0,2:2|0:0,0:0:0:0:
320,336,312015,6,0,B|193:358|153:299|153:299|237:268|276:225,1,264.500005044937,2|0,0:0|0:0,0:0:0:0:
331,203,312544,1,2,0:0:0:0:
265,103,312721,6,0,P|176:82|125:103,1,132.250002522469,4|0,2:2|0:0,0:0:0:0:
48,128,313074,2,0,P|58:221|113:270,1,132.250002522469,4|0,2:2|0:0,0:0:0:0:
145,200,313426,2,0,P|240:200|280:157,1,132.250002522469,4|0,2:2|0:0,0:0:0:0:
342,105,313779,2,0,P|380:187|369:254,1,132.250002522469,4|0,2:2|0:0,0:0:0:0:
264,336,314132,6,0,B|203:321|203:321|181:299|181:299|90:271,1,132.250002522469,4|0,2:2|0:0,0:0:0:0:
40,254,314485,2,0,B|101:239|101:239|123:217|123:217|159:205,1,132.250002522469,4|0,2:2|0:0,0:0:0:0:
265,179,314838,2,0,B|204:164|204:164|182:142|182:142|91:114,1,132.250002522469,4|0,2:2|0:0,0:0:0:0:
38,96,315191,2,0,B|99:81|99:81|121:59|121:59|157:47,1,132.250002522469,4|0,2:2|0:0,0:0:0:0:
304,48,315544,6,0,P|411:105|420:164,1,132.250002522469,4|0,2:2|0:0,0:0:0:0:
352,160,315897,2,0,P|381:230|467:253,1,132.250002522469,4|0,2:2|0:0,0:0:0:0:
391,334,316250,2,0,P|308:286|248:316,1,132.250002522469,4|0,2:2|0:0,0:0:0:0:
256,224,316603,2,0,P|182:189|156:134,1,132.250002522469,4|0,2:2|0:0,0:0:0:0:
320,48,316956,5,0,0:0:0:0:
144,96,317132,1,0,0:0:0:0:
288,160,317309,1,0,0:0:0:0:
192,256,317485,1,0,0:0:0:0:
256,304,317662,1,6,0:0:0:0:
256,192,317838,12,0,320485,0:0:0:0:
102,112,320838,5,0,0:0:0:0:
198,286,321191,1,0,0:0:0:0:
265,91,321544,1,0,0:0:0:0:
361,265,321897,1,0,0:0:0:0:
419,135,322250,1,0,0:0:0:0:
222,186,322603,1,0,0:0:0:0:
56,240,322956,1,0,0:0:0:0:
209,158,323309,6,0,B|172:213|230:306|230:306|284:241|284:241|355:234,1,264.500005044937,4|0,0:0|0:0,0:0:0:0:
448,240,323838,1,0,0:0:0:0:
247,179,324015,5,0,0:0:0:0:
336,304,324368,1,0,0:0:0:0:
368,112,324721,1,0,0:0:0:0:
281,246,325074,1,0,0:0:0:0:
233,81,325426,1,0,0:0:0:0:
406,190,325779,1,0,0:0:0:0:
209,202,326132,5,0,0:0:0:0:
336,64,326485,1,0,0:0:0:0:
256,256,326838,1,0,0:0:0:0:
224,80,327191,1,0,0:0:0:0:
352,192,327544,1,0,0:0:0:0:
176,192,327897,1,0,0:0:0:0:
256,313,328250,5,0,0:0:0:0:
377,191,328426,1,0,0:0:0:0:
256,69,328603,1,0,0:0:0:0:
134,191,328779,1,0,0:0:0:0:
254,193,328956,5,8,0:0:0:0:
438,267,329132,1,0,0:0:0:0:
438,267,329221,1,0,0:0:0:0:
438,267,329309,1,0,0:0:0:0:
256,221,329485,1,0,0:0:0:0:
254,193,329662,5,8,0:0:0:0:
61,110,329838,1,0,0:0:0:0:
61,110,329926,1,0,0:0:0:0:
61,110,330015,1,0,0:0:0:0:
255,165,330191,1,0,0:0:0:0:
254,193,330368,5,8,0:0:0:0:
377,43,330544,1,0,0:0:0:0:
377,43,330632,1,0,0:0:0:0:
377,43,330721,1,0,0:0:0:0:
254,193,330897,1,0,0:0:0:0:
223,192,331074,5,8,0:0:0:0:
134,341,331250,1,0,0:0:0:0:
134,341,331338,1,0,0:0:0:0:
134,341,331426,1,0,0:0:0:0:
254,193,331603,5,0,0:0:0:0:
296,264,331779,2,0,P|350:317|413:346,1,132.250002522469,2|0,0:0|0:0,0:0:0:0:
328,209,332132,2,0,P|406:239|482:238,1,132.250002522469,2|0,0:0|0:0,0:0:0:0:
216,262,332485,2,0,P|162:315|99:344,1,132.250002522469,2|0,0:0|0:0,0:0:0:0:
184,207,332838,2,0,P|106:237|30:236,1,132.250002522469,2|0,0:0|0:0,0:0:0:0:
296,121,333191,2,0,P|350:68|413:39,1,132.250002522469,2|0,0:0|0:0,0:0:0:0:
328,176,333544,2,0,P|406:146|482:147,1,132.250002522469,2|0,0:0|0:0,0:0:0:0:
217,121,333897,2,0,P|163:68|100:39,1,132.250002522469,2|0,0:0|0:0,0:0:0:0:
185,176,334250,2,0,P|107:146|31:147,1,132.250002522469,2|0,0:0|0:0,0:0:0:0:
87,291,334603,6,0,L|101:324,1,28.75,8|0,0:0|0:0,0:0:0:0:
175,322,334779,2,0,L|203:340,1,28.75,8|0,0:0|0:0,0:0:0:0:
284,323,334956,2,0,L|316:336,1,28.75,8|0,0:0|0:0,0:0:0:0:
382,290,335132,2,0,L|425:292,1,28.75,8|0,0:0|0:0,0:0:0:0:
433,173,335309,6,0,L|425:209,1,28.75,8|0,0:0|0:0,0:0:0:0:
354,223,335485,2,0,L|328:250,1,28.75,8|0,0:0|0:0,0:0:0:0:
248,248,335662,2,0,L|218:266,1,28.75,8|0,0:0|0:0,0:0:0:0:
145,238,335838,2,0,L|99:251,1,28.75,8|0,0:0|0:0,0:0:0:0:
80,90,336015,6,0,L|84:124,1,28.75,8|0,0:0|0:0,0:0:0:0:
158,140,336191,2,0,L|181:168,1,28.75,8|0,0:0|0:0,0:0:0:0:
264,165,336368,2,0,L|290:184,1,28.75,8|0,0:0|0:0,0:0:0:0:
367,155,336544,2,0,L|410:171,1,28.75,8|0,0:0|0:0,0:0:0:0:
410,43,336721,6,0,L|405:75,1,28.75,8|0,0:0|0:0,0:0:0:0:
331,93,336897,2,0,L|305:117,1,28.75,8|0,0:0|0:0,0:0:0:0:
225,118,337074,2,0,L|195:137,1,28.75,8|0,0:0|0:0,0:0:0:0:
122,108,337250,2,0,L|79:122,1,28.75,8|0,0:0|0:0,0:0:0:0:
46,181,337426,5,8,0:0:0:0:
32,227,337515,1,0,0:0:0:0:
39,275,337603,1,0,0:0:0:0:
65,317,337691,1,0,0:0:0:0:
105,344,337779,5,8,0:0:0:0:
152,353,337868,1,0,0:0:0:0:
200,341,337956,1,0,0:0:0:0:
238,312,338043,1,0,0:0:0:0:
262,269,338132,5,8,0:0:0:0:
236,259,338221,1,0,0:0:0:0:
211,246,338309,1,0,0:0:0:0:
192,226,338397,1,0,0:0:0:0:
180,201,338485,5,8,0:0:0:0:
177,173,338574,1,0,0:0:0:0:
183,146,338662,1,0,0:0:0:0:
198,123,338750,1,0,0:0:0:0:
216,101,338838,6,0,L|244:70,8,33.0625006306172,8|0|0|0|0|0|0|0|0,0:0|0:0|0:0|0:0|0:0|0:0|0:0|0:0|0:0,0:0:0:0:
104,253,339368,1,0,0:0:0:0:
287,260,339544,1,0,0:0:0:0:
287,260,339632,1,0,0:0:0:0:
287,260,339721,1,0,0:0:0:0:
192,113,339897,1,14,0:0:0:0:
256,192,340250,12,0,345897,0:0:0:0:
