osu file format v14

[General]
AudioFilename: audio.mp3
AudioLeadIn: 0
PreviewTime: 188840
Countdown: 1
SampleSet: Soft
StackLeniency: 0.7
Mode: 0
LetterboxInBreaks: 0
WidescreenStoryboard: 0

[Editor]
DistanceSpacing: 1
BeatDivisor: 4
GridSize: 8
TimelineZoom: 1

[Metadata]
Title:LiFE Garden (Extended Mix)
TitleUnicode:LiFE Garden (Extended Mix)
Artist:Yooh
ArtistUnicode:Yooh
Creator:ktgster
Version:Bloom
Source:
Tags:eutopia happy hardcore
BeatmapID:1744110
BeatmapSetID:832538

[Difficulty]
HPDrainRate:5
CircleSize:5
OverallDifficulty:9
ApproachRate:9
SliderMultiplier:1.6
SliderTickRate:1

[Events]
//Background and Video events
0,0,"blue garden.jpg",0,0
//Break Periods
//Storyboard Layer 0 (Background)
//Storyboard Layer 1 (Fail)
//Storyboard Layer 2 (Pass)
//Storyboard Layer 3 (Foreground)
//Storyboard Sound Samples

[TimingPoints]
1995,402.684563758389,4,2,1,60,1,0
40652,-100,4,2,1,70,0,0
66424,-100,4,2,1,80,0,0
92196,-100,4,2,1,90,0,0
97028,-100,4,2,1,80,0,0
98639,-200,4,2,2,80,0,0
99847,-200,4,2,3,5,0,0
100250,-200,4,2,2,20,0,0
101458,-200,4,2,3,5,0,0
101861,-200,4,2,2,20,0,0
103068,-200,4,2,3,5,0,0
103471,-200,4,2,2,20,0,0
103874,-200,4,2,3,5,0,0
104277,-200,4,2,2,20,0,0
104679,-200,4,2,3,5,0,0
105082,-200,4,2,2,20,0,0
106290,-200,4,2,3,5,0,0
106693,-200,4,2,2,20,0,0
107901,-200,4,2,3,5,0,0
108304,-200,4,2,2,20,0,0
109511,-200,4,2,3,5,0,0
109914,-200,4,2,2,20,0,0
110317,-200,4,2,3,5,0,0
110720,-200,4,2,2,20,0,0
111122,-200,4,2,3,5,0,0
111525,-200,4,2,0,40,0,0
123605,-200,4,2,0,50,0,0
124411,-200,4,2,0,70,0,0
146961,-200,4,2,1,70,0,0
150182,-100,4,2,1,70,0,0
156625,-100,4,2,1,80,0,0
163169,-100,4,2,1,70,0,0
188840,-100,4,2,1,80,0,1
213001,-100,4,2,1,80,0,0
214612,-100,4,2,1,80,0,1
245216,-100,4,2,1,90,0,0
245317,-100,4,2,1,50,0,0
246625,-100,4,2,1,5,0,0
246827,-100,4,2,1,70,0,0
298370,-100,4,2,0,80,0,0
298471,-100,4,2,3,5,0,0

[Colours]
Combo1 : 169,83,255
Combo2 : 0,202,202
Combo3 : 128,128,255
Combo4 : 0,187,94

[HitObjects]
63,88,1995,5,4,1:0:0:0:
94,93,2095,1,0,0:0:0:0:
150,36,2297,1,0,0:0:0:0:
191,140,2498,1,0,0:0:0:0:
160,145,2599,1,0,0:0:0:0:
13,250,2800,5,8,0:0:0:0:
44,255,2901,1,0,0:0:0:0:
100,198,3102,1,0,0:0:0:0:
141,302,3303,1,0,0:0:0:0:
110,307,3404,1,0,0:0:0:0:
198,230,3605,5,8,0:0:0:0:
229,235,3706,1,0,0:0:0:0:
285,178,3907,1,0,0:0:0:0:
326,282,4109,1,0,0:0:0:0:
295,287,4209,1,0,0:0:0:0:
188,121,4411,5,8,0:0:0:0:
211,135,4511,1,0,0:0:0:0:
238,137,4612,1,0,0:0:0:0:
265,130,4713,1,0,0:0:0:0:
299,109,4813,5,8,0:0:0:0:
320,91,4914,1,0,0:0:0:0:
347,84,5015,1,0,0:0:0:0:
374,86,5115,1,0,0:0:0:0:
408,104,5216,5,8,0:0:0:0:
413,136,5317,1,0,0:0:0:0:
356,192,5518,1,0,0:0:0:0:
460,233,5719,1,0,0:0:0:0:
465,202,5820,1,0,0:0:0:0:
351,161,6021,5,8,0:0:0:0:
356,192,6122,1,0,0:0:0:0:
299,248,6323,1,0,0:0:0:0:
403,289,6525,1,0,0:0:0:0:
408,258,6625,1,0,0:0:0:0:
294,217,6827,5,8,0:0:0:0:
299,248,6927,1,0,0:0:0:0:
242,304,7129,1,0,0:0:0:0:
346,345,7330,1,0,0:0:0:0:
351,314,7431,1,0,0:0:0:0:
232,169,7632,5,8,0:0:0:0:
209,155,7733,1,0,0:0:0:0:
182,153,7833,1,0,0:0:0:0:
155,160,7934,1,0,0:0:0:0:
121,181,8035,5,8,0:0:0:0:
100,199,8135,1,0,0:0:0:0:
73,206,8236,1,8,0:0:0:0:
46,204,8337,1,0,0:0:0:0:
12,185,8437,5,8,0:0:0:0:
7,154,8538,1,0,0:0:0:0:
68,70,8739,1,0,0:0:0:0:
100,199,8941,1,0,0:0:0:0:
95,168,9041,1,0,0:0:0:0:
172,54,9243,5,8,0:0:0:0:
167,85,9343,1,0,0:0:0:0:
228,169,9545,1,0,0:0:0:0:
260,40,9746,1,0,0:0:0:0:
255,71,9847,1,0,0:0:0:0:
325,260,10048,5,8,0:0:0:0:
320,229,10149,1,0,0:0:0:0:
381,145,10350,1,0,0:0:0:0:
413,274,10552,1,0,0:0:0:0:
408,243,10652,1,0,0:0:0:0:
431,129,10854,5,8,0:0:0:0:
408,143,10954,1,0,0:0:0:0:
381,145,11055,1,0,0:0:0:0:
354,138,11156,1,0,0:0:0:0:
320,117,11256,5,8,0:0:0:0:
299,99,11357,1,0,0:0:0:0:
272,92,11458,1,0,0:0:0:0:
245,94,11558,1,0,0:0:0:0:
211,113,11659,5,8,0:0:0:0:
206,144,11760,1,0,0:0:0:0:
179,242,11961,1,0,0:0:0:0:
123,127,12162,1,0,0:0:0:0:
118,158,12263,1,0,0:0:0:0:
272,197,12464,5,8,0:0:0:0:
267,228,12565,1,0,0:0:0:0:
240,326,12766,1,0,0:0:0:0:
184,211,12968,1,0,0:0:0:0:
179,242,13068,1,0,0:0:0:0:
360,211,13270,5,8,0:0:0:0:
355,180,13370,1,0,0:0:0:0:
328,82,13572,1,0,0:0:0:0:
272,197,13773,1,0,0:0:0:0:
267,166,13874,1,0,0:0:0:0:
447,190,14075,5,8,0:0:0:0:
474,218,14176,1,0,0:0:0:0:
484,256,14276,1,0,0:0:0:0:
476,295,14377,1,0,0:0:0:0:
451,325,14478,1,0,0:0:0:0:
414,340,14578,1,0,0:0:0:0:
375,337,14679,1,0,0:0:0:0:
342,315,14780,1,0,0:0:0:0:
323,280,14880,5,4,1:0:0:0:
318,249,14981,1,0,0:0:0:0:
242,222,15182,1,0,0:0:0:0:
237,191,15283,2,0,L|230:147,2,40,8|0|0,1:0|0:0|0:0,0:0:0:0:
136,234,15686,5,8,0:0:0:0:
131,265,15786,1,0,0:0:0:0:
55,292,15988,1,0,0:0:0:0:
50,323,16088,2,0,L|43:367,2,40,8|0|0,1:0|0:0|0:0,0:0:0:0:
217,371,16491,5,8,0:0:0:0:
222,340,16592,1,0,0:0:0:0:
298,313,16793,1,0,0:0:0:0:
303,282,16894,2,0,L|310:238,2,40,8|0|0,1:0|0:0|0:0,0:0:0:0:
440,345,17297,5,8,0:0:0:0:
454,322,17397,1,0,0:0:0:0:
456,295,17498,1,0,0:0:0:0:
449,268,17599,1,0,0:0:0:0:
428,234,17699,5,8,1:0:0:0:
410,213,17800,1,0,0:0:0:0:
403,186,17901,1,0,0:0:0:0:
405,159,18001,1,0,0:0:0:0:
424,125,18102,5,8,0:0:0:0:
455,120,18203,1,0,0:0:0:0:
345,8,18404,1,0,0:0:0:0:
340,39,18505,2,0,L|332:83,2,40,8|0|0,1:0|0:0|0:0,0:0:0:0:
225,123,18907,5,8,0:0:0:0:
194,128,19008,1,0,0:0:0:0:
304,240,19209,1,0,0:0:0:0:
309,209,19310,2,0,L|316:165,2,40,8|0|0,1:0|0:0|0:0,0:0:0:0:
463,265,19713,5,8,0:0:0:0:
494,270,19813,1,0,0:0:0:0:
384,382,20015,1,0,0:0:0:0:
379,351,20115,2,0,L|371:307,2,40,8|0|0,1:0|0:0|0:0,0:0:0:0:
190,337,20518,5,8,0:0:0:0:
176,314,20619,1,0,0:0:0:0:
174,287,20719,1,0,0:0:0:0:
181,260,20820,1,0,0:0:0:0:
202,226,20921,5,8,1:0:0:0:
220,205,21021,1,0,0:0:0:0:
227,178,21122,1,8,0:0:0:0:
225,151,21223,1,0,0:0:0:0:
206,117,21323,5,8,0:0:0:0:
175,112,21424,1,0,0:0:0:0:
302,55,21625,1,0,0:0:0:0:
307,86,21726,2,0,L|315:130,2,40,8|0|0,1:0|0:0|0:0,0:0:0:0:
220,205,22129,5,8,0:0:0:0:
251,200,22229,1,0,0:0:0:0:
124,143,22431,1,0,0:0:0:0:
119,174,22531,2,0,L|111:218,2,40,8|0|0,1:0|0:0|0:0,0:0:0:0:
208,327,22934,5,8,0:0:0:0:
177,322,23035,1,0,0:0:0:0:
304,265,23236,1,0,0:0:0:0:
309,296,23337,2,0,L|317:340,2,40,8|0|0,1:0|0:0|0:0,0:0:0:0:
454,276,23739,5,8,0:0:0:0:
468,253,23840,1,0,0:0:0:0:
470,226,23941,1,0,0:0:0:0:
463,199,24041,1,0,0:0:0:0:
442,165,24142,5,8,1:0:0:0:
424,144,24243,1,0,0:0:0:0:
417,117,24343,1,0,0:0:0:0:
419,90,24444,1,0,0:0:0:0:
438,56,24545,5,8,0:0:0:0:
465,47,24646,1,0,0:0:0:0:
351,32,24847,1,0,0:0:0:0:
342,59,24948,1,8,1:0:0:0:
316,39,25048,1,0,0:0:0:0:
284,32,25149,1,0,0:0:0:0:
252,38,25250,1,0,0:0:0:0:
225,56,25350,1,8,0:0:0:0:
203,89,25451,1,0,0:0:0:0:
201,129,25552,1,0,0:0:0:0:
222,162,25652,1,0,0:0:0:0:
256,182,25753,1,8,1:0:0:0:
296,179,25854,1,0,0:0:0:0:
330,159,25954,1,0,0:0:0:0:
349,123,26055,1,0,0:0:0:0:
348,82,26156,5,8,0:0:0:0:
385,68,26256,1,0,0:0:0:0:
424,76,26357,1,0,0:0:0:0:
455,100,26458,1,0,0:0:0:0:
469,137,26558,1,8,1:0:0:0:
466,177,26659,1,0,0:0:0:0:
442,209,26760,2,0,L|401:213,2,26.6666666666667,0|0|0,0:0|0:0|0:0,0:0:0:0:
496,269,26961,6,0,L|488:313,3,40,8|0|0|8,0:0|0:0|0:0|0:0,0:0:0:0:
510,377,27364,1,8,1:0:0:0:
352,331,27565,1,8,0:0:0:0:
197,370,27766,6,0,L|186:238,1,120,4|0,1:0|0:0,0:0:0:0:
185,222,28169,1,8,1:0:0:0:
102,309,28370,1,0,0:0:0:0:
282,311,28572,1,8,0:0:0:0:
282,311,28672,2,0,P|284:264|270:217,1,80,0|0,0:0|0:0,0:0:0:0:
264,206,28974,1,8,1:0:0:0:
173,139,29176,1,0,0:0:0:0:
35,182,29377,5,8,0:0:0:0:
35,182,29478,1,0,0:0:0:0:
47,261,29679,1,0,0:0:0:0:
47,261,29780,2,0,L|55:305,2,40,8|0|0,1:0|0:0|0:0,0:0:0:0:
23,103,30182,5,8,0:0:0:0:
46,89,30283,1,0,0:0:0:0:
73,87,30384,1,0,0:0:0:0:
100,94,30484,1,0,0:0:0:0:
134,115,30585,5,8,1:0:0:0:
155,133,30686,1,0,0:0:0:0:
182,140,30786,1,0,0:0:0:0:
209,138,30887,1,0,0:0:0:0:
243,119,30988,6,0,L|232:250,1,120,8|0,0:0|0:0,0:0:0:0:
231,267,31390,1,8,1:0:0:0:
148,180,31592,1,0,0:0:0:0:
328,178,31793,1,8,0:0:0:0:
328,178,31894,2,0,P|330:225|316:272,1,80,0|0,0:0|0:0,0:0:0:0:
310,283,32196,1,8,1:0:0:0:
219,350,32397,1,0,0:0:0:0:
191,205,32599,5,8,0:0:0:0:
191,205,32699,1,0,0:0:0:0:
179,126,32901,1,0,0:0:0:0:
179,126,33001,2,0,L|171:82,2,40,8|0|0,1:0|0:0|0:0,0:0:0:0:
13,250,33404,5,8,0:0:0:0:
44,255,33505,1,0,0:0:0:0:
141,302,33706,1,8,0:0:0:0:
110,307,33807,1,8,1:0:0:0:
100,198,34008,1,8,0:0:0:0:
221,364,34209,6,0,L|352:353,1,120,8|0,0:0|0:0,0:0:0:0:
369,352,34612,1,8,1:0:0:0:
277,203,34813,1,0,0:0:0:0:
277,203,34914,1,0,0:0:0:0:
277,203,35015,2,0,P|270:241|281:295,1,80,8|0,0:0|0:0,0:0:0:0:
389,242,35417,1,8,1:0:0:0:
473,156,35619,1,0,0:0:0:0:
473,156,35719,1,0,0:0:0:0:
473,156,35820,6,0,L|465:63,1,80,8|0,0:0|0:0,0:0:0:0:
353,21,36223,1,8,1:0:0:0:
339,215,36424,1,0,0:0:0:0:
339,215,36525,1,0,0:0:0:0:
339,215,36625,6,0,L|331:307,1,80,8|0,0:0|0:0,0:0:0:0:
305,324,36927,1,0,0:0:0:0:
266,334,37028,1,8,1:0:0:0:
226,326,37129,1,0,0:0:0:0:
193,303,37229,1,0,0:0:0:0:
176,266,37330,1,0,0:0:0:0:
179,226,37431,5,8,0:0:0:0:
196,190,37531,1,0,0:0:0:0:
201,150,37632,1,8,0:0:0:0:
187,112,37733,1,0,0:0:0:0:
159,83,37833,1,8,1:0:0:0:
120,72,37934,1,0,0:0:0:0:
82,85,38035,1,8,0:0:0:0:
99,120,38135,1,8,0:0:0:0:
132,142,38236,1,8,0:0:0:0:
171,150,38337,1,0,0:0:0:0:
209,142,38437,1,8,0:0:0:0:
242,120,38538,1,0,0:0:0:0:
269,91,38639,2,0,L|272:45,3,40,8|8|8|8,1:0|0:0|0:0|0:0,0:0:0:0:
274,11,39041,1,8,0:0:0:0:
274,11,39847,5,0,1:0:0:0:
314,15,39948,1,2,1:0:0:0:
476,82,40149,1,2,1:0:0:0:
363,216,40350,1,2,1:0:0:0:
323,220,40451,1,2,1:0:0:0:
283,210,40552,1,2,1:0:0:0:
256,180,40652,6,0,L|245:49,1,120,4|0,1:0|0:0,0:0:0:0:
244,32,41055,1,8,1:0:0:0:
161,119,41256,1,0,0:0:0:0:
342,125,41458,1,8,0:0:0:0:
369,127,41558,1,0,0:0:0:0:
431,237,41760,1,0,0:0:0:0:
429,210,41860,1,8,1:0:0:0:
323,220,42062,1,0,0:0:0:0:
161,147,42263,5,8,0:0:0:0:
161,147,42364,2,0,L|154:226,1,80,0|0,0:0|0:0,0:0:0:0:
153,255,42666,1,8,1:0:0:0:
70,168,42867,1,0,0:0:0:0:
251,162,43068,1,8,0:0:0:0:
278,160,43169,1,0,0:0:0:0:
340,50,43370,1,0,0:0:0:0:
338,77,43471,1,8,1:0:0:0:
232,67,43672,1,0,0:0:0:0:
401,181,43874,5,8,0:0:0:0:
399,208,43974,1,0,0:0:0:0:
492,290,44176,1,0,0:0:0:0:
494,263,44276,1,8,1:0:0:0:
396,347,44478,1,0,0:0:0:0:
252,279,44680,5,8,0:0:0:0:
250,252,44780,1,0,0:0:0:0:
161,170,44981,1,0,0:0:0:0:
163,197,45082,1,8,1:0:0:0:
257,113,45283,1,0,0:0:0:0:
55,22,45484,5,8,0:0:0:0:
37,44,45585,2,0,P|27:76|34:126,1,80,0|0,0:0|0:0,0:0:0:0:
47,147,45887,1,8,1:0:0:0:
163,197,46088,1,0,0:0:0:0:
0,270,46290,1,8,0:0:0:0:
26,259,46390,2,0,P|60:258|106:278,1,80,0|0,0:0|0:0,0:0:0:0:
123,295,46692,1,8,1:0:0:0:
145,311,46793,1,0,0:0:0:0:
171,319,46894,1,8,0:0:0:0:
198,319,46994,1,0,0:0:0:0:
225,312,47095,6,0,L|236:181,1,120,8|0,0:0|0:0,0:0:0:0:
237,164,47498,1,8,1:0:0:0:
320,251,47699,1,0,0:0:0:0:
327,110,47901,1,8,0:0:0:0:
354,112,48001,1,0,0:0:0:0:
416,222,48203,1,0,0:0:0:0:
414,195,48303,1,8,1:0:0:0:
320,251,48505,1,0,0:0:0:0:
327,110,48706,5,8,0:0:0:0:
327,110,48807,2,0,L|334:31,1,80,0|0,0:0|0:0,0:0:0:0:
335,2,49109,1,8,1:0:0:0:
442,80,49310,1,0,0:0:0:0:
224,43,49511,1,8,0:0:0:0:
197,45,49612,1,0,0:0:0:0:
135,155,49813,1,0,0:0:0:0:
137,128,49914,1,8,1:0:0:0:
243,138,50115,1,0,0:0:0:0:
19,136,50317,5,8,0:0:0:0:
46,134,50417,1,0,0:0:0:0:
108,24,50619,1,0,0:0:0:0:
106,51,50719,1,8,1:0:0:0:
0,41,50921,1,0,0:0:0:0:
182,120,51122,5,8,0:0:0:0:
155,122,51223,1,0,0:0:0:0:
93,232,51424,1,0,0:0:0:0:
95,205,51525,1,8,1:0:0:0:
201,215,51726,1,0,0:0:0:0:
149,329,51927,5,8,0:0:0:0:
175,318,52028,2,0,P|209:317|255:337,1,80,0|0,0:0|0:0,0:0:0:0:
272,354,52330,1,8,1:0:0:0:
385,372,52531,1,0,0:0:0:0:
407,354,52632,1,8,0:0:0:0:
419,328,52733,2,0,P|418:288|402:251,1,80,8|0,0:0|0:0,0:0:0:0:
382,232,53035,1,8,0:0:0:0:
356,221,53135,1,8,1:0:0:0:
328,218,53236,1,0,0:0:0:0:
300,224,53337,1,8,0:0:0:0:
277,241,53437,1,0,0:0:0:0:
264,265,53538,5,4,1:0:0:0:
266,292,53639,1,0,0:0:0:0:
176,350,53840,1,0,0:0:0:0:
178,323,53941,1,4,1:0:0:0:
133,227,54142,1,0,0:0:0:0:
106,229,54243,1,0,0:0:0:0:
79,231,54343,5,8,0:0:0:0:
52,233,54444,1,0,0:0:0:0:
48,134,54646,1,0,0:0:0:0:
21,132,54746,1,8,1:0:0:0:
79,37,54948,2,0,L|27:32,1,40,0|0,0:0|0:0,0:0:0:0:
143,120,55149,5,8,0:0:0:0:
141,147,55250,1,0,0:0:0:0:
231,205,55451,1,0,0:0:0:0:
229,178,55552,1,8,1:0:0:0:
252,51,55753,1,0,0:0:0:0:
279,53,55854,1,0,0:0:0:0:
306,55,55954,5,8,0:0:0:0:
333,57,56055,1,0,0:0:0:0:
317,178,56256,1,0,0:0:0:0:
315,151,56357,1,8,1:0:0:0:
428,63,56558,2,0,L|423:11,1,40,0|0,0:0|0:0,0:0:0:0:
498,131,56760,5,8,0:0:0:0:
496,158,56860,1,0,0:0:0:0:
402,242,57062,1,0,0:0:0:0:
404,269,57162,1,8,1:0:0:0:
454,370,57364,1,0,0:0:0:0:
427,372,57464,1,0,0:0:0:0:
400,374,57565,5,8,0:0:0:0:
373,376,57666,1,0,0:0:0:0:
238,329,57867,1,0,0:0:0:0:
265,327,57968,1,8,1:0:0:0:
311,225,58169,2,0,L|306:173,1,40,0|0,0:0|0:0,0:0:0:0:
182,228,58370,5,8,0:0:0:0:
184,255,58471,1,0,0:0:0:0:
60,296,58672,1,0,0:0:0:0:
62,323,58773,1,8,1:0:0:0:
105,181,58974,1,0,0:0:0:0:
78,179,59075,1,0,0:0:0:0:
51,177,59176,5,8,0:0:0:0:
24,175,59276,1,0,0:0:0:0:
72,55,59478,1,0,0:0:0:0:
74,82,59578,1,8,1:0:0:0:
82,276,59780,1,8,0:0:0:0:
253,193,59981,6,0,L|122:182,1,120,4|0,1:0|0:0,0:0:0:0:
105,181,60384,1,8,1:0:0:0:
176,290,60585,1,0,0:0:0:0:
195,104,60786,2,0,L|326:115,1,120,8|0,0:0|0:0,0:0:0:0:
343,116,61189,1,8,1:0:0:0:
272,7,61390,1,0,0:0:0:0:
450,60,61592,5,4,1:0:0:0:
447,87,61692,2,0,L|440:166,1,80,0|0,0:0|0:0,0:0:0:0:
439,195,61994,1,8,1:0:0:0:
343,116,62196,1,0,0:0:0:0:
268,341,62397,5,8,0:0:0:0:
265,314,62498,2,0,L|258:234,1,80
257,206,62800,1,8,1:0:0:0:
343,116,63001,1,8,0:0:0:0:
216,28,63203,5,4,1:0:0:0:
179,11,63303,1,0,0:0:0:0:
140,8,63404,1,8,0:0:0:0:
102,20,63505,1,0,0:0:0:0:
70,44,63605,1,8,1:0:0:0:
50,78,63706,1,0,0:0:0:0:
43,117,63807,1,8,0:0:0:0:
50,157,63907,1,0,0:0:0:0:
71,190,64008,5,4,1:0:0:0:
107,173,64109,1,0,0:0:0:0:
146,170,64209,1,8,0:0:0:0:
184,182,64310,1,0,0:0:0:0:
216,206,64411,1,8,1:0:0:0:
236,240,64511,1,0,0:0:0:0:
243,279,64612,1,8,0:0:0:0:
236,319,64713,1,0,0:0:0:0:
215,352,64813,5,4,1:0:0:0:
493,253,65115,1,4,1:0:0:0:
210,170,65417,1,4,1:0:0:0:
248,180,65518,1,0,0:0:0:0:
286,191,65619,5,4,1:0:0:0:
8,92,65921,1,4,1:0:0:0:
291,9,66223,2,0,L|313:10,2,20,4|8|8,1:0|0:0|0:0,0:0:0:0:
237,60,66424,6,0,L|248:191,1,120,4|0,1:0|0:0,0:0:0:0:
249,208,66827,1,8,1:0:0:0:
141,291,67028,1,0,0:0:0:0:
37,168,67229,6,0,P|67:132|145:130,1,120,10|0,0:0|0:0,0:0:0:0:
162,135,67632,1,8,1:0:0:0:
141,291,67833,1,0,0:0:0:0:
341,357,68035,6,0,L|352:226,1,120,10|0,0:0|0:0,0:0:0:0:
353,209,68437,1,8,1:0:0:0:
454,308,68639,1,0,0:0:0:0:
255,240,68840,6,0,P|255:175|287:129,1,120,10|0,0:0|0:0,0:0:0:0:
308,116,69243,1,8,1:0:0:0:
442,133,69444,1,0,0:0:0:0:
376,22,69646,6,0,L|245:11,1,120,10|0,0:0|0:0,0:0:0:0:
228,10,70048,1,8,1:0:0:0:
137,62,70250,1,0,0:0:0:0:
35,40,70451,1,8,0:0:0:0:
37,67,70552,1,0,0:0:0:0:
93,154,70753,1,0,0:0:0:0:
91,181,70854,1,10,1:0:0:0:
8,244,71055,1,0,0:0:0:0:
162,301,71256,6,0,L|173:170,1,120,10|0,0:0|0:0,0:0:0:0:
174,153,71659,1,8,1:0:0:0:
267,248,71860,1,0,0:0:0:0:
252,84,72062,6,0,P|202:53|143:55,1,120,10|0,0:0|0:0,0:0:0:0:
117,66,72464,1,8,1:0:0:0:
26,183,72666,1,8,0:0:0:0:
162,301,72867,6,0,L|173:170,1,120,10|0,0:0|0:0,0:0:0:0:
174,153,73270,1,8,1:0:0:0:
73,254,73471,1,0,0:0:0:0:
269,337,73672,5,8,0:0:0:0:
305,354,73773,1,0,0:0:0:0:
345,351,73874,1,0,0:0:0:0:
376,327,73974,1,0,0:0:0:0:
388,288,74075,1,8,1:0:0:0:
400,249,74176,1,0,0:0:0:0:
431,225,74276,1,0,0:0:0:0:
471,222,74377,1,0,0:0:0:0:
507,239,74478,6,0,P|514:171|499:102,1,120,10|0,0:0|0:0,0:0:0:0:
496,94,74880,1,8,1:0:0:0:
403,44,75082,1,0,0:0:0:0:
365,182,75283,6,0,P|358:250|373:319,1,120,10|0,0:0|0:0,0:0:0:0:
376,327,75686,1,8,1:0:0:0:
475,374,75887,1,0,0:0:0:0:
247,384,76088,6,0,L|258:253,1,120,10|0,0:0|0:0,0:0:0:0:
259,236,76491,1,8,1:0:0:0:
154,317,76692,1,0,0:0:0:0:
194,173,76894,1,8,0:0:0:0:
194,173,76994,2,0,P|155:186|112:188,1,80,0|0,0:0|0:0,0:0:0:0:
88,187,77297,1,8,1:0:0:0:
8,122,77498,1,0,0:0:0:0:
116,20,77699,6,0,L|247:31,1,120,10|0,0:0|0:0,0:0:0:0:
264,32,78102,1,8,1:0:0:0:
170,117,78303,1,0,0:0:0:0:
76,202,78505,6,0,L|207:213,1,120,10|8,0:0|0:0,0:0:0:0:
224,214,78907,1,8,1:0:0:0:
130,299,79109,1,8,0:0:0:0:
256,368,79310,5,4,1:0:0:0:
339,321,79511,1,0,0:0:0:0:
430,352,79713,1,4,1:0:0:0:
432,325,79813,1,0,0:0:0:0:
434,298,79914,1,0,0:0:0:0:
436,271,80015,1,0,0:0:0:0:
438,244,80115,5,10,0:0:0:0:
339,321,80317,1,0,0:0:0:0:
386,165,80518,1,8,1:0:0:0:
359,163,80619,1,0,0:0:0:0:
332,161,80719,1,0,0:0:0:0:
305,159,80820,1,0,0:0:0:0:
278,157,80921,5,10,0:0:0:0:
347,68,81122,1,0,0:0:0:0:
186,115,81323,1,8,1:0:0:0:
188,142,81424,1,0,0:0:0:0:
190,169,81525,1,0,0:0:0:0:
192,196,81625,1,0,0:0:0:0:
194,223,81726,5,10,0:0:0:0:
278,157,81927,1,0,0:0:0:0:
109,177,82129,1,8,1:0:0:0:
82,175,82229,1,0,0:0:0:0:
55,173,82330,1,0,0:0:0:0:
28,171,82431,1,0,0:0:0:0:
1,169,82531,6,0,P|-6:101|9:32,1,120,10|0,0:0|0:0,0:0:0:0:
12,24,82934,1,8,1:0:0:0:
38,14,83035,1,0,0:0:0:0:
65,14,83135,1,0,0:0:0:0:
92,21,83236,1,0,0:0:0:0:
119,36,83337,5,8,0:0:0:0:
197,106,83538,1,0,0:0:0:0:
206,79,83639,1,0,0:0:0:0:
224,57,83740,1,10,1:0:0:0:
305,189,83941,1,0,0:0:0:0:
407,66,84142,6,0,P|449:56|515:61,1,80,10|0,0:0|0:0,0:0:0:0:
504,192,84545,1,8,1:0:0:0:
476,184,84646,1,0,0:0:0:0:
448,187,84746,1,0,0:0:0:0:
421,196,84847,1,0,0:0:0:0:
401,216,84948,5,10,0:0:0:0:
470,328,85149,1,0,0:0:0:0:
335,354,85350,1,8,1:0:0:0:
305,354,85451,1,0,0:0:0:0:
279,344,85552,1,8,0:0:0:0:
255,328,85652,1,0,0:0:0:0:
241,304,85753,5,12,1:0:0:0:
151,272,85954,1,8,0:0:0:0:
149,299,86055,1,0,0:0:0:0:
147,326,86156,1,8,1:0:0:0:
57,294,86357,1,8,0:0:0:0:
102,151,86558,5,10,0:0:0:0:
138,134,86659,1,0,0:0:0:0:
178,137,86760,1,8,0:0:0:0:
209,161,86860,1,0,0:0:0:0:
221,200,86961,1,10,1:0:0:0:
233,239,87062,1,0,0:0:0:0:
264,263,87162,1,8,0:0:0:0:
304,266,87263,1,8,0:0:0:0:
340,249,87364,5,4,1:0:0:0:
372,159,87565,1,8,0:0:0:0:
345,157,87666,1,0,0:0:0:0:
318,155,87766,1,8,1:0:0:0:
350,65,87968,1,8,0:0:0:0:
489,162,88169,5,10,0:0:0:0:
473,308,88370,1,8,0:0:0:0:
378,220,88572,1,8,1:0:0:0:
376,193,88672,1,8,0:0:0:0:
271,294,88874,1,8,0:0:0:0:
273,321,88974,5,4,1:0:0:0:
307,340,89075,1,8,0:0:0:0:
347,340,89176,1,8,0:0:0:0:
382,322,89276,1,8,0:0:0:0:
404,289,89377,1,8,1:0:0:0:
407,250,89478,1,8,0:0:0:0:
392,213,89578,1,8,0:0:0:0:
361,189,89679,1,8,0:0:0:0:
322,182,89780,5,4,1:0:0:0:
333,220,89880,1,8,0:0:0:0:
361,248,89981,1,8,0:0:0:0:
398,260,90082,1,8,0:0:0:0:
437,252,90182,1,8,1:0:0:0:
467,227,90283,1,8,0:0:0:0:
482,190,90384,1,8,0:0:0:0:
477,151,90484,1,8,0:0:0:0:
458,121,90585,5,4,1:0:0:0:
458,121,90887,1,2,3:0:0:0:
467,227,91088,1,0,3:0:0:0:
469,254,91189,1,2,3:0:0:0:
471,281,91290,1,0,3:0:0:0:
473,308,91390,5,0,1:0:0:0:
433,304,91491,1,2,1:2:0:0:
321,190,91692,1,0,1:2:0:0:
290,348,91894,1,2,1:2:0:0:
330,352,91994,2,0,L|354:354,2,20,0|0|0,1:0|1:0|1:0,0:0:0:0:
317,276,92196,5,4,1:0:0:0:
289,247,92297,1,0,0:0:0:0:
280,208,92397,1,0,0:0:0:0:
291,169,92498,1,0,0:0:0:0:
323,144,92599,1,8,1:0:0:0:
355,119,92699,1,0,0:0:0:0:
366,80,92800,1,0,0:0:0:0:
357,41,92901,1,0,0:0:0:0:
329,12,93001,1,8,0:0:0:0:
295,34,93102,1,0,0:0:0:0:
255,42,93203,1,0,0:0:0:0:
215,38,93303,1,0,0:0:0:0:
180,18,93404,1,8,1:0:0:0:
171,58,93505,1,0,0:0:0:0:
149,92,93605,1,0,0:0:0:0:
117,117,93706,1,0,0:0:0:0:
79,128,93807,5,4,1:0:0:0:
101,162,93907,1,0,0:0:0:0:
109,202,94008,1,0,0:0:0:0:
105,242,94109,1,0,0:0:0:0:
85,277,94209,1,8,1:0:0:0:
124,273,94310,1,0,0:0:0:0:
163,269,94411,1,0,0:0:0:0:
202,265,94511,1,0,0:0:0:0:
242,262,94612,1,4,1:0:0:0:
264,228,94713,1,0,0:0:0:0:
272,188,94813,1,0,0:0:0:0:
268,148,94914,1,0,0:0:0:0:
248,113,95015,1,8,1:0:0:0:
287,117,95115,1,0,0:0:0:0:
326,121,95216,1,0,0:0:0:0:
365,125,95317,1,0,0:0:0:0:
405,128,95417,5,4,1:0:0:0:
437,150,95518,1,0,0:0:0:0:
457,185,95619,1,0,0:0:0:0:
462,224,95719,1,0,0:0:0:0:
451,262,95820,1,4,1:0:0:0:
425,292,95921,1,0,0:0:0:0:
389,309,96021,1,0,0:0:0:0:
349,310,96122,1,0,0:0:0:0:
312,295,96223,1,4,1:0:0:0:
276,279,96323,1,0,0:0:0:0:
235,280,96424,1,0,0:0:0:0:
197,294,96525,1,0,0:0:0:0:
173,326,96625,1,4,1:0:0:0:
159,288,96726,1,8,0:0:0:0:
129,260,96827,1,8,0:0:0:0:
92,243,96927,1,8,0:0:0:0:
53,248,97028,5,0,0:0:0:0:
57,228,97129,1,0,0:0:0:0:
61,208,97229,1,0,0:0:0:0:
65,188,97330,1,0,0:0:0:0:
69,168,97431,1,8,0:0:0:0:
74,140,97531,1,8,0:0:0:0:
79,113,97632,5,8,0:0:0:0:
69,73,97733,1,8,0:0:0:0:
40,45,97833,2,0,L|-1:41,2,40,8|0|0,0:0|0:0|0:0,0:0:0:0:
68,16,98135,2,0,P|113:9|163:24,1,80,8|0,0:0|0:0,0:0:0:0:
184,29,98437,1,0,0:0:0:0:
220,45,98538,1,0,0:0:0:0:
249,72,98639,6,0,P|367:97|479:55,1,240,4|0,1:0|0:0,0:0:0:0:
510,129,100250,2,0,P|402:174|277:164,1,240
257,89,101860,2,0,P|138:80|28:125,1,240
10,202,103471,2,0,L|25:299,1,80
102,281,104276,2,0,L|117:378,1,80
193,374,105082,6,0,P|319:379|436:362,1,240
472,294,106692,2,0,P|353:277|233:283,1,240
176,226,108303,2,0,P|157:122|275:124,1,240
320,168,109914,2,0,L|305:265,1,80
228,247,110719,2,0,L|213:344,1,80
54,306,111525,6,0,L|47:350,2,40
133,294,112129,2,0,L|126:338,2,40,0|0|0,0:0|0:0|0:0,0:0:0:0:
84,232,112733,1,0,0:0:0:0:
168,179,112934,5,0,0:0:0:0:
168,179,113035,1,0,0:0:0:0:
168,179,113135,2,0,L|175:135,2,40,0|0|0,0:0|0:0|0:0,0:0:0:0:
247,167,113739,2,0,L|254:123,2,40,0|0|0,0:0|0:0|0:0,0:0:0:0:
217,241,114343,1,0,0:0:0:0:
225,345,114545,5,0,0:0:0:0:
225,345,114646,1,0,0:0:0:0:
225,345,114746,2,0,P|246:354|279:358,1,40,0|0,0:0|0:0,0:0:0:0:
338,354,115149,1,0,0:0:0:0:
338,278,115350,2,0,P|359:269|392:265,1,40,0|0,0:0|0:0,0:0:0:0:
451,269,115753,1,0,0:0:0:0:
444,193,115954,2,0,L|437:149,1,40,0|0,0:0|0:0,0:0:0:0:
433,133,116256,1,0,0:0:0:0:
426,113,116357,6,0,P|405:104|372:100,1,40,0|0,0:0|0:0,0:0:0:0:
313,104,116760,1,0,0:0:0:0:
313,180,116961,2,0,P|292:189|259:193,1,40,0|0,0:0|0:0,0:0:0:0:
200,189,117364,1,0,0:0:0:0:
207,265,117565,2,0,L|214:309,1,40,0|0,0:0|0:0,0:0:0:0:
218,325,117867,1,0,0:0:0:0:
222,344,117968,5,0,0:0:0:0:
300,361,118169,1,0,0:0:0:0:
275,285,118370,1,0,0:0:0:0:
222,344,118572,5,0,0:0:0:0:
300,361,118773,1,0,0:0:0:0:
275,285,118974,1,0,0:0:0:0:
222,344,119176,5,0,0:0:0:0:
359,307,119377,1,0,0:0:0:0:
359,307,119478,1,0,0:0:0:0:
359,307,119578,5,0,0:0:0:0:
275,285,119780,1,0,0:0:0:0:
336,223,119981,1,0,0:0:0:0:
359,307,120182,5,0,0:0:0:0:
275,285,120384,1,0,0:0:0:0:
336,223,120585,1,0,0:0:0:0:
359,307,120786,5,0,0:0:0:0:
252,202,120988,1,0,0:0:0:0:
252,202,121088,1,0,0:0:0:0:
252,202,121189,5,0,0:0:0:0:
336,223,121390,1,0,0:0:0:0:
420,244,121592,1,0,0:0:0:0:
275,285,121793,5,0,0:0:0:0:
359,307,121994,1,0,0:0:0:0:
443,327,122196,1,0,0:0:0:0:
297,368,122397,5,0,0:0:0:0:
397,161,122599,1,0,0:0:0:0:
397,161,122699,1,0,0:0:0:0:
397,161,122800,5,0,0:0:0:0:
420,244,123001,1,0,0:0:0:0:
443,327,123203,1,0,0:0:0:0:
336,222,123404,5,0,0:0:0:0:
359,305,123605,1,2,0:0:0:0:
324,325,123706,1,0,0:0:0:0:
284,328,123807,1,0,0:0:0:0:
246,313,123907,1,0,0:0:0:0:
221,281,124008,1,0,0:0:0:0:
196,249,124109,1,0,0:0:0:0:
158,234,124209,1,0,0:0:0:0:
118,237,124310,1,0,0:0:0:0:
83,257,124411,1,4,1:0:0:0:
186,205,125820,5,0,0:0:0:0:
189,244,125921,1,0,0:0:0:0:
192,284,126021,1,2,0:0:0:0:
42,141,127229,5,2,0:0:0:0:
350,89,127632,1,2,0:0:0:0:
350,89,128236,5,0,0:0:0:0:
347,128,128337,1,0,0:0:0:0:
344,168,128437,1,2,0:0:0:0:
459,39,129041,5,0,0:0:0:0:
456,78,129142,1,0,0:0:0:0:
453,118,129243,1,2,0:0:0:0:
235,218,129847,5,2,0:0:0:0:
238,178,129948,1,0,0:0:0:0:
244,142,130048,1,0,0:0:0:0:
244,142,130451,1,2,0:0:0:0:
375,349,130854,5,2,0:0:0:0:
174,184,131659,5,0,0:0:0:0:
209,164,131760,1,0,0:0:0:0:
249,161,131860,1,0,0:0:0:0:
287,176,131961,1,0,0:0:0:0:
312,208,132062,1,0,0:0:0:0:
337,240,132162,1,0,0:0:0:0:
375,255,132263,1,0,0:0:0:0:
415,252,132364,1,0,0:0:0:0:
450,232,132464,1,2,0:0:0:0:
406,14,133068,5,2,0:0:0:0:
403,53,133169,1,0,0:0:0:0:
400,93,133270,1,2,0:0:0:0:
314,178,133572,1,2,0:0:0:0:
283,61,133874,1,2,0:0:0:0:
431,210,134075,1,2,0:0:0:0:
431,210,134679,5,0,0:0:0:0:
428,249,134780,1,0,0:0:0:0:
425,289,134880,1,2,0:0:0:0:
339,374,135182,1,0,0:0:0:0:
308,257,135484,1,0,0:0:0:0:
223,343,135686,1,2,0:0:0:0:
223,343,136290,5,2,0:0:0:0:
220,304,136390,1,0,0:0:0:0:
220,267,136491,1,0,0:0:0:0:
220,267,136894,1,2,0:0:0:0:
50,84,137297,5,6,0:0:0:0:
50,84,137599,1,0,0:0:0:0:
201,55,137901,5,0,0:0:0:0:
198,94,138001,1,0,0:0:0:0:
195,134,138102,1,2,0:0:0:0:
79,192,138404,5,0,0:0:0:0:
79,192,138505,1,0,3:0:0:0:
298,154,138706,5,0,0:0:0:0:
295,193,138807,1,0,0:0:0:0:
292,233,138907,1,2,0:0:0:0:
176,291,139209,5,0,0:0:0:0:
176,291,139310,1,0,3:0:0:0:
247,327,139511,1,0,0:0:0:0:
409,310,139713,5,2,0:0:0:0:
423,284,139813,1,0,0:0:0:0:
425,254,139914,1,0,0:0:0:0:
417,229,140015,1,2,0:0:0:0:
417,229,140317,1,0,0:0:0:0:
364,148,140518,5,2,0:0:0:0:
350,122,140619,1,0,0:0:0:0:
348,92,140719,1,0,0:0:0:0:
356,67,140820,1,0,0:0:0:0:
356,67,141122,1,2,0:0:0:0:
321,235,141323,5,2,0:0:0:0:
295,221,141424,1,0,0:0:0:0:
265,219,141525,1,0,0:0:0:0:
240,227,141625,1,2,0:0:0:0:
240,227,141927,1,2,0:0:0:0:
148,268,142129,5,2,0:0:0:0:
119,276,142229,1,0,0:0:0:0:
90,268,142330,1,0,0:0:0:0:
70,247,142431,1,0,0:0:0:0:
64,218,142531,1,0,0:0:0:0:
74,190,142632,1,0,0:0:0:0:
97,171,142733,1,0,0:0:0:0:
165,130,142934,5,2,0:0:0:0:
243,114,143135,1,0,0:0:0:0:
243,33,143337,1,0,0:0:0:0:
165,17,143538,1,2,0:0:0:0:
87,35,143739,5,2,0:0:0:0:
67,57,143840,1,0,0:0:0:0:
50,82,143941,1,0,0:0:0:0:
38,109,144041,1,0,0:0:0:0:
29,138,144142,1,0,0:0:0:0:
25,168,144243,1,0,0:0:0:0:
24,198,144343,1,0,0:0:0:0:
28,227,144444,1,0,0:0:0:0:
37,256,144545,5,2,0:0:0:0:
66,248,144646,1,0,0:0:0:0:
96,244,144746,1,0,0:0:0:0:
126,244,144847,1,0,0:0:0:0:
155,249,144948,1,0,0:0:0:0:
184,257,145048,1,0,0:0:0:0:
211,270,145149,1,2,0:0:0:0:
236,286,145250,1,0,0:0:0:0:
259,306,145350,5,2,0:0:0:0:
273,279,145451,1,0,0:0:0:0:
291,255,145552,1,0,0:0:0:0:
312,234,145652,1,0,0:0:0:0:
336,217,145753,1,0,0:0:0:0:
363,202,145854,1,0,0:0:0:0:
391,192,145954,1,0,0:0:0:0:
420,186,146055,1,0,0:0:0:0:
450,183,146156,5,2,0:0:0:0:
420,177,146256,1,0,0:0:0:0:
392,168,146357,1,0,0:0:0:0:
364,156,146458,1,2,0:0:0:0:
339,139,146558,1,0,0:0:0:0:
316,120,146659,1,0,0:0:0:0:
297,97,146760,1,2,0:0:0:0:
282,71,146860,1,0,0:0:0:0:
270,43,146961,5,2,0:0:0:0:
242,72,147062,1,0,0:0:0:0:
203,79,147162,1,0,0:0:0:0:
163,69,147263,1,2,0:0:0:0:
130,45,147364,1,8,0:0:0:0:
124,84,147464,1,0,0:0:0:0:
96,113,147565,1,2,0:0:0:0:
58,128,147666,1,0,0:0:0:0:
17,128,147766,5,10,0:0:0:0:
12,167,147867,1,0,0:0:0:0:
32,202,147968,1,0,0:0:0:0:
67,220,148068,1,2,0:0:0:0:
106,226,148169,1,8,0:0:0:0:
145,232,148270,1,0,0:0:0:0:
180,250,148370,1,2,0:0:0:0:
200,285,148471,1,0,0:0:0:0:
195,324,148572,5,2,0:0:0:0:
113,362,148773,1,0,0:0:0:0:
113,362,148874,1,0,0:0:0:0:
24,345,149075,1,0,0:0:0:0:
24,345,149176,1,0,0:0:0:0:
195,324,149377,5,2,0:0:0:0:
148,214,149578,1,0,0:0:0:0:
186,204,149679,1,0,0:0:0:0:
226,208,149780,1,0,0:0:0:0:
262,224,149880,1,0,0:0:0:0:
290,252,149981,1,0,0:0:0:0:
308,288,150082,1,0,0:0:0:0:
313,327,150182,6,0,L|444:338,1,120,4|8,1:0|0:0,0:0:0:0:
472,341,150585,1,8,1:0:0:0:
501,198,150786,1,8,0:0:0:0:
467,177,150887,1,0,0:0:0:0:
426,175,150988,1,8,0:0:0:0:
387,186,151088,2,0,P|343:191|290:171,1,80,0|8,0:0|0:0,0:0:0:0:
274,160,151390,1,8,1:0:0:0:
207,35,151592,1,8,0:0:0:0:
194,72,151692,1,8,0:0:0:0:
160,94,151793,6,0,L|29:105,1,120,4|8,1:0|0:0,0:0:0:0:
1,108,152196,1,8,1:0:0:0:
0,260,152397,1,8,0:0:0:0:
34,239,152498,1,8,0:0:0:0:
75,237,152599,1,8,0:0:0:0:
114,248,152699,2,0,P|158:253|211:233,1,80,0|8,0:0|0:0,0:0:0:0:
227,222,153001,1,8,1:0:0:0:
235,182,153102,1,0,0:0:0:0:
243,142,153203,1,8,0:0:0:0:
251,103,153303,1,0,0:0:0:0:
260,64,153404,6,0,P|303:51|366:64,1,80,4|0,1:0|0:0,0:0:0:0:
376,64,153706,1,8,0:0:0:0:
408,87,153807,1,8,1:0:0:0:
492,194,154008,1,8,0:0:0:0:
500,233,154109,1,0,0:0:0:0:
491,271,154209,5,8,0:0:0:0:
454,286,154310,2,0,L|449:328,1,40,0|0,0:0|0:0,0:0:0:0:
376,271,154511,2,0,L|368:186,1,80,8|0,0:0|0:0,0:0:0:0:
344,158,154813,1,8,0:0:0:0:
312,132,154914,1,8,0:0:0:0:
276,113,155015,6,0,P|233:100|170:113,1,80,4|0,1:0|0:0,0:0:0:0:
160,113,155317,1,8,0:0:0:0:
128,136,155417,1,8,1:0:0:0:
12,246,155619,1,8,0:0:0:0:
4,285,155719,1,8,0:0:0:0:
13,323,155820,5,8,0:0:0:0:
50,338,155921,2,0,L|54:380,1,40,8|0,0:0|0:0,0:0:0:0:
128,323,156122,2,0,L|135:238,1,80,8|8,0:0|0:0,0:0:0:0:
164,214,156424,1,8,0:0:0:0:
202,200,156525,1,8,0:0:0:0:
241,205,156625,5,4,1:0:0:0:
220,238,156726,1,0,0:0:0:0:
222,278,156827,1,8,0:0:0:0:
246,309,156927,1,0,0:0:0:0:
284,321,157028,1,8,0:0:0:0:
321,310,157129,1,0,0:0:0:0:
346,279,157229,1,8,0:0:0:0:
349,240,157330,1,0,0:0:0:0:
330,206,157431,1,4,1:0:0:0:
310,171,157531,1,0,0:0:0:0:
313,132,157632,1,8,0:0:0:0:
338,102,157733,1,0,0:0:0:0:
376,90,157833,1,8,0:0:0:0:
413,103,157934,1,0,0:0:0:0:
437,134,158035,1,8,0:0:0:0:
439,173,158135,1,8,0:0:0:0:
419,207,158236,5,4,1:0:0:0:
378,203,158337,1,0,0:0:0:0:
338,199,158437,1,8,0:0:0:0:
297,196,158538,1,0,0:0:0:0:
256,193,158639,1,8,0:0:0:0:
216,190,158739,1,0,0:0:0:0:
175,187,158840,1,8,0:0:0:0:
134,184,158941,1,0,0:0:0:0:
94,181,159041,1,4,1:0:0:0:
132,167,159142,1,0,0:0:0:0:
170,153,159243,1,8,0:0:0:0:
209,139,159343,1,0,0:0:0:0:
248,125,159444,1,8,0:0:0:0:
285,112,159545,1,0,0:0:0:0:
324,99,159646,1,8,0:0:0:0:
363,85,159746,1,8,0:0:0:0:
401,72,159847,6,0,L|397:114,1,40,4|8,1:0|0:0,0:0:0:0:
454,168,160048,2,0,L|451:200,2,20,8|8|8,0:0|0:0|0:0,0:0:0:0:
324,99,160250,6,0,L|320:141,1,40,4|8,1:0|0:0,0:0:0:0:
377,195,160451,2,0,L|374:227,2,20,8|8|8,0:0|0:0|0:0,0:0:0:0:
247,126,160652,6,0,L|243:168,1,40,4|8,1:0|0:0,0:0:0:0:
306,229,160854,1,8,0:0:0:0:
306,229,160954,1,8,0:0:0:0:
306,229,161055,6,0,L|302:271,1,40,4|8,1:0|0:0,0:0:0:0:
245,325,161256,2,0,L|242:357,2,20,8|8|8,0:0|0:0|0:0,0:0:0:0:
187,267,161458,5,2,0:0:0:0:
193,230,161558,1,2,0:0:0:0:
193,230,161760,1,2,0:0:0:0:
95,316,161961,5,0,0:0:0:0:
98,276,162062,1,2,0:0:0:0:
36,131,162263,5,2,0:0:0:0:
79,151,162364,1,0,0:0:0:0:
126,152,162464,1,0,0:0:0:0:
171,136,162565,2,0,P|210:124|265:121,1,80,2|0,0:0|0:0,0:0:0:0:
297,120,162867,1,2,0:0:0:0:
342,137,162968,1,0,0:0:0:0:
375,170,163068,6,0,L|379:212,3,40,4|0|0|0,1:0|0:0|0:0|0:0,0:0:0:0:
435,266,163471,1,8,1:0:0:0:
401,286,163572,1,0,0:0:0:0:
361,288,163672,1,0,0:0:0:0:
326,270,163773,1,0,0:0:0:0:
304,237,163874,2,0,L|308:195,3,40,8|0|0|0,0:0|0:0|0:0|0:0,0:0:0:0:
364,141,164276,1,8,1:0:0:0:
331,121,164377,1,0,0:0:0:0:
291,119,164478,1,0,0:0:0:0:
256,137,164578,1,0,0:0:0:0:
234,170,164679,6,0,L|230:212,3,40,8|0|0|0,0:0|0:0|0:0|0:0,0:0:0:0:
180,273,165082,1,8,1:0:0:0:
149,298,165182,1,0,0:0:0:0:
109,301,165283,1,0,0:0:0:0:
70,290,165384,1,0,0:0:0:0:
41,262,165484,2,0,L|45:220,3,40,8|0|0|0,0:0|0:0|0:0|0:0,0:0:0:0:
95,159,165887,1,8,1:0:0:0:
126,134,165988,1,0,0:0:0:0:
166,131,166088,1,0,0:0:0:0:
205,142,166189,1,0,0:0:0:0:
234,170,166290,6,0,L|238:212,3,40,8|0|0|0,0:0|0:0|0:0|0:0,0:0:0:0:
316,221,166692,1,8,1:0:0:0:
312,181,166793,1,0,0:0:0:0:
308,141,166894,1,0,0:0:0:0:
304,101,166994,1,0,0:0:0:0:
300,61,167095,2,0,L|296:19,3,40,8|0|0|0,0:0|0:0|0:0|0:0,0:0:0:0:
374,32,167498,1,8,1:0:0:0:
378,72,167599,1,0,0:0:0:0:
382,112,167699,1,0,0:0:0:0:
386,152,167800,1,0,0:0:0:0:
390,192,167901,5,8,0:0:0:0:
356,212,168001,1,0,0:0:0:0:
315,209,168102,1,0,0:0:0:0:
280,188,168203,1,0,0:0:0:0:
261,152,168303,1,8,1:0:0:0:
242,120,168404,1,0,0:0:0:0:
212,99,168505,1,0,0:0:0:0:
176,94,168605,1,0,0:0:0:0:
141,104,168706,1,8,0:0:0:0:
169,125,168807,1,0,0:0:0:0:
204,132,168907,1,0,0:0:0:0:
239,128,169008,1,0,0:0:0:0:
271,111,169109,1,8,1:0:0:0:
299,83,169209,1,0,0:0:0:0:
334,63,169310,1,8,0:0:0:0:
374,64,169411,1,0,0:0:0:0:
408,83,169511,6,0,L|412:125,3,40,8|0|0|0,0:0|0:0|0:0|0:0,0:0:0:0:
468,179,169914,1,8,1:0:0:0:
434,199,170015,1,0,0:0:0:0:
394,201,170115,1,0,0:0:0:0:
359,183,170216,1,0,0:0:0:0:
337,150,170317,2,0,L|333:108,3,40,8|0|0|0,0:0|0:0|0:0|0:0,0:0:0:0:
277,53,170719,1,8,1:0:0:0:
243,33,170820,1,0,0:0:0:0:
203,31,170921,1,0,0:0:0:0:
168,49,171021,1,0,0:0:0:0:
146,82,171122,6,0,L|142:124,3,40,8|0|0|0,0:0|0:0|0:0|0:0,0:0:0:0:
86,178,171525,1,8,1:0:0:0:
120,198,171625,1,0,0:0:0:0:
160,200,171726,1,0,0:0:0:0:
195,182,171827,1,0,0:0:0:0:
217,149,171927,2,0,L|221:107,3,40,8|0|0|0,0:0|0:0|0:0|0:0,0:0:0:0:
277,52,172330,1,8,1:0:0:0:
311,32,172431,1,0,0:0:0:0:
351,30,172531,1,0,0:0:0:0:
386,48,172632,1,0,0:0:0:0:
408,81,172733,6,0,L|412:123,3,40,8|0|0|0,0:0|0:0|0:0|0:0,0:0:0:0:
355,177,173135,1,8,1:0:0:0:
315,173,173236,1,0,0:0:0:0:
275,169,173337,1,0,0:0:0:0:
235,165,173437,1,0,0:0:0:0:
195,161,173538,6,0,L|191:203,3,40,8|0|0|0,0:0|0:0|0:0|0:0,0:0:0:0:
248,257,173941,1,8,1:0:0:0:
288,253,174041,1,0,0:0:0:0:
328,249,174142,1,0,0:0:0:0:
368,245,174243,1,0,0:0:0:0:
408,241,174343,5,8,0:0:0:0:
433,281,174444,1,0,0:0:0:0:
418,326,174545,1,0,0:0:0:0:
372,343,174646,1,0,0:0:0:0:
328,324,174746,1,8,1:0:0:0:
293,304,174847,1,0,0:0:0:0:
252,301,174948,1,0,0:0:0:0:
213,310,175048,1,0,0:0:0:0:
185,339,175149,1,8,0:0:0:0:
224,343,175250,1,0,0:0:0:0:
262,331,175350,1,0,0:0:0:0:
293,304,175451,1,8,0:0:0:0:
304,265,175552,1,8,1:0:0:0:
293,218,175652,1,0,0:0:0:0:
261,181,175753,1,8,0:0:0:0:
214,168,175854,1,8,0:0:0:0:
168,182,175954,6,0,L|164:224,1,40,4|0,1:0|0:0,0:0:0:0:
106,279,176156,1,0,0:0:0:0:
79,249,176256,1,0,0:0:0:0:
70,209,176357,1,4,1:0:0:0:
85,171,176458,1,0,0:0:0:0:
100,133,176558,1,0,0:0:0:0:
91,93,176659,1,0,0:0:0:0:
64,63,176760,6,0,L|68:21,1,40,8|0,0:0|0:0,0:0:0:0:
149,35,176961,1,0,0:0:0:0:
176,65,177062,1,0,0:0:0:0:
185,105,177162,1,8,1:0:0:0:
170,143,177263,1,0,0:0:0:0:
155,181,177364,1,0,0:0:0:0:
164,221,177464,1,0,0:0:0:0:
191,251,177565,6,0,L|187:293,1,40,8|0,0:0|0:0,0:0:0:0:
249,342,177766,1,0,0:0:0:0:
279,369,177867,1,0,0:0:0:0:
319,378,177968,1,8,1:0:0:0:
357,363,178068,1,0,0:0:0:0:
395,348,178169,1,0,0:0:0:0:
435,357,178270,1,0,0:0:0:0:
465,384,178370,6,0,L|507:380,1,40,8|0,0:0|0:0,0:0:0:0:
486,301,178572,1,0,0:0:0:0:
456,274,178672,1,0,0:0:0:0:
416,265,178773,1,8,1:0:0:0:
378,280,178874,1,0,0:0:0:0:
340,295,178974,1,0,0:0:0:0:
300,286,179075,1,0,0:0:0:0:
270,259,179176,6,0,L|228:263,1,40,8|0,0:0|0:0,0:0:0:0:
154,235,179377,1,0,0:0:0:0:
125,207,179478,1,0,0:0:0:0:
119,167,179578,1,8,1:0:0:0:
136,130,179679,1,0,0:0:0:0:
171,110,179780,1,0,0:0:0:0:
210,113,179880,1,0,0:0:0:0:
239,139,179981,6,0,L|243:181,1,40,8|0,0:0|0:0,0:0:0:0:
215,255,180182,1,0,0:0:0:0:
187,284,180283,1,0,0:0:0:0:
147,290,180384,1,8,1:0:0:0:
110,273,180484,1,0,0:0:0:0:
90,238,180585,1,0,0:0:0:0:
93,199,180686,1,0,0:0:0:0:
119,170,180786,5,8,0:0:0:0:
158,141,180887,1,0,0:0:0:0:
175,96,180988,1,0,0:0:0:0:
162,49,181088,1,0,0:0:0:0:
126,16,181189,1,8,1:0:0:0:
173,9,181290,1,0,0:0:0:0:
218,22,181390,1,0,0:0:0:0:
255,51,181491,1,0,0:0:0:0:
273,95,181592,1,8,0:0:0:0:
291,130,181692,1,0,0:0:0:0:
323,152,181793,1,0,0:0:0:0:
362,157,181894,1,0,0:0:0:0:
400,146,181994,1,8,1:0:0:0:
435,113,182095,1,0,0:0:0:0:
441,65,182196,1,8,0:0:0:0:
419,21,182297,1,0,0:0:0:0:
374,3,182397,6,0,L|332:7,1,40,4|0,1:0|0:0,0:0:0:0:
254,22,182599,1,0,0:0:0:0:
231,55,182699,1,0,0:0:0:0:
227,94,182800,1,8,1:0:0:0:
189,80,182901,1,0,0:0:0:0:
150,89,183001,1,0,0:0:0:0:
118,114,183102,1,0,0:0:0:0:
101,150,183203,6,0,L|97:192,1,40,8|0,0:0|0:0,0:0:0:0:
161,237,183404,1,0,0:0:0:0:
184,204,183505,1,0,0:0:0:0:
188,165,183605,1,8,1:0:0:0:
226,179,183706,1,0,0:0:0:0:
265,170,183807,1,0,0:0:0:0:
297,145,183907,1,8,0:0:0:0:
314,109,184008,6,0,L|318:67,1,40,4|0,1:0|0:0,0:0:0:0:
398,69,184209,1,0,0:0:0:0:
405,108,184310,1,0,0:0:0:0:
430,139,184411,1,8,1:0:0:0:
393,156,184511,1,0,0:0:0:0:
372,190,184612,1,0,0:0:0:0:
367,230,184713,1,8,0:0:0:0:
381,267,184813,6,0,L|377:309,1,40,8|0,0:0|0:0,0:0:0:0:
298,286,185015,2,0,L|294:328,1,40,8|0,0:0|0:0,0:0:0:0:
215,305,185216,2,0,L|211:347,1,40,8|0,1:0|0:0,0:0:0:0:
132,324,185417,2,0,L|128:366,1,40,8|0,0:0|0:0,0:0:0:0:
49,343,185619,5,4,1:0:0:0:
157,242,185820,1,8,0:0:0:0:
298,286,186021,1,8,1:0:0:0:
25,249,186223,5,8,0:0:0:0:
25,249,186323,1,8,0:0:0:0:
25,249,186424,1,4,1:0:0:0:
133,148,186625,1,8,0:0:0:0:
274,192,186827,1,8,1:0:0:0:
1,155,187028,5,8,0:0:0:0:
4,115,187129,1,8,0:0:0:0:
7,75,187229,1,4,1:0:0:0:
103,134,187431,1,8,0:0:0:0:
106,94,187531,1,8,0:0:0:0:
109,54,187632,1,4,1:0:0:0:
205,113,187833,1,8,0:0:0:0:
208,73,187934,1,8,0:0:0:0:
211,33,188035,5,4,1:0:0:0:
253,21,188135,1,8,0:0:0:0:
296,26,188236,1,8,0:0:0:0:
330,53,188337,1,8,0:0:0:0:
346,93,188437,1,4,1:0:0:0:
362,133,188538,1,8,0:0:0:0:
396,160,188639,1,8,0:0:0:0:
439,165,188739,1,8,0:0:0:0:
481,153,188840,6,0,P|495:217|488:278,1,120,4|0,1:0|0:0,0:0:0:0:
472,306,189243,1,8,1:0:0:0:
363,238,189444,1,0,0:0:0:0:
259,308,189646,2,0,P|245:244|252:183,1,120,10|0,0:0|0:0,0:0:0:0:
268,155,190048,1,8,1:0:0:0:
394,92,190250,1,0,0:0:0:0:
301,26,190451,6,0,P|237:40|176:33,1,120,10|0,0:0|0:0,0:0:0:0:
143,28,190854,1,8,1:0:0:0:
32,1,191055,1,0,0:0:0:0:
9,133,191256,1,10,0:0:0:0:
121,138,191458,1,0,0:0:0:0:
211,204,191659,1,8,1:0:0:0:
242,311,191860,1,0,0:0:0:0:
38,364,192062,6,0,L|49:233,1,120,10|0,0:0|0:0,0:0:0:0:
50,204,192464,1,8,1:0:0:0:
158,309,192666,1,0,0:0:0:0:
151,124,192867,1,10,0:0:0:0:
158,309,193068,1,0,0:0:0:0:
233,184,193270,1,8,1:0:0:0:
233,184,193471,1,0,0:0:0:0:
347,243,193672,6,0,P|411:257|472:250,1,120,10|0,0:0|0:0,0:0:0:0:
505,245,194075,1,8,1:0:0:0:
454,137,194276,1,0,0:0:0:0:
421,363,194478,1,10,0:0:0:0:
381,366,194578,1,0,0:0:0:0:
268,311,194780,1,0,0:0:0:0:
228,314,194880,1,8,1:0:0:0:
188,317,194981,1,0,0:0:0:0:
148,320,195082,1,8,0:0:0:0:
68,177,195283,6,0,P|132:163|193:170,1,120,10|0,0:0|0:0,0:0:0:0:
226,175,195686,1,8,1:0:0:0:
341,231,195887,1,0,0:0:0:0:
281,344,196088,2,0,P|217:358|156:351,1,120,10|0,0:0|0:0,0:0:0:0:
123,346,196491,1,8,1:0:0:0:
8,290,196692,1,0,0:0:0:0:
123,118,196894,6,0,L|134:249,1,120,10|0,0:0|0:0,0:0:0:0:
135,278,197297,1,8,1:0:0:0:
10,167,197498,1,0,0:0:0:0:
249,192,197699,1,10,0:0:0:0:
221,82,197901,1,0,0:0:0:0:
115,43,198102,1,8,1:0:0:0:
9,79,198303,1,0,0:0:0:0:
94,234,198505,6,0,P|158:220|219:227,1,120,10|0,0:0|0:0,0:0:0:0:
252,232,198907,1,8,1:0:0:0:
347,336,199109,1,0,0:0:0:0:
374,187,199310,1,10,0:0:0:0:
347,336,199511,1,0,0:0:0:0:
293,160,199713,1,8,1:0:0:0:
293,160,199914,1,0,0:0:0:0:
438,84,200115,6,0,P|452:148|445:209,1,120,10|0,0:0|0:0,0:0:0:0:
440,242,200518,1,8,1:0:0:0:
275,291,200719,1,0,0:0:0:0:
140,191,200921,1,10,0:0:0:0:
140,191,201223,1,8,0:0:0:0:
137,151,201323,1,8,1:0:0:0:
19,163,201525,1,8,0:0:0:0:
16,123,201625,1,8,0:0:0:0:
13,83,201726,5,4,1:0:0:0:
55,60,201827,1,0,0:0:0:0:
102,64,201927,1,0,0:0:0:0:
140,92,202028,1,0,0:0:0:0:
158,136,202129,1,4,1:0:0:0:
115,158,202229,1,0,0:0:0:0:
82,193,202330,1,0,0:0:0:0:
73,240,202431,1,0,0:0:0:0:
89,285,202531,2,0,P|104:305|209:332,1,120,10|0,0:0|0:0,0:0:0:0:
237,326,202934,1,8,1:0:0:0:
330,220,203135,1,0,0:0:0:0:
385,335,203337,5,10,0:0:0:0:
388,375,203437,1,0,0:0:0:0:
494,270,203639,1,0,0:0:0:0:
491,310,203739,1,8,1:0:0:0:
409,207,203941,1,0,0:0:0:0:
495,109,204142,1,10,0:0:0:0:
417,28,204343,1,0,0:0:0:0:
305,41,204545,1,8,1:0:0:0:
305,41,204746,1,0,0:0:0:0:
283,174,204948,6,0,L|294:305,1,120,10|0,0:0|0:0,0:0:0:0:
295,334,205350,1,8,1:0:0:0:
172,244,205552,1,0,0:0:0:0:
398,217,205753,1,10,0:0:0:0:
446,116,205954,1,0,0:0:0:0:
380,24,206156,1,8,1:0:0:0:
380,24,206357,1,0,0:0:0:0:
256,176,206558,5,10,0:0:0:0:
253,216,206659,1,0,0:0:0:0:
169,120,206860,1,0,0:0:0:0:
166,80,206961,1,8,1:0:0:0:
103,223,207162,1,0,0:0:0:0:
65,22,207364,1,10,0:0:0:0:
9,132,207565,1,0,0:0:0:0:
49,129,207666,1,0,0:0:0:0:
89,126,207766,1,8,1:0:0:0:
129,123,207867,1,0,0:0:0:0:
169,120,207968,1,8,0:0:0:0:
272,267,208169,6,0,P|208:281|147:274,1,120,4|0,1:0|0:0,0:0:0:0:
114,269,208572,1,8,1:0:0:0:
11,224,208773,1,0,0:0:0:0:
157,175,208974,1,10,0:0:0:0:
51,138,209176,1,0,0:0:0:0:
9,34,209377,1,8,1:0:0:0:
219,9,209578,1,0,0:0:0:0:
259,11,209679,1,8,0:0:0:0:
294,30,209780,6,0,P|308:94|301:155,1,120,4|0,1:0|0:0,0:0:0:0:
284,183,210182,1,8,1:0:0:0:
94,234,210384,1,0,0:0:0:0:
54,231,210484,1,8,0:0:0:0:
14,228,210585,1,10,0:0:0:0:
163,371,210786,1,8,0:0:0:0:
123,368,210887,1,2,0:0:0:0:
83,365,210988,1,8,1:0:0:0:
248,272,211189,1,10,0:0:0:0:
54,231,211390,5,4,1:0:0:0:
51,191,211491,1,0,0:0:0:0:
48,151,211592,1,8,0:0:0:0:
45,111,211692,1,2,0:0:0:0:
42,71,211793,1,8,1:0:0:0:
200,44,211994,1,10,0:0:0:0:
226,73,212095,1,8,0:0:0:0:
236,111,212196,5,4,1:0:0:0:
233,151,212297,1,0,0:0:0:0:
230,191,212397,1,8,0:0:0:0:
227,231,212498,1,2,0:0:0:0:
224,271,212599,1,8,1:0:0:0:
374,366,212800,1,10,0:0:0:0:
400,337,212901,1,8,0:0:0:0:
410,299,213001,6,0,L|404:233,1,40,4|0,1:0|0:0,0:0:0:0:
321,237,213303,5,0,0:0:0:0:
321,237,213404,2,0,L|315:171,1,40,4|0,1:0|0:0,0:0:0:0:
232,175,213706,5,0,0:0:0:0:
232,175,213807,2,0,L|226:109,1,40,4|0,1:0|0:0,0:0:0:0:
143,113,214109,5,0,0:0:0:0:
143,113,214209,2,0,L|135:22,1,80,4|0,1:0|0:0,0:0:0:0:
25,249,214612,5,4,1:0:0:0:
55,281,214713,1,0,0:0:0:0:
95,297,214813,1,0,0:0:0:0:
138,297,214914,1,0,0:0:0:0:
178,279,215015,1,8,1:0:0:0:
256,192,215216,1,0,0:0:0:0:
334,105,215417,1,10,0:0:0:0:
374,87,215518,1,0,0:0:0:0:
417,87,215619,1,0,0:0:0:0:
457,103,215719,1,0,0:0:0:0:
487,135,215820,1,8,1:0:0:0:
504,264,216021,1,0,0:0:0:0:
400,355,216223,5,10,0:0:0:0:
356,351,216323,1,0,0:0:0:0:
365,255,216525,1,0,0:0:0:0:
321,250,216625,1,8,1:0:0:0:
256,333,216827,1,0,0:0:0:0:
347,164,217028,1,10,0:0:0:0:
305,150,217129,1,0,0:0:0:0:
261,153,217229,1,0,0:0:0:0:
180,242,217431,1,8,1:0:0:0:
180,242,217632,1,0,0:0:0:0:
57,122,217833,5,10,0:0:0:0:
97,140,217934,1,0,0:0:0:0:
140,140,218035,1,0,0:0:0:0:
180,124,218135,1,0,0:0:0:0:
210,92,218236,1,8,1:0:0:0:
113,11,218437,1,0,0:0:0:0:
308,19,218639,1,10,0:0:0:0:
328,58,218739,1,0,0:0:0:0:
324,101,218840,1,0,0:0:0:0:
239,202,219041,1,8,1:0:0:0:
239,202,219243,1,0,0:0:0:0:
458,132,219444,5,10,0:0:0:0:
428,100,219545,1,0,0:0:0:0:
388,84,219646,1,0,0:0:0:0:
345,84,219746,1,0,0:0:0:0:
305,102,219847,1,8,1:0:0:0:
239,202,220048,1,0,0:0:0:0:
301,305,220250,1,10,0:0:0:0:
345,308,220350,1,0,0:0:0:0:
203,375,220552,1,0,0:0:0:0:
159,372,220652,1,8,1:0:0:0:
115,369,220753,1,0,0:0:0:0:
71,366,220854,1,8,0:0:0:0:
113,217,221055,5,10,0:0:0:0:
156,214,221156,1,0,0:0:0:0:
42,107,221357,1,0,0:0:0:0:
86,103,221458,1,8,1:0:0:0:
232,134,221659,1,0,0:0:0:0:
347,32,221860,1,10,0:0:0:0:
379,62,221961,1,0,0:0:0:0:
395,102,222062,1,0,0:0:0:0:
395,145,222162,1,0,0:0:0:0:
377,185,222263,1,8,1:0:0:0:
239,258,222464,1,0,0:0:0:0:
362,363,222666,5,10,0:0:0:0:
406,360,222766,1,0,0:0:0:0:
500,255,222968,1,0,0:0:0:0:
456,252,223068,1,8,1:0:0:0:
318,166,223270,1,0,0:0:0:0:
475,73,223471,1,10,0:0:0:0:
502,107,223572,1,0,0:0:0:0:
503,150,223672,1,0,0:0:0:0:
344,38,223874,1,8,1:0:0:0:
344,38,224075,1,0,0:0:0:0:
222,150,224276,5,10,0:0:0:0:
219,194,224377,1,0,0:0:0:0:
121,91,224578,1,0,0:0:0:0:
118,47,224679,1,8,1:0:0:0:
32,231,224880,1,0,0:0:0:0:
212,64,225082,1,10,0:0:0:0:
255,65,225182,1,0,0:0:0:0:
289,92,225283,1,0,0:0:0:0:
323,271,225484,1,8,1:0:0:0:
323,271,225686,1,0,0:0:0:0:
149,208,225887,5,10,0:0:0:0:
112,184,225988,1,0,0:0:0:0:
92,145,226088,1,0,0:0:0:0:
96,102,226189,1,0,0:0:0:0:
121,66,226290,1,8,1:0:0:0:
256,122,226491,1,0,0:0:0:0:
391,66,226692,1,10,0:0:0:0:
416,102,226793,1,0,0:0:0:0:
420,145,226894,1,0,0:0:0:0:
400,184,226994,1,8,0:0:0:0:
363,208,227095,1,8,1:0:0:0:
256,122,227297,1,8,0:0:0:0:
256,78,227397,1,8,0:0:0:0:
256,33,227498,5,4,1:0:0:0:
208,22,227599,1,0,0:0:0:0:
161,30,227699,1,0,0:0:0:0:
126,64,227800,1,0,0:0:0:0:
113,110,227901,1,4,1:0:0:0:
161,99,228001,1,0,0:0:0:0:
208,107,228102,1,0,0:0:0:0:
243,141,228203,1,0,0:0:0:0:
256,187,228303,1,10,0:0:0:0:
208,176,228404,1,0,0:0:0:0:
161,184,228505,1,0,0:0:0:0:
126,218,228605,1,0,0:0:0:0:
113,264,228706,1,8,1:0:0:0:
154,287,228807,1,0,0:0:0:0:
200,296,228907,1,0,0:0:0:0:
248,296,229008,1,0,0:0:0:0:
293,281,229109,5,10,0:0:0:0:
334,267,229209,1,0,0:0:0:0:
378,266,229310,1,0,0:0:0:0:
421,272,229411,1,0,0:0:0:0:
459,293,229511,1,8,1:0:0:0:
484,257,229612,1,0,0:0:0:0:
490,213,229713,1,0,0:0:0:0:
479,170,229813,1,0,0:0:0:0:
458,131,229914,1,10,0:0:0:0:
417,148,230015,1,0,0:0:0:0:
373,148,230115,1,0,0:0:0:0:
332,129,230216,1,0,0:0:0:0:
308,91,230317,1,8,1:0:0:0:
284,53,230417,1,0,0:0:0:0:
243,34,230518,1,0,0:0:0:0:
199,34,230619,1,0,0:0:0:0:
158,51,230719,5,10,0:0:0:0:
180,88,230820,1,0,0:0:0:0:
188,131,230921,1,0,0:0:0:0:
182,174,231021,1,0,0:0:0:0:
160,212,231122,1,8,1:0:0:0:
202,222,231223,1,0,0:0:0:0:
238,247,231323,1,0,0:0:0:0:
264,282,231424,1,0,0:0:0:0:
275,324,231525,1,10,0:0:0:0:
318,327,231625,1,0,0:0:0:0:
359,312,231726,1,0,0:0:0:0:
380,273,231827,1,0,0:0:0:0:
377,229,231927,1,8,1:0:0:0:
374,185,232028,1,0,0:0:0:0:
395,146,232129,1,0,0:0:0:0:
436,131,232229,1,0,0:0:0:0:
479,134,232330,5,10,0:0:0:0:
467,177,232431,1,0,0:0:0:0:
429,200,232531,1,0,0:0:0:0:
385,207,232632,1,0,0:0:0:0:
342,194,232733,1,8,1:0:0:0:
299,181,232833,1,0,0:0:0:0:
255,188,232934,1,0,0:0:0:0:
217,211,233035,1,8,0:0:0:0:
205,254,233135,1,10,0:0:0:0:
162,242,233236,1,0,0:0:0:0:
137,205,233337,1,0,0:0:0:0:
129,161,233437,1,0,0:0:0:0:
141,118,233538,1,8,1:0:0:0:
165,81,233639,1,0,0:0:0:0:
202,59,233739,1,8,0:0:0:0:
244,48,233840,1,0,0:0:0:0:
288,49,233941,5,4,1:0:0:0:
275,90,234041,1,0,0:0:0:0:
284,133,234142,1,0,0:0:0:0:
312,167,234243,1,0,0:0:0:0:
353,179,234343,1,8,1:0:0:0:
396,174,234444,1,0,0:0:0:0:
431,148,234545,1,0,0:0:0:0:
443,105,234646,1,0,0:0:0:0:
428,63,234746,5,4,1:0:0:0:
385,71,234847,1,0,0:0:0:0:
352,100,234948,1,0,0:0:0:0:
337,142,235048,1,0,0:0:0:0:
348,183,235149,1,8,1:0:0:0:
372,218,235250,1,0,0:0:0:0:
413,236,235350,1,0,0:0:0:0:
457,225,235451,1,0,0:0:0:0:
486,190,235552,5,4,1:0:0:0:
445,173,235652,1,0,0:0:0:0:
400,176,235753,1,0,0:0:0:0:
360,195,235854,1,0,0:0:0:0:
333,229,235954,1,8,1:0:0:0:
306,263,236055,1,0,0:0:0:0:
266,282,236156,1,0,0:0:0:0:
221,285,236256,1,0,0:0:0:0:
180,268,236357,5,4,1:0:0:0:
221,251,236458,1,0,0:0:0:0:
266,254,236558,1,0,0:0:0:0:
306,273,236659,1,0,0:0:0:0:
333,307,236760,1,8,1:0:0:0:
360,341,236860,1,0,0:0:0:0:
400,360,236961,1,8,0:0:0:0:
445,363,237062,1,0,0:0:0:0:
486,346,237162,5,4,1:0:0:0:
457,312,237263,1,0,0:0:0:0:
421,287,237364,1,0,0:0:0:0:
380,272,237464,1,0,0:0:0:0:
336,267,237565,1,8,1:0:0:0:
293,275,237666,1,0,0:0:0:0:
253,292,237766,1,0,0:0:0:0:
219,320,237867,1,0,0:0:0:0:
193,355,237968,5,8,1:0:0:0:
233,355,238068,1,0,0:0:0:0:
271,343,238169,1,0,0:0:0:0:
304,321,238270,1,0,0:0:0:0:
330,291,238370,1,8,1:0:0:0:
347,255,238471,1,0,0:0:0:0:
353,215,238572,1,0,0:0:0:0:
348,176,238672,1,0,0:0:0:0:
332,139,238773,5,4,1:0:0:0:
288,135,238874,1,0,0:0:0:0:
246,148,238974,1,0,0:0:0:0:
213,177,239075,1,0,0:0:0:0:
193,216,239176,1,8,1:0:0:0:
173,255,239276,1,0,0:0:0:0:
140,284,239377,1,0,0:0:0:0:
98,297,239478,1,8,0:0:0:0:
49,288,239578,5,0,1:0:0:0:
73,252,239679,1,0,0:0:0:0:
105,221,239780,1,8,0:0:0:0:
142,197,239880,1,0,0:0:0:0:
183,182,239981,1,8,1:0:0:0:
226,175,240082,1,0,0:0:0:0:
270,177,240182,1,8,0:0:0:0:
312,189,240283,1,8,0:0:0:0:
351,209,240384,5,4,1:0:0:0:
313,238,240484,1,0,0:0:0:0:
267,251,240585,1,8,0:0:0:0:
220,246,240686,1,0,0:0:0:0:
178,224,240786,1,8,1:0:0:0:
148,187,240887,1,0,0:0:0:0:
133,141,240988,1,8,0:0:0:0:
138,94,241088,1,0,0:0:0:0:
159,50,241189,5,4,1:0:0:0:
190,86,241290,1,0,0:0:0:0:
206,130,241390,1,8,0:0:0:0:
204,178,241491,1,0,0:0:0:0:
185,222,241592,1,8,1:0:0:0:
150,254,241692,1,0,0:0:0:0:
106,272,241793,1,8,0:0:0:0:
58,270,241894,1,8,0:0:0:0:
14,252,241994,5,4,1:0:0:0:
49,220,242095,1,0,0:0:0:0:
93,202,242196,1,8,0:0:0:0:
141,204,242297,1,0,0:0:0:0:
185,222,242397,1,8,1:0:0:0:
229,240,242498,1,0,0:0:0:0:
277,242,242599,1,8,0:0:0:0:
321,224,242699,1,0,0:0:0:0:
356,192,242800,5,4,1:0:0:0:
321,160,242901,1,0,0:0:0:0:
277,142,243001,1,8,0:0:0:0:
229,144,243102,1,0,0:0:0:0:
185,162,243203,1,8,1:0:0:0:
141,180,243303,1,8,0:0:0:0:
93,182,243404,1,8,0:0:0:0:
49,164,243505,1,8,0:0:0:0:
14,132,243605,5,4,1:0:0:0:
23,81,243706,1,8,0:0:0:0:
61,45,243807,1,8,0:0:0:0:
111,36,243907,1,8,0:0:0:0:
158,58,244008,5,4,1:0:0:0:
167,109,244109,1,8,0:0:0:0:
205,145,244209,1,8,0:0:0:0:
255,154,244310,1,8,0:0:0:0:
302,132,244411,5,4,1:0:0:0:
306,183,244511,1,8,0:0:0:0:
279,228,244612,1,8,0:0:0:0:
233,249,244713,1,8,0:0:0:0:
182,240,244813,5,4,1:0:0:0:
178,291,244914,1,8,0:0:0:0:
205,336,245015,1,8,0:0:0:0:
251,357,245115,1,8,0:0:0:0:
302,348,245216,5,4,1:0:0:0:
256,192,245317,12,0,246625,0:0:0:0:
70,83,246827,6,0,P|58:133|65:225,1,120,4|0,1:0|0:0,0:0:0:0:
75,237,247229,1,8,1:0:0:0:
138,286,247431,1,0,0:0:0:0:
194,229,247632,1,8,0:0:0:0:
197,189,247733,1,0,0:0:0:0:
253,132,247934,1,0,0:0:0:0:
256,92,248035,1,8,1:0:0:0:
312,35,248236,1,0,0:0:0:0:
442,83,248437,5,8,0:0:0:0:
461,160,248639,1,0,0:0:0:0:
461,160,248739,1,0,0:0:0:0:
461,160,248840,1,8,1:0:0:0:
437,236,249041,1,0,0:0:0:0:
266,210,249243,6,0,P|254:168|256:99,1,80,10|0,0:0|0:0,0:0:0:0:
257,92,249545,1,0,0:0:0:0:
275,57,249646,1,8,1:0:0:0:
311,40,249746,1,0,0:0:0:0:
351,39,249847,1,0,0:0:0:0:
388,52,249948,1,0,0:0:0:0:
412,83,250048,6,0,L|423:214,1,120,10|0,0:0|0:0,0:0:0:0:
424,243,250451,1,8,1:0:0:0:
367,299,250652,1,0,0:0:0:0:
310,242,250854,1,8,0:0:0:0:
307,202,250954,1,0,0:0:0:0:
251,145,251156,1,0,0:0:0:0:
248,105,251256,1,8,1:0:0:0:
192,48,251458,1,0,0:0:0:0:
42,208,251659,6,0,P|92:220|184:213,1,120,10|0,0:0|0:0,0:0:0:0:
196,203,252062,1,8,1:0:0:0:
251,145,252263,1,0,0:0:0:0:
424,287,252464,6,0,P|374:275|314:280,1,80,10|0,0:0|0:0,0:0:0:0:
305,278,252766,1,0,0:0:0:0:
270,292,252867,1,8,1:0:0:0:
244,323,252968,1,0,0:0:0:0:
206,336,253068,1,8,0:0:0:0:
166,331,253169,1,0,0:0:0:0:
135,305,253270,6,0,L|124:174,1,120,10|0,0:0|0:0,0:0:0:0:
123,145,253672,1,8,1:0:0:0:
39,249,253874,1,0,0:0:0:0:
221,230,254075,1,8,0:0:0:0:
224,190,254176,1,0,0:0:0:0:
331,135,254377,1,0,0:0:0:0:
335,175,254478,1,8,1:0:0:0:
214,72,254679,1,0,0:0:0:0:
120,168,254880,6,0,P|108:218|113:278,1,80,8|0,0:0|0:0,0:0:0:0:
110,286,255182,1,0,0:0:0:0:
126,323,255283,1,8,1:0:0:0:
256,368,255484,1,0,0:0:0:0:
411,226,255686,6,0,P|361:214|301:219,1,80,10|0,0:0|0:0,0:0:0:0:
292,217,255988,1,0,0:0:0:0:
257,231,256088,1,8,1:0:0:0:
231,262,256189,1,0,0:0:0:0:
193,275,256290,1,0,0:0:0:0:
153,270,256390,1,0,0:0:0:0:
122,244,256491,6,0,P|110:194|117:102,1,120,10|0,0:0|0:0,0:0:0:0:
127,90,256894,1,8,1:0:0:0:
256,24,257095,1,0,0:0:0:0:
250,163,257297,1,8,0:0:0:0:
253,203,257398,1,0,0:0:0:0:
360,258,257599,1,0,0:0:0:0:
364,218,257700,1,8,1:0:0:0:
430,125,257901,1,0,0:0:0:0:
503,233,258102,5,8,0:0:0:0:
413,305,258303,1,0,0:0:0:0:
374,299,258404,1,0,0:0:0:0:
340,278,258505,1,8,1:0:0:0:
272,186,258706,1,0,0:0:0:0:
175,326,258907,6,0,L|164:195,1,120,10|8,0:0|0:0,0:0:0:0:
163,166,259310,1,8,1:0:0:0:
20,196,259511,1,8,0:0:0:0:
24,156,259612,1,8,0:0:0:0:
28,116,259713,5,4,1:0:0:0:
50,78,259813,1,0,0:0:0:0:
92,65,259914,1,0,0:0:0:0:
135,70,260015,1,0,0:0:0:0:
168,98,260115,1,4,1:0:0:0:
156,140,260216,1,0,0:0:0:0:
177,179,260317,1,0,0:0:0:0:
211,206,260417,1,0,0:0:0:0:
254,209,260518,1,8,0:0:0:0:
276,171,260619,1,0,0:0:0:0:
318,158,260719,1,0,0:0:0:0:
361,163,260820,1,0,0:0:0:0:
394,191,260921,1,8,1:0:0:0:
446,306,261122,1,0,0:0:0:0:
499,154,261323,5,8,0:0:0:0:
458,29,261525,1,0,0:0:0:0:
458,29,261625,1,0,0:0:0:0:
458,29,261726,1,8,1:0:0:0:
423,111,261927,1,0,0:0:0:0:
219,41,262129,6,0,P|207:83|209:152,1,80,10|0,0:0|0:0,0:0:0:0:
210,159,262431,1,0,0:0:0:0:
228,194,262531,1,8,1:0:0:0:
264,211,262632,1,0,0:0:0:0:
304,212,262733,1,0,0:0:0:0:
341,199,262833,1,0,0:0:0:0:
365,168,262934,6,0,L|376:37,1,120,10|0,0:0|0:0,0:0:0:0:
377,8,263337,1,8,1:0:0:0:
284,104,263538,1,0,0:0:0:0:
452,198,263739,1,8,0:0:0:0:
455,158,263840,1,0,0:0:0:0:
378,302,264041,1,0,0:0:0:0:
381,262,264142,1,8,1:0:0:0:
494,305,264343,1,0,0:0:0:0:
285,366,264545,5,10,0:0:0:0:
235,233,264746,1,0,0:0:0:0:
235,233,264847,1,0,0:0:0:0:
235,233,264948,1,8,1:0:0:0:
188,329,265149,1,0,0:0:0:0:
141,158,265350,5,10,0:0:0:0:
67,86,265552,1,0,0:0:0:0:
95,57,265652,1,0,0:0:0:0:
134,45,265753,1,8,1:0:0:0:
173,57,265854,1,0,0:0:0:0:
212,69,265954,1,8,0:0:0:0:
251,57,266055,1,0,0:0:0:0:
279,28,266156,5,4,1:0:0:0:
335,84,266357,1,0,0:0:0:0:
338,124,266458,1,0,0:0:0:0:
341,164,266558,1,8,1:0:0:0:
397,220,266760,1,0,0:0:0:0:
253,139,266961,5,8,0:0:0:0:
197,195,267162,1,0,0:0:0:0:
194,235,267263,1,0,0:0:0:0:
191,275,267364,1,8,1:0:0:0:
135,331,267565,1,0,0:0:0:0:
19,232,267766,5,4,1:0:0:0:
75,176,267968,1,0,0:0:0:0:
78,136,268068,1,0,0:0:0:0:
81,96,268169,1,8,1:0:0:0:
137,40,268370,1,0,0:0:0:0:
253,139,268572,5,10,0:0:0:0:
191,275,268773,1,0,0:0:0:0:
219,304,268874,1,0,0:0:0:0:
258,316,268974,1,8,1:0:0:0:
297,304,269075,1,0,0:0:0:0:
336,292,269176,1,0,0:0:0:0:
375,304,269276,1,0,0:0:0:0:
403,333,269377,5,4,1:0:0:0:
435,310,269478,1,0,0:0:0:0:
456,276,269578,1,0,0:0:0:0:
462,237,269679,1,0,0:0:0:0:
452,199,269780,1,8,1:0:0:0:
427,168,269880,1,0,0:0:0:0:
391,150,269981,1,0,0:0:0:0:
352,147,270082,1,0,0:0:0:0:
314,161,270182,5,4,1:0:0:0:
329,196,270283,1,0,0:0:0:0:
330,236,270384,1,0,0:0:0:0:
316,273,270484,1,8,0:0:0:0:
289,301,270585,1,8,1:0:0:0:
251,315,270686,1,0,0:0:0:0:
211,313,270786,1,8,0:0:0:0:
176,296,270887,1,0,0:0:0:0:
149,265,270988,6,0,L|145:223,1,40,4|0,1:0|0:0,0:0:0:0:
224,235,271189,1,10,0:0:0:0:
221,196,271290,1,0,0:0:0:0:
217,155,271390,6,0,L|213:113,1,40,4|2,1:0|0:0,0:0:0:0:
292,125,271592,1,8,0:0:0:0:
289,86,271692,1,8,0:0:0:0:
285,45,271793,6,0,L|281:3,1,40,10|0,1:0|0:0,0:0:0:0:
360,15,271994,2,0,L|364:57,1,40,8|2,0:0|0:0,0:0:0:0:
421,112,272196,1,4,1:0:0:0:
383,126,272297,1,8,0:0:0:0:
358,157,272397,1,10,0:0:0:0:
349,196,272498,1,8,0:0:0:0:
364,232,272599,5,4,1:0:0:0:
395,237,272699,1,0,0:0:0:0:
501,292,272901,1,0,0:0:0:0:
470,297,273001,1,8,1:0:0:0:
480,203,273203,1,0,0:0:0:0:
467,384,273404,1,8,0:0:0:0:
436,379,273505,1,0,0:0:0:0:
405,374,273605,1,0,0:0:0:0:
374,369,273706,1,0,0:0:0:0:
343,364,273807,1,8,1:0:0:0:
398,276,274008,1,0,0:0:0:0:
250,356,274209,5,8,0:0:0:0:
237,327,274310,1,0,0:0:0:0:
224,298,274411,1,0,0:0:0:0:
211,270,274511,1,0,0:0:0:0:
198,241,274612,1,8,1:0:0:0:
185,270,274713,1,0,0:0:0:0:
172,299,274813,1,0,0:0:0:0:
159,327,274914,1,0,0:0:0:0:
146,356,275015,1,8,0:0:0:0:
112,334,275115,1,0,0:0:0:0:
93,298,275216,1,0,0:0:0:0:
93,257,275317,1,0,0:0:0:0:
110,221,275417,1,8,1:0:0:0:
127,185,275518,1,0,0:0:0:0:
127,144,275619,1,0,0:0:0:0:
108,108,275719,1,0,0:0:0:0:
74,86,275820,5,8,0:0:0:0:
43,91,275921,1,0,0:0:0:0:
149,32,276122,1,0,0:0:0:0:
180,37,276223,1,8,1:0:0:0:
127,144,276424,1,0,0:0:0:0:
258,144,276625,1,8,0:0:0:0:
263,113,276726,1,0,0:0:0:0:
268,82,276827,1,0,0:0:0:0:
273,51,276927,1,0,0:0:0:0:
278,20,277028,1,8,1:0:0:0:
370,83,277229,1,0,0:0:0:0:
359,184,277431,5,8,0:0:0:0:
388,197,277531,1,0,0:0:0:0:
417,210,277632,1,0,0:0:0:0:
445,223,277733,1,0,0:0:0:0:
474,236,277833,1,8,1:0:0:0:
445,249,277934,1,0,0:0:0:0:
416,262,278035,1,0,0:0:0:0:
388,275,278135,1,0,0:0:0:0:
359,288,278236,5,8,0:0:0:0:
356,328,278337,1,0,0:0:0:0:
272,214,278538,1,0,0:0:0:0:
269,174,278639,1,8,1:0:0:0:
445,249,278840,1,8,0:0:0:0:
212,338,279041,5,8,0:0:0:0:
207,307,279142,1,0,0:0:0:0:
152,201,279343,1,0,0:0:0:0:
147,232,279444,1,8,1:0:0:0:
241,222,279646,1,0,0:0:0:0:
48,243,279847,1,8,0:0:0:0:
53,274,279948,1,0,0:0:0:0:
58,305,280048,1,0,0:0:0:0:
63,336,280149,1,0,0:0:0:0:
68,367,280250,1,8,1:0:0:0:
176,312,280451,1,0,0:0:0:0:
6,182,280652,5,8,0:0:0:0:
35,169,280753,1,0,0:0:0:0:
64,156,280854,1,0,0:0:0:0:
92,143,280954,1,0,0:0:0:0:
121,130,281055,1,8,1:0:0:0:
92,117,281156,1,0,0:0:0:0:
63,104,281256,1,0,0:0:0:0:
35,91,281357,1,0,0:0:0:0:
6,78,281458,1,8,0:0:0:0:
28,44,281558,1,0,0:0:0:0:
64,25,281659,1,0,0:0:0:0:
105,25,281760,1,0,0:0:0:0:
141,42,281860,1,8,1:0:0:0:
177,59,281961,1,0,0:0:0:0:
218,59,282062,1,0,0:0:0:0:
254,40,282162,1,0,0:0:0:0:
276,6,282263,5,8,0:0:0:0:
307,1,282364,1,0,0:0:0:0:
413,60,282565,1,0,0:0:0:0:
382,55,282666,1,8,1:0:0:0:
303,128,282867,1,0,0:0:0:0:
177,59,283068,1,8,0:0:0:0:
182,90,283169,1,0,0:0:0:0:
187,121,283270,1,0,0:0:0:0:
192,152,283370,1,0,0:0:0:0:
197,183,283471,1,8,1:0:0:0:
95,118,283672,1,0,0:0:0:0:
290,65,283874,5,8,0:0:0:0:
303,94,283974,1,0,0:0:0:0:
316,123,284075,1,0,0:0:0:0:
329,151,284176,1,0,0:0:0:0:
342,180,284276,1,8,1:0:0:0:
355,151,284377,1,0,0:0:0:0:
368,122,284478,1,0,0:0:0:0:
381,94,284578,1,0,0:0:0:0:
394,65,284679,1,8,0:0:0:0:
428,87,284780,1,0,0:0:0:0:
447,123,284880,1,0,0:0:0:0:
447,164,284981,1,8,0:0:0:0:
430,200,285082,1,8,1:0:0:0:
411,240,285182,1,0,0:0:0:0:
413,284,285283,1,8,0:0:0:0:
436,321,285384,1,8,0:0:0:0:
475,340,285484,5,4,1:0:0:0:
435,359,285585,1,0,0:0:0:0:
390,359,285686,1,0,0:0:0:0:
350,341,285786,1,0,0:0:0:0:
327,303,285887,1,4,1:0:0:0:
294,333,285988,1,0,0:0:0:0:
251,340,286088,1,0,0:0:0:0:
208,329,286189,1,0,0:0:0:0:
174,300,286290,1,8,0:0:0:0:
190,259,286390,1,0,0:0:0:0:
167,221,286491,1,0,0:0:0:0:
123,217,286592,1,0,0:0:0:0:
93,248,286692,1,8,1:0:0:0:
52,347,286894,1,0,0:0:0:0:
5,154,287095,5,8,0:0:0:0:
14,127,287196,1,0,0:0:0:0:
35,108,287297,1,0,0:0:0:0:
62,101,287397,1,0,0:0:0:0:
89,107,287498,1,8,1:0:0:0:
116,113,287599,1,0,0:0:0:0:
143,106,287699,1,0,0:0:0:0:
164,87,287800,1,0,0:0:0:0:
173,60,287901,1,8,0:0:0:0:
212,63,288001,1,0,0:0:0:0:
236,94,288102,1,0,0:0:0:0:
245,133,288203,1,0,0:0:0:0:
225,167,288303,1,8,1:0:0:0:
205,201,288404,1,0,0:0:0:0:
214,240,288505,1,0,0:0:0:0:
238,271,288605,1,0,0:0:0:0:
277,274,288706,5,8,0:0:0:0:
282,243,288807,1,0,0:0:0:0:
419,299,289008,1,0,0:0:0:0:
424,330,289109,1,8,1:0:0:0:
332,373,289310,1,0,0:0:0:0:
474,204,289511,1,8,0:0:0:0:
435,215,289612,1,0,0:0:0:0:
395,206,289713,1,0,0:0:0:0:
364,180,289813,1,0,0:0:0:0:
348,142,289914,1,8,1:0:0:0:
452,90,290115,1,0,0:0:0:0:
298,37,290317,5,8,0:0:0:0:
271,46,290417,1,0,0:0:0:0:
252,67,290518,1,0,0:0:0:0:
245,94,290619,1,0,0:0:0:0:
251,121,290719,1,8,1:0:0:0:
257,148,290820,1,0,0:0:0:0:
250,175,290921,1,0,0:0:0:0:
231,196,291021,1,0,0:0:0:0:
204,205,291122,5,8,0:0:0:0:
201,165,291223,1,0,0:0:0:0:
51,113,291424,1,8,0:0:0:0:
48,153,291525,1,8,1:0:0:0:
110,304,291726,1,8,0:0:0:0:
271,353,291927,5,8,0:0:0:0:
308,366,292028,1,0,0:0:0:0:
348,363,292129,1,0,0:0:0:0:
384,346,292229,1,0,0:0:0:0:
410,317,292330,1,8,1:0:0:0:
423,279,292431,1,0,0:0:0:0:
421,240,292531,1,0,0:0:0:0:
404,204,292632,1,0,0:0:0:0:
375,177,292733,5,8,0:0:0:0:
337,190,292833,1,0,0:0:0:0:
297,188,292934,1,0,0:0:0:0:
262,170,293035,1,0,0:0:0:0:
235,141,293135,1,8,1:0:0:0:
222,103,293236,1,0,0:0:0:0:
224,64,293337,1,0,0:0:0:0:
241,28,293437,1,0,0:0:0:0:
271,1,293538,5,8,0:0:0:0:
276,40,293639,1,0,0:0:0:0:
269,79,293739,1,0,0:0:0:0:
249,113,293840,1,0,0:0:0:0:
219,140,293941,1,8,1:0:0:0:
182,154,294041,1,0,0:0:0:0:
142,156,294142,1,0,0:0:0:0:
104,144,294243,1,0,0:0:0:0:
72,121,294343,5,8,0:0:0:0:
56,157,294444,1,0,0:0:0:0:
52,196,294545,1,0,0:0:0:0:
63,234,294646,1,0,0:0:0:0:
85,268,294746,1,8,1:0:0:0:
117,291,294847,1,0,0:0:0:0:
155,303,294948,1,0,0:0:0:0:
195,302,295048,1,0,0:0:0:0:
232,288,295149,5,8,0:0:0:0:
242,245,295250,1,0,0:0:0:0:
232,202,295350,1,8,0:0:0:0:
206,165,295451,1,0,0:0:0:0:
164,149,295552,1,8,1:0:0:0:
208,145,295652,1,0,0:0:0:0:
245,122,295753,1,8,0:0:0:0:
273,86,295854,1,8,0:0:0:0:
275,41,295954,1,8,0:0:0:0:
318,40,296055,1,0,0:0:0:0:
355,62,296156,1,8,0:0:0:0:
381,96,296256,1,0,0:0:0:0:
391,138,296357,2,0,L|394:191,3,40,8|8|8|8,1:0|0:0|0:0|0:0,0:0:0:0:
394,178,297565,5,2,0:0:0:0:
364,216,297666,1,0,0:0:0:0:
364,264,297766,1,0,0:0:0:0:
399,297,297867,1,0,0:0:0:0:
447,300,297968,5,0,0:0:0:0:
419,261,298068,1,0,0:0:0:0:
372,247,298169,1,0,0:0:0:0:
323,249,298270,1,0,0:0:0:0:
278,267,298370,1,6,0:2:0:0:
256,192,298471,12,0,302196,0:0:0:0:
