osu file format v14

[General]
AudioFilename: Yooh Ice Angel.mp3
AudioLeadIn: 0
PreviewTime: 220858
Countdown: 0
SampleSet: Soft
StackLeniency: 0.7
Mode: 3
LetterboxInBreaks: 0
SpecialStyle: 0
WidescreenStoryboard: 1

[Editor]
Bookmarks: 46573,58091
DistanceSpacing: 0.8
BeatDivisor: 4
GridSize: 8
TimelineZoom: 2.1

[Metadata]
Title:Ice Angel
TitleUnicode:Ice Angel
Artist:Yooh
ArtistUnicode:Yooh
Creator:Stats-Kun
Version:4K Intermediate Endurance Exam
Source:
Tags:eutopia
BeatmapID:2041419
BeatmapSetID:975322

[Difficulty]
HPDrainRate:7
CircleSize:4
OverallDifficulty:6
ApproachRate:9
SliderMultiplier:1.8
SliderTickRate:2

[Events]
//Background and Video events
0,0,"The BG.jpg",0,0
//Break Periods
2,144630,148830
//Storyboard Layer 0 (Background)
//Storyboard Layer 1 (Fail)
//Storyboard Layer 2 (Pass)
//Storyboard Layer 3 (Foreground)
//Storyboard Sound Samples

[TimingPoints]
859,357.142857142857,4,2,1,5,1,0
149430,357.142857142857,4,2,1,5,1,0

[Colours]
Combo1 : 177,100,255
Combo2 : 179,179,255
Combo3 : 0,210,210
Combo4 : 228,228,228

[HitObjects]
64,192,1216,128,0,3358:0:0:0:0:
192,192,1573,128,0,3358:0:0:0:0:
320,192,1930,128,0,3358:0:0:0:0:
448,192,2287,128,0,3358:0:0:0:0:
320,192,3537,1,0,0:0:0:0:
448,192,3537,1,0,0:0:0:0:
64,192,3716,1,0,0:0:0:0:
192,192,3805,1,0,0:0:0:0:
320,192,3894,1,0,0:0:0:0:
448,192,3983,1,0,0:0:0:0:
64,192,4073,1,0,0:0:0:0:
192,192,4162,1,0,0:0:0:0:
320,192,4251,1,0,0:0:0:0:
448,192,4341,1,0,0:0:0:0:
320,192,4430,1,0,0:0:0:0:
192,192,4519,1,0,0:0:0:0:
64,192,4608,1,0,0:0:0:0:
192,192,4698,1,0,0:0:0:0:
448,192,4787,1,0,0:0:0:0:
320,192,4876,1,0,0:0:0:0:
192,192,4966,1,0,0:0:0:0:
320,192,5055,1,0,0:0:0:0:
448,192,5144,1,0,0:0:0:0:
320,192,5233,1,0,0:0:0:0:
192,192,5323,1,0,0:0:0:0:
64,192,5412,1,0,0:0:0:0:
448,192,5501,1,0,0:0:0:0:
320,192,5591,1,0,0:0:0:0:
192,192,5680,1,0,0:0:0:0:
64,192,5769,1,0,0:0:0:0:
448,192,5858,1,0,0:0:0:0:
320,192,5948,1,0,0:0:0:0:
192,192,6037,1,0,0:0:0:0:
320,192,6126,1,0,0:0:0:0:
64,192,6216,1,0,0:0:0:0:
192,192,6305,1,0,0:0:0:0:
320,192,6394,1,0,0:0:0:0:
192,192,6483,1,0,0:0:0:0:
448,192,6573,1,0,0:0:0:0:
320,192,6662,1,0,0:0:0:0:
192,192,6751,1,0,0:0:0:0:
64,192,6841,1,0,0:0:0:0:
192,192,6930,1,0,0:0:0:0:
320,192,7019,1,0,0:0:0:0:
448,192,7108,1,0,0:0:0:0:
320,192,7198,1,0,0:0:0:0:
448,192,7287,1,0,0:0:0:0:
320,192,7376,1,0,0:0:0:0:
192,192,7466,1,0,0:0:0:0:
64,192,7555,1,0,0:0:0:0:
192,192,7644,1,0,0:0:0:0:
320,192,7733,1,0,0:0:0:0:
448,192,7823,1,0,0:0:0:0:
320,192,7912,1,0,0:0:0:0:
64,192,8001,1,0,0:0:0:0:
192,192,8091,1,0,0:0:0:0:
320,192,8180,1,0,0:0:0:0:
448,192,8269,1,0,0:0:0:0:
64,192,8358,1,0,0:0:0:0:
192,192,8448,1,0,0:0:0:0:
320,192,8537,1,0,0:0:0:0:
448,192,8626,1,0,0:0:0:0:
64,192,8716,1,0,0:0:0:0:
192,192,8805,1,0,0:0:0:0:
64,192,8894,1,0,0:0:0:0:
192,192,8983,1,0,0:0:0:0:
320,192,9073,1,0,0:0:0:0:
448,192,9162,1,0,0:0:0:0:
320,192,9251,1,0,0:0:0:0:
448,192,9341,1,0,0:0:0:0:
320,192,9430,1,0,0:0:0:0:
192,192,9519,1,0,0:0:0:0:
64,192,9608,1,0,0:0:0:0:
192,192,9698,1,0,0:0:0:0:
64,192,9787,1,0,0:0:0:0:
192,192,9876,1,0,0:0:0:0:
320,192,9966,1,0,0:0:0:0:
448,192,10055,1,0,0:0:0:0:
192,192,10144,1,0,0:0:0:0:
320,192,10233,1,0,0:0:0:0:
448,192,10323,1,0,0:0:0:0:
320,192,10412,1,0,0:0:0:0:
64,192,10501,1,0,0:0:0:0:
192,192,10591,1,0,0:0:0:0:
320,192,10680,1,0,0:0:0:0:
192,192,10769,1,0,0:0:0:0:
448,192,10858,1,0,0:0:0:0:
320,192,10948,1,0,0:0:0:0:
192,192,11037,1,0,0:0:0:0:
64,192,11126,1,0,0:0:0:0:
192,192,11216,1,0,0:0:0:0:
320,192,11305,1,0,0:0:0:0:
192,192,11394,1,0,0:0:0:0:
64,192,11483,1,0,0:0:0:0:
192,192,11573,1,0,0:0:0:0:
320,192,11662,1,0,0:0:0:0:
448,192,11751,1,0,0:0:0:0:
320,192,11841,1,0,0:0:0:0:
192,192,11930,1,0,0:0:0:0:
320,192,12019,1,0,0:0:0:0:
192,192,12108,1,0,0:0:0:0:
64,192,12198,1,0,0:0:0:0:
448,192,12287,1,0,0:0:0:0:
320,192,12376,1,0,0:0:0:0:
192,192,12466,1,0,0:0:0:0:
64,192,12555,1,0,0:0:0:0:
448,192,12644,1,0,0:0:0:0:
320,192,12733,1,0,0:0:0:0:
192,192,12823,1,0,0:0:0:0:
64,192,12912,1,0,0:0:0:0:
448,192,13001,1,0,0:0:0:0:
320,192,13091,1,0,0:0:0:0:
192,192,13180,1,0,0:0:0:0:
448,192,13269,1,0,0:0:0:0:
320,192,13358,1,0,0:0:0:0:
192,192,13448,1,0,0:0:0:0:
64,192,13537,1,0,0:0:0:0:
192,192,13626,1,0,0:0:0:0:
320,192,13716,1,0,0:0:0:0:
448,192,13805,1,0,0:0:0:0:
320,192,13894,1,0,0:0:0:0:
192,192,13983,1,0,0:0:0:0:
448,192,14073,1,0,0:0:0:0:
320,192,14162,1,0,0:0:0:0:
192,192,14251,1,0,0:0:0:0:
64,192,14341,1,0,0:0:0:0:
448,192,14430,1,0,0:0:0:0:
320,192,14519,1,0,0:0:0:0:
448,192,14608,1,0,0:0:0:0:
320,192,14698,1,0,0:0:0:0:
192,192,14787,1,0,0:0:0:0:
64,192,14876,1,0,0:0:0:0:
192,192,14966,1,0,0:0:0:0:
64,192,15055,1,0,0:0:0:0:
320,192,15144,1,0,0:0:0:0:
192,192,15233,1,0,0:0:0:0:
320,192,15323,1,0,0:0:0:0:
448,192,15412,1,0,0:0:0:0:
64,192,15501,1,0,0:0:0:0:
192,192,15591,1,0,0:0:0:0:
320,192,15680,1,0,0:0:0:0:
448,192,15769,1,0,0:0:0:0:
320,192,15858,1,0,0:0:0:0:
192,192,15948,1,0,0:0:0:0:
64,192,16037,1,0,0:0:0:0:
192,192,16126,1,0,0:0:0:0:
448,192,16216,1,0,0:0:0:0:
320,192,16305,1,0,0:0:0:0:
192,192,16394,1,0,0:0:0:0:
320,192,16483,1,0,0:0:0:0:
448,192,16573,1,0,0:0:0:0:
320,192,16662,1,0,0:0:0:0:
192,192,16751,1,0,0:0:0:0:
64,192,16841,1,0,0:0:0:0:
448,192,16930,1,0,0:0:0:0:
320,192,17019,1,0,0:0:0:0:
192,192,17108,1,0,0:0:0:0:
64,192,17198,1,0,0:0:0:0:
448,192,17287,1,0,0:0:0:0:
320,192,17376,1,0,0:0:0:0:
192,192,17466,1,0,0:0:0:0:
320,192,17555,1,0,0:0:0:0:
64,192,17644,1,0,0:0:0:0:
192,192,17733,1,0,0:0:0:0:
320,192,17823,1,0,0:0:0:0:
192,192,17912,1,0,0:0:0:0:
448,192,18001,1,0,0:0:0:0:
320,192,18091,1,0,0:0:0:0:
192,192,18180,1,0,0:0:0:0:
64,192,18269,1,0,0:0:0:0:
192,192,18358,1,0,0:0:0:0:
320,192,18448,1,0,0:0:0:0:
448,192,18537,1,0,0:0:0:0:
320,192,18626,1,0,0:0:0:0:
448,192,18716,1,0,0:0:0:0:
320,192,18805,1,0,0:0:0:0:
192,192,18894,1,0,0:0:0:0:
64,192,18983,1,0,0:0:0:0:
192,192,19073,1,0,0:0:0:0:
320,192,19162,1,0,0:0:0:0:
448,192,19251,1,0,0:0:0:0:
320,192,19341,1,0,0:0:0:0:
64,192,19430,1,0,0:0:0:0:
192,192,19519,1,0,0:0:0:0:
320,192,19608,1,0,0:0:0:0:
448,192,19698,1,0,0:0:0:0:
64,192,19787,1,0,0:0:0:0:
192,192,19876,1,0,0:0:0:0:
320,192,19966,1,0,0:0:0:0:
448,192,20055,1,0,0:0:0:0:
64,192,20144,1,0,0:0:0:0:
192,192,20233,1,0,0:0:0:0:
64,192,20323,1,0,0:0:0:0:
192,192,20412,1,0,0:0:0:0:
320,192,20501,1,0,0:0:0:0:
448,192,20591,1,0,0:0:0:0:
320,192,20680,1,0,0:0:0:0:
448,192,20769,1,0,0:0:0:0:
320,192,20858,1,0,0:0:0:0:
192,192,20948,1,0,0:0:0:0:
64,192,21037,1,0,0:0:0:0:
192,192,21126,1,0,0:0:0:0:
64,192,21216,1,0,0:0:0:0:
192,192,21305,1,0,0:0:0:0:
320,192,21394,1,0,0:0:0:0:
448,192,21483,1,0,0:0:0:0:
192,192,21573,1,0,0:0:0:0:
320,192,21662,1,0,0:0:0:0:
448,192,21751,1,0,0:0:0:0:
320,192,21841,1,0,0:0:0:0:
64,192,21930,1,0,0:0:0:0:
192,192,22019,1,0,0:0:0:0:
320,192,22108,1,0,0:0:0:0:
192,192,22198,1,0,0:0:0:0:
448,192,22287,1,0,0:0:0:0:
320,192,22376,1,0,0:0:0:0:
192,192,22466,1,0,0:0:0:0:
64,192,22555,1,0,0:0:0:0:
192,192,22644,1,0,0:0:0:0:
320,192,22733,1,0,0:0:0:0:
192,192,22823,1,0,0:0:0:0:
64,192,22912,1,0,0:0:0:0:
192,192,23001,1,0,0:0:0:0:
320,192,23091,1,0,0:0:0:0:
448,192,23180,1,0,0:0:0:0:
320,192,23269,1,0,0:0:0:0:
192,192,23358,1,0,0:0:0:0:
320,192,23448,1,0,0:0:0:0:
192,192,23537,1,0,0:0:0:0:
64,192,23626,1,0,0:0:0:0:
448,192,23716,1,0,0:0:0:0:
320,192,23805,1,0,0:0:0:0:
192,192,23894,1,0,0:0:0:0:
64,192,23983,1,0,0:0:0:0:
448,192,24073,1,0,0:0:0:0:
320,192,24162,1,0,0:0:0:0:
192,192,24251,1,0,0:0:0:0:
64,192,24341,1,0,0:0:0:0:
448,192,24430,1,0,0:0:0:0:
320,192,24519,1,0,0:0:0:0:
192,192,24608,1,0,0:0:0:0:
448,192,24698,1,0,0:0:0:0:
320,192,24787,1,0,0:0:0:0:
192,192,24876,1,0,0:0:0:0:
64,192,24966,1,0,0:0:0:0:
192,192,25055,1,0,0:0:0:0:
320,192,25144,1,0,0:0:0:0:
448,192,25233,1,0,0:0:0:0:
320,192,25323,1,0,0:0:0:0:
192,192,25412,1,0,0:0:0:0:
448,192,25501,1,0,0:0:0:0:
320,192,25591,1,0,0:0:0:0:
192,192,25680,1,0,0:0:0:0:
64,192,25769,1,0,0:0:0:0:
448,192,25858,1,0,0:0:0:0:
320,192,25948,1,0,0:0:0:0:
448,192,26037,1,0,0:0:0:0:
320,192,26126,1,0,0:0:0:0:
192,192,26216,1,0,0:0:0:0:
64,192,26305,1,0,0:0:0:0:
192,192,26394,1,0,0:0:0:0:
64,192,26483,1,0,0:0:0:0:
448,192,26573,1,0,0:0:0:0:
320,192,26662,1,0,0:0:0:0:
192,192,26751,1,0,0:0:0:0:
64,192,26841,1,0,0:0:0:0:
320,192,26930,1,0,0:0:0:0:
192,192,27019,1,0,0:0:0:0:
320,192,27108,1,0,0:0:0:0:
448,192,27198,1,0,0:0:0:0:
320,192,27287,1,0,0:0:0:0:
192,192,27376,1,0,0:0:0:0:
64,192,27466,1,0,0:0:0:0:
192,192,27555,1,0,0:0:0:0:
448,192,27644,1,0,0:0:0:0:
320,192,27733,1,0,0:0:0:0:
192,192,27823,1,0,0:0:0:0:
320,192,27912,1,0,0:0:0:0:
448,192,28001,1,0,0:0:0:0:
320,192,28091,1,0,0:0:0:0:
192,192,28180,1,0,0:0:0:0:
64,192,28269,1,0,0:0:0:0:
448,192,28358,1,0,0:0:0:0:
320,192,28448,1,0,0:0:0:0:
192,192,28537,1,0,0:0:0:0:
64,192,28626,1,0,0:0:0:0:
448,192,28716,1,0,0:0:0:0:
320,192,28805,1,0,0:0:0:0:
192,192,28894,1,0,0:0:0:0:
320,192,28983,1,0,0:0:0:0:
64,192,29073,1,0,0:0:0:0:
192,192,29162,1,0,0:0:0:0:
320,192,29251,1,0,0:0:0:0:
192,192,29341,1,0,0:0:0:0:
448,192,29430,1,0,0:0:0:0:
320,192,29519,1,0,0:0:0:0:
192,192,29608,1,0,0:0:0:0:
64,192,29698,1,0,0:0:0:0:
192,192,29787,1,0,0:0:0:0:
320,192,29876,1,0,0:0:0:0:
448,192,29966,1,0,0:0:0:0:
320,192,30055,1,0,0:0:0:0:
448,192,30144,1,0,0:0:0:0:
320,192,30233,1,0,0:0:0:0:
192,192,30323,1,0,0:0:0:0:
64,192,30412,1,0,0:0:0:0:
192,192,30501,1,0,0:0:0:0:
320,192,30591,1,0,0:0:0:0:
448,192,30680,1,0,0:0:0:0:
320,192,30769,1,0,0:0:0:0:
64,192,30858,1,0,0:0:0:0:
192,192,30948,1,0,0:0:0:0:
320,192,31037,1,0,0:0:0:0:
448,192,31126,1,0,0:0:0:0:
64,192,31216,1,0,0:0:0:0:
192,192,31305,1,0,0:0:0:0:
320,192,31394,1,0,0:0:0:0:
448,192,31483,1,0,0:0:0:0:
64,192,31573,1,0,0:0:0:0:
192,192,31662,1,0,0:0:0:0:
64,192,31751,1,0,0:0:0:0:
192,192,31841,1,0,0:0:0:0:
320,192,31930,1,0,0:0:0:0:
448,192,32019,1,0,0:0:0:0:
320,192,32108,1,0,0:0:0:0:
448,192,32198,1,0,0:0:0:0:
320,192,32287,1,0,0:0:0:0:
192,192,32376,1,0,0:0:0:0:
64,192,32466,1,0,0:0:0:0:
192,192,32555,1,0,0:0:0:0:
64,192,32644,1,0,0:0:0:0:
192,192,32733,1,0,0:0:0:0:
320,192,32823,1,0,0:0:0:0:
448,192,32912,1,0,0:0:0:0:
192,192,33001,1,0,0:0:0:0:
320,192,33091,1,0,0:0:0:0:
448,192,33180,1,0,0:0:0:0:
320,192,33269,1,0,0:0:0:0:
64,192,33358,1,0,0:0:0:0:
192,192,33448,1,0,0:0:0:0:
320,192,33537,1,0,0:0:0:0:
192,192,33626,1,0,0:0:0:0:
448,192,33716,1,0,0:0:0:0:
320,192,33805,1,0,0:0:0:0:
192,192,33894,1,0,0:0:0:0:
64,192,33983,1,0,0:0:0:0:
192,192,34073,1,0,0:0:0:0:
320,192,34162,1,0,0:0:0:0:
192,192,34251,1,0,0:0:0:0:
64,192,34341,1,0,0:0:0:0:
192,192,34430,1,0,0:0:0:0:
320,192,34519,1,0,0:0:0:0:
448,192,34608,1,0,0:0:0:0:
320,192,34698,1,0,0:0:0:0:
192,192,34787,1,0,0:0:0:0:
320,192,34876,1,0,0:0:0:0:
192,192,34966,1,0,0:0:0:0:
64,192,35055,1,0,0:0:0:0:
448,192,35144,1,0,0:0:0:0:
320,192,35233,1,0,0:0:0:0:
192,192,35323,1,0,0:0:0:0:
64,192,35412,1,0,0:0:0:0:
448,192,35501,1,0,0:0:0:0:
320,192,35591,1,0,0:0:0:0:
192,192,35680,1,0,0:0:0:0:
64,192,35769,1,0,0:0:0:0:
448,192,35858,1,0,0:0:0:0:
320,192,35948,1,0,0:0:0:0:
192,192,36037,1,0,0:0:0:0:
448,192,36126,1,0,0:0:0:0:
320,192,36216,1,0,0:0:0:0:
192,192,36305,1,0,0:0:0:0:
64,192,36394,1,0,0:0:0:0:
192,192,36483,1,0,0:0:0:0:
320,192,36573,1,0,0:0:0:0:
448,192,36662,1,0,0:0:0:0:
320,192,36751,1,0,0:0:0:0:
192,192,36841,1,0,0:0:0:0:
448,192,36930,1,0,0:0:0:0:
320,192,37019,1,0,0:0:0:0:
192,192,37108,1,0,0:0:0:0:
64,192,37198,1,0,0:0:0:0:
448,192,37287,1,0,0:0:0:0:
320,192,37376,1,0,0:0:0:0:
448,192,37466,1,0,0:0:0:0:
320,192,37555,1,0,0:0:0:0:
192,192,37644,1,0,0:0:0:0:
64,192,37733,1,0,0:0:0:0:
192,192,37823,1,0,0:0:0:0:
64,192,37912,1,0,0:0:0:0:
320,192,38001,1,0,0:0:0:0:
192,192,38091,1,0,0:0:0:0:
320,192,38180,1,0,0:0:0:0:
448,192,38269,1,0,0:0:0:0:
64,192,38358,1,0,0:0:0:0:
192,192,38448,1,0,0:0:0:0:
320,192,38537,1,0,0:0:0:0:
448,192,38626,1,0,0:0:0:0:
320,192,38716,1,0,0:0:0:0:
192,192,38805,1,0,0:0:0:0:
64,192,38894,1,0,0:0:0:0:
192,192,38983,1,0,0:0:0:0:
448,192,39073,1,0,0:0:0:0:
320,192,39162,1,0,0:0:0:0:
192,192,39251,1,0,0:0:0:0:
320,192,39341,1,0,0:0:0:0:
448,192,39430,1,0,0:0:0:0:
320,192,39519,1,0,0:0:0:0:
192,192,39608,1,0,0:0:0:0:
64,192,39698,1,0,0:0:0:0:
448,192,39787,1,0,0:0:0:0:
320,192,39876,1,0,0:0:0:0:
192,192,39966,1,0,0:0:0:0:
64,192,40055,1,0,0:0:0:0:
448,192,40144,1,0,0:0:0:0:
320,192,40233,1,0,0:0:0:0:
192,192,40323,1,0,0:0:0:0:
320,192,40412,1,0,0:0:0:0:
64,192,40501,1,0,0:0:0:0:
192,192,40591,1,0,0:0:0:0:
320,192,40680,1,0,0:0:0:0:
192,192,40769,1,0,0:0:0:0:
448,192,40858,1,0,0:0:0:0:
320,192,40948,1,0,0:0:0:0:
192,192,41037,1,0,0:0:0:0:
64,192,41126,1,0,0:0:0:0:
192,192,41216,1,0,0:0:0:0:
320,192,41305,1,0,0:0:0:0:
448,192,41394,1,0,0:0:0:0:
320,192,41483,1,0,0:0:0:0:
448,192,41573,1,0,0:0:0:0:
320,192,41662,1,0,0:0:0:0:
192,192,41751,1,0,0:0:0:0:
64,192,41841,1,0,0:0:0:0:
192,192,41930,1,0,0:0:0:0:
320,192,42019,1,0,0:0:0:0:
448,192,42108,1,0,0:0:0:0:
320,192,42198,1,0,0:0:0:0:
64,192,42287,1,0,0:0:0:0:
192,192,42376,1,0,0:0:0:0:
320,192,42466,1,0,0:0:0:0:
448,192,42555,1,0,0:0:0:0:
64,192,42644,1,0,0:0:0:0:
192,192,42733,1,0,0:0:0:0:
320,192,42823,1,0,0:0:0:0:
448,192,42912,1,0,0:0:0:0:
64,192,43001,1,0,0:0:0:0:
192,192,43091,1,0,0:0:0:0:
64,192,43180,1,0,0:0:0:0:
192,192,43269,1,0,0:0:0:0:
320,192,43358,1,0,0:0:0:0:
448,192,43448,1,0,0:0:0:0:
320,192,43537,1,0,0:0:0:0:
448,192,43626,1,0,0:0:0:0:
320,192,43716,1,0,0:0:0:0:
192,192,43805,1,0,0:0:0:0:
64,192,43894,1,0,0:0:0:0:
192,192,43983,1,0,0:0:0:0:
64,192,44073,1,0,0:0:0:0:
192,192,44162,1,0,0:0:0:0:
320,192,44251,1,0,0:0:0:0:
448,192,44341,1,0,0:0:0:0:
192,192,44430,1,0,0:0:0:0:
320,192,44519,1,0,0:0:0:0:
448,192,44608,1,0,0:0:0:0:
320,192,44698,1,0,0:0:0:0:
64,192,44787,1,0,0:0:0:0:
192,192,44876,1,0,0:0:0:0:
320,192,44966,1,0,0:0:0:0:
192,192,45055,1,0,0:0:0:0:
448,192,45144,1,0,0:0:0:0:
320,192,45233,1,0,0:0:0:0:
192,192,45323,1,0,0:0:0:0:
64,192,45412,1,0,0:0:0:0:
192,192,45501,1,0,0:0:0:0:
320,192,45591,1,0,0:0:0:0:
192,192,45680,1,0,0:0:0:0:
64,192,45769,1,0,0:0:0:0:
192,192,45858,1,0,0:0:0:0:
320,192,45948,1,0,0:0:0:0:
448,192,46037,1,0,0:0:0:0:
320,192,46126,1,0,0:0:0:0:
192,192,46216,1,0,0:0:0:0:
320,192,46305,1,0,0:0:0:0:
192,192,46394,1,0,0:0:0:0:
64,192,46483,1,0,0:0:0:0:
448,192,46573,1,0,0:0:0:0:
320,192,46662,1,0,0:0:0:0:
448,192,46751,1,0,0:0:0:0:
320,192,46841,1,0,0:0:0:0:
448,192,46930,1,0,0:0:0:0:
320,192,47019,1,0,0:0:0:0:
448,192,47108,1,0,0:0:0:0:
320,192,47198,1,0,0:0:0:0:
64,192,47287,1,0,0:0:0:0:
192,192,47376,1,0,0:0:0:0:
64,192,47466,1,0,0:0:0:0:
192,192,47555,1,0,0:0:0:0:
64,192,47644,1,0,0:0:0:0:
192,192,47733,1,0,0:0:0:0:
64,192,47823,1,0,0:0:0:0:
192,192,47912,1,0,0:0:0:0:
320,192,48001,1,0,0:0:0:0:
448,192,48001,1,0,0:0:0:0:
64,192,48180,1,0,0:0:0:0:
192,192,48269,1,0,0:0:0:0:
64,192,48448,1,0,0:0:0:0:
192,192,48537,1,0,0:0:0:0:
320,192,48626,1,0,0:0:0:0:
192,192,48716,1,0,0:0:0:0:
64,192,48805,1,0,0:0:0:0:
192,192,48894,1,0,0:0:0:0:
64,192,48983,1,0,0:0:0:0:
320,192,49073,1,0,0:0:0:0:
448,192,49073,1,0,0:0:0:0:
64,192,49162,1,0,0:0:0:0:
192,192,49162,1,0,0:0:0:0:
320,192,49251,1,0,0:0:0:0:
448,192,49251,1,0,0:0:0:0:
64,192,49341,1,0,0:0:0:0:
192,192,49341,1,0,0:0:0:0:
320,192,49430,1,0,0:0:0:0:
448,192,49430,1,0,0:0:0:0:
192,192,49519,1,0,0:0:0:0:
64,192,49608,1,0,0:0:0:0:
192,192,49698,1,0,0:0:0:0:
320,192,49787,1,0,0:0:0:0:
448,192,49787,1,0,0:0:0:0:
192,192,49876,1,0,0:0:0:0:
64,192,49966,1,0,0:0:0:0:
192,192,50055,1,0,0:0:0:0:
64,192,50144,1,0,0:0:0:0:
192,192,50233,1,0,0:0:0:0:
320,192,50323,1,0,0:0:0:0:
448,192,50412,1,0,0:0:0:0:
64,192,50501,1,0,0:0:0:0:
192,192,50591,1,0,0:0:0:0:
320,192,50680,1,0,0:0:0:0:
448,192,50769,1,0,0:0:0:0:
192,192,50858,1,0,0:0:0:0:
64,192,50858,1,0,0:0:0:0:
320,192,50948,1,0,0:0:0:0:
448,192,51037,1,0,0:0:0:0:
320,192,51126,1,0,0:0:0:0:
192,192,51216,1,0,0:0:0:0:
64,192,51216,1,0,0:0:0:0:
320,192,51305,1,0,0:0:0:0:
448,192,51394,1,0,0:0:0:0:
320,192,51483,1,0,0:0:0:0:
448,192,51573,1,0,0:0:0:0:
320,192,51662,1,0,0:0:0:0:
192,192,51751,1,0,0:0:0:0:
64,192,51841,1,0,0:0:0:0:
448,192,51930,1,0,0:0:0:0:
320,192,52019,1,0,0:0:0:0:
192,192,52108,1,0,0:0:0:0:
64,192,52198,1,0,0:0:0:0:
192,192,52287,1,0,0:0:0:0:
320,192,52376,1,0,0:0:0:0:
448,192,52466,1,0,0:0:0:0:
64,192,52466,1,0,0:0:0:0:
320,192,52555,1,0,0:0:0:0:
192,192,52644,1,0,0:0:0:0:
64,192,52733,1,0,0:0:0:0:
192,192,52823,1,0,0:0:0:0:
448,192,52823,1,0,0:0:0:0:
320,192,52912,1,0,0:0:0:0:
64,192,53001,1,0,0:0:0:0:
192,192,53091,1,0,0:0:0:0:
320,192,53180,1,0,0:0:0:0:
448,192,53269,1,0,0:0:0:0:
320,192,53358,1,0,0:0:0:0:
192,192,53448,1,0,0:0:0:0:
320,192,53537,1,0,0:0:0:0:
192,192,53626,1,0,0:0:0:0:
448,192,53716,1,0,0:0:0:0:
320,192,53805,1,0,0:0:0:0:
192,192,53894,1,0,0:0:0:0:
64,192,53983,1,0,0:0:0:0:
192,192,54073,1,0,0:0:0:0:
320,192,54162,1,0,0:0:0:0:
192,192,54251,1,0,0:0:0:0:
320,192,54341,1,0,0:0:0:0:
448,192,54430,1,0,0:0:0:0:
320,192,54519,1,0,0:0:0:0:
192,192,54608,1,0,0:0:0:0:
320,192,54698,1,0,0:0:0:0:
64,192,54787,1,0,0:0:0:0:
192,192,54876,1,0,0:0:0:0:
320,192,54966,1,0,0:0:0:0:
192,192,55055,1,0,0:0:0:0:
448,192,55144,1,0,0:0:0:0:
320,192,55233,1,0,0:0:0:0:
192,192,55323,1,0,0:0:0:0:
64,192,55412,1,0,0:0:0:0:
448,192,55501,1,0,0:0:0:0:
320,192,55591,1,0,0:0:0:0:
192,192,55680,1,0,0:0:0:0:
64,192,55769,1,0,0:0:0:0:
448,192,55858,1,0,0:0:0:0:
320,192,55948,1,0,0:0:0:0:
192,192,56037,1,0,0:0:0:0:
320,192,56126,1,0,0:0:0:0:
64,192,56216,1,0,0:0:0:0:
192,192,56305,1,0,0:0:0:0:
320,192,56394,1,0,0:0:0:0:
192,192,56483,1,0,0:0:0:0:
448,192,56573,1,0,0:0:0:0:
320,192,56662,1,0,0:0:0:0:
192,192,56751,1,0,0:0:0:0:
64,192,56841,1,0,0:0:0:0:
448,192,56930,1,0,0:0:0:0:
320,192,57019,1,0,0:0:0:0:
192,192,57108,1,0,0:0:0:0:
64,192,57198,1,0,0:0:0:0:
192,192,57287,1,0,0:0:0:0:
320,192,57376,1,0,0:0:0:0:
448,192,57466,1,0,0:0:0:0:
320,192,57555,1,0,0:0:0:0:
64,192,57644,1,0,0:0:0:0:
192,192,57733,1,0,0:0:0:0:
320,192,57823,1,0,0:0:0:0:
448,192,57912,1,0,0:0:0:0:
64,192,58001,1,0,0:0:0:0:
192,192,58091,1,0,0:0:0:0:
320,192,58180,1,0,0:0:0:0:
192,192,58269,1,0,0:0:0:0:
448,192,58358,1,0,0:0:0:0:
320,192,58448,1,0,0:0:0:0:
192,192,58537,1,0,0:0:0:0:
320,192,58626,1,0,0:0:0:0:
64,192,58716,1,0,0:0:0:0:
192,192,58805,1,0,0:0:0:0:
320,192,58894,1,0,0:0:0:0:
448,192,58983,1,0,0:0:0:0:
320,192,59073,1,0,0:0:0:0:
192,192,59162,1,0,0:0:0:0:
320,192,59251,1,0,0:0:0:0:
192,192,59341,1,0,0:0:0:0:
448,192,59430,1,0,0:0:0:0:
320,192,59519,1,0,0:0:0:0:
192,192,59608,1,0,0:0:0:0:
64,192,59698,1,0,0:0:0:0:
448,192,59787,1,0,0:0:0:0:
320,192,59876,1,0,0:0:0:0:
192,192,59966,1,0,0:0:0:0:
320,192,60055,1,0,0:0:0:0:
64,192,60144,1,0,0:0:0:0:
192,192,60233,1,0,0:0:0:0:
320,192,60323,1,0,0:0:0:0:
448,192,60412,1,0,0:0:0:0:
64,192,60501,1,0,0:0:0:0:
192,192,60591,1,0,0:0:0:0:
320,192,60680,1,0,0:0:0:0:
192,192,60769,1,0,0:0:0:0:
448,192,60858,1,0,0:0:0:0:
320,192,60858,1,0,0:0:0:0:
192,192,60948,1,0,0:0:0:0:
64,192,61037,1,0,0:0:0:0:
192,192,61126,1,0,0:0:0:0:
448,192,61216,1,0,0:0:0:0:
320,192,61216,1,0,0:0:0:0:
192,192,61305,1,0,0:0:0:0:
64,192,61394,1,0,0:0:0:0:
192,192,61483,1,0,0:0:0:0:
64,192,61573,1,0,0:0:0:0:
192,192,61662,1,0,0:0:0:0:
320,192,61751,1,0,0:0:0:0:
448,192,61841,1,0,0:0:0:0:
64,192,61930,1,0,0:0:0:0:
192,192,62019,1,0,0:0:0:0:
320,192,62108,1,0,0:0:0:0:
448,192,62198,1,0,0:0:0:0:
64,192,62287,1,0,0:0:0:0:
192,192,62287,1,0,0:0:0:0:
320,192,62376,1,0,0:0:0:0:
448,192,62466,1,0,0:0:0:0:
320,192,62555,1,0,0:0:0:0:
64,192,62644,1,0,0:0:0:0:
192,192,62644,1,0,0:0:0:0:
320,192,62733,1,0,0:0:0:0:
448,192,62823,1,0,0:0:0:0:
320,192,62912,1,0,0:0:0:0:
448,192,63001,1,0,0:0:0:0:
320,192,63091,1,0,0:0:0:0:
192,192,63180,1,0,0:0:0:0:
64,192,63269,1,0,0:0:0:0:
448,192,63358,1,0,0:0:0:0:
320,192,63448,1,0,0:0:0:0:
192,192,63537,1,0,0:0:0:0:
64,192,63626,1,0,0:0:0:0:
192,192,63716,1,0,0:0:0:0:
320,192,63805,1,0,0:0:0:0:
64,192,63894,1,0,0:0:0:0:
448,192,63894,1,0,0:0:0:0:
320,192,63983,1,0,0:0:0:0:
192,192,64073,1,0,0:0:0:0:
64,192,64162,1,0,0:0:0:0:
448,192,64251,1,0,0:0:0:0:
192,192,64251,1,0,0:0:0:0:
320,192,64341,1,0,0:0:0:0:
64,192,64430,1,0,0:0:0:0:
192,192,64519,1,0,0:0:0:0:
320,192,64608,1,0,0:0:0:0:
448,192,64698,1,0,0:0:0:0:
320,192,64787,1,0,0:0:0:0:
192,192,64876,1,0,0:0:0:0:
320,192,64966,1,0,0:0:0:0:
192,192,65055,1,0,0:0:0:0:
448,192,65144,1,0,0:0:0:0:
320,192,65233,1,0,0:0:0:0:
192,192,65323,1,0,0:0:0:0:
64,192,65412,1,0,0:0:0:0:
192,192,65501,1,0,0:0:0:0:
320,192,65591,1,0,0:0:0:0:
192,192,65680,1,0,0:0:0:0:
320,192,65769,1,0,0:0:0:0:
448,192,65858,1,0,0:0:0:0:
320,192,65948,1,0,0:0:0:0:
192,192,66037,1,0,0:0:0:0:
320,192,66126,1,0,0:0:0:0:
64,192,66216,1,0,0:0:0:0:
192,192,66305,1,0,0:0:0:0:
320,192,66394,1,0,0:0:0:0:
192,192,66483,1,0,0:0:0:0:
448,192,66573,1,0,0:0:0:0:
320,192,66662,1,0,0:0:0:0:
192,192,66751,1,0,0:0:0:0:
64,192,66841,1,0,0:0:0:0:
448,192,66930,1,0,0:0:0:0:
320,192,67019,1,0,0:0:0:0:
192,192,67108,1,0,0:0:0:0:
64,192,67198,1,0,0:0:0:0:
448,192,67287,1,0,0:0:0:0:
320,192,67376,1,0,0:0:0:0:
192,192,67466,1,0,0:0:0:0:
320,192,67555,1,0,0:0:0:0:
64,192,67644,1,0,0:0:0:0:
192,192,67733,1,0,0:0:0:0:
320,192,67823,1,0,0:0:0:0:
192,192,67912,1,0,0:0:0:0:
448,192,68001,1,0,0:0:0:0:
320,192,68091,1,0,0:0:0:0:
192,192,68180,1,0,0:0:0:0:
64,192,68269,1,0,0:0:0:0:
448,192,68358,1,0,0:0:0:0:
320,192,68448,1,0,0:0:0:0:
192,192,68537,1,0,0:0:0:0:
64,192,68626,1,0,0:0:0:0:
192,192,68716,1,0,0:0:0:0:
320,192,68805,1,0,0:0:0:0:
448,192,68894,1,0,0:0:0:0:
320,192,68983,1,0,0:0:0:0:
64,192,69073,1,0,0:0:0:0:
192,192,69162,1,0,0:0:0:0:
320,192,69251,1,0,0:0:0:0:
448,192,69341,1,0,0:0:0:0:
64,192,69430,1,0,0:0:0:0:
192,192,69519,1,0,0:0:0:0:
320,192,69608,1,0,0:0:0:0:
192,192,69698,1,0,0:0:0:0:
448,192,69787,1,0,0:0:0:0:
320,192,69876,1,0,0:0:0:0:
192,192,69966,1,0,0:0:0:0:
320,192,70055,1,0,0:0:0:0:
64,192,70144,1,0,0:0:0:0:
192,192,70233,1,0,0:0:0:0:
320,192,70323,1,0,0:0:0:0:
448,192,70412,1,0,0:0:0:0:
320,192,70501,1,0,0:0:0:0:
192,192,70591,1,0,0:0:0:0:
320,192,70680,1,0,0:0:0:0:
192,192,70769,1,0,0:0:0:0:
448,192,70858,1,0,0:0:0:0:
320,192,70948,1,0,0:0:0:0:
192,192,71037,1,0,0:0:0:0:
64,192,71126,1,0,0:0:0:0:
448,192,71216,1,0,0:0:0:0:
320,192,71305,1,0,0:0:0:0:
192,192,71394,1,0,0:0:0:0:
320,192,71483,1,0,0:0:0:0:
64,192,71573,1,0,0:0:0:0:
192,192,71662,1,0,0:0:0:0:
320,192,71751,1,0,0:0:0:0:
448,192,71841,1,0,0:0:0:0:
64,192,71930,1,0,0:0:0:0:
192,192,72019,1,0,0:0:0:0:
320,192,72108,1,0,0:0:0:0:
192,192,72198,1,0,0:0:0:0:
320,192,72287,1,0,0:0:0:0:
448,192,72287,1,0,0:0:0:0:
192,192,72376,1,0,0:0:0:0:
64,192,72466,1,0,0:0:0:0:
192,192,72555,1,0,0:0:0:0:
320,192,72644,1,0,0:0:0:0:
448,192,72644,1,0,0:0:0:0:
192,192,72733,1,0,0:0:0:0:
64,192,72823,1,0,0:0:0:0:
192,192,72912,1,0,0:0:0:0:
64,192,73001,1,0,0:0:0:0:
192,192,73091,1,0,0:0:0:0:
320,192,73180,1,0,0:0:0:0:
448,192,73269,1,0,0:0:0:0:
64,192,73358,1,0,0:0:0:0:
192,192,73448,1,0,0:0:0:0:
320,192,73537,1,0,0:0:0:0:
448,192,73626,1,0,0:0:0:0:
192,192,73716,1,0,0:0:0:0:
64,192,73716,1,0,0:0:0:0:
320,192,73805,1,0,0:0:0:0:
448,192,73894,1,0,0:0:0:0:
320,192,73983,1,0,0:0:0:0:
192,192,74073,1,0,0:0:0:0:
64,192,74073,1,0,0:0:0:0:
320,192,74162,1,0,0:0:0:0:
448,192,74251,1,0,0:0:0:0:
320,192,74341,1,0,0:0:0:0:
448,192,74430,1,0,0:0:0:0:
320,192,74519,1,0,0:0:0:0:
192,192,74608,1,0,0:0:0:0:
64,192,74698,1,0,0:0:0:0:
448,192,74787,1,0,0:0:0:0:
320,192,74876,1,0,0:0:0:0:
192,192,74966,1,0,0:0:0:0:
64,192,75055,1,0,0:0:0:0:
192,192,75144,1,0,0:0:0:0:
320,192,75233,1,0,0:0:0:0:
448,192,75323,1,0,0:0:0:0:
64,192,75323,1,0,0:0:0:0:
320,192,75412,1,0,0:0:0:0:
192,192,75501,1,0,0:0:0:0:
64,192,75591,1,0,0:0:0:0:
192,192,75680,1,0,0:0:0:0:
448,192,75680,1,0,0:0:0:0:
320,192,75769,1,0,0:0:0:0:
64,192,75858,1,0,0:0:0:0:
192,192,75948,1,0,0:0:0:0:
320,192,76037,1,0,0:0:0:0:
448,192,76126,1,0,0:0:0:0:
320,192,76216,1,0,0:0:0:0:
192,192,76305,1,0,0:0:0:0:
320,192,76394,1,0,0:0:0:0:
192,192,76483,1,0,0:0:0:0:
448,192,76573,1,0,0:0:0:0:
320,192,76662,1,0,0:0:0:0:
192,192,76751,1,0,0:0:0:0:
64,192,76841,1,0,0:0:0:0:
192,192,76930,1,0,0:0:0:0:
320,192,77019,1,0,0:0:0:0:
192,192,77108,1,0,0:0:0:0:
320,192,77198,1,0,0:0:0:0:
448,192,77287,1,0,0:0:0:0:
320,192,77376,1,0,0:0:0:0:
192,192,77466,1,0,0:0:0:0:
320,192,77555,1,0,0:0:0:0:
64,192,77644,1,0,0:0:0:0:
192,192,77733,1,0,0:0:0:0:
320,192,77823,1,0,0:0:0:0:
192,192,77912,1,0,0:0:0:0:
448,192,78001,1,0,0:0:0:0:
320,192,78091,1,0,0:0:0:0:
192,192,78180,1,0,0:0:0:0:
64,192,78269,1,0,0:0:0:0:
448,192,78358,1,0,0:0:0:0:
320,192,78448,1,0,0:0:0:0:
192,192,78537,1,0,0:0:0:0:
64,192,78626,1,0,0:0:0:0:
448,192,78716,1,0,0:0:0:0:
320,192,78805,1,0,0:0:0:0:
192,192,78894,1,0,0:0:0:0:
320,192,78983,1,0,0:0:0:0:
64,192,79073,1,0,0:0:0:0:
192,192,79162,1,0,0:0:0:0:
320,192,79251,1,0,0:0:0:0:
192,192,79341,1,0,0:0:0:0:
448,192,79430,1,0,0:0:0:0:
320,192,79519,1,0,0:0:0:0:
192,192,79608,1,0,0:0:0:0:
64,192,79698,1,0,0:0:0:0:
448,192,79787,1,0,0:0:0:0:
320,192,79876,1,0,0:0:0:0:
192,192,79966,1,0,0:0:0:0:
64,192,80055,1,0,0:0:0:0:
192,192,80144,1,0,0:0:0:0:
320,192,80233,1,0,0:0:0:0:
448,192,80323,1,0,0:0:0:0:
320,192,80412,1,0,0:0:0:0:
64,192,80501,1,0,0:0:0:0:
192,192,80591,1,0,0:0:0:0:
320,192,80680,1,0,0:0:0:0:
448,192,80769,1,0,0:0:0:0:
64,192,80858,1,0,0:0:0:0:
192,192,80948,1,0,0:0:0:0:
320,192,81037,1,0,0:0:0:0:
192,192,81126,1,0,0:0:0:0:
448,192,81216,1,0,0:0:0:0:
320,192,81305,1,0,0:0:0:0:
192,192,81394,1,0,0:0:0:0:
320,192,81483,1,0,0:0:0:0:
64,192,81573,1,0,0:0:0:0:
192,192,81662,1,0,0:0:0:0:
320,192,81751,1,0,0:0:0:0:
448,192,81841,1,0,0:0:0:0:
320,192,81930,1,0,0:0:0:0:
192,192,82019,1,0,0:0:0:0:
320,192,82108,1,0,0:0:0:0:
192,192,82198,1,0,0:0:0:0:
448,192,82287,1,0,0:0:0:0:
320,192,82376,1,0,0:0:0:0:
192,192,82466,1,0,0:0:0:0:
64,192,82555,1,0,0:0:0:0:
448,192,82644,1,0,0:0:0:0:
320,192,82733,1,0,0:0:0:0:
192,192,82823,1,0,0:0:0:0:
320,192,82912,1,0,0:0:0:0:
64,192,83001,1,0,0:0:0:0:
192,192,83091,1,0,0:0:0:0:
320,192,83180,1,0,0:0:0:0:
448,192,83269,1,0,0:0:0:0:
64,192,83358,1,0,0:0:0:0:
192,192,83448,1,0,0:0:0:0:
320,192,83537,1,0,0:0:0:0:
192,192,83626,1,0,0:0:0:0:
448,192,83716,1,0,0:0:0:0:
320,192,83716,1,0,0:0:0:0:
192,192,83805,1,0,0:0:0:0:
64,192,83894,1,0,0:0:0:0:
192,192,83983,1,0,0:0:0:0:
448,192,84073,1,0,0:0:0:0:
320,192,84073,1,0,0:0:0:0:
192,192,84162,1,0,0:0:0:0:
64,192,84251,1,0,0:0:0:0:
192,192,84341,1,0,0:0:0:0:
64,192,84430,1,0,0:0:0:0:
192,192,84519,1,0,0:0:0:0:
320,192,84608,1,0,0:0:0:0:
448,192,84698,1,0,0:0:0:0:
64,192,84787,1,0,0:0:0:0:
192,192,84876,1,0,0:0:0:0:
320,192,84966,1,0,0:0:0:0:
448,192,85055,1,0,0:0:0:0:
64,192,85144,1,0,0:0:0:0:
192,192,85144,1,0,0:0:0:0:
320,192,85233,1,0,0:0:0:0:
448,192,85323,1,0,0:0:0:0:
320,192,85412,1,0,0:0:0:0:
64,192,85501,1,0,0:0:0:0:
192,192,85501,1,0,0:0:0:0:
320,192,85591,1,0,0:0:0:0:
448,192,85680,1,0,0:0:0:0:
320,192,85769,1,0,0:0:0:0:
448,192,85858,1,0,0:0:0:0:
320,192,85948,1,0,0:0:0:0:
192,192,86037,1,0,0:0:0:0:
64,192,86126,1,0,0:0:0:0:
448,192,86216,1,0,0:0:0:0:
320,192,86305,1,0,0:0:0:0:
192,192,86394,1,0,0:0:0:0:
64,192,86483,1,0,0:0:0:0:
192,192,86573,1,0,0:0:0:0:
320,192,86662,1,0,0:0:0:0:
64,192,86751,1,0,0:0:0:0:
448,192,86751,1,0,0:0:0:0:
320,192,86841,1,0,0:0:0:0:
192,192,86930,1,0,0:0:0:0:
64,192,87019,1,0,0:0:0:0:
448,192,87108,1,0,0:0:0:0:
192,192,87108,1,0,0:0:0:0:
320,192,87198,1,0,0:0:0:0:
64,192,87287,1,0,0:0:0:0:
192,192,87376,1,0,0:0:0:0:
320,192,87466,1,0,0:0:0:0:
448,192,87555,1,0,0:0:0:0:
320,192,87644,1,0,0:0:0:0:
192,192,87733,1,0,0:0:0:0:
320,192,87823,1,0,0:0:0:0:
192,192,87912,1,0,0:0:0:0:
448,192,88001,1,0,0:0:0:0:
320,192,88091,1,0,0:0:0:0:
192,192,88180,1,0,0:0:0:0:
64,192,88269,1,0,0:0:0:0:
192,192,88358,1,0,0:0:0:0:
320,192,88448,1,0,0:0:0:0:
192,192,88537,1,0,0:0:0:0:
320,192,88626,1,0,0:0:0:0:
448,192,88716,1,0,0:0:0:0:
320,192,88805,1,0,0:0:0:0:
192,192,88894,1,0,0:0:0:0:
320,192,88983,1,0,0:0:0:0:
64,192,89073,1,0,0:0:0:0:
192,192,89162,1,0,0:0:0:0:
320,192,89251,1,0,0:0:0:0:
192,192,89341,1,0,0:0:0:0:
320,192,89430,1,0,0:0:0:0:
448,192,89430,1,0,0:0:0:0:
64,192,89608,1,0,0:0:0:0:
192,192,89608,1,0,0:0:0:0:
320,192,89787,1,0,0:0:0:0:
448,192,89787,1,0,0:0:0:0:
64,192,89966,1,0,0:0:0:0:
192,192,89966,1,0,0:0:0:0:
448,192,90144,1,0,0:0:0:0:
320,192,90233,1,0,0:0:0:0:
64,192,90323,1,0,0:0:0:0:
192,192,90412,1,0,0:0:0:0:
448,192,90501,1,0,0:0:0:0:
320,192,90591,1,0,0:0:0:0:
64,192,90680,1,0,0:0:0:0:
192,192,90769,1,0,0:0:0:0:
320,192,90858,1,0,0:0:0:0:
448,192,90858,1,0,0:0:0:0:
320,192,91037,1,0,0:0:0:0:
64,192,91216,1,0,0:0:0:0:
192,192,91216,1,0,0:0:0:0:
192,192,91394,1,0,0:0:0:0:
320,192,91573,1,0,0:0:0:0:
448,192,91573,1,0,0:0:0:0:
64,192,91841,1,0,0:0:0:0:
192,192,91841,1,0,0:0:0:0:
320,192,92108,1,0,0:0:0:0:
448,192,92108,1,0,0:0:0:0:
64,192,92287,1,0,0:0:0:0:
192,192,92376,1,0,0:0:0:0:
320,192,92466,1,0,0:0:0:0:
448,192,92555,1,0,0:0:0:0:
320,192,92644,1,0,0:0:0:0:
192,192,92733,1,0,0:0:0:0:
320,192,92823,1,0,0:0:0:0:
192,192,92912,1,0,0:0:0:0:
64,192,93001,1,0,0:0:0:0:
192,192,93091,1,0,0:0:0:0:
320,192,93180,1,0,0:0:0:0:
448,192,93269,1,0,0:0:0:0:
64,192,93358,1,0,0:0:0:0:
192,192,93448,1,0,0:0:0:0:
320,192,93537,1,0,0:0:0:0:
448,192,93626,1,0,0:0:0:0:
64,192,93716,1,0,0:0:0:0:
192,192,93805,1,0,0:0:0:0:
320,192,93894,1,0,0:0:0:0:
448,192,93983,1,0,0:0:0:0:
192,192,94073,1,0,0:0:0:0:
320,192,94162,1,0,0:0:0:0:
192,192,94251,1,0,0:0:0:0:
320,192,94341,1,0,0:0:0:0:
448,192,94430,1,0,0:0:0:0:
320,192,94519,1,0,0:0:0:0:
448,192,94608,1,0,0:0:0:0:
320,192,94698,1,0,0:0:0:0:
64,192,94787,1,0,0:0:0:0:
192,192,94876,1,0,0:0:0:0:
64,192,94966,1,0,0:0:0:0:
192,192,95055,1,0,0:0:0:0:
320,192,95144,1,0,0:0:0:0:
448,192,95233,1,0,0:0:0:0:
320,192,95323,1,0,0:0:0:0:
192,192,95412,1,0,0:0:0:0:
64,192,95501,1,0,0:0:0:0:
192,192,95591,1,0,0:0:0:0:
320,192,95680,1,0,0:0:0:0:
448,192,95769,1,0,0:0:0:0:
320,192,95858,1,0,0:0:0:0:
192,192,95948,1,0,0:0:0:0:
64,192,96037,1,0,0:0:0:0:
192,192,96126,1,0,0:0:0:0:
448,192,96216,1,0,0:0:0:0:
320,192,96305,1,0,0:0:0:0:
192,192,96394,1,0,0:0:0:0:
320,192,96483,1,0,0:0:0:0:
448,192,96573,1,0,0:0:0:0:
320,192,96662,1,0,0:0:0:0:
192,192,96751,1,0,0:0:0:0:
64,192,96841,1,0,0:0:0:0:
448,192,96930,1,0,0:0:0:0:
320,192,97019,1,0,0:0:0:0:
192,192,97108,1,0,0:0:0:0:
64,192,97198,1,0,0:0:0:0:
448,192,97287,1,0,0:0:0:0:
320,192,97376,1,0,0:0:0:0:
192,192,97466,1,0,0:0:0:0:
320,192,97555,1,0,0:0:0:0:
64,192,97644,1,0,0:0:0:0:
192,192,97733,1,0,0:0:0:0:
320,192,97823,1,0,0:0:0:0:
192,192,97912,1,0,0:0:0:0:
448,192,98001,1,0,0:0:0:0:
320,192,98091,1,0,0:0:0:0:
192,192,98180,1,0,0:0:0:0:
64,192,98269,1,0,0:0:0:0:
192,192,98358,1,0,0:0:0:0:
320,192,98448,1,0,0:0:0:0:
448,192,98537,1,0,0:0:0:0:
320,192,98626,1,0,0:0:0:0:
448,192,98716,1,0,0:0:0:0:
320,192,98805,1,0,0:0:0:0:
192,192,98894,1,0,0:0:0:0:
64,192,98983,1,0,0:0:0:0:
192,192,99073,1,0,0:0:0:0:
320,192,99162,1,0,0:0:0:0:
448,192,99251,1,0,0:0:0:0:
320,192,99341,1,0,0:0:0:0:
64,192,99430,1,0,0:0:0:0:
192,192,99519,1,0,0:0:0:0:
320,192,99608,1,0,0:0:0:0:
448,192,99698,1,0,0:0:0:0:
64,192,99787,1,0,0:0:0:0:
192,192,99876,1,0,0:0:0:0:
320,192,99966,1,0,0:0:0:0:
448,192,100055,1,0,0:0:0:0:
64,192,100144,1,0,0:0:0:0:
192,192,100233,1,0,0:0:0:0:
64,192,100323,1,0,0:0:0:0:
192,192,100412,1,0,0:0:0:0:
320,192,100501,1,0,0:0:0:0:
448,192,100591,1,0,0:0:0:0:
320,192,100680,1,0,0:0:0:0:
448,192,100769,1,0,0:0:0:0:
320,192,100858,1,0,0:0:0:0:
192,192,100948,1,0,0:0:0:0:
64,192,101037,1,0,0:0:0:0:
192,192,101126,1,0,0:0:0:0:
64,192,101216,1,0,0:0:0:0:
192,192,101305,1,0,0:0:0:0:
320,192,101394,1,0,0:0:0:0:
448,192,101483,1,0,0:0:0:0:
192,192,101573,1,0,0:0:0:0:
320,192,101662,1,0,0:0:0:0:
448,192,101751,1,0,0:0:0:0:
320,192,101841,1,0,0:0:0:0:
64,192,101930,1,0,0:0:0:0:
192,192,102019,1,0,0:0:0:0:
320,192,102108,1,0,0:0:0:0:
192,192,102198,1,0,0:0:0:0:
448,192,102287,1,0,0:0:0:0:
320,192,102376,1,0,0:0:0:0:
192,192,102466,1,0,0:0:0:0:
64,192,102555,1,0,0:0:0:0:
192,192,102644,1,0,0:0:0:0:
320,192,102733,1,0,0:0:0:0:
192,192,102823,1,0,0:0:0:0:
64,192,102912,1,0,0:0:0:0:
192,192,103001,1,0,0:0:0:0:
320,192,103091,1,0,0:0:0:0:
448,192,103180,1,0,0:0:0:0:
320,192,103269,1,0,0:0:0:0:
192,192,103358,1,0,0:0:0:0:
320,192,103448,1,0,0:0:0:0:
192,192,103537,1,0,0:0:0:0:
64,192,103626,1,0,0:0:0:0:
448,192,103716,1,0,0:0:0:0:
320,192,103805,1,0,0:0:0:0:
192,192,103894,1,0,0:0:0:0:
64,192,103983,1,0,0:0:0:0:
448,192,104073,1,0,0:0:0:0:
320,192,104162,1,0,0:0:0:0:
192,192,104251,1,0,0:0:0:0:
64,192,104341,1,0,0:0:0:0:
448,192,104430,1,0,0:0:0:0:
320,192,104519,1,0,0:0:0:0:
192,192,104608,1,0,0:0:0:0:
448,192,104698,1,0,0:0:0:0:
320,192,104787,1,0,0:0:0:0:
192,192,104876,1,0,0:0:0:0:
64,192,104966,1,0,0:0:0:0:
192,192,105055,1,0,0:0:0:0:
320,192,105144,1,0,0:0:0:0:
448,192,105233,1,0,0:0:0:0:
320,192,105323,1,0,0:0:0:0:
192,192,105412,1,0,0:0:0:0:
448,192,105501,1,0,0:0:0:0:
320,192,105591,1,0,0:0:0:0:
192,192,105680,1,0,0:0:0:0:
64,192,105769,1,0,0:0:0:0:
448,192,105858,1,0,0:0:0:0:
320,192,105948,1,0,0:0:0:0:
448,192,106037,1,0,0:0:0:0:
320,192,106126,1,0,0:0:0:0:
192,192,106216,1,0,0:0:0:0:
64,192,106305,1,0,0:0:0:0:
192,192,106394,1,0,0:0:0:0:
64,192,106483,1,0,0:0:0:0:
320,192,106573,1,0,0:0:0:0:
192,192,106662,1,0,0:0:0:0:
320,192,106751,1,0,0:0:0:0:
448,192,106841,1,0,0:0:0:0:
64,192,106930,1,0,0:0:0:0:
192,192,107019,1,0,0:0:0:0:
320,192,107108,1,0,0:0:0:0:
448,192,107198,1,0,0:0:0:0:
320,192,107287,1,0,0:0:0:0:
192,192,107376,1,0,0:0:0:0:
64,192,107466,1,0,0:0:0:0:
192,192,107555,1,0,0:0:0:0:
448,192,107644,1,0,0:0:0:0:
320,192,107733,1,0,0:0:0:0:
192,192,107823,1,0,0:0:0:0:
320,192,107912,1,0,0:0:0:0:
448,192,108001,1,0,0:0:0:0:
320,192,108091,1,0,0:0:0:0:
192,192,108180,1,0,0:0:0:0:
64,192,108269,1,0,0:0:0:0:
448,192,108358,1,0,0:0:0:0:
320,192,108448,1,0,0:0:0:0:
192,192,108537,1,0,0:0:0:0:
64,192,108626,1,0,0:0:0:0:
448,192,108716,1,0,0:0:0:0:
320,192,108805,1,0,0:0:0:0:
192,192,108894,1,0,0:0:0:0:
320,192,108983,1,0,0:0:0:0:
64,192,109073,1,0,0:0:0:0:
192,192,109162,1,0,0:0:0:0:
320,192,109251,1,0,0:0:0:0:
192,192,109341,1,0,0:0:0:0:
448,192,109430,1,0,0:0:0:0:
320,192,109519,1,0,0:0:0:0:
192,192,109608,1,0,0:0:0:0:
64,192,109698,1,0,0:0:0:0:
192,192,109787,1,0,0:0:0:0:
320,192,109876,1,0,0:0:0:0:
448,192,109966,1,0,0:0:0:0:
320,192,110055,1,0,0:0:0:0:
448,192,110144,1,0,0:0:0:0:
320,192,110233,1,0,0:0:0:0:
192,192,110323,1,0,0:0:0:0:
64,192,110412,1,0,0:0:0:0:
192,192,110501,1,0,0:0:0:0:
320,192,110591,1,0,0:0:0:0:
448,192,110680,1,0,0:0:0:0:
320,192,110769,1,0,0:0:0:0:
64,192,110858,1,0,0:0:0:0:
192,192,110948,1,0,0:0:0:0:
320,192,111037,1,0,0:0:0:0:
448,192,111126,1,0,0:0:0:0:
64,192,111216,1,0,0:0:0:0:
192,192,111305,1,0,0:0:0:0:
320,192,111394,1,0,0:0:0:0:
448,192,111483,1,0,0:0:0:0:
64,192,111573,1,0,0:0:0:0:
192,192,111662,1,0,0:0:0:0:
64,192,111751,1,0,0:0:0:0:
192,192,111841,1,0,0:0:0:0:
320,192,111930,1,0,0:0:0:0:
448,192,112019,1,0,0:0:0:0:
320,192,112108,1,0,0:0:0:0:
448,192,112198,1,0,0:0:0:0:
320,192,112287,1,0,0:0:0:0:
192,192,112376,1,0,0:0:0:0:
64,192,112466,1,0,0:0:0:0:
192,192,112555,1,0,0:0:0:0:
64,192,112644,1,0,0:0:0:0:
192,192,112733,1,0,0:0:0:0:
320,192,112823,1,0,0:0:0:0:
448,192,112912,1,0,0:0:0:0:
192,192,113001,1,0,0:0:0:0:
320,192,113091,1,0,0:0:0:0:
448,192,113180,1,0,0:0:0:0:
320,192,113269,1,0,0:0:0:0:
64,192,113358,1,0,0:0:0:0:
192,192,113448,1,0,0:0:0:0:
320,192,113537,1,0,0:0:0:0:
192,192,113626,1,0,0:0:0:0:
448,192,113716,1,0,0:0:0:0:
320,192,113805,1,0,0:0:0:0:
192,192,113894,1,0,0:0:0:0:
64,192,113983,1,0,0:0:0:0:
192,192,114073,1,0,0:0:0:0:
320,192,114162,1,0,0:0:0:0:
192,192,114251,1,0,0:0:0:0:
64,192,114341,1,0,0:0:0:0:
192,192,114430,1,0,0:0:0:0:
320,192,114519,1,0,0:0:0:0:
448,192,114608,1,0,0:0:0:0:
320,192,114698,1,0,0:0:0:0:
192,192,114787,1,0,0:0:0:0:
320,192,114876,1,0,0:0:0:0:
192,192,114966,1,0,0:0:0:0:
64,192,115055,1,0,0:0:0:0:
448,192,115144,1,0,0:0:0:0:
320,192,115233,1,0,0:0:0:0:
192,192,115323,1,0,0:0:0:0:
64,192,115412,1,0,0:0:0:0:
448,192,115501,1,0,0:0:0:0:
320,192,115591,1,0,0:0:0:0:
192,192,115680,1,0,0:0:0:0:
64,192,115769,1,0,0:0:0:0:
448,192,115858,1,0,0:0:0:0:
320,192,115948,1,0,0:0:0:0:
192,192,116037,1,0,0:0:0:0:
448,192,116126,1,0,0:0:0:0:
320,192,116216,1,0,0:0:0:0:
192,192,116305,1,0,0:0:0:0:
64,192,116394,1,0,0:0:0:0:
192,192,116483,1,0,0:0:0:0:
448,192,116573,1,0,0:0:0:0:
320,192,116662,1,0,0:0:0:0:
192,192,116751,1,0,0:0:0:0:
64,192,116841,1,0,0:0:0:0:
448,192,116930,1,0,0:0:0:0:
320,192,117019,1,0,0:0:0:0:
192,192,117108,1,0,0:0:0:0:
64,192,117198,1,0,0:0:0:0:
192,192,117287,1,0,0:0:0:0:
320,192,117376,1,0,0:0:0:0:
448,192,117466,1,0,0:0:0:0:
320,192,117555,1,0,0:0:0:0:
192,192,117644,1,0,0:0:0:0:
320,192,117733,1,0,0:0:0:0:
192,192,117823,1,0,0:0:0:0:
64,192,117912,1,0,0:0:0:0:
448,192,118001,1,0,0:0:0:0:
320,192,118001,1,0,0:0:0:0:
192,192,118091,1,0,0:0:0:0:
64,192,118180,1,0,0:0:0:0:
192,192,118269,1,0,0:0:0:0:
448,192,118358,1,0,0:0:0:0:
320,192,118358,1,0,0:0:0:0:
192,192,118448,1,0,0:0:0:0:
64,192,118537,1,0,0:0:0:0:
192,192,118626,1,0,0:0:0:0:
64,192,118716,1,0,0:0:0:0:
192,192,118805,1,0,0:0:0:0:
320,192,118894,1,0,0:0:0:0:
448,192,118983,1,0,0:0:0:0:
64,192,119073,1,0,0:0:0:0:
192,192,119162,1,0,0:0:0:0:
320,192,119251,1,0,0:0:0:0:
448,192,119341,1,0,0:0:0:0:
64,192,119430,1,0,0:0:0:0:
192,192,119430,1,0,0:0:0:0:
320,192,119519,1,0,0:0:0:0:
448,192,119608,1,0,0:0:0:0:
320,192,119698,1,0,0:0:0:0:
64,192,119787,1,0,0:0:0:0:
192,192,119787,1,0,0:0:0:0:
320,192,119876,1,0,0:0:0:0:
448,192,119966,1,0,0:0:0:0:
320,192,120055,1,0,0:0:0:0:
448,192,120144,1,0,0:0:0:0:
320,192,120233,1,0,0:0:0:0:
192,192,120323,1,0,0:0:0:0:
64,192,120412,1,0,0:0:0:0:
448,192,120501,1,0,0:0:0:0:
320,192,120591,1,0,0:0:0:0:
192,192,120680,1,0,0:0:0:0:
64,192,120769,1,0,0:0:0:0:
192,192,120858,1,0,0:0:0:0:
320,192,120948,1,0,0:0:0:0:
64,192,121037,1,0,0:0:0:0:
448,192,121037,1,0,0:0:0:0:
320,192,121126,1,0,0:0:0:0:
192,192,121216,1,0,0:0:0:0:
64,192,121305,1,0,0:0:0:0:
448,192,121394,1,0,0:0:0:0:
192,192,121394,1,0,0:0:0:0:
320,192,121483,1,0,0:0:0:0:
64,192,121573,1,0,0:0:0:0:
192,192,121662,1,0,0:0:0:0:
320,192,121751,1,0,0:0:0:0:
448,192,121841,1,0,0:0:0:0:
320,192,121930,1,0,0:0:0:0:
192,192,122019,1,0,0:0:0:0:
320,192,122108,1,0,0:0:0:0:
192,192,122198,1,0,0:0:0:0:
448,192,122287,1,0,0:0:0:0:
320,192,122376,1,0,0:0:0:0:
192,192,122466,1,0,0:0:0:0:
64,192,122555,1,0,0:0:0:0:
192,192,122644,1,0,0:0:0:0:
320,192,122733,1,0,0:0:0:0:
192,192,122823,1,0,0:0:0:0:
320,192,122912,1,0,0:0:0:0:
448,192,123001,1,0,0:0:0:0:
320,192,123091,1,0,0:0:0:0:
448,192,123180,1,0,0:0:0:0:
320,192,123269,1,0,0:0:0:0:
64,192,123358,1,0,0:0:0:0:
192,192,123448,1,0,0:0:0:0:
64,192,123537,1,0,0:0:0:0:
192,192,123626,1,0,0:0:0:0:
448,192,123716,1,0,0:0:0:0:
320,192,123805,1,0,0:0:0:0:
192,192,123894,1,0,0:0:0:0:
64,192,123983,1,0,0:0:0:0:
448,192,124073,1,0,0:0:0:0:
320,192,124162,1,0,0:0:0:0:
192,192,124251,1,0,0:0:0:0:
64,192,124341,1,0,0:0:0:0:
448,192,124430,1,0,0:0:0:0:
320,192,124519,1,0,0:0:0:0:
192,192,124608,1,0,0:0:0:0:
320,192,124698,1,0,0:0:0:0:
64,192,124787,1,0,0:0:0:0:
192,192,124876,1,0,0:0:0:0:
320,192,124966,1,0,0:0:0:0:
192,192,125055,1,0,0:0:0:0:
448,192,125144,1,0,0:0:0:0:
320,192,125233,1,0,0:0:0:0:
192,192,125323,1,0,0:0:0:0:
64,192,125412,1,0,0:0:0:0:
448,192,125501,1,0,0:0:0:0:
320,192,125591,1,0,0:0:0:0:
192,192,125680,1,0,0:0:0:0:
64,192,125769,1,0,0:0:0:0:
192,192,125858,1,0,0:0:0:0:
320,192,125948,1,0,0:0:0:0:
448,192,126037,1,0,0:0:0:0:
320,192,126126,1,0,0:0:0:0:
64,192,126216,1,0,0:0:0:0:
192,192,126305,1,0,0:0:0:0:
320,192,126394,1,0,0:0:0:0:
448,192,126483,1,0,0:0:0:0:
64,192,126573,1,0,0:0:0:0:
192,192,126662,1,0,0:0:0:0:
320,192,126751,1,0,0:0:0:0:
192,192,126841,1,0,0:0:0:0:
448,192,126930,1,0,0:0:0:0:
320,192,127019,1,0,0:0:0:0:
192,192,127108,1,0,0:0:0:0:
320,192,127198,1,0,0:0:0:0:
64,192,127287,1,0,0:0:0:0:
192,192,127376,1,0,0:0:0:0:
320,192,127466,1,0,0:0:0:0:
448,192,127555,1,0,0:0:0:0:
320,192,127644,1,0,0:0:0:0:
192,192,127733,1,0,0:0:0:0:
320,192,127823,1,0,0:0:0:0:
192,192,127912,1,0,0:0:0:0:
448,192,128001,1,0,0:0:0:0:
320,192,128091,1,0,0:0:0:0:
192,192,128180,1,0,0:0:0:0:
64,192,128269,1,0,0:0:0:0:
448,192,128358,1,0,0:0:0:0:
320,192,128448,1,0,0:0:0:0:
192,192,128537,1,0,0:0:0:0:
320,192,128626,1,0,0:0:0:0:
64,192,128716,1,0,0:0:0:0:
192,192,128805,1,0,0:0:0:0:
64,192,128894,1,0,0:0:0:0:
192,192,128983,1,0,0:0:0:0:
448,192,129073,1,0,0:0:0:0:
320,192,129162,1,0,0:0:0:0:
448,192,129251,1,0,0:0:0:0:
320,192,129341,1,0,0:0:0:0:
64,192,129430,1,0,0:0:0:0:
192,192,129430,1,0,0:0:0:0:
320,192,129519,1,0,0:0:0:0:
448,192,129608,1,0,0:0:0:0:
320,192,129698,1,0,0:0:0:0:
64,192,129787,1,0,0:0:0:0:
192,192,129787,1,0,0:0:0:0:
320,192,129876,1,0,0:0:0:0:
448,192,129966,1,0,0:0:0:0:
320,192,130055,1,0,0:0:0:0:
64,192,130144,1,0,0:0:0:0:
192,192,130233,1,0,0:0:0:0:
320,192,130323,1,0,0:0:0:0:
448,192,130412,1,0,0:0:0:0:
64,192,130501,1,0,0:0:0:0:
192,192,130591,1,0,0:0:0:0:
320,192,130680,1,0,0:0:0:0:
448,192,130769,1,0,0:0:0:0:
192,192,130858,1,0,0:0:0:0:
64,192,130858,1,0,0:0:0:0:
320,192,130948,1,0,0:0:0:0:
448,192,131037,1,0,0:0:0:0:
320,192,131126,1,0,0:0:0:0:
192,192,131216,1,0,0:0:0:0:
64,192,131216,1,0,0:0:0:0:
320,192,131305,1,0,0:0:0:0:
448,192,131394,1,0,0:0:0:0:
320,192,131483,1,0,0:0:0:0:
448,192,131573,1,0,0:0:0:0:
320,192,131662,1,0,0:0:0:0:
192,192,131751,1,0,0:0:0:0:
64,192,131841,1,0,0:0:0:0:
448,192,131930,1,0,0:0:0:0:
320,192,132019,1,0,0:0:0:0:
192,192,132108,1,0,0:0:0:0:
64,192,132198,1,0,0:0:0:0:
192,192,132287,1,0,0:0:0:0:
320,192,132376,1,0,0:0:0:0:
448,192,132466,1,0,0:0:0:0:
64,192,132466,1,0,0:0:0:0:
320,192,132555,1,0,0:0:0:0:
192,192,132644,1,0,0:0:0:0:
64,192,132733,1,0,0:0:0:0:
192,192,132823,1,0,0:0:0:0:
448,192,132823,1,0,0:0:0:0:
320,192,132912,1,0,0:0:0:0:
64,192,133001,1,0,0:0:0:0:
192,192,133091,1,0,0:0:0:0:
320,192,133180,1,0,0:0:0:0:
448,192,133269,1,0,0:0:0:0:
320,192,133358,1,0,0:0:0:0:
192,192,133448,1,0,0:0:0:0:
320,192,133537,1,0,0:0:0:0:
192,192,133626,1,0,0:0:0:0:
448,192,133716,1,0,0:0:0:0:
320,192,133805,1,0,0:0:0:0:
192,192,133894,1,0,0:0:0:0:
64,192,133983,1,0,0:0:0:0:
192,192,134073,1,0,0:0:0:0:
320,192,134162,1,0,0:0:0:0:
192,192,134251,1,0,0:0:0:0:
320,192,134341,1,0,0:0:0:0:
448,192,134430,1,0,0:0:0:0:
320,192,134519,1,0,0:0:0:0:
192,192,134608,1,0,0:0:0:0:
320,192,134698,1,0,0:0:0:0:
64,192,134787,1,0,0:0:0:0:
192,192,134876,1,0,0:0:0:0:
320,192,134966,1,0,0:0:0:0:
192,192,135055,1,0,0:0:0:0:
448,192,135144,1,0,0:0:0:0:
320,192,135233,1,0,0:0:0:0:
192,192,135323,1,0,0:0:0:0:
64,192,135412,1,0,0:0:0:0:
448,192,135501,1,0,0:0:0:0:
320,192,135591,1,0,0:0:0:0:
192,192,135680,1,0,0:0:0:0:
64,192,135769,1,0,0:0:0:0:
448,192,135858,1,0,0:0:0:0:
320,192,135948,1,0,0:0:0:0:
192,192,136037,1,0,0:0:0:0:
320,192,136126,1,0,0:0:0:0:
64,192,136216,1,0,0:0:0:0:
192,192,136305,1,0,0:0:0:0:
320,192,136394,1,0,0:0:0:0:
192,192,136483,1,0,0:0:0:0:
448,192,136573,1,0,0:0:0:0:
320,192,136662,1,0,0:0:0:0:
192,192,136751,1,0,0:0:0:0:
64,192,136841,1,0,0:0:0:0:
448,192,136930,1,0,0:0:0:0:
320,192,137019,1,0,0:0:0:0:
192,192,137108,1,0,0:0:0:0:
64,192,137198,1,0,0:0:0:0:
192,192,137287,1,0,0:0:0:0:
320,192,137376,1,0,0:0:0:0:
448,192,137466,1,0,0:0:0:0:
320,192,137555,1,0,0:0:0:0:
64,192,137644,1,0,0:0:0:0:
192,192,137733,1,0,0:0:0:0:
320,192,137823,1,0,0:0:0:0:
448,192,137912,1,0,0:0:0:0:
64,192,138001,1,0,0:0:0:0:
192,192,138091,1,0,0:0:0:0:
320,192,138180,1,0,0:0:0:0:
192,192,138269,1,0,0:0:0:0:
448,192,138358,1,0,0:0:0:0:
320,192,138448,1,0,0:0:0:0:
192,192,138537,1,0,0:0:0:0:
320,192,138626,1,0,0:0:0:0:
64,192,138716,1,0,0:0:0:0:
192,192,138805,1,0,0:0:0:0:
320,192,138894,1,0,0:0:0:0:
448,192,138983,1,0,0:0:0:0:
320,192,139073,1,0,0:0:0:0:
192,192,139162,1,0,0:0:0:0:
320,192,139251,1,0,0:0:0:0:
192,192,139341,1,0,0:0:0:0:
320,192,139608,1,0,0:0:0:0:
448,192,139608,1,0,0:0:0:0:
320,192,139876,1,0,0:0:0:0:
448,192,139876,1,0,0:0:0:0:
64,192,140144,1,0,0:0:0:0:
192,192,140144,1,0,0:0:0:0:
192,192,140412,1,0,0:0:0:0:
64,192,140412,1,0,0:0:0:0:
192,192,140680,1,0,0:0:0:0:
64,192,140680,1,0,0:0:0:0:
64,192,140858,128,0,142287:0:0:0:0:
192,192,140858,128,0,143001:0:0:0:0:
320,192,140858,128,0,143716:0:0:0:0:
448,192,140858,128,0,144430:0:0:0:0:
64,192,149430,5,0,0:0:0:0:
192,192,149430,1,0,0:0:0:0:
192,192,149965,1,0,0:0:0:0:
320,192,149965,1,0,0:0:0:0:
320,192,150501,1,0,0:0:0:0:
448,192,150501,1,0,0:0:0:0:
448,192,151037,1,0,0:0:0:0:
64,192,151037,1,0,0:0:0:0:
320,192,151572,128,0,152287:0:0:0:0:
448,192,151572,128,0,152287:0:0:0:0:
192,192,152287,128,0,153715:0:0:0:0:
64,192,153715,128,0,155144:0:0:0:0:
448,192,155144,128,0,156572:0:0:0:0:
192,192,156572,128,0,158001:0:0:0:0:
64,192,157287,1,0,0:0:0:0:
64,192,158001,128,0,158715:0:0:0:0:
320,192,158715,128,0,159430:0:0:0:0:
192,192,159430,128,0,160144:0:0:0:0:
64,192,160144,128,0,160858:0:0:0:0:
320,192,160858,128,0,161572:0:0:0:0:
192,192,161572,128,0,162287:0:0:0:0:
64,192,162287,128,0,163001:0:0:0:0:
192,192,163001,128,0,163715:0:0:0:0:
448,192,163715,128,0,165144:0:0:0:0:
320,192,165144,128,0,166572:0:0:0:0:
192,192,166572,128,0,168001:0:0:0:0:
448,192,168001,128,0,168715:0:0:0:0:
320,192,168715,128,0,169430:0:0:0:0:
192,192,169430,128,0,170144:0:0:0:0:
320,192,170144,128,0,170858:0:0:0:0:
448,192,170858,128,0,171572:0:0:0:0:
320,192,171572,128,0,172287:0:0:0:0:
64,192,172287,1,0,0:0:0:0:
192,192,172287,1,0,0:0:0:0:
192,192,172822,1,0,0:0:0:0:
320,192,172822,1,0,0:0:0:0:
320,192,173358,1,0,0:0:0:0:
448,192,173358,1,0,0:0:0:0:
448,192,173894,1,0,0:0:0:0:
64,192,173894,1,0,0:0:0:0:
320,192,174430,1,0,0:0:0:0:
448,192,174430,1,0,0:0:0:0:
192,192,174787,1,0,0:0:0:0:
64,192,174787,1,0,0:0:0:0:
448,192,175144,1,0,0:0:0:0:
192,192,175144,1,0,0:0:0:0:
320,192,175322,1,0,0:0:0:0:
64,192,175501,1,0,0:0:0:0:
192,192,175680,1,0,0:0:0:0:
448,192,175858,1,0,0:0:0:0:
320,192,176037,1,0,0:0:0:0:
64,192,176215,1,0,0:0:0:0:
192,192,176394,1,0,0:0:0:0:
448,192,176572,1,0,0:0:0:0:
64,192,176572,1,0,0:0:0:0:
320,192,176751,1,0,0:0:0:0:
192,192,176930,1,0,0:0:0:0:
64,192,177108,1,0,0:0:0:0:
448,192,177287,1,0,0:0:0:0:
320,192,177465,1,0,0:0:0:0:
192,192,177644,1,0,0:0:0:0:
64,192,177644,1,0,0:0:0:0:
320,192,177822,1,0,0:0:0:0:
64,192,178001,1,0,0:0:0:0:
448,192,178001,1,0,0:0:0:0:
192,192,178180,1,0,0:0:0:0:
320,192,178358,1,0,0:0:0:0:
448,192,178537,1,0,0:0:0:0:
64,192,178715,1,0,0:0:0:0:
320,192,178715,1,0,0:0:0:0:
192,192,178894,1,0,0:0:0:0:
320,192,179072,1,0,0:0:0:0:
448,192,179251,1,0,0:0:0:0:
320,192,179430,1,0,0:0:0:0:
192,192,179430,1,0,0:0:0:0:
64,192,179430,1,0,0:0:0:0:
448,192,179608,1,0,0:0:0:0:
320,192,179787,1,0,0:0:0:0:
192,192,179965,1,0,0:0:0:0:
64,192,180144,1,0,0:0:0:0:
192,192,180322,1,0,0:0:0:0:
320,192,180501,1,0,0:0:0:0:
64,192,180501,1,0,0:0:0:0:
448,192,180680,1,0,0:0:0:0:
64,192,180858,1,0,0:0:0:0:
192,192,180858,1,0,0:0:0:0:
320,192,180858,128,0,181572:0:0:0:0:
448,192,181572,128,0,182287:0:0:0:0:
192,192,181572,1,0,0:0:0:0:
320,192,182287,128,0,183001:0:0:0:0:
192,192,182287,1,0,0:0:0:0:
192,192,183001,128,0,183715:0:0:0:0:
448,192,183001,1,0,0:0:0:0:
320,192,183715,128,0,184430:0:0:0:0:
448,192,183715,1,0,0:0:0:0:
192,192,184430,128,0,185144:0:0:0:0:
64,192,184430,1,0,0:0:0:0:
64,192,185144,128,0,185858:0:0:0:0:
320,192,185144,1,0,0:0:0:0:
192,192,185858,128,0,186572:0:0:0:0:
320,192,185858,1,0,0:0:0:0:
448,192,186572,128,0,188001:0:0:0:0:
320,192,186572,1,0,0:0:0:0:
64,192,186751,1,0,0:0:0:0:
320,192,186930,1,0,0:0:0:0:
64,192,187108,1,0,0:0:0:0:
320,192,187287,1,0,0:0:0:0:
64,192,187465,1,0,0:0:0:0:
320,192,187644,1,0,0:0:0:0:
64,192,187822,1,0,0:0:0:0:
320,192,188001,128,0,189430:0:0:0:0:
192,192,188001,1,0,0:0:0:0:
64,192,188180,1,0,0:0:0:0:
192,192,188358,1,0,0:0:0:0:
64,192,188537,1,0,0:0:0:0:
192,192,188715,1,0,0:0:0:0:
64,192,188894,1,0,0:0:0:0:
192,192,189072,1,0,0:0:0:0:
64,192,189251,1,0,0:0:0:0:
192,192,189430,128,0,190144:0:0:0:0:
448,192,189430,1,0,0:0:0:0:
320,192,189608,1,0,0:0:0:0:
448,192,189787,1,0,0:0:0:0:
64,192,189965,1,0,0:0:0:0:
320,192,190144,128,0,190858:0:0:0:0:
448,192,190144,1,0,0:0:0:0:
64,192,190322,1,0,0:0:0:0:
192,192,190501,1,0,0:0:0:0:
448,192,190680,1,0,0:0:0:0:
64,192,190858,128,0,191572:0:0:0:0:
192,192,190858,1,0,0:0:0:0:
448,192,191037,1,0,0:0:0:0:
320,192,191215,1,0,0:0:0:0:
192,192,191394,1,0,0:0:0:0:
448,192,191572,128,0,192287:0:0:0:0:
320,192,191572,1,0,0:0:0:0:
192,192,191751,1,0,0:0:0:0:
64,192,191930,1,0,0:0:0:0:
192,192,192108,1,0,0:0:0:0:
64,192,192287,128,0,193001:0:0:0:0:
320,192,192287,1,0,0:0:0:0:
320,192,193001,128,0,193715:0:0:0:0:
192,192,193001,1,0,0:0:0:0:
448,192,193715,1,0,0:0:0:0:
192,192,193715,128,0,194429:0:0:0:0:
64,192,194429,128,0,195144:0:0:0:0:
320,192,194429,1,0,0:0:0:0:
192,192,195144,128,0,196572:0:0:0:0:
320,192,195144,1,0,0:0:0:0:
448,192,195322,1,0,0:0:0:0:
320,192,195501,1,0,0:0:0:0:
448,192,195679,1,0,0:0:0:0:
320,192,195858,1,0,0:0:0:0:
448,192,196037,1,0,0:0:0:0:
320,192,196215,1,0,0:0:0:0:
64,192,196394,1,0,0:0:0:0:
448,192,196572,128,0,198001:0:0:0:0:
320,192,196572,1,0,0:0:0:0:
64,192,196751,1,0,0:0:0:0:
320,192,196929,1,0,0:0:0:0:
64,192,197108,1,0,0:0:0:0:
320,192,197287,1,0,0:0:0:0:
64,192,197465,1,0,0:0:0:0:
320,192,197644,1,0,0:0:0:0:
64,192,197822,1,0,0:0:0:0:
320,192,198001,1,0,0:0:0:0:
192,192,198179,1,0,0:0:0:0:
64,192,198358,1,0,0:0:0:0:
192,192,198537,1,0,0:0:0:0:
320,192,198715,1,0,0:0:0:0:
192,192,198894,1,0,0:0:0:0:
320,192,199072,1,0,0:0:0:0:
448,192,199251,1,0,0:0:0:0:
320,192,199429,1,0,0:0:0:0:
192,192,199608,1,0,0:0:0:0:
64,192,199787,1,0,0:0:0:0:
448,192,199965,1,0,0:0:0:0:
320,192,200144,1,0,0:0:0:0:
192,192,200322,1,0,0:0:0:0:
448,192,200501,1,0,0:0:0:0:
64,192,200679,1,0,0:0:0:0:
320,192,200858,1,0,0:0:0:0:
448,192,200858,1,0,0:0:0:0:
192,192,200858,1,0,0:0:0:0:
64,192,201037,1,0,0:0:0:0:
192,192,201215,1,0,0:0:0:0:
320,192,201394,1,0,0:0:0:0:
448,192,201572,1,0,0:0:0:0:
320,192,201751,1,0,0:0:0:0:
192,192,201929,1,0,0:0:0:0:
320,192,202108,1,0,0:0:0:0:
448,192,202287,1,0,0:0:0:0:
320,192,202465,1,0,0:0:0:0:
192,192,202644,1,0,0:0:0:0:
64,192,202822,1,0,0:0:0:0:
192,192,203001,1,0,0:0:0:0:
320,192,203179,1,0,0:0:0:0:
448,192,203358,128,0,203715:0:0:0:0:
192,192,203358,1,0,0:0:0:0:
64,192,203715,1,0,0:0:0:0:
320,192,203715,1,0,0:0:0:0:
192,192,203894,1,0,0:0:0:0:
320,192,204072,1,0,0:0:0:0:
192,192,204251,1,0,0:0:0:0:
320,192,204429,1,0,0:0:0:0:
192,192,204608,1,0,0:0:0:0:
320,192,204787,1,0,0:0:0:0:
192,192,204965,1,0,0:0:0:0:
448,192,205144,1,0,0:0:0:0:
320,192,205322,1,0,0:0:0:0:
192,192,205501,1,0,0:0:0:0:
64,192,205679,1,0,0:0:0:0:
448,192,205858,1,0,0:0:0:0:
320,192,206037,1,0,0:0:0:0:
192,192,206215,1,0,0:0:0:0:
320,192,206394,1,0,0:0:0:0:
64,192,206572,1,0,0:0:0:0:
192,192,206572,1,0,0:0:0:0:
448,192,206572,1,0,0:0:0:0:
320,192,206751,1,0,0:0:0:0:
448,192,206929,1,0,0:0:0:0:
320,192,207108,1,0,0:0:0:0:
448,192,207287,1,0,0:0:0:0:
320,192,207465,1,0,0:0:0:0:
448,192,207644,1,0,0:0:0:0:
320,192,207822,1,0,0:0:0:0:
64,192,208001,1,0,0:0:0:0:
192,192,208001,1,0,0:0:0:0:
448,192,208001,1,0,0:0:0:0:
320,192,208179,1,0,0:0:0:0:
192,192,208358,1,0,0:0:0:0:
64,192,208537,1,0,0:0:0:0:
448,192,208715,1,0,0:0:0:0:
320,192,208894,1,0,0:0:0:0:
192,192,209072,1,0,0:0:0:0:
320,192,209162,1,0,0:0:0:0:
192,192,209251,1,0,0:0:0:0:
64,192,209340,1,0,0:0:0:0:
448,192,209429,1,0,0:0:0:0:
320,192,209429,1,0,0:0:0:0:
448,192,209697,1,0,0:0:0:0:
320,192,209697,1,0,0:0:0:0:
320,192,209965,1,0,0:0:0:0:
448,192,209965,1,0,0:0:0:0:
64,192,210144,1,0,0:0:0:0:
192,192,210144,1,0,0:0:0:0:
64,192,210412,1,0,0:0:0:0:
192,192,210412,1,0,0:0:0:0:
320,192,210679,1,0,0:0:0:0:
448,192,210679,1,0,0:0:0:0:
320,192,210858,1,0,0:0:0:0:
448,192,210858,1,0,0:0:0:0:
320,192,211126,1,0,0:0:0:0:
448,192,211126,1,0,0:0:0:0:
64,192,211394,1,0,0:0:0:0:
192,192,211394,1,0,0:0:0:0:
64,192,211572,1,0,0:0:0:0:
192,192,211572,1,0,0:0:0:0:
64,192,211840,1,0,0:0:0:0:
192,192,211840,1,0,0:0:0:0:
64,192,212108,1,0,0:0:0:0:
192,192,212108,1,0,0:0:0:0:
320,192,212287,1,0,0:0:0:0:
448,192,212287,1,0,0:0:0:0:
448,192,212554,1,0,0:0:0:0:
320,192,212554,1,0,0:0:0:0:
320,192,212822,1,0,0:0:0:0:
448,192,212822,1,0,0:0:0:0:
64,192,213001,1,0,0:0:0:0:
192,192,213001,1,0,0:0:0:0:
64,192,213269,1,0,0:0:0:0:
192,192,213269,1,0,0:0:0:0:
320,192,213537,1,0,0:0:0:0:
448,192,213537,1,0,0:0:0:0:
320,192,213715,1,0,0:0:0:0:
448,192,213715,1,0,0:0:0:0:
320,192,213983,1,0,0:0:0:0:
448,192,213983,1,0,0:0:0:0:
64,192,214251,1,0,0:0:0:0:
192,192,214251,1,0,0:0:0:0:
64,192,214429,1,0,0:0:0:0:
192,192,214429,1,0,0:0:0:0:
64,192,214697,1,0,0:0:0:0:
192,192,214697,1,0,0:0:0:0:
64,192,214965,1,0,0:0:0:0:
192,192,214965,1,0,0:0:0:0:
320,192,215144,1,0,0:0:0:0:
448,192,215144,1,0,0:0:0:0:
320,192,215322,1,0,0:0:0:0:
448,192,215322,1,0,0:0:0:0:
320,192,215501,1,0,0:0:0:0:
448,192,215501,1,0,0:0:0:0:
320,192,215679,1,0,0:0:0:0:
448,192,215679,1,0,0:0:0:0:
192,192,215858,1,0,0:0:0:0:
64,192,215858,1,0,0:0:0:0:
192,192,216037,1,0,0:0:0:0:
64,192,216037,1,0,0:0:0:0:
192,192,216215,1,0,0:0:0:0:
64,192,216215,1,0,0:0:0:0:
192,192,216394,1,0,0:0:0:0:
64,192,216394,1,0,0:0:0:0:
448,192,216572,1,0,0:0:0:0:
320,192,216662,1,0,0:0:0:0:
64,192,216751,1,0,0:0:0:0:
192,192,216840,1,0,0:0:0:0:
448,192,216929,1,0,0:0:0:0:
320,192,217019,1,0,0:0:0:0:
64,192,217108,1,0,0:0:0:0:
192,192,217197,1,0,0:0:0:0:
448,192,217287,1,0,0:0:0:0:
320,192,217376,1,0,0:0:0:0:
64,192,217465,1,0,0:0:0:0:
192,192,217554,1,0,0:0:0:0:
448,192,217644,1,0,0:0:0:0:
320,192,217733,1,0,0:0:0:0:
192,192,217822,1,0,0:0:0:0:
64,192,217912,1,0,0:0:0:0:
448,192,218001,1,0,0:0:0:0:
320,192,218001,1,0,0:0:0:0:
448,192,218537,1,0,0:0:0:0:
320,192,218537,1,0,0:0:0:0:
448,192,219072,1,0,0:0:0:0:
320,192,219072,1,0,0:0:0:0:
448,192,219608,1,0,0:0:0:0:
320,192,219608,1,0,0:0:0:0:
448,192,220144,1,0,0:0:0:0:
320,192,220144,1,0,0:0:0:0:
192,192,220501,1,0,0:0:0:0:
64,192,220590,1,0,0:0:0:0:
192,192,220679,1,0,0:0:0:0:
64,192,220769,1,0,0:0:0:0:
320,192,220858,1,0,0:0:0:0:
448,192,220858,1,0,0:0:0:0:
192,192,220947,1,0,0:0:0:0:
64,192,221037,1,0,0:0:0:0:
192,192,221126,1,0,0:0:0:0:
320,192,221215,1,0,0:0:0:0:
448,192,221215,1,0,0:0:0:0:
192,192,221304,1,0,0:0:0:0:
64,192,221394,1,0,0:0:0:0:
192,192,221483,1,0,0:0:0:0:
64,192,221572,1,0,0:0:0:0:
192,192,221662,1,0,0:0:0:0:
320,192,221751,1,0,0:0:0:0:
448,192,221840,1,0,0:0:0:0:
64,192,221929,1,0,0:0:0:0:
192,192,222019,1,0,0:0:0:0:
320,192,222108,1,0,0:0:0:0:
448,192,222197,1,0,0:0:0:0:
192,192,222287,1,0,0:0:0:0:
64,192,222287,1,0,0:0:0:0:
320,192,222376,1,0,0:0:0:0:
448,192,222465,1,0,0:0:0:0:
320,192,222554,1,0,0:0:0:0:
192,192,222644,1,0,0:0:0:0:
64,192,222644,1,0,0:0:0:0:
320,192,222733,1,0,0:0:0:0:
448,192,222822,1,0,0:0:0:0:
320,192,222912,1,0,0:0:0:0:
448,192,223001,1,0,0:0:0:0:
320,192,223090,1,0,0:0:0:0:
192,192,223179,1,0,0:0:0:0:
64,192,223269,1,0,0:0:0:0:
448,192,223358,1,0,0:0:0:0:
320,192,223447,1,0,0:0:0:0:
192,192,223537,1,0,0:0:0:0:
64,192,223626,1,0,0:0:0:0:
192,192,223715,1,0,0:0:0:0:
320,192,223804,1,0,0:0:0:0:
448,192,223894,1,0,0:0:0:0:
64,192,223894,1,0,0:0:0:0:
320,192,223983,1,0,0:0:0:0:
192,192,224072,1,0,0:0:0:0:
64,192,224162,1,0,0:0:0:0:
192,192,224251,1,0,0:0:0:0:
448,192,224251,1,0,0:0:0:0:
320,192,224340,1,0,0:0:0:0:
64,192,224429,1,0,0:0:0:0:
192,192,224519,1,0,0:0:0:0:
320,192,224608,1,0,0:0:0:0:
448,192,224697,1,0,0:0:0:0:
320,192,224787,1,0,0:0:0:0:
192,192,224876,1,0,0:0:0:0:
320,192,224965,1,0,0:0:0:0:
192,192,225054,1,0,0:0:0:0:
448,192,225144,1,0,0:0:0:0:
64,192,225144,1,0,0:0:0:0:
320,192,225233,1,0,0:0:0:0:
192,192,225322,1,0,0:0:0:0:
64,192,225412,1,0,0:0:0:0:
192,192,225501,1,0,0:0:0:0:
320,192,225590,1,0,0:0:0:0:
192,192,225679,1,0,0:0:0:0:
320,192,225769,1,0,0:0:0:0:
448,192,225858,1,0,0:0:0:0:
320,192,225947,1,0,0:0:0:0:
192,192,226037,1,0,0:0:0:0:
320,192,226126,1,0,0:0:0:0:
64,192,226215,1,0,0:0:0:0:
192,192,226304,1,0,0:0:0:0:
320,192,226394,1,0,0:0:0:0:
192,192,226483,1,0,0:0:0:0:
448,192,226572,1,0,0:0:0:0:
64,192,226572,1,0,0:0:0:0:
320,192,226662,1,0,0:0:0:0:
192,192,226751,1,0,0:0:0:0:
64,192,226840,1,0,0:0:0:0:
448,192,226929,1,0,0:0:0:0:
320,192,227019,1,0,0:0:0:0:
192,192,227108,1,0,0:0:0:0:
64,192,227197,1,0,0:0:0:0:
448,192,227287,1,0,0:0:0:0:
320,192,227376,1,0,0:0:0:0:
192,192,227465,1,0,0:0:0:0:
320,192,227554,1,0,0:0:0:0:
64,192,227644,1,0,0:0:0:0:
192,192,227733,1,0,0:0:0:0:
320,192,227822,1,0,0:0:0:0:
192,192,227912,1,0,0:0:0:0:
448,192,228001,1,0,0:0:0:0:
64,192,228001,1,0,0:0:0:0:
320,192,228090,1,0,0:0:0:0:
192,192,228179,1,0,0:0:0:0:
64,192,228269,1,0,0:0:0:0:
448,192,228358,1,0,0:0:0:0:
320,192,228447,1,0,0:0:0:0:
192,192,228537,1,0,0:0:0:0:
64,192,228626,1,0,0:0:0:0:
192,192,228715,1,0,0:0:0:0:
320,192,228804,1,0,0:0:0:0:
448,192,228894,1,0,0:0:0:0:
320,192,228983,1,0,0:0:0:0:
64,192,229072,1,0,0:0:0:0:
192,192,229162,1,0,0:0:0:0:
320,192,229251,1,0,0:0:0:0:
448,192,229340,1,0,0:0:0:0:
64,192,229429,1,0,0:0:0:0:
320,192,229429,1,0,0:0:0:0:
192,192,229519,1,0,0:0:0:0:
320,192,229608,1,0,0:0:0:0:
192,192,229697,1,0,0:0:0:0:
448,192,229787,1,0,0:0:0:0:
320,192,229876,1,0,0:0:0:0:
192,192,229965,1,0,0:0:0:0:
320,192,230054,1,0,0:0:0:0:
64,192,230144,1,0,0:0:0:0:
192,192,230233,1,0,0:0:0:0:
320,192,230322,1,0,0:0:0:0:
448,192,230412,1,0,0:0:0:0:
320,192,230501,1,0,0:0:0:0:
192,192,230590,1,0,0:0:0:0:
320,192,230679,1,0,0:0:0:0:
192,192,230769,1,0,0:0:0:0:
448,192,230858,1,0,0:0:0:0:
64,192,230858,1,0,0:0:0:0:
320,192,230947,1,0,0:0:0:0:
192,192,231037,1,0,0:0:0:0:
64,192,231126,1,0,0:0:0:0:
448,192,231215,1,0,0:0:0:0:
320,192,231304,1,0,0:0:0:0:
192,192,231394,1,0,0:0:0:0:
320,192,231483,1,0,0:0:0:0:
64,192,231572,1,0,0:0:0:0:
192,192,231662,1,0,0:0:0:0:
320,192,231751,1,0,0:0:0:0:
448,192,231840,1,0,0:0:0:0:
64,192,231929,1,0,0:0:0:0:
192,192,232019,1,0,0:0:0:0:
320,192,232108,1,0,0:0:0:0:
192,192,232197,1,0,0:0:0:0:
448,192,232287,1,0,0:0:0:0:
320,192,232287,1,0,0:0:0:0:
192,192,232376,1,0,0:0:0:0:
64,192,232465,1,0,0:0:0:0:
192,192,232554,1,0,0:0:0:0:
448,192,232644,1,0,0:0:0:0:
320,192,232644,1,0,0:0:0:0:
192,192,232733,1,0,0:0:0:0:
64,192,232822,1,0,0:0:0:0:
192,192,232912,1,0,0:0:0:0:
64,192,233001,1,0,0:0:0:0:
192,192,233090,1,0,0:0:0:0:
320,192,233179,1,0,0:0:0:0:
448,192,233269,1,0,0:0:0:0:
64,192,233358,1,0,0:0:0:0:
192,192,233447,1,0,0:0:0:0:
320,192,233537,1,0,0:0:0:0:
448,192,233626,1,0,0:0:0:0:
64,192,233715,1,0,0:0:0:0:
192,192,233715,1,0,0:0:0:0:
320,192,233804,1,0,0:0:0:0:
448,192,233894,1,0,0:0:0:0:
320,192,233983,1,0,0:0:0:0:
64,192,234072,1,0,0:0:0:0:
192,192,234072,1,0,0:0:0:0:
320,192,234162,1,0,0:0:0:0:
448,192,234251,1,0,0:0:0:0:
320,192,234340,1,0,0:0:0:0:
448,192,234429,1,0,0:0:0:0:
320,192,234519,1,0,0:0:0:0:
192,192,234608,1,0,0:0:0:0:
64,192,234697,1,0,0:0:0:0:
448,192,234787,1,0,0:0:0:0:
320,192,234876,1,0,0:0:0:0:
192,192,234965,1,0,0:0:0:0:
64,192,235054,1,0,0:0:0:0:
192,192,235144,1,0,0:0:0:0:
320,192,235233,1,0,0:0:0:0:
64,192,235322,1,0,0:0:0:0:
448,192,235322,1,0,0:0:0:0:
320,192,235412,1,0,0:0:0:0:
192,192,235501,1,0,0:0:0:0:
64,192,235590,1,0,0:0:0:0:
448,192,235679,1,0,0:0:0:0:
192,192,235679,1,0,0:0:0:0:
320,192,235769,1,0,0:0:0:0:
64,192,235858,1,0,0:0:0:0:
192,192,235947,1,0,0:0:0:0:
320,192,236037,1,0,0:0:0:0:
448,192,236126,1,0,0:0:0:0:
320,192,236215,1,0,0:0:0:0:
192,192,236304,1,0,0:0:0:0:
320,192,236394,1,0,0:0:0:0:
192,192,236483,1,0,0:0:0:0:
448,192,236572,1,0,0:0:0:0:
64,192,236572,1,0,0:0:0:0:
320,192,236662,1,0,0:0:0:0:
192,192,236751,1,0,0:0:0:0:
64,192,236840,1,0,0:0:0:0:
192,192,236929,1,0,0:0:0:0:
320,192,237019,1,0,0:0:0:0:
192,192,237108,1,0,0:0:0:0:
320,192,237197,1,0,0:0:0:0:
448,192,237287,1,0,0:0:0:0:
320,192,237376,1,0,0:0:0:0:
192,192,237465,1,0,0:0:0:0:
320,192,237554,1,0,0:0:0:0:
64,192,237644,1,0,0:0:0:0:
192,192,237733,1,0,0:0:0:0:
320,192,237822,1,0,0:0:0:0:
192,192,237912,1,0,0:0:0:0:
448,192,238001,1,0,0:0:0:0:
64,192,238001,1,0,0:0:0:0:
320,192,238090,1,0,0:0:0:0:
192,192,238179,1,0,0:0:0:0:
64,192,238269,1,0,0:0:0:0:
448,192,238358,1,0,0:0:0:0:
320,192,238447,1,0,0:0:0:0:
192,192,238537,1,0,0:0:0:0:
64,192,238626,1,0,0:0:0:0:
448,192,238715,1,0,0:0:0:0:
320,192,238804,1,0,0:0:0:0:
192,192,238894,1,0,0:0:0:0:
320,192,238983,1,0,0:0:0:0:
64,192,239072,1,0,0:0:0:0:
192,192,239162,1,0,0:0:0:0:
320,192,239251,1,0,0:0:0:0:
192,192,239340,1,0,0:0:0:0:
448,192,239429,1,0,0:0:0:0:
320,192,239519,1,0,0:0:0:0:
192,192,239608,1,0,0:0:0:0:
64,192,239697,1,0,0:0:0:0:
448,192,239787,1,0,0:0:0:0:
320,192,239876,1,0,0:0:0:0:
192,192,239965,1,0,0:0:0:0:
64,192,240054,1,0,0:0:0:0:
192,192,240144,1,0,0:0:0:0:
320,192,240233,1,0,0:0:0:0:
448,192,240322,1,0,0:0:0:0:
320,192,240412,1,0,0:0:0:0:
64,192,240501,1,0,0:0:0:0:
192,192,240590,1,0,0:0:0:0:
320,192,240679,1,0,0:0:0:0:
448,192,240769,1,0,0:0:0:0:
64,192,240858,1,0,0:0:0:0:
192,192,240947,1,0,0:0:0:0:
320,192,241037,1,0,0:0:0:0:
192,192,241126,1,0,0:0:0:0:
448,192,241215,1,0,0:0:0:0:
320,192,241304,1,0,0:0:0:0:
192,192,241394,1,0,0:0:0:0:
320,192,241483,1,0,0:0:0:0:
64,192,241572,1,0,0:0:0:0:
192,192,241662,1,0,0:0:0:0:
320,192,241751,1,0,0:0:0:0:
448,192,241840,1,0,0:0:0:0:
320,192,241929,1,0,0:0:0:0:
192,192,242019,1,0,0:0:0:0:
64,192,242108,1,0,0:0:0:0:
192,192,242197,1,0,0:0:0:0:
448,192,242287,1,0,0:0:0:0:
320,192,242376,1,0,0:0:0:0:
192,192,242465,1,0,0:0:0:0:
64,192,242554,1,0,0:0:0:0:
448,192,242644,1,0,0:0:0:0:
320,192,242733,1,0,0:0:0:0:
192,192,242822,1,0,0:0:0:0:
64,192,242912,1,0,0:0:0:0:
192,192,243001,1,0,0:0:0:0:
320,192,243090,1,0,0:0:0:0:
192,192,243179,1,0,0:0:0:0:
64,192,243269,1,0,0:0:0:0:
448,192,243358,1,0,0:0:0:0:
320,192,243447,1,0,0:0:0:0:
192,192,243537,1,0,0:0:0:0:
64,192,243626,1,0,0:0:0:0:
448,192,243715,1,0,0:0:0:0:
320,192,243715,1,0,0:0:0:0:
192,192,243804,1,0,0:0:0:0:
64,192,243894,1,0,0:0:0:0:
192,192,243983,1,0,0:0:0:0:
448,192,244072,1,0,0:0:0:0:
320,192,244072,1,0,0:0:0:0:
192,192,244162,1,0,0:0:0:0:
64,192,244251,1,0,0:0:0:0:
192,192,244340,1,0,0:0:0:0:
64,192,244429,1,0,0:0:0:0:
192,192,244519,1,0,0:0:0:0:
320,192,244608,1,0,0:0:0:0:
448,192,244697,1,0,0:0:0:0:
64,192,244787,1,0,0:0:0:0:
192,192,244876,1,0,0:0:0:0:
320,192,244965,1,0,0:0:0:0:
448,192,245054,1,0,0:0:0:0:
64,192,245144,1,0,0:0:0:0:
192,192,245144,1,0,0:0:0:0:
320,192,245233,1,0,0:0:0:0:
448,192,245322,1,0,0:0:0:0:
320,192,245412,1,0,0:0:0:0:
64,192,245501,1,0,0:0:0:0:
192,192,245501,1,0,0:0:0:0:
320,192,245590,1,0,0:0:0:0:
448,192,245679,1,0,0:0:0:0:
320,192,245769,1,0,0:0:0:0:
448,192,245858,1,0,0:0:0:0:
320,192,245947,1,0,0:0:0:0:
192,192,246037,1,0,0:0:0:0:
64,192,246126,1,0,0:0:0:0:
448,192,246215,1,0,0:0:0:0:
320,192,246304,1,0,0:0:0:0:
192,192,246394,1,0,0:0:0:0:
64,192,246483,1,0,0:0:0:0:
192,192,246572,1,0,0:0:0:0:
320,192,246662,1,0,0:0:0:0:
64,192,246751,1,0,0:0:0:0:
448,192,246751,1,0,0:0:0:0:
320,192,246840,1,0,0:0:0:0:
192,192,246929,1,0,0:0:0:0:
64,192,247019,1,0,0:0:0:0:
448,192,247108,1,0,0:0:0:0:
192,192,247108,1,0,0:0:0:0:
320,192,247197,1,0,0:0:0:0:
64,192,247287,1,0,0:0:0:0:
192,192,247376,1,0,0:0:0:0:
320,192,247465,1,0,0:0:0:0:
448,192,247554,1,0,0:0:0:0:
320,192,247644,1,0,0:0:0:0:
192,192,247733,1,0,0:0:0:0:
320,192,247822,1,0,0:0:0:0:
192,192,247912,1,0,0:0:0:0:
64,192,248001,1,0,0:0:0:0:
448,192,248001,1,0,0:0:0:0:
320,192,248090,1,0,0:0:0:0:
192,192,248179,1,0,0:0:0:0:
64,192,248269,1,0,0:0:0:0:
192,192,248358,1,0,0:0:0:0:
320,192,248447,1,0,0:0:0:0:
192,192,248537,1,0,0:0:0:0:
320,192,248626,1,0,0:0:0:0:
448,192,248715,1,0,0:0:0:0:
320,192,248804,1,0,0:0:0:0:
192,192,248894,1,0,0:0:0:0:
320,192,248983,1,0,0:0:0:0:
64,192,249072,1,0,0:0:0:0:
192,192,249162,1,0,0:0:0:0:
320,192,249251,1,0,0:0:0:0:
192,192,249340,1,0,0:0:0:0:
64,192,249429,1,0,0:0:0:0:
448,192,249429,1,0,0:0:0:0:
320,192,249519,1,0,0:0:0:0:
192,192,249608,1,0,0:0:0:0:
64,192,249697,1,0,0:0:0:0:
448,192,249787,1,0,0:0:0:0:
320,192,249876,1,0,0:0:0:0:
192,192,249965,1,0,0:0:0:0:
64,192,250054,1,0,0:0:0:0:
448,192,250144,1,0,0:0:0:0:
320,192,250233,1,0,0:0:0:0:
192,192,250322,1,0,0:0:0:0:
320,192,250412,1,0,0:0:0:0:
64,192,250501,1,0,0:0:0:0:
192,192,250590,1,0,0:0:0:0:
320,192,250679,1,0,0:0:0:0:
192,192,250769,1,0,0:0:0:0:
64,192,250858,1,0,0:0:0:0:
448,192,250858,1,0,0:0:0:0:
320,192,250947,1,0,0:0:0:0:
192,192,251037,1,0,0:0:0:0:
64,192,251126,1,0,0:0:0:0:
448,192,251215,1,0,0:0:0:0:
320,192,251304,1,0,0:0:0:0:
192,192,251394,1,0,0:0:0:0:
64,192,251483,1,0,0:0:0:0:
192,192,251572,1,0,0:0:0:0:
320,192,251662,1,0,0:0:0:0:
448,192,251751,1,0,0:0:0:0:
320,192,251840,1,0,0:0:0:0:
64,192,251929,1,0,0:0:0:0:
192,192,252019,1,0,0:0:0:0:
320,192,252108,1,0,0:0:0:0:
448,192,252197,1,0,0:0:0:0:
320,192,252287,1,0,0:0:0:0:
64,192,252287,1,0,0:0:0:0:
192,192,252376,1,0,0:0:0:0:
320,192,252465,1,0,0:0:0:0:
192,192,252554,1,0,0:0:0:0:
448,192,252644,1,0,0:0:0:0:
320,192,252733,1,0,0:0:0:0:
192,192,252822,1,0,0:0:0:0:
320,192,252912,1,0,0:0:0:0:
64,192,253001,1,0,0:0:0:0:
192,192,253090,1,0,0:0:0:0:
320,192,253179,1,0,0:0:0:0:
448,192,253269,1,0,0:0:0:0:
320,192,253358,1,0,0:0:0:0:
192,192,253447,1,0,0:0:0:0:
320,192,253537,1,0,0:0:0:0:
192,192,253626,1,0,0:0:0:0:
64,192,253715,1,0,0:0:0:0:
448,192,253715,1,0,0:0:0:0:
320,192,253804,1,0,0:0:0:0:
192,192,253894,1,0,0:0:0:0:
64,192,253983,1,0,0:0:0:0:
448,192,254072,1,0,0:0:0:0:
320,192,254162,1,0,0:0:0:0:
192,192,254251,1,0,0:0:0:0:
320,192,254340,1,0,0:0:0:0:
64,192,254429,1,0,0:0:0:0:
192,192,254519,1,0,0:0:0:0:
320,192,254608,1,0,0:0:0:0:
448,192,254697,1,0,0:0:0:0:
64,192,254787,1,0,0:0:0:0:
192,192,254876,1,0,0:0:0:0:
320,192,254965,1,0,0:0:0:0:
192,192,255054,1,0,0:0:0:0:
320,192,255144,1,0,0:0:0:0:
448,192,255144,1,0,0:0:0:0:
192,192,255233,1,0,0:0:0:0:
64,192,255322,1,0,0:0:0:0:
192,192,255412,1,0,0:0:0:0:
320,192,255501,1,0,0:0:0:0:
448,192,255501,1,0,0:0:0:0:
192,192,255590,1,0,0:0:0:0:
64,192,255679,1,0,0:0:0:0:
192,192,255769,1,0,0:0:0:0:
64,192,255858,1,0,0:0:0:0:
192,192,255947,1,0,0:0:0:0:
320,192,256037,1,0,0:0:0:0:
448,192,256126,1,0,0:0:0:0:
64,192,256215,1,0,0:0:0:0:
192,192,256304,1,0,0:0:0:0:
320,192,256394,1,0,0:0:0:0:
448,192,256483,1,0,0:0:0:0:
192,192,256572,1,0,0:0:0:0:
64,192,256572,1,0,0:0:0:0:
320,192,256662,1,0,0:0:0:0:
448,192,256751,1,0,0:0:0:0:
320,192,256840,1,0,0:0:0:0:
192,192,256929,1,0,0:0:0:0:
64,192,256929,1,0,0:0:0:0:
320,192,257019,1,0,0:0:0:0:
448,192,257108,1,0,0:0:0:0:
320,192,257197,1,0,0:0:0:0:
448,192,257287,1,0,0:0:0:0:
320,192,257376,1,0,0:0:0:0:
192,192,257465,1,0,0:0:0:0:
64,192,257554,1,0,0:0:0:0:
448,192,257644,1,0,0:0:0:0:
320,192,257733,1,0,0:0:0:0:
192,192,257822,1,0,0:0:0:0:
64,192,257912,1,0,0:0:0:0:
192,192,258001,1,0,0:0:0:0:
320,192,258090,1,0,0:0:0:0:
448,192,258179,1,0,0:0:0:0:
64,192,258179,1,0,0:0:0:0:
320,192,258269,1,0,0:0:0:0:
192,192,258358,1,0,0:0:0:0:
64,192,258447,1,0,0:0:0:0:
192,192,258537,1,0,0:0:0:0:
448,192,258537,1,0,0:0:0:0:
320,192,258626,1,0,0:0:0:0:
64,192,258715,1,0,0:0:0:0:
192,192,258804,1,0,0:0:0:0:
320,192,258894,1,0,0:0:0:0:
448,192,258983,1,0,0:0:0:0:
320,192,259072,1,0,0:0:0:0:
192,192,259162,1,0,0:0:0:0:
320,192,259251,1,0,0:0:0:0:
192,192,259340,1,0,0:0:0:0:
64,192,259429,1,0,0:0:0:0:
448,192,259429,1,0,0:0:0:0:
320,192,259519,1,0,0:0:0:0:
192,192,259608,1,0,0:0:0:0:
64,192,259697,1,0,0:0:0:0:
192,192,259787,1,0,0:0:0:0:
320,192,259876,1,0,0:0:0:0:
192,192,259965,1,0,0:0:0:0:
320,192,260054,1,0,0:0:0:0:
448,192,260144,1,0,0:0:0:0:
320,192,260233,1,0,0:0:0:0:
192,192,260322,1,0,0:0:0:0:
320,192,260412,1,0,0:0:0:0:
64,192,260501,1,0,0:0:0:0:
192,192,260590,1,0,0:0:0:0:
320,192,260679,1,0,0:0:0:0:
192,192,260769,1,0,0:0:0:0:
64,192,260858,1,0,0:0:0:0:
448,192,260858,1,0,0:0:0:0:
320,192,260947,1,0,0:0:0:0:
192,192,261037,1,0,0:0:0:0:
64,192,261126,1,0,0:0:0:0:
448,192,261215,1,0,0:0:0:0:
320,192,261304,1,0,0:0:0:0:
192,192,261394,1,0,0:0:0:0:
64,192,261483,1,0,0:0:0:0:
448,192,261572,1,0,0:0:0:0:
320,192,261662,1,0,0:0:0:0:
192,192,261751,1,0,0:0:0:0:
320,192,261840,1,0,0:0:0:0:
64,192,261929,1,0,0:0:0:0:
192,192,262019,1,0,0:0:0:0:
320,192,262108,1,0,0:0:0:0:
192,192,262197,1,0,0:0:0:0:
448,192,262287,1,0,0:0:0:0:
64,192,262287,1,0,0:0:0:0:
320,192,262376,1,0,0:0:0:0:
192,192,262465,1,0,0:0:0:0:
64,192,262554,1,0,0:0:0:0:
448,192,262644,1,0,0:0:0:0:
320,192,262733,1,0,0:0:0:0:
192,192,262822,1,0,0:0:0:0:
64,192,262912,1,0,0:0:0:0:
192,192,263001,1,0,0:0:0:0:
320,192,263090,1,0,0:0:0:0:
448,192,263179,1,0,0:0:0:0:
320,192,263269,1,0,0:0:0:0:
64,192,263358,1,0,0:0:0:0:
192,192,263447,1,0,0:0:0:0:
320,192,263537,1,0,0:0:0:0:
448,192,263626,1,0,0:0:0:0:
64,192,263715,1,0,0:0:0:0:
192,192,263804,1,0,0:0:0:0:
320,192,263894,1,0,0:0:0:0:
192,192,263983,1,0,0:0:0:0:
448,192,264072,1,0,0:0:0:0:
320,192,264162,1,0,0:0:0:0:
192,192,264251,1,0,0:0:0:0:
320,192,264340,1,0,0:0:0:0:
64,192,264429,1,0,0:0:0:0:
192,192,264519,1,0,0:0:0:0:
320,192,264608,1,0,0:0:0:0:
448,192,264697,1,0,0:0:0:0:
320,192,264787,1,0,0:0:0:0:
192,192,264876,1,0,0:0:0:0:
64,192,264965,1,0,0:0:0:0:
192,192,265054,1,0,0:0:0:0:
448,192,265144,1,0,0:0:0:0:
320,192,265233,1,0,0:0:0:0:
64,192,265322,1,0,0:0:0:0:
192,192,265367,1,0,0:0:0:0:
320,192,265412,1,0,0:0:0:0:
448,192,265456,1,0,0:0:0:0:
320,192,265501,1,0,0:0:0:0:
192,192,265590,1,0,0:0:0:0:
64,192,265679,1,0,0:0:0:0:
192,192,265724,1,0,0:0:0:0:
320,192,265769,1,0,0:0:0:0:
448,192,265813,1,0,0:0:0:0:
320,192,265858,1,0,0:0:0:0:
192,192,265947,1,0,0:0:0:0:
64,192,266037,1,0,0:0:0:0:
192,192,266081,1,0,0:0:0:0:
320,192,266126,1,0,0:0:0:0:
448,192,266171,1,0,0:0:0:0:
320,192,266215,1,0,0:0:0:0:
192,192,266304,1,0,0:0:0:0:
64,192,266394,1,0,0:0:0:0:
192,192,266438,1,0,0:0:0:0:
320,192,266483,1,0,0:0:0:0:
192,192,266528,1,0,0:0:0:0:
320,192,266572,1,0,0:0:0:0:
448,192,266572,1,0,0:0:0:0:
64,192,266572,1,0,0:0:0:0:
192,192,266662,1,0,0:0:0:0:
64,192,266751,1,0,0:0:0:0:
192,192,266840,1,0,0:0:0:0:
320,192,266929,1,0,0:0:0:0:
448,192,266929,1,0,0:0:0:0:
192,192,267019,1,0,0:0:0:0:
64,192,267108,1,0,0:0:0:0:
192,192,267197,1,0,0:0:0:0:
64,192,267287,1,0,0:0:0:0:
192,192,267376,1,0,0:0:0:0:
320,192,267465,1,0,0:0:0:0:
448,192,267554,1,0,0:0:0:0:
64,192,267644,1,0,0:0:0:0:
192,192,267733,1,0,0:0:0:0:
320,192,267822,1,0,0:0:0:0:
448,192,267912,1,0,0:0:0:0:
192,192,268001,1,0,0:0:0:0:
64,192,268001,1,0,0:0:0:0:
320,192,268090,1,0,0:0:0:0:
448,192,268179,1,0,0:0:0:0:
320,192,268269,1,0,0:0:0:0:
192,192,268358,1,0,0:0:0:0:
64,192,268358,1,0,0:0:0:0:
320,192,268447,1,0,0:0:0:0:
448,192,268537,1,0,0:0:0:0:
320,192,268626,1,0,0:0:0:0:
448,192,268715,1,0,0:0:0:0:
320,192,268804,1,0,0:0:0:0:
192,192,268894,1,0,0:0:0:0:
64,192,268983,1,0,0:0:0:0:
448,192,269072,1,0,0:0:0:0:
320,192,269162,1,0,0:0:0:0:
192,192,269251,1,0,0:0:0:0:
64,192,269340,1,0,0:0:0:0:
192,192,269429,1,0,0:0:0:0:
448,192,269429,1,0,0:0:0:0:
320,192,269519,1,0,0:0:0:0:
448,192,269608,1,0,0:0:0:0:
64,192,269608,1,0,0:0:0:0:
320,192,269697,1,0,0:0:0:0:
192,192,269787,1,0,0:0:0:0:
64,192,269876,1,0,0:0:0:0:
192,192,269965,1,0,0:0:0:0:
448,192,269965,1,0,0:0:0:0:
320,192,270054,1,0,0:0:0:0:
64,192,270144,1,0,0:0:0:0:
192,192,270233,1,0,0:0:0:0:
320,192,270322,1,0,0:0:0:0:
448,192,270412,1,0,0:0:0:0:
320,192,270501,1,0,0:0:0:0:
192,192,270590,1,0,0:0:0:0:
320,192,270679,1,0,0:0:0:0:
192,192,270769,1,0,0:0:0:0:
448,192,270858,1,0,0:0:0:0:
64,192,270858,1,0,0:0:0:0:
320,192,270947,1,0,0:0:0:0:
192,192,271037,1,0,0:0:0:0:
64,192,271126,1,0,0:0:0:0:
192,192,271215,1,0,0:0:0:0:
320,192,271304,1,0,0:0:0:0:
192,192,271394,1,0,0:0:0:0:
320,192,271483,1,0,0:0:0:0:
448,192,271572,1,0,0:0:0:0:
320,192,271662,1,0,0:0:0:0:
192,192,271751,1,0,0:0:0:0:
320,192,271840,1,0,0:0:0:0:
64,192,271929,1,0,0:0:0:0:
192,192,272019,1,0,0:0:0:0:
320,192,272108,1,0,0:0:0:0:
192,192,272197,1,0,0:0:0:0:
448,192,272287,1,0,0:0:0:0:
64,192,272287,1,0,0:0:0:0:
320,192,272376,1,0,0:0:0:0:
192,192,272465,1,0,0:0:0:0:
64,192,272554,1,0,0:0:0:0:
448,192,272644,1,0,0:0:0:0:
320,192,272733,1,0,0:0:0:0:
192,192,272822,1,0,0:0:0:0:
64,192,272912,1,0,0:0:0:0:
448,192,273001,1,0,0:0:0:0:
192,192,273001,1,0,0:0:0:0:
320,192,273090,1,0,0:0:0:0:
192,192,273179,1,0,0:0:0:0:
320,192,273269,1,0,0:0:0:0:
64,192,273358,1,0,0:0:0:0:
192,192,273447,1,0,0:0:0:0:
320,192,273537,1,0,0:0:0:0:
192,192,273626,1,0,0:0:0:0:
448,192,273715,1,0,0:0:0:0:
64,192,273715,1,0,0:0:0:0:
320,192,273804,1,0,0:0:0:0:
192,192,273894,1,0,0:0:0:0:
64,192,273983,1,0,0:0:0:0:
448,192,274072,1,0,0:0:0:0:
192,192,274072,1,0,0:0:0:0:
320,192,274162,1,0,0:0:0:0:
192,192,274251,1,0,0:0:0:0:
64,192,274340,1,0,0:0:0:0:
192,192,274429,1,0,0:0:0:0:
448,192,274429,1,0,0:0:0:0:
320,192,274519,1,0,0:0:0:0:
448,192,274608,1,0,0:0:0:0:
320,192,274697,1,0,0:0:0:0:
64,192,274787,1,0,0:0:0:0:
448,192,274787,1,0,0:0:0:0:
192,192,274876,1,0,0:0:0:0:
320,192,274965,1,0,0:0:0:0:
448,192,275054,1,0,0:0:0:0:
64,192,275144,1,0,0:0:0:0:
320,192,275144,1,0,0:0:0:0:
192,192,275233,1,0,0:0:0:0:
320,192,275322,1,0,0:0:0:0:
192,192,275412,1,0,0:0:0:0:
448,192,275501,1,0,0:0:0:0:
64,192,275501,1,0,0:0:0:0:
320,192,275590,1,0,0:0:0:0:
192,192,275679,1,0,0:0:0:0:
320,192,275769,1,0,0:0:0:0:
64,192,275858,1,0,0:0:0:0:
448,192,275858,1,0,0:0:0:0:
192,192,275947,1,0,0:0:0:0:
320,192,276037,1,0,0:0:0:0:
448,192,276126,1,0,0:0:0:0:
320,192,276215,1,0,0:0:0:0:
64,192,276215,1,0,0:0:0:0:
192,192,276304,1,0,0:0:0:0:
320,192,276394,1,0,0:0:0:0:
192,192,276483,1,0,0:0:0:0:
448,192,276572,1,0,0:0:0:0:
64,192,276572,1,0,0:0:0:0:
320,192,276662,1,0,0:0:0:0:
192,192,276751,1,0,0:0:0:0:
64,192,276840,1,0,0:0:0:0:
448,192,276929,1,0,0:0:0:0:
192,192,276929,1,0,0:0:0:0:
320,192,277019,1,0,0:0:0:0:
192,192,277108,1,0,0:0:0:0:
320,192,277197,1,0,0:0:0:0:
64,192,277287,1,0,0:0:0:0:
448,192,277287,1,0,0:0:0:0:
192,192,277376,1,0,0:0:0:0:
320,192,277465,1,0,0:0:0:0:
448,192,277554,1,0,0:0:0:0:
64,192,277644,1,0,0:0:0:0:
320,192,277644,1,0,0:0:0:0:
192,192,277733,1,0,0:0:0:0:
320,192,277822,1,0,0:0:0:0:
192,192,277912,1,0,0:0:0:0:
448,192,278001,1,0,0:0:0:0:
320,192,278001,1,0,0:0:0:0:
64,192,278001,1,0,0:0:0:0:
192,192,278090,1,0,0:0:0:0:
64,192,278179,1,0,0:0:0:0:
192,192,278269,1,0,0:0:0:0:
448,192,278358,1,0,0:0:0:0:
320,192,278358,1,0,0:0:0:0:
192,192,278447,1,0,0:0:0:0:
64,192,278537,1,0,0:0:0:0:
192,192,278626,1,0,0:0:0:0:
64,192,278715,1,0,0:0:0:0:
320,192,278715,1,0,0:0:0:0:
192,192,278804,1,0,0:0:0:0:
320,192,278894,1,0,0:0:0:0:
448,192,278983,1,0,0:0:0:0:
64,192,279072,1,0,0:0:0:0:
320,192,279072,1,0,0:0:0:0:
192,192,279162,1,0,0:0:0:0:
320,192,279251,1,0,0:0:0:0:
448,192,279340,1,0,0:0:0:0:
64,192,279429,1,0,0:0:0:0:
192,192,279429,1,0,0:0:0:0:
320,192,279519,1,0,0:0:0:0:
448,192,279608,1,0,0:0:0:0:
320,192,279697,1,0,0:0:0:0:
64,192,279787,1,0,0:0:0:0:
192,192,279787,1,0,0:0:0:0:
320,192,279876,1,0,0:0:0:0:
448,192,279965,1,0,0:0:0:0:
320,192,280054,1,0,0:0:0:0:
448,192,280144,1,0,0:0:0:0:
192,192,280144,1,0,0:0:0:0:
320,192,280233,1,0,0:0:0:0:
192,192,280322,1,0,0:0:0:0:
64,192,280412,1,0,0:0:0:0:
448,192,280501,1,0,0:0:0:0:
192,192,280501,1,0,0:0:0:0:
320,192,280590,1,0,0:0:0:0:
192,192,280679,1,0,0:0:0:0:
64,192,280769,1,0,0:0:0:0:
192,192,280858,1,0,0:0:0:0:
448,192,280858,1,0,0:0:0:0:
320,192,280947,1,0,0:0:0:0:
64,192,281037,1,0,0:0:0:0:
448,192,281037,1,0,0:0:0:0:
320,192,281126,1,0,0:0:0:0:
192,192,281215,1,0,0:0:0:0:
448,192,281215,1,0,0:0:0:0:
64,192,281304,1,0,0:0:0:0:
448,192,281394,1,0,0:0:0:0:
192,192,281394,1,0,0:0:0:0:
320,192,281483,1,0,0:0:0:0:
64,192,281572,1,0,0:0:0:0:
448,192,281572,1,0,0:0:0:0:
192,192,281662,1,0,0:0:0:0:
320,192,281751,1,0,0:0:0:0:
448,192,281840,1,0,0:0:0:0:
320,192,281929,1,0,0:0:0:0:
64,192,281929,1,0,0:0:0:0:
192,192,282019,1,0,0:0:0:0:
320,192,282108,1,0,0:0:0:0:
192,192,282197,1,0,0:0:0:0:
448,192,282287,1,0,0:0:0:0:
64,192,282287,1,0,0:0:0:0:
320,192,282376,1,0,0:0:0:0:
192,192,282465,1,0,0:0:0:0:
64,192,282554,1,0,0:0:0:0:
192,192,282644,1,0,0:0:0:0:
448,192,282644,1,0,0:0:0:0:
320,192,282733,1,0,0:0:0:0:
192,192,282822,1,0,0:0:0:0:
320,192,282912,1,0,0:0:0:0:
448,192,283001,1,0,0:0:0:0:
192,192,283001,1,0,0:0:0:0:
320,192,283090,1,0,0:0:0:0:
192,192,283179,1,0,0:0:0:0:
320,192,283269,1,0,0:0:0:0:
64,192,283358,1,0,0:0:0:0:
448,192,283358,1,0,0:0:0:0:
192,192,283447,1,0,0:0:0:0:
320,192,283537,1,0,0:0:0:0:
192,192,283626,1,0,0:0:0:0:
448,192,283715,1,0,0:0:0:0:
64,192,283715,1,0,0:0:0:0:
320,192,283804,1,0,0:0:0:0:
192,192,283894,1,0,0:0:0:0:
64,192,283983,1,0,0:0:0:0:
448,192,284072,1,0,0:0:0:0:
192,192,284072,1,0,0:0:0:0:
320,192,284162,1,0,0:0:0:0:
192,192,284251,1,0,0:0:0:0:
64,192,284340,1,0,0:0:0:0:
448,192,284429,1,0,0:0:0:0:
192,192,284429,1,0,0:0:0:0:
320,192,284519,1,0,0:0:0:0:
192,192,284608,1,0,0:0:0:0:
320,192,284697,1,0,0:0:0:0:
64,192,284787,1,0,0:0:0:0:
448,192,284787,1,0,0:0:0:0:
192,192,284876,1,0,0:0:0:0:
320,192,284965,1,0,0:0:0:0:
192,192,285054,1,0,0:0:0:0:
448,192,285144,1,0,0:0:0:0:
64,192,285144,1,0,0:0:0:0:
320,192,285233,1,0,0:0:0:0:
192,192,285322,1,0,0:0:0:0:
64,192,285412,1,0,0:0:0:0:
448,192,285501,1,0,0:0:0:0:
192,192,285501,1,0,0:0:0:0:
320,192,285590,1,0,0:0:0:0:
192,192,285679,1,0,0:0:0:0:
64,192,285769,1,0,0:0:0:0:
192,192,285858,1,0,0:0:0:0:
448,192,285858,1,0,0:0:0:0:
320,192,285947,1,0,0:0:0:0:
448,192,286037,1,0,0:0:0:0:
320,192,286126,1,0,0:0:0:0:
64,192,286215,1,0,0:0:0:0:
448,192,286215,1,0,0:0:0:0:
192,192,286304,1,0,0:0:0:0:
320,192,286394,1,0,0:0:0:0:
448,192,286483,1,0,0:0:0:0:
64,192,286572,1,0,0:0:0:0:
320,192,286572,1,0,0:0:0:0:
192,192,286662,1,0,0:0:0:0:
320,192,286751,1,0,0:0:0:0:
192,192,286840,1,0,0:0:0:0:
448,192,286929,1,0,0:0:0:0:
64,192,286929,1,0,0:0:0:0:
320,192,287019,1,0,0:0:0:0:
192,192,287108,1,0,0:0:0:0:
320,192,287197,1,0,0:0:0:0:
64,192,287287,1,0,0:0:0:0:
448,192,287287,1,0,0:0:0:0:
192,192,287376,1,0,0:0:0:0:
320,192,287465,1,0,0:0:0:0:
448,192,287554,1,0,0:0:0:0:
320,192,287644,1,0,0:0:0:0:
64,192,287644,1,0,0:0:0:0:
192,192,287733,1,0,0:0:0:0:
64,192,287822,1,0,0:0:0:0:
192,192,287912,1,0,0:0:0:0:
448,192,288001,1,0,0:0:0:0:
64,192,288001,1,0,0:0:0:0:
320,192,288090,1,0,0:0:0:0:
192,192,288179,1,0,0:0:0:0:
64,192,288269,1,0,0:0:0:0:
448,192,288358,1,0,0:0:0:0:
192,192,288358,1,0,0:0:0:0:
320,192,288447,1,0,0:0:0:0:
192,192,288537,1,0,0:0:0:0:
64,192,288626,1,0,0:0:0:0:
192,192,288715,1,0,0:0:0:0:
448,192,288715,1,0,0:0:0:0:
320,192,288804,1,0,0:0:0:0:
64,192,288804,1,0,0:0:0:0:
192,192,288894,1,0,0:0:0:0:
448,192,288894,1,0,0:0:0:0:
64,192,288983,1,0,0:0:0:0:
320,192,288983,1,0,0:0:0:0:
448,192,289072,1,0,0:0:0:0:
192,192,289072,1,0,0:0:0:0:
320,192,289162,1,0,0:0:0:0:
64,192,289162,1,0,0:0:0:0:
192,192,289251,1,0,0:0:0:0:
448,192,289251,1,0,0:0:0:0:
64,192,289340,1,0,0:0:0:0:
448,192,289429,1,0,0:0:0:0:
320,192,289429,1,0,0:0:0:0:
192,192,289519,1,0,0:0:0:0:
64,192,289608,1,0,0:0:0:0:
192,192,289697,1,0,0:0:0:0:
448,192,289787,1,0,0:0:0:0:
320,192,289787,1,0,0:0:0:0:
192,192,289876,1,0,0:0:0:0:
64,192,289965,1,0,0:0:0:0:
192,192,290054,1,0,0:0:0:0:
64,192,290144,1,0,0:0:0:0:
192,192,290233,1,0,0:0:0:0:
320,192,290322,1,0,0:0:0:0:
448,192,290412,1,0,0:0:0:0:
64,192,290501,1,0,0:0:0:0:
192,192,290590,1,0,0:0:0:0:
320,192,290679,1,0,0:0:0:0:
448,192,290769,1,0,0:0:0:0:
64,192,290858,1,0,0:0:0:0:
192,192,290858,1,0,0:0:0:0:
320,192,290947,1,0,0:0:0:0:
448,192,291037,1,0,0:0:0:0:
320,192,291126,1,0,0:0:0:0:
64,192,291215,1,0,0:0:0:0:
192,192,291215,1,0,0:0:0:0:
320,192,291304,1,0,0:0:0:0:
448,192,291394,1,0,0:0:0:0:
320,192,291483,1,0,0:0:0:0:
448,192,291572,1,0,0:0:0:0:
320,192,291662,1,0,0:0:0:0:
192,192,291751,1,0,0:0:0:0:
64,192,291840,1,0,0:0:0:0:
448,192,291929,1,0,0:0:0:0:
320,192,292019,1,0,0:0:0:0:
192,192,292108,1,0,0:0:0:0:
64,192,292197,1,0,0:0:0:0:
448,192,292287,1,0,0:0:0:0:
192,192,292287,1,0,0:0:0:0:
320,192,292376,1,0,0:0:0:0:
64,192,292465,1,0,0:0:0:0:
448,192,292465,1,0,0:0:0:0:
320,192,292554,1,0,0:0:0:0:
192,192,292644,1,0,0:0:0:0:
64,192,292733,1,0,0:0:0:0:
448,192,292822,1,0,0:0:0:0:
192,192,292822,1,0,0:0:0:0:
320,192,292912,1,0,0:0:0:0:
64,192,293001,1,0,0:0:0:0:
192,192,293090,1,0,0:0:0:0:
320,192,293179,1,0,0:0:0:0:
448,192,293269,1,0,0:0:0:0:
320,192,293358,1,0,0:0:0:0:
192,192,293447,1,0,0:0:0:0:
320,192,293537,1,0,0:0:0:0:
192,192,293626,1,0,0:0:0:0:
64,192,293715,1,0,0:0:0:0:
448,192,293715,1,0,0:0:0:0:
320,192,293804,1,0,0:0:0:0:
192,192,293894,1,0,0:0:0:0:
64,192,293983,1,0,0:0:0:0:
192,192,294072,1,0,0:0:0:0:
320,192,294162,1,0,0:0:0:0:
192,192,294251,1,0,0:0:0:0:
320,192,294340,1,0,0:0:0:0:
448,192,294429,1,0,0:0:0:0:
320,192,294519,1,0,0:0:0:0:
192,192,294608,1,0,0:0:0:0:
320,192,294697,1,0,0:0:0:0:
64,192,294787,1,0,0:0:0:0:
192,192,294876,1,0,0:0:0:0:
320,192,294965,1,0,0:0:0:0:
192,192,295054,1,0,0:0:0:0:
64,192,295144,1,0,0:0:0:0:
448,192,295144,1,0,0:0:0:0:
320,192,295233,1,0,0:0:0:0:
192,192,295322,1,0,0:0:0:0:
64,192,295412,1,0,0:0:0:0:
448,192,295501,1,0,0:0:0:0:
320,192,295590,1,0,0:0:0:0:
192,192,295679,1,0,0:0:0:0:
64,192,295769,1,0,0:0:0:0:
192,192,295858,1,0,0:0:0:0:
448,192,295858,1,0,0:0:0:0:
320,192,295947,1,0,0:0:0:0:
192,192,296037,1,0,0:0:0:0:
320,192,296126,1,0,0:0:0:0:
64,192,296215,1,0,0:0:0:0:
192,192,296304,1,0,0:0:0:0:
320,192,296394,1,0,0:0:0:0:
192,192,296483,1,0,0:0:0:0:
64,192,296572,1,0,0:0:0:0:
448,192,296572,1,0,0:0:0:0:
320,192,296662,1,0,0:0:0:0:
192,192,296751,1,0,0:0:0:0:
64,192,296840,1,0,0:0:0:0:
192,192,296929,1,0,0:0:0:0:
448,192,296929,1,0,0:0:0:0:
320,192,297019,1,0,0:0:0:0:
192,192,297108,1,0,0:0:0:0:
64,192,297197,1,0,0:0:0:0:
448,192,297287,1,0,0:0:0:0:
192,192,297287,1,0,0:0:0:0:
320,192,297376,1,0,0:0:0:0:
448,192,297465,1,0,0:0:0:0:
320,192,297554,1,0,0:0:0:0:
448,192,297644,1,0,0:0:0:0:
64,192,297644,1,0,0:0:0:0:
192,192,297733,1,0,0:0:0:0:
320,192,297822,1,0,0:0:0:0:
448,192,297912,1,0,0:0:0:0:
320,192,298001,1,0,0:0:0:0:
64,192,298001,1,0,0:0:0:0:
192,192,298090,1,0,0:0:0:0:
320,192,298179,1,0,0:0:0:0:
192,192,298269,1,0,0:0:0:0:
64,192,298358,1,0,0:0:0:0:
448,192,298358,1,0,0:0:0:0:
320,192,298447,1,0,0:0:0:0:
192,192,298537,1,0,0:0:0:0:
320,192,298626,1,0,0:0:0:0:
448,192,298715,1,0,0:0:0:0:
64,192,298715,1,0,0:0:0:0:
192,192,298804,1,0,0:0:0:0:
320,192,298894,1,0,0:0:0:0:
448,192,298983,1,0,0:0:0:0:
64,192,299072,1,0,0:0:0:0:
320,192,299072,1,0,0:0:0:0:
192,192,299162,1,0,0:0:0:0:
320,192,299251,1,0,0:0:0:0:
192,192,299340,1,0,0:0:0:0:
64,192,299429,1,0,0:0:0:0:
448,192,299429,1,0,0:0:0:0:
320,192,299519,1,0,0:0:0:0:
192,192,299608,1,0,0:0:0:0:
64,192,299697,1,0,0:0:0:0:
192,192,299787,1,0,0:0:0:0:
448,192,299787,1,0,0:0:0:0:
320,192,299876,1,0,0:0:0:0:
192,192,299965,1,0,0:0:0:0:
320,192,300054,1,0,0:0:0:0:
448,192,300144,1,0,0:0:0:0:
64,192,300144,1,0,0:0:0:0:
192,192,300233,1,0,0:0:0:0:
320,192,300233,1,0,0:0:0:0:
448,192,300322,1,0,0:0:0:0:
64,192,300322,1,0,0:0:0:0:
192,192,300412,1,0,0:0:0:0:
320,192,300412,1,0,0:0:0:0:
64,192,300501,1,0,0:0:0:0:
448,192,300501,1,0,0:0:0:0:
192,192,300590,1,0,0:0:0:0:
320,192,300590,1,0,0:0:0:0:
64,192,300679,1,0,0:0:0:0:
448,192,300679,1,0,0:0:0:0:
192,192,300769,1,0,0:0:0:0:
320,192,300769,1,0,0:0:0:0:
64,192,300858,1,0,0:0:0:0:
448,192,300858,1,0,0:0:0:0:
320,192,300947,1,0,0:0:0:0:
192,192,301037,1,0,0:0:0:0:
64,192,301126,1,0,0:0:0:0:
320,192,301215,1,0,0:0:0:0:
448,192,301215,1,0,0:0:0:0:
192,192,301304,1,0,0:0:0:0:
64,192,301394,1,0,0:0:0:0:
192,192,301483,1,0,0:0:0:0:
320,192,301572,1,0,0:0:0:0:
64,192,301572,1,0,0:0:0:0:
192,192,301662,1,0,0:0:0:0:
320,192,301751,1,0,0:0:0:0:
448,192,301840,1,0,0:0:0:0:
320,192,301929,1,0,0:0:0:0:
64,192,301929,1,0,0:0:0:0:
192,192,302019,1,0,0:0:0:0:
320,192,302108,1,0,0:0:0:0:
448,192,302197,1,0,0:0:0:0:
192,192,302287,1,0,0:0:0:0:
64,192,302287,1,0,0:0:0:0:
320,192,302376,1,0,0:0:0:0:
448,192,302465,1,0,0:0:0:0:
320,192,302554,1,0,0:0:0:0:
192,192,302644,1,0,0:0:0:0:
64,192,302644,1,0,0:0:0:0:
320,192,302733,1,0,0:0:0:0:
448,192,302822,1,0,0:0:0:0:
320,192,302912,1,0,0:0:0:0:
192,192,303001,1,0,0:0:0:0:
448,192,303001,1,0,0:0:0:0:
320,192,303090,1,0,0:0:0:0:
192,192,303179,1,0,0:0:0:0:
64,192,303269,1,0,0:0:0:0:
192,192,303358,1,0,0:0:0:0:
448,192,303358,1,0,0:0:0:0:
320,192,303447,1,0,0:0:0:0:
192,192,303537,1,0,0:0:0:0:
64,192,303626,1,0,0:0:0:0:
448,192,303715,1,0,0:0:0:0:
192,192,303715,1,0,0:0:0:0:
320,192,303804,1,0,0:0:0:0:
448,192,303894,1,0,0:0:0:0:
64,192,303894,1,0,0:0:0:0:
320,192,303983,1,0,0:0:0:0:
448,192,304072,1,0,0:0:0:0:
192,192,304072,1,0,0:0:0:0:
64,192,304162,1,0,0:0:0:0:
192,192,304251,1,0,0:0:0:0:
448,192,304251,1,0,0:0:0:0:
320,192,304340,1,0,0:0:0:0:
448,192,304429,1,0,0:0:0:0:
64,192,304429,1,0,0:0:0:0:
192,192,304519,1,0,0:0:0:0:
320,192,304608,1,0,0:0:0:0:
448,192,304697,1,0,0:0:0:0:
64,192,304787,1,0,0:0:0:0:
320,192,304787,1,0,0:0:0:0:
192,192,304876,1,0,0:0:0:0:
320,192,304965,1,0,0:0:0:0:
192,192,305054,1,0,0:0:0:0:
64,192,305144,1,0,0:0:0:0:
448,192,305144,1,0,0:0:0:0:
320,192,305233,1,0,0:0:0:0:
192,192,305322,1,0,0:0:0:0:
64,192,305412,1,0,0:0:0:0:
448,192,305501,1,0,0:0:0:0:
192,192,305501,1,0,0:0:0:0:
320,192,305590,1,0,0:0:0:0:
192,192,305679,1,0,0:0:0:0:
320,192,305769,1,0,0:0:0:0:
192,192,305858,1,0,0:0:0:0:
448,192,305858,1,0,0:0:0:0:
320,192,305947,1,0,0:0:0:0:
192,192,306037,1,0,0:0:0:0:
320,192,306126,1,0,0:0:0:0:
448,192,306215,1,0,0:0:0:0:
64,192,306215,1,0,0:0:0:0:
192,192,306304,1,0,0:0:0:0:
320,192,306394,1,0,0:0:0:0:
192,192,306483,1,0,0:0:0:0:
64,192,306572,1,0,0:0:0:0:
448,192,306572,1,0,0:0:0:0:
320,192,306662,1,0,0:0:0:0:
192,192,306751,1,0,0:0:0:0:
64,192,306840,1,0,0:0:0:0:
192,192,306929,1,0,0:0:0:0:
448,192,306929,1,0,0:0:0:0:
320,192,307019,1,0,0:0:0:0:
192,192,307108,1,0,0:0:0:0:
64,192,307197,1,0,0:0:0:0:
192,192,307287,1,0,0:0:0:0:
448,192,307287,1,0,0:0:0:0:
320,192,307376,1,0,0:0:0:0:
192,192,307465,1,0,0:0:0:0:
320,192,307554,1,0,0:0:0:0:
448,192,307644,1,0,0:0:0:0:
64,192,307644,1,0,0:0:0:0:
192,192,307733,1,0,0:0:0:0:
320,192,307822,1,0,0:0:0:0:
192,192,307912,1,0,0:0:0:0:
64,192,308001,1,0,0:0:0:0:
448,192,308001,1,0,0:0:0:0:
320,192,308090,1,0,0:0:0:0:
192,192,308179,1,0,0:0:0:0:
64,192,308269,1,0,0:0:0:0:
192,192,308358,1,0,0:0:0:0:
448,192,308358,1,0,0:0:0:0:
320,192,308447,1,0,0:0:0:0:
192,192,308537,1,0,0:0:0:0:
64,192,308626,1,0,0:0:0:0:
448,192,308715,1,0,0:0:0:0:
192,192,308715,1,0,0:0:0:0:
320,192,308804,1,0,0:0:0:0:
448,192,308894,1,0,0:0:0:0:
320,192,308983,1,0,0:0:0:0:
448,192,309072,1,0,0:0:0:0:
64,192,309072,1,0,0:0:0:0:
192,192,309162,1,0,0:0:0:0:
320,192,309251,1,0,0:0:0:0:
448,192,309340,1,0,0:0:0:0:
320,192,309429,1,0,0:0:0:0:
192,192,309429,1,0,0:0:0:0:
64,192,309429,1,0,0:0:0:0:
448,192,309429,1,0,0:0:0:0:
320,192,309608,1,0,0:0:0:0:
448,192,309697,1,0,0:0:0:0:
320,192,309876,1,0,0:0:0:0:
448,192,309965,1,0,0:0:0:0:
320,192,310144,1,0,0:0:0:0:
192,192,310144,1,0,0:0:0:0:
64,192,310144,1,0,0:0:0:0:
448,192,310144,1,0,0:0:0:0:
320,192,310322,1,0,0:0:0:0:
448,192,310412,1,0,0:0:0:0:
320,192,310590,1,0,0:0:0:0:
448,192,310679,1,0,0:0:0:0:
320,192,310858,1,0,0:0:0:0:
192,192,310858,1,0,0:0:0:0:
64,192,310858,1,0,0:0:0:0:
448,192,310858,1,0,0:0:0:0:
320,192,311037,1,0,0:0:0:0:
448,192,311126,1,0,0:0:0:0:
320,192,311304,1,0,0:0:0:0:
448,192,311394,1,0,0:0:0:0:
64,192,311572,1,0,0:0:0:0:
448,192,311572,1,0,0:0:0:0:
192,192,311662,1,0,0:0:0:0:
320,192,311662,1,0,0:0:0:0:
64,192,311751,1,0,0:0:0:0:
448,192,311751,1,0,0:0:0:0:
192,192,311840,1,0,0:0:0:0:
320,192,311840,1,0,0:0:0:0:
448,192,311929,1,0,0:0:0:0:
64,192,311929,1,0,0:0:0:0:
320,192,312019,1,0,0:0:0:0:
192,192,312019,1,0,0:0:0:0:
448,192,312108,1,0,0:0:0:0:
64,192,312108,1,0,0:0:0:0:
320,192,312197,1,0,0:0:0:0:
192,192,312197,1,0,0:0:0:0:
64,192,312287,1,0,0:0:0:0:
192,192,312376,1,0,0:0:0:0:
320,192,312465,1,0,0:0:0:0:
448,192,312554,1,0,0:0:0:0:
64,192,312644,1,0,0:0:0:0:
192,192,312733,1,0,0:0:0:0:
320,192,312822,1,0,0:0:0:0:
448,192,312912,1,0,0:0:0:0:
320,192,313001,1,0,0:0:0:0:
192,192,313090,1,0,0:0:0:0:
64,192,313179,1,0,0:0:0:0:
192,192,313269,1,0,0:0:0:0:
448,192,313358,1,0,0:0:0:0:
320,192,313447,1,0,0:0:0:0:
192,192,313537,1,0,0:0:0:0:
320,192,313626,1,0,0:0:0:0:
448,192,313715,1,0,0:0:0:0:
320,192,313804,1,0,0:0:0:0:
192,192,313894,1,0,0:0:0:0:
64,192,313983,1,0,0:0:0:0:
448,192,314072,1,0,0:0:0:0:
320,192,314162,1,0,0:0:0:0:
192,192,314251,1,0,0:0:0:0:
64,192,314340,1,0,0:0:0:0:
448,192,314429,1,0,0:0:0:0:
320,192,314519,1,0,0:0:0:0:
192,192,314608,1,0,0:0:0:0:
320,192,314697,1,0,0:0:0:0:
64,192,314787,1,0,0:0:0:0:
192,192,314876,1,0,0:0:0:0:
320,192,314965,1,0,0:0:0:0:
192,192,315054,1,0,0:0:0:0:
448,192,315144,1,0,0:0:0:0:
320,192,315233,1,0,0:0:0:0:
192,192,315322,1,0,0:0:0:0:
64,192,315412,1,0,0:0:0:0:
192,192,315501,1,0,0:0:0:0:
320,192,315590,1,0,0:0:0:0:
448,192,315679,1,0,0:0:0:0:
320,192,315769,1,0,0:0:0:0:
448,192,315858,1,0,0:0:0:0:
320,192,315947,1,0,0:0:0:0:
192,192,316037,1,0,0:0:0:0:
64,192,316126,1,0,0:0:0:0:
192,192,316215,1,0,0:0:0:0:
320,192,316304,1,0,0:0:0:0:
448,192,316394,1,0,0:0:0:0:
320,192,316483,1,0,0:0:0:0:
64,192,316572,1,0,0:0:0:0:
192,192,316662,1,0,0:0:0:0:
320,192,316751,1,0,0:0:0:0:
448,192,316840,1,0,0:0:0:0:
64,192,316929,1,0,0:0:0:0:
192,192,317019,1,0,0:0:0:0:
320,192,317108,1,0,0:0:0:0:
448,192,317197,1,0,0:0:0:0:
64,192,317287,1,0,0:0:0:0:
192,192,317376,1,0,0:0:0:0:
64,192,317465,1,0,0:0:0:0:
192,192,317554,1,0,0:0:0:0:
320,192,317644,1,0,0:0:0:0:
448,192,317733,1,0,0:0:0:0:
320,192,317822,1,0,0:0:0:0:
448,192,317912,1,0,0:0:0:0:
320,192,318001,1,0,0:0:0:0:
192,192,318090,1,0,0:0:0:0:
64,192,318179,1,0,0:0:0:0:
192,192,318269,1,0,0:0:0:0:
64,192,318358,1,0,0:0:0:0:
192,192,318447,1,0,0:0:0:0:
320,192,318537,1,0,0:0:0:0:
448,192,318626,1,0,0:0:0:0:
192,192,318715,1,0,0:0:0:0:
320,192,318804,1,0,0:0:0:0:
448,192,318894,1,0,0:0:0:0:
320,192,318983,1,0,0:0:0:0:
64,192,319072,1,0,0:0:0:0:
192,192,319162,1,0,0:0:0:0:
320,192,319251,1,0,0:0:0:0:
192,192,319340,1,0,0:0:0:0:
448,192,319429,1,0,0:0:0:0:
320,192,319519,1,0,0:0:0:0:
192,192,319608,1,0,0:0:0:0:
64,192,319697,1,0,0:0:0:0:
192,192,319787,1,0,0:0:0:0:
320,192,319876,1,0,0:0:0:0:
192,192,319965,1,0,0:0:0:0:
64,192,320054,1,0,0:0:0:0:
192,192,320144,1,0,0:0:0:0:
320,192,320233,1,0,0:0:0:0:
448,192,320322,1,0,0:0:0:0:
320,192,320412,1,0,0:0:0:0:
192,192,320501,1,0,0:0:0:0:
320,192,320590,1,0,0:0:0:0:
192,192,320679,1,0,0:0:0:0:
64,192,320769,1,0,0:0:0:0:
448,192,320858,1,0,0:0:0:0:
320,192,320947,1,0,0:0:0:0:
192,192,321037,1,0,0:0:0:0:
64,192,321126,1,0,0:0:0:0:
448,192,321215,1,0,0:0:0:0:
320,192,321304,1,0,0:0:0:0:
192,192,321394,1,0,0:0:0:0:
64,192,321483,1,0,0:0:0:0:
448,192,321572,1,0,0:0:0:0:
320,192,321662,1,0,0:0:0:0:
192,192,321751,1,0,0:0:0:0:
448,192,321840,1,0,0:0:0:0:
320,192,321929,1,0,0:0:0:0:
192,192,322019,1,0,0:0:0:0:
64,192,322108,1,0,0:0:0:0:
192,192,322197,1,0,0:0:0:0:
320,192,322287,1,0,0:0:0:0:
448,192,322376,1,0,0:0:0:0:
320,192,322465,1,0,0:0:0:0:
192,192,322554,1,0,0:0:0:0:
448,192,322644,1,0,0:0:0:0:
320,192,322733,1,0,0:0:0:0:
192,192,322822,1,0,0:0:0:0:
64,192,322912,1,0,0:0:0:0:
448,192,323001,1,0,0:0:0:0:
320,192,323090,1,0,0:0:0:0:
448,192,323179,1,0,0:0:0:0:
320,192,323269,1,0,0:0:0:0:
192,192,323358,1,0,0:0:0:0:
64,192,323447,1,0,0:0:0:0:
192,192,323537,1,0,0:0:0:0:
64,192,323626,1,0,0:0:0:0:
320,192,323715,1,0,0:0:0:0:
192,192,323804,1,0,0:0:0:0:
320,192,323894,1,0,0:0:0:0:
448,192,323983,1,0,0:0:0:0:
64,192,324072,1,0,0:0:0:0:
192,192,324162,1,0,0:0:0:0:
320,192,324251,1,0,0:0:0:0:
448,192,324340,1,0,0:0:0:0:
320,192,324429,1,0,0:0:0:0:
192,192,324519,1,0,0:0:0:0:
64,192,324608,1,0,0:0:0:0:
192,192,324697,1,0,0:0:0:0:
448,192,324787,1,0,0:0:0:0:
320,192,324876,1,0,0:0:0:0:
192,192,324965,1,0,0:0:0:0:
320,192,325054,1,0,0:0:0:0:
448,192,325144,1,0,0:0:0:0:
320,192,325233,1,0,0:0:0:0:
192,192,325322,1,0,0:0:0:0:
64,192,325412,1,0,0:0:0:0:
448,192,325501,1,0,0:0:0:0:
320,192,325590,1,0,0:0:0:0:
192,192,325679,1,0,0:0:0:0:
64,192,325769,1,0,0:0:0:0:
448,192,325858,1,0,0:0:0:0:
320,192,325947,1,0,0:0:0:0:
192,192,326037,1,0,0:0:0:0:
320,192,326126,1,0,0:0:0:0:
64,192,326215,1,0,0:0:0:0:
192,192,326304,1,0,0:0:0:0:
320,192,326394,1,0,0:0:0:0:
192,192,326483,1,0,0:0:0:0:
448,192,326572,1,0,0:0:0:0:
320,192,326662,1,0,0:0:0:0:
192,192,326751,1,0,0:0:0:0:
64,192,326840,1,0,0:0:0:0:
192,192,326929,1,0,0:0:0:0:
320,192,327019,1,0,0:0:0:0:
448,192,327108,1,0,0:0:0:0:
320,192,327197,1,0,0:0:0:0:
448,192,327287,1,0,0:0:0:0:
320,192,327376,1,0,0:0:0:0:
192,192,327465,1,0,0:0:0:0:
64,192,327554,1,0,0:0:0:0:
192,192,327644,1,0,0:0:0:0:
320,192,327733,1,0,0:0:0:0:
448,192,327822,1,0,0:0:0:0:
320,192,327912,1,0,0:0:0:0:
64,192,328001,1,0,0:0:0:0:
192,192,328090,1,0,0:0:0:0:
320,192,328179,1,0,0:0:0:0:
448,192,328269,1,0,0:0:0:0:
64,192,328358,1,0,0:0:0:0:
192,192,328447,1,0,0:0:0:0:
320,192,328537,1,0,0:0:0:0:
448,192,328626,1,0,0:0:0:0:
64,192,328715,1,0,0:0:0:0:
192,192,328804,1,0,0:0:0:0:
64,192,328894,1,0,0:0:0:0:
192,192,328983,1,0,0:0:0:0:
320,192,329072,1,0,0:0:0:0:
448,192,329162,1,0,0:0:0:0:
320,192,329251,1,0,0:0:0:0:
448,192,329340,1,0,0:0:0:0:
320,192,329429,1,0,0:0:0:0:
192,192,329519,1,0,0:0:0:0:
64,192,329608,1,0,0:0:0:0:
192,192,329697,1,0,0:0:0:0:
64,192,329787,1,0,0:0:0:0:
192,192,329876,1,0,0:0:0:0:
320,192,329965,1,0,0:0:0:0:
448,192,330054,1,0,0:0:0:0:
192,192,330144,1,0,0:0:0:0:
320,192,330233,1,0,0:0:0:0:
448,192,330322,1,0,0:0:0:0:
320,192,330412,1,0,0:0:0:0:
64,192,330501,1,0,0:0:0:0:
192,192,330590,1,0,0:0:0:0:
320,192,330679,1,0,0:0:0:0:
192,192,330769,1,0,0:0:0:0:
448,192,330858,1,0,0:0:0:0:
320,192,330947,1,0,0:0:0:0:
192,192,331037,1,0,0:0:0:0:
64,192,331126,1,0,0:0:0:0:
192,192,331215,1,0,0:0:0:0:
320,192,331304,1,0,0:0:0:0:
192,192,331394,1,0,0:0:0:0:
64,192,331483,1,0,0:0:0:0:
192,192,331572,1,0,0:0:0:0:
320,192,331662,1,0,0:0:0:0:
448,192,331751,1,0,0:0:0:0:
320,192,331840,1,0,0:0:0:0:
192,192,331929,1,0,0:0:0:0:
320,192,332019,1,0,0:0:0:0:
192,192,332108,1,0,0:0:0:0:
64,192,332197,1,0,0:0:0:0:
448,192,332287,1,0,0:0:0:0:
320,192,332376,1,0,0:0:0:0:
192,192,332465,1,0,0:0:0:0:
64,192,332554,1,0,0:0:0:0:
448,192,332644,1,0,0:0:0:0:
320,192,332733,1,0,0:0:0:0:
192,192,332822,1,0,0:0:0:0:
64,192,332912,1,0,0:0:0:0:
448,192,333001,1,0,0:0:0:0:
320,192,333090,1,0,0:0:0:0:
192,192,333179,1,0,0:0:0:0:
448,192,333269,1,0,0:0:0:0:
320,192,333358,1,0,0:0:0:0:
192,192,333447,1,0,0:0:0:0:
64,192,333537,1,0,0:0:0:0:
192,192,333626,1,0,0:0:0:0:
320,192,333715,1,0,0:0:0:0:
448,192,333804,1,0,0:0:0:0:
320,192,333894,1,0,0:0:0:0:
192,192,333983,1,0,0:0:0:0:
448,192,334072,1,0,0:0:0:0:
320,192,334162,1,0,0:0:0:0:
192,192,334251,1,0,0:0:0:0:
64,192,334340,1,0,0:0:0:0:
448,192,334429,1,0,0:0:0:0:
320,192,334519,1,0,0:0:0:0:
448,192,334608,1,0,0:0:0:0:
320,192,334697,1,0,0:0:0:0:
192,192,334787,1,0,0:0:0:0:
64,192,334876,1,0,0:0:0:0:
192,192,334965,1,0,0:0:0:0:
64,192,335054,1,0,0:0:0:0:
448,192,335144,1,0,0:0:0:0:
320,192,335233,1,0,0:0:0:0:
192,192,335322,1,0,0:0:0:0:
64,192,335412,1,0,0:0:0:0:
320,192,335501,1,0,0:0:0:0:
192,192,335590,1,0,0:0:0:0:
320,192,335679,1,0,0:0:0:0:
448,192,335769,1,0,0:0:0:0:
320,192,335858,1,0,0:0:0:0:
192,192,335947,1,0,0:0:0:0:
64,192,336037,1,0,0:0:0:0:
192,192,336126,1,0,0:0:0:0:
448,192,336215,1,0,0:0:0:0:
320,192,336304,1,0,0:0:0:0:
192,192,336394,1,0,0:0:0:0:
320,192,336483,1,0,0:0:0:0:
448,192,336572,1,0,0:0:0:0:
320,192,336662,1,0,0:0:0:0:
192,192,336751,1,0,0:0:0:0:
64,192,336840,1,0,0:0:0:0:
448,192,336929,1,0,0:0:0:0:
320,192,337019,1,0,0:0:0:0:
192,192,337108,1,0,0:0:0:0:
64,192,337197,1,0,0:0:0:0:
448,192,337287,1,0,0:0:0:0:
320,192,337376,1,0,0:0:0:0:
192,192,337465,1,0,0:0:0:0:
320,192,337554,1,0,0:0:0:0:
64,192,337644,1,0,0:0:0:0:
192,192,337733,1,0,0:0:0:0:
320,192,337822,1,0,0:0:0:0:
192,192,337912,1,0,0:0:0:0:
448,192,338001,1,0,0:0:0:0:
320,192,338090,1,0,0:0:0:0:
192,192,338179,1,0,0:0:0:0:
64,192,338269,1,0,0:0:0:0:
192,192,338358,1,0,0:0:0:0:
320,192,338447,1,0,0:0:0:0:
448,192,338537,1,0,0:0:0:0:
320,192,338626,1,0,0:0:0:0:
448,192,338715,1,0,0:0:0:0:
320,192,338804,1,0,0:0:0:0:
192,192,338894,1,0,0:0:0:0:
64,192,338983,1,0,0:0:0:0:
192,192,339072,1,0,0:0:0:0:
320,192,339162,1,0,0:0:0:0:
448,192,339251,1,0,0:0:0:0:
320,192,339340,1,0,0:0:0:0:
64,192,339429,1,0,0:0:0:0:
192,192,339519,1,0,0:0:0:0:
320,192,339608,1,0,0:0:0:0:
448,192,339697,1,0,0:0:0:0:
64,192,339787,1,0,0:0:0:0:
192,192,339876,1,0,0:0:0:0:
320,192,339965,1,0,0:0:0:0:
448,192,340054,1,0,0:0:0:0:
64,192,340144,1,0,0:0:0:0:
192,192,340233,1,0,0:0:0:0:
64,192,340322,1,0,0:0:0:0:
192,192,340412,1,0,0:0:0:0:
320,192,340501,1,0,0:0:0:0:
448,192,340590,1,0,0:0:0:0:
320,192,340679,1,0,0:0:0:0:
448,192,340769,1,0,0:0:0:0:
320,192,340858,1,0,0:0:0:0:
192,192,340947,1,0,0:0:0:0:
64,192,341037,1,0,0:0:0:0:
192,192,341126,1,0,0:0:0:0:
64,192,341215,1,0,0:0:0:0:
192,192,341304,1,0,0:0:0:0:
320,192,341394,1,0,0:0:0:0:
448,192,341483,1,0,0:0:0:0:
192,192,341572,1,0,0:0:0:0:
320,192,341662,1,0,0:0:0:0:
448,192,341751,1,0,0:0:0:0:
320,192,341840,1,0,0:0:0:0:
64,192,341929,1,0,0:0:0:0:
192,192,342019,1,0,0:0:0:0:
320,192,342108,1,0,0:0:0:0:
192,192,342197,1,0,0:0:0:0:
448,192,342287,1,0,0:0:0:0:
320,192,342376,1,0,0:0:0:0:
192,192,342465,1,0,0:0:0:0:
64,192,342554,1,0,0:0:0:0:
192,192,342644,1,0,0:0:0:0:
320,192,342733,1,0,0:0:0:0:
192,192,342822,1,0,0:0:0:0:
64,192,342912,1,0,0:0:0:0:
192,192,343001,1,0,0:0:0:0:
320,192,343090,1,0,0:0:0:0:
448,192,343179,1,0,0:0:0:0:
320,192,343269,1,0,0:0:0:0:
192,192,343358,1,0,0:0:0:0:
320,192,343447,1,0,0:0:0:0:
192,192,343537,1,0,0:0:0:0:
64,192,343626,1,0,0:0:0:0:
448,192,343715,1,0,0:0:0:0:
320,192,343804,1,0,0:0:0:0:
192,192,343894,1,0,0:0:0:0:
64,192,343983,1,0,0:0:0:0:
448,192,344072,1,0,0:0:0:0:
320,192,344162,1,0,0:0:0:0:
192,192,344251,1,0,0:0:0:0:
64,192,344340,1,0,0:0:0:0:
448,192,344429,1,0,0:0:0:0:
320,192,344519,1,0,0:0:0:0:
192,192,344608,1,0,0:0:0:0:
448,192,344697,1,0,0:0:0:0:
320,192,344787,1,0,0:0:0:0:
192,192,344876,1,0,0:0:0:0:
64,192,344965,1,0,0:0:0:0:
192,192,345054,1,0,0:0:0:0:
320,192,345144,1,0,0:0:0:0:
448,192,345233,1,0,0:0:0:0:
320,192,345322,1,0,0:0:0:0:
192,192,345412,1,0,0:0:0:0:
448,192,345501,1,0,0:0:0:0:
320,192,345590,1,0,0:0:0:0:
192,192,345679,1,0,0:0:0:0:
64,192,345769,1,0,0:0:0:0:
448,192,345858,1,0,0:0:0:0:
320,192,345947,1,0,0:0:0:0:
448,192,346037,1,0,0:0:0:0:
320,192,346126,1,0,0:0:0:0:
192,192,346215,1,0,0:0:0:0:
64,192,346304,1,0,0:0:0:0:
192,192,346394,1,0,0:0:0:0:
64,192,346483,1,0,0:0:0:0:
320,192,346572,1,0,0:0:0:0:
192,192,346662,1,0,0:0:0:0:
320,192,346751,1,0,0:0:0:0:
448,192,346840,1,0,0:0:0:0:
64,192,346929,1,0,0:0:0:0:
192,192,347019,1,0,0:0:0:0:
320,192,347108,1,0,0:0:0:0:
448,192,347197,1,0,0:0:0:0:
320,192,347287,1,0,0:0:0:0:
192,192,347376,1,0,0:0:0:0:
64,192,347465,1,0,0:0:0:0:
192,192,347554,1,0,0:0:0:0:
448,192,347644,1,0,0:0:0:0:
320,192,347733,1,0,0:0:0:0:
192,192,347822,1,0,0:0:0:0:
320,192,347912,1,0,0:0:0:0:
448,192,348001,1,0,0:0:0:0:
320,192,348090,1,0,0:0:0:0:
192,192,348179,1,0,0:0:0:0:
64,192,348269,1,0,0:0:0:0:
448,192,348358,1,0,0:0:0:0:
320,192,348447,1,0,0:0:0:0:
192,192,348537,1,0,0:0:0:0:
64,192,348626,1,0,0:0:0:0:
448,192,348715,1,0,0:0:0:0:
320,192,348804,1,0,0:0:0:0:
192,192,348894,1,0,0:0:0:0:
320,192,348983,1,0,0:0:0:0:
64,192,349072,1,0,0:0:0:0:
192,192,349162,1,0,0:0:0:0:
320,192,349251,1,0,0:0:0:0:
192,192,349340,1,0,0:0:0:0:
448,192,349429,1,0,0:0:0:0:
320,192,349519,1,0,0:0:0:0:
192,192,349608,1,0,0:0:0:0:
64,192,349697,1,0,0:0:0:0:
192,192,349787,1,0,0:0:0:0:
320,192,349876,1,0,0:0:0:0:
448,192,349965,1,0,0:0:0:0:
320,192,350054,1,0,0:0:0:0:
448,192,350144,1,0,0:0:0:0:
320,192,350233,1,0,0:0:0:0:
192,192,350322,1,0,0:0:0:0:
64,192,350412,1,0,0:0:0:0:
192,192,350501,1,0,0:0:0:0:
320,192,350590,1,0,0:0:0:0:
448,192,350679,1,0,0:0:0:0:
320,192,350769,1,0,0:0:0:0:
64,192,350858,1,0,0:0:0:0:
192,192,350947,1,0,0:0:0:0:
320,192,351037,1,0,0:0:0:0:
448,192,351126,1,0,0:0:0:0:
64,192,351215,1,0,0:0:0:0:
192,192,351304,1,0,0:0:0:0:
320,192,351394,1,0,0:0:0:0:
448,192,351483,1,0,0:0:0:0:
64,192,351572,1,0,0:0:0:0:
192,192,351662,1,0,0:0:0:0:
64,192,351751,1,0,0:0:0:0:
192,192,351840,1,0,0:0:0:0:
320,192,351929,1,0,0:0:0:0:
448,192,352019,1,0,0:0:0:0:
320,192,352108,1,0,0:0:0:0:
448,192,352197,1,0,0:0:0:0:
320,192,352287,1,0,0:0:0:0:
192,192,352376,1,0,0:0:0:0:
64,192,352465,1,0,0:0:0:0:
192,192,352554,1,0,0:0:0:0:
64,192,352644,1,0,0:0:0:0:
192,192,352733,1,0,0:0:0:0:
320,192,352822,1,0,0:0:0:0:
448,192,352912,1,0,0:0:0:0:
192,192,353001,1,0,0:0:0:0:
320,192,353090,1,0,0:0:0:0:
448,192,353179,1,0,0:0:0:0:
320,192,353269,1,0,0:0:0:0:
64,192,353358,1,0,0:0:0:0:
192,192,353447,1,0,0:0:0:0:
320,192,353537,1,0,0:0:0:0:
192,192,353626,1,0,0:0:0:0:
448,192,353715,1,0,0:0:0:0:
320,192,353804,1,0,0:0:0:0:
192,192,353894,1,0,0:0:0:0:
64,192,353983,1,0,0:0:0:0:
192,192,354072,1,0,0:0:0:0:
320,192,354162,1,0,0:0:0:0:
192,192,354251,1,0,0:0:0:0:
64,192,354340,1,0,0:0:0:0:
192,192,354429,1,0,0:0:0:0:
320,192,354519,1,0,0:0:0:0:
448,192,354608,1,0,0:0:0:0:
320,192,354697,1,0,0:0:0:0:
192,192,354787,1,0,0:0:0:0:
320,192,354876,1,0,0:0:0:0:
192,192,354965,1,0,0:0:0:0:
64,192,355054,1,0,0:0:0:0:
448,192,355144,1,0,0:0:0:0:
320,192,355233,1,0,0:0:0:0:
448,192,355322,1,0,0:0:0:0:
320,192,355412,1,0,0:0:0:0:
448,192,355501,1,0,0:0:0:0:
320,192,355590,1,0,0:0:0:0:
448,192,355679,1,0,0:0:0:0:
320,192,355769,1,0,0:0:0:0:
64,192,355858,1,0,0:0:0:0:
192,192,355947,1,0,0:0:0:0:
64,192,356037,1,0,0:0:0:0:
192,192,356126,1,0,0:0:0:0:
64,192,356215,1,0,0:0:0:0:
192,192,356304,1,0,0:0:0:0:
64,192,356394,1,0,0:0:0:0:
192,192,356483,1,0,0:0:0:0:
448,192,356572,1,0,0:0:0:0:
320,192,356662,1,0,0:0:0:0:
448,192,356751,1,0,0:0:0:0:
320,192,356840,1,0,0:0:0:0:
448,192,356929,1,0,0:0:0:0:
320,192,357019,1,0,0:0:0:0:
448,192,357108,1,0,0:0:0:0:
320,192,357197,1,0,0:0:0:0:
64,192,357287,1,0,0:0:0:0:
192,192,357376,1,0,0:0:0:0:
64,192,357465,1,0,0:0:0:0:
192,192,357554,1,0,0:0:0:0:
448,192,357644,1,0,0:0:0:0:
320,192,357733,1,0,0:0:0:0:
448,192,357822,1,0,0:0:0:0:
320,192,357912,1,0,0:0:0:0:
