osu file format v14

[General]
AudioFilename: audio_1.2_P.mp3
AudioLeadIn: 0
PreviewTime: 181685
Countdown: 0
SampleSet: Normal
StackLeniency: 0.7
Mode: 3
LetterboxInBreaks: 0
SpecialStyle: 0
WidescreenStoryboard: 0

[Editor]
Bookmarks: 22143,36428,41190,74524,79285,88810,93571,98333,112619,117380,164702,181666,217380,260238,279285,288810,295655,298259
DistanceSpacing: 1.7
BeatDivisor: 4
GridSize: 8
TimelineZoom: 1.8

[Metadata]
Title:Ice Angel
TitleUnicode:Ice Angel
Artist:Yooh
ArtistUnicode:Yooh
Creator:Midgy
Version:Marathon x1.2
Source:
Tags:Eutopia Yoohsic Roomz c86 Comiket 86 コミケット86 Yoohsics -REVIVAL- trance featured artist fa jumpstream js electronic instrumental
BeatmapID:1480202
BeatmapSetID:557366

[Difficulty]
HPDrainRate:8.6
CircleSize:4
OverallDifficulty:8.3
ApproachRate:5
SliderMultiplier:1.4
SliderTickRate:1

[Events]
//Background and Video events
0,0,"thumb-1920-592539.jpg",0,0
//Break Periods
//Storyboard Layer 0 (Background)
//Storyboard Layer 1 (Fail)
//Storyboard Layer 2 (Pass)
//Storyboard Layer 3 (Foreground)
//Storyboard Layer 4 (Overlay)
//Storyboard Sound Samples

[TimingPoints]
3074,297.619047619048,4,1,0,0,1,0
164681,-100,4,1,0,0,0,1
181645,-100,4,1,0,0,0,0
222121,-100,4,1,0,0,0,1
260142,-100,4,1,0,0,0,0

[HitObjects]
64,192,2925,1,0,0:0:0:0:
192,192,2925,1,0,0:0:0:0:
320,192,3074,1,0,0:0:0:0:
448,192,3074,1,0,0:0:0:0:
192,192,3148,1,0,0:0:0:0:
64,192,3222,1,0,0:0:0:0:
320,192,3297,1,0,0:0:0:0:
192,192,3371,1,0,0:0:0:0:
448,192,3371,1,0,0:0:0:0:
64,192,3446,1,0,0:0:0:0:
320,192,3520,1,0,0:0:0:0:
192,192,3594,1,0,0:0:0:0:
448,192,3669,1,0,0:0:0:0:
64,192,3669,1,0,0:0:0:0:
320,192,3743,1,0,0:0:0:0:
192,192,3818,1,0,0:0:0:0:
448,192,3892,1,0,0:0:0:0:
192,192,3966,1,0,0:0:0:0:
64,192,3966,1,0,0:0:0:0:
320,192,4041,1,0,0:0:0:0:
448,192,4115,1,0,0:0:0:0:
192,192,4190,1,0,0:0:0:0:
448,192,4264,1,0,0:0:0:0:
320,192,4264,1,0,0:0:0:0:
64,192,4338,1,0,0:0:0:0:
192,192,4413,1,0,0:0:0:0:
320,192,4487,1,0,0:0:0:0:
64,192,4562,1,0,0:0:0:0:
448,192,4562,1,0,0:0:0:0:
192,192,4636,1,0,0:0:0:0:
320,192,4710,1,0,0:0:0:0:
448,192,4785,1,0,0:0:0:0:
64,192,4859,1,0,0:0:0:0:
192,192,4859,1,0,0:0:0:0:
320,192,4934,1,0,0:0:0:0:
448,192,5008,1,0,0:0:0:0:
192,192,5082,1,0,0:0:0:0:
320,192,5157,1,0,0:0:0:0:
64,192,5157,1,0,0:0:0:0:
448,192,5231,1,0,0:0:0:0:
192,192,5306,1,0,0:0:0:0:
64,192,5380,1,0,0:0:0:0:
320,192,5454,1,0,0:0:0:0:
448,192,5454,1,0,0:0:0:0:
192,192,5529,1,0,0:0:0:0:
64,192,5603,1,0,0:0:0:0:
320,192,5678,1,0,0:0:0:0:
64,192,5752,1,0,0:0:0:0:
192,192,5752,1,0,0:0:0:0:
448,192,5826,1,0,0:0:0:0:
320,192,5901,1,0,0:0:0:0:
64,192,5975,1,0,0:0:0:0:
320,192,6050,1,0,0:0:0:0:
448,192,6050,1,0,0:0:0:0:
192,192,6124,1,0,0:0:0:0:
448,192,6199,1,0,0:0:0:0:
192,192,6273,1,0,0:0:0:0:
320,192,6347,1,0,0:0:0:0:
64,192,6347,1,0,0:0:0:0:
448,192,6422,1,0,0:0:0:0:
192,192,6496,1,0,0:0:0:0:
320,192,6571,1,0,0:0:0:0:
64,192,6645,1,0,0:0:0:0:
448,192,6645,1,0,0:0:0:0:
192,192,6719,1,0,0:0:0:0:
320,192,6794,1,0,0:0:0:0:
448,192,6868,1,0,0:0:0:0:
320,192,6943,1,0,0:0:0:0:
64,192,6943,1,0,0:0:0:0:
192,192,7017,1,0,0:0:0:0:
448,192,7091,1,0,0:0:0:0:
320,192,7166,1,0,0:0:0:0:
64,192,7240,1,0,0:0:0:0:
192,192,7240,1,0,0:0:0:0:
448,192,7315,1,0,0:0:0:0:
320,192,7315,1,0,0:0:0:0:
64,192,7389,1,0,0:0:0:0:
192,192,7389,1,0,0:0:0:0:
448,192,7463,1,0,0:0:0:0:
192,192,7538,1,0,0:0:0:0:
320,192,7538,1,0,0:0:0:0:
448,192,7612,1,0,0:0:0:0:
64,192,7612,1,0,0:0:0:0:
192,192,7687,1,0,0:0:0:0:
320,192,7687,1,0,0:0:0:0:
64,192,7761,1,0,0:0:0:0:
448,192,7761,1,0,0:0:0:0:
320,192,7835,1,0,0:0:0:0:
192,192,7835,1,0,0:0:0:0:
64,192,7910,1,0,0:0:0:0:
448,192,7984,1,0,0:0:0:0:
320,192,8059,1,0,0:0:0:0:
64,192,8133,1,0,0:0:0:0:
192,192,8133,1,0,0:0:0:0:
448,192,8207,1,0,0:0:0:0:
320,192,8282,1,0,0:0:0:0:
192,192,8356,1,0,0:0:0:0:
448,192,8431,1,0,0:0:0:0:
64,192,8431,1,0,0:0:0:0:
320,192,8505,1,0,0:0:0:0:
448,192,8579,1,0,0:0:0:0:
320,192,8654,1,0,0:0:0:0:
192,192,8728,1,0,0:0:0:0:
64,192,8728,1,0,0:0:0:0:
320,192,8803,1,0,0:0:0:0:
192,192,8877,1,0,0:0:0:0:
448,192,8951,1,0,0:0:0:0:
320,192,9026,1,0,0:0:0:0:
64,192,9026,1,0,0:0:0:0:
192,192,9100,1,0,0:0:0:0:
64,192,9175,1,0,0:0:0:0:
192,192,9249,1,0,0:0:0:0:
448,192,9324,1,0,0:0:0:0:
320,192,9324,1,0,0:0:0:0:
192,192,9398,1,0,0:0:0:0:
320,192,9472,1,0,0:0:0:0:
64,192,9547,1,0,0:0:0:0:
448,192,9621,1,0,0:0:0:0:
192,192,9621,1,0,0:0:0:0:
320,192,9696,1,0,0:0:0:0:
448,192,9770,1,0,0:0:0:0:
320,192,9844,1,0,0:0:0:0:
192,192,9919,1,0,0:0:0:0:
64,192,9919,1,0,0:0:0:0:
320,192,9993,1,0,0:0:0:0:
192,192,10068,1,0,0:0:0:0:
448,192,10142,1,0,0:0:0:0:
64,192,10216,1,0,0:0:0:0:
320,192,10216,1,0,0:0:0:0:
192,192,10291,1,0,0:0:0:0:
64,192,10365,1,0,0:0:0:0:
192,192,10440,1,0,0:0:0:0:
448,192,10514,1,0,0:0:0:0:
320,192,10514,1,0,0:0:0:0:
192,192,10588,1,0,0:0:0:0:
320,192,10663,1,0,0:0:0:0:
64,192,10737,1,0,0:0:0:0:
192,192,10812,1,0,0:0:0:0:
448,192,10812,1,0,0:0:0:0:
320,192,10886,1,0,0:0:0:0:
448,192,10960,1,0,0:0:0:0:
320,192,11035,1,0,0:0:0:0:
192,192,11109,1,0,0:0:0:0:
64,192,11109,1,0,0:0:0:0:
320,192,11184,1,0,0:0:0:0:
192,192,11258,1,0,0:0:0:0:
448,192,11332,1,0,0:0:0:0:
320,192,11407,1,0,0:0:0:0:
64,192,11407,1,0,0:0:0:0:
192,192,11481,1,0,0:0:0:0:
64,192,11556,1,0,0:0:0:0:
192,192,11630,1,0,0:0:0:0:
448,192,11704,1,0,0:0:0:0:
320,192,11704,1,0,0:0:0:0:
64,192,11779,1,0,0:0:0:0:
192,192,11853,1,0,0:0:0:0:
320,192,11928,1,0,0:0:0:0:
64,192,12002,1,0,0:0:0:0:
448,192,12002,1,0,0:0:0:0:
320,192,12076,1,0,0:0:0:0:
192,192,12076,1,0,0:0:0:0:
448,192,12151,1,0,0:0:0:0:
64,192,12151,1,0,0:0:0:0:
192,192,12225,1,0,0:0:0:0:
448,192,12300,1,0,0:0:0:0:
320,192,12300,1,0,0:0:0:0:
64,192,12374,1,0,0:0:0:0:
192,192,12374,1,0,0:0:0:0:
448,192,12449,1,0,0:0:0:0:
320,192,12449,1,0,0:0:0:0:
64,192,12523,1,0,0:0:0:0:
192,192,12523,1,0,0:0:0:0:
448,192,12597,1,0,0:0:0:0:
320,192,12597,1,0,0:0:0:0:
192,192,12672,1,0,0:0:0:0:
64,192,12746,1,0,0:0:0:0:
320,192,12821,1,0,0:0:0:0:
192,192,12895,1,0,0:0:0:0:
448,192,12895,1,0,0:0:0:0:
64,192,12969,1,0,0:0:0:0:
320,192,13044,1,0,0:0:0:0:
192,192,13118,1,0,0:0:0:0:
448,192,13193,1,0,0:0:0:0:
64,192,13193,1,0,0:0:0:0:
320,192,13267,1,0,0:0:0:0:
192,192,13341,1,0,0:0:0:0:
448,192,13416,1,0,0:0:0:0:
192,192,13490,1,0,0:0:0:0:
64,192,13490,1,0,0:0:0:0:
320,192,13565,1,0,0:0:0:0:
448,192,13639,1,0,0:0:0:0:
192,192,13713,1,0,0:0:0:0:
448,192,13788,1,0,0:0:0:0:
320,192,13788,1,0,0:0:0:0:
64,192,13862,1,0,0:0:0:0:
192,192,13937,1,0,0:0:0:0:
320,192,14011,1,0,0:0:0:0:
64,192,14085,1,0,0:0:0:0:
448,192,14085,1,0,0:0:0:0:
192,192,14160,1,0,0:0:0:0:
320,192,14234,1,0,0:0:0:0:
448,192,14309,1,0,0:0:0:0:
64,192,14383,1,0,0:0:0:0:
192,192,14383,1,0,0:0:0:0:
320,192,14457,1,0,0:0:0:0:
448,192,14532,1,0,0:0:0:0:
192,192,14606,1,0,0:0:0:0:
320,192,14681,1,0,0:0:0:0:
64,192,14681,1,0,0:0:0:0:
448,192,14755,1,0,0:0:0:0:
192,192,14829,1,0,0:0:0:0:
64,192,14904,1,0,0:0:0:0:
320,192,14978,1,0,0:0:0:0:
448,192,14978,1,0,0:0:0:0:
192,192,15053,1,0,0:0:0:0:
64,192,15127,1,0,0:0:0:0:
320,192,15201,1,0,0:0:0:0:
64,192,15276,1,0,0:0:0:0:
192,192,15276,1,0,0:0:0:0:
448,192,15350,1,0,0:0:0:0:
320,192,15425,1,0,0:0:0:0:
64,192,15499,1,0,0:0:0:0:
320,192,15574,1,0,0:0:0:0:
448,192,15574,1,0,0:0:0:0:
192,192,15648,1,0,0:0:0:0:
448,192,15722,1,0,0:0:0:0:
192,192,15797,1,0,0:0:0:0:
320,192,15871,1,0,0:0:0:0:
64,192,15871,1,0,0:0:0:0:
448,192,15946,1,0,0:0:0:0:
192,192,16020,1,0,0:0:0:0:
320,192,16094,1,0,0:0:0:0:
64,192,16169,1,0,0:0:0:0:
448,192,16169,1,0,0:0:0:0:
192,192,16243,1,0,0:0:0:0:
320,192,16318,1,0,0:0:0:0:
448,192,16392,1,0,0:0:0:0:
192,192,16466,1,0,0:0:0:0:
64,192,16466,1,0,0:0:0:0:
448,192,16541,1,0,0:0:0:0:
192,192,16615,1,0,0:0:0:0:
320,192,16690,1,0,0:0:0:0:
192,192,16764,1,0,0:0:0:0:
448,192,16764,1,0,0:0:0:0:
64,192,16838,1,0,0:0:0:0:
320,192,16838,1,0,0:0:0:0:
192,192,16913,1,0,0:0:0:0:
448,192,16913,1,0,0:0:0:0:
64,192,16987,1,0,0:0:0:0:
448,192,17062,1,0,0:0:0:0:
320,192,17062,1,0,0:0:0:0:
64,192,17136,1,0,0:0:0:0:
192,192,17136,1,0,0:0:0:0:
448,192,17210,1,0,0:0:0:0:
320,192,17210,1,0,0:0:0:0:
64,192,17285,1,0,0:0:0:0:
192,192,17285,1,0,0:0:0:0:
448,192,17359,1,0,0:0:0:0:
320,192,17359,1,0,0:0:0:0:
192,192,17434,1,0,0:0:0:0:
64,192,17508,1,0,0:0:0:0:
320,192,17582,1,0,0:0:0:0:
448,192,17657,1,0,0:0:0:0:
192,192,17657,1,0,0:0:0:0:
64,192,17731,1,0,0:0:0:0:
320,192,17806,1,0,0:0:0:0:
192,192,17880,1,0,0:0:0:0:
448,192,17954,1,0,0:0:0:0:
64,192,17954,1,0,0:0:0:0:
320,192,18029,1,0,0:0:0:0:
448,192,18103,1,0,0:0:0:0:
320,192,18178,1,0,0:0:0:0:
192,192,18252,1,0,0:0:0:0:
64,192,18252,1,0,0:0:0:0:
320,192,18326,1,0,0:0:0:0:
192,192,18401,1,0,0:0:0:0:
448,192,18475,1,0,0:0:0:0:
320,192,18550,1,0,0:0:0:0:
64,192,18550,1,0,0:0:0:0:
192,192,18624,1,0,0:0:0:0:
64,192,18699,1,0,0:0:0:0:
192,192,18773,1,0,0:0:0:0:
448,192,18847,1,0,0:0:0:0:
320,192,18847,1,0,0:0:0:0:
192,192,18922,1,0,0:0:0:0:
320,192,18996,1,0,0:0:0:0:
64,192,19071,1,0,0:0:0:0:
448,192,19145,1,0,0:0:0:0:
192,192,19145,1,0,0:0:0:0:
320,192,19219,1,0,0:0:0:0:
448,192,19294,1,0,0:0:0:0:
320,192,19368,1,0,0:0:0:0:
192,192,19443,1,0,0:0:0:0:
64,192,19443,1,0,0:0:0:0:
320,192,19517,1,0,0:0:0:0:
192,192,19591,1,0,0:0:0:0:
448,192,19666,1,0,0:0:0:0:
64,192,19740,1,0,0:0:0:0:
320,192,19740,1,0,0:0:0:0:
192,192,19815,1,0,0:0:0:0:
64,192,19889,1,0,0:0:0:0:
192,192,19963,1,0,0:0:0:0:
448,192,20038,1,0,0:0:0:0:
320,192,20038,1,0,0:0:0:0:
192,192,20112,1,0,0:0:0:0:
320,192,20187,1,0,0:0:0:0:
64,192,20261,1,0,0:0:0:0:
192,192,20335,1,0,0:0:0:0:
448,192,20335,1,0,0:0:0:0:
320,192,20410,1,0,0:0:0:0:
448,192,20484,1,0,0:0:0:0:
320,192,20559,1,0,0:0:0:0:
192,192,20633,1,0,0:0:0:0:
64,192,20633,1,0,0:0:0:0:
320,192,20707,1,0,0:0:0:0:
192,192,20782,1,0,0:0:0:0:
448,192,20856,1,0,0:0:0:0:
320,192,20931,1,0,0:0:0:0:
64,192,20931,1,0,0:0:0:0:
192,192,21005,1,0,0:0:0:0:
64,192,21079,1,0,0:0:0:0:
192,192,21154,1,0,0:0:0:0:
448,192,21228,1,0,0:0:0:0:
320,192,21228,1,0,0:0:0:0:
64,192,21303,1,0,0:0:0:0:
192,192,21377,1,0,0:0:0:0:
320,192,21451,1,0,0:0:0:0:
64,192,21526,1,0,0:0:0:0:
448,192,21526,1,0,0:0:0:0:
320,192,21600,1,0,0:0:0:0:
192,192,21600,1,0,0:0:0:0:
448,192,21675,1,0,0:0:0:0:
64,192,21675,1,0,0:0:0:0:
192,192,21749,1,0,0:0:0:0:
448,192,21824,1,0,0:0:0:0:
320,192,21824,1,0,0:0:0:0:
64,192,21898,1,0,0:0:0:0:
192,192,21898,1,0,0:0:0:0:
448,192,21972,1,0,0:0:0:0:
320,192,21972,1,0,0:0:0:0:
64,192,22047,1,0,0:0:0:0:
192,192,22047,1,0,0:0:0:0:
448,192,22121,1,0,0:0:0:0:
320,192,22121,1,0,0:0:0:0:
192,192,22196,1,0,0:0:0:0:
448,192,22270,1,0,0:0:0:0:
64,192,22270,1,0,0:0:0:0:
320,192,22344,1,0,0:0:0:0:
64,192,22419,1,0,0:0:0:0:
192,192,22419,1,0,0:0:0:0:
448,192,22493,1,0,0:0:0:0:
64,192,22568,1,0,0:0:0:0:
320,192,22568,1,0,0:0:0:0:
192,192,22642,1,0,0:0:0:0:
448,192,22716,1,0,0:0:0:0:
320,192,22716,1,0,0:0:0:0:
64,192,22791,1,0,0:0:0:0:
448,192,22865,1,0,0:0:0:0:
192,192,22865,1,0,0:0:0:0:
320,192,22940,1,0,0:0:0:0:
64,192,23014,1,0,0:0:0:0:
192,192,23014,1,0,0:0:0:0:
320,192,23088,1,0,0:0:0:0:
64,192,23163,1,0,0:0:0:0:
448,192,23163,1,0,0:0:0:0:
192,192,23237,1,0,0:0:0:0:
448,192,23312,1,0,0:0:0:0:
320,192,23312,1,0,0:0:0:0:
64,192,23386,1,0,0:0:0:0:
448,192,23460,1,0,0:0:0:0:
192,192,23460,1,0,0:0:0:0:
320,192,23535,1,0,0:0:0:0:
64,192,23609,1,0,0:0:0:0:
192,192,23609,1,0,0:0:0:0:
448,192,23684,1,0,0:0:0:0:
64,192,23758,1,0,0:0:0:0:
320,192,23758,1,0,0:0:0:0:
192,192,23832,1,0,0:0:0:0:
448,192,23907,1,0,0:0:0:0:
320,192,23907,1,0,0:0:0:0:
192,192,23981,1,0,0:0:0:0:
448,192,24056,1,0,0:0:0:0:
64,192,24056,1,0,0:0:0:0:
320,192,24130,1,0,0:0:0:0:
64,192,24204,1,0,0:0:0:0:
192,192,24204,1,0,0:0:0:0:
448,192,24279,1,0,0:0:0:0:
64,192,24353,1,0,0:0:0:0:
320,192,24353,1,0,0:0:0:0:
192,192,24428,1,0,0:0:0:0:
448,192,24502,1,0,0:0:0:0:
320,192,24502,1,0,0:0:0:0:
64,192,24576,1,0,0:0:0:0:
448,192,24651,1,0,0:0:0:0:
192,192,24651,1,0,0:0:0:0:
320,192,24725,1,0,0:0:0:0:
64,192,24800,1,0,0:0:0:0:
192,192,24800,1,0,0:0:0:0:
320,192,24874,1,0,0:0:0:0:
64,192,24949,1,0,0:0:0:0:
448,192,24949,1,0,0:0:0:0:
192,192,25023,1,0,0:0:0:0:
448,192,25097,1,0,0:0:0:0:
320,192,25097,1,0,0:0:0:0:
64,192,25172,1,0,0:0:0:0:
448,192,25246,1,0,0:0:0:0:
192,192,25246,1,0,0:0:0:0:
320,192,25321,1,0,0:0:0:0:
64,192,25395,1,0,0:0:0:0:
192,192,25395,1,0,0:0:0:0:
448,192,25469,1,0,0:0:0:0:
64,192,25544,1,0,0:0:0:0:
320,192,25544,1,0,0:0:0:0:
192,192,25618,1,0,0:0:0:0:
448,192,25693,1,0,0:0:0:0:
320,192,25693,1,0,0:0:0:0:
192,192,25767,1,0,0:0:0:0:
448,192,25841,1,0,0:0:0:0:
64,192,25841,1,0,0:0:0:0:
320,192,25916,1,0,0:0:0:0:
64,192,25990,1,0,0:0:0:0:
192,192,25990,1,0,0:0:0:0:
448,192,26065,1,0,0:0:0:0:
64,192,26139,1,0,0:0:0:0:
320,192,26139,1,0,0:0:0:0:
192,192,26213,1,0,0:0:0:0:
448,192,26288,1,0,0:0:0:0:
320,192,26288,1,0,0:0:0:0:
64,192,26362,1,0,0:0:0:0:
192,192,26362,1,0,0:0:0:0:
448,192,26437,1,0,0:0:0:0:
320,192,26437,1,0,0:0:0:0:
64,192,26511,1,0,0:0:0:0:
448,192,26585,1,0,0:0:0:0:
192,192,26585,1,0,0:0:0:0:
64,192,26660,1,0,0:0:0:0:
320,192,26660,1,0,0:0:0:0:
448,192,26734,1,0,0:0:0:0:
192,192,26734,1,0,0:0:0:0:
320,192,26809,1,0,0:0:0:0:
64,192,26809,1,0,0:0:0:0:
192,192,26883,1,0,0:0:0:0:
448,192,26883,1,0,0:0:0:0:
320,192,26957,1,0,0:0:0:0:
64,192,27032,1,0,0:0:0:0:
192,192,27032,1,0,0:0:0:0:
448,192,27106,1,0,0:0:0:0:
64,192,27181,1,0,0:0:0:0:
320,192,27181,1,0,0:0:0:0:
192,192,27255,1,0,0:0:0:0:
64,192,27329,1,0,0:0:0:0:
320,192,27329,1,0,0:0:0:0:
448,192,27329,1,0,0:0:0:0:
192,192,27404,1,0,0:0:0:0:
320,192,27478,1,0,0:0:0:0:
448,192,27478,1,0,0:0:0:0:
64,192,27553,1,0,0:0:0:0:
448,192,27627,1,0,0:0:0:0:
192,192,27627,1,0,0:0:0:0:
320,192,27701,1,0,0:0:0:0:
448,192,27776,1,0,0:0:0:0:
64,192,27776,1,0,0:0:0:0:
192,192,27776,1,0,0:0:0:0:
320,192,27850,1,0,0:0:0:0:
192,192,27925,1,0,0:0:0:0:
64,192,27925,1,0,0:0:0:0:
448,192,27999,1,0,0:0:0:0:
64,192,28074,1,0,0:0:0:0:
320,192,28074,1,0,0:0:0:0:
192,192,28148,1,0,0:0:0:0:
64,192,28222,1,0,0:0:0:0:
320,192,28222,1,0,0:0:0:0:
448,192,28222,1,0,0:0:0:0:
192,192,28297,1,0,0:0:0:0:
448,192,28371,1,0,0:0:0:0:
320,192,28371,1,0,0:0:0:0:
64,192,28446,1,0,0:0:0:0:
448,192,28520,1,0,0:0:0:0:
192,192,28520,1,0,0:0:0:0:
320,192,28594,1,0,0:0:0:0:
448,192,28669,1,0,0:0:0:0:
64,192,28669,1,0,0:0:0:0:
192,192,28669,1,0,0:0:0:0:
320,192,28743,1,0,0:0:0:0:
64,192,28818,1,0,0:0:0:0:
192,192,28818,1,0,0:0:0:0:
320,192,28892,1,0,0:0:0:0:
64,192,28966,1,0,0:0:0:0:
448,192,28966,1,0,0:0:0:0:
192,192,29041,1,0,0:0:0:0:
320,192,29115,1,0,0:0:0:0:
448,192,29115,1,0,0:0:0:0:
192,192,29190,1,0,0:0:0:0:
448,192,29264,1,0,0:0:0:0:
64,192,29264,1,0,0:0:0:0:
320,192,29338,1,0,0:0:0:0:
64,192,29413,1,0,0:0:0:0:
192,192,29413,1,0,0:0:0:0:
320,192,29487,1,0,0:0:0:0:
64,192,29562,1,0,0:0:0:0:
448,192,29562,1,0,0:0:0:0:
192,192,29636,1,0,0:0:0:0:
448,192,29710,1,0,0:0:0:0:
320,192,29710,1,0,0:0:0:0:
64,192,29785,1,0,0:0:0:0:
448,192,29859,1,0,0:0:0:0:
192,192,29859,1,0,0:0:0:0:
320,192,29934,1,0,0:0:0:0:
64,192,30008,1,0,0:0:0:0:
192,192,30008,1,0,0:0:0:0:
448,192,30082,1,0,0:0:0:0:
64,192,30157,1,0,0:0:0:0:
320,192,30157,1,0,0:0:0:0:
192,192,30231,1,0,0:0:0:0:
448,192,30306,1,0,0:0:0:0:
320,192,30306,1,0,0:0:0:0:
64,192,30380,1,0,0:0:0:0:
448,192,30454,1,0,0:0:0:0:
192,192,30454,1,0,0:0:0:0:
320,192,30529,1,0,0:0:0:0:
64,192,30603,1,0,0:0:0:0:
192,192,30603,1,0,0:0:0:0:
320,192,30678,1,0,0:0:0:0:
64,192,30752,1,0,0:0:0:0:
448,192,30752,1,0,0:0:0:0:
192,192,30826,1,0,0:0:0:0:
448,192,30901,1,0,0:0:0:0:
320,192,30901,1,0,0:0:0:0:
192,192,30975,1,0,0:0:0:0:
448,192,31050,1,0,0:0:0:0:
64,192,31050,1,0,0:0:0:0:
192,192,31124,1,0,0:0:0:0:
320,192,31124,1,0,0:0:0:0:
448,192,31199,1,0,0:0:0:0:
64,192,31199,1,0,0:0:0:0:
320,192,31273,1,0,0:0:0:0:
64,192,31347,1,0,0:0:0:0:
192,192,31347,1,0,0:0:0:0:
448,192,31422,1,0,0:0:0:0:
320,192,31422,1,0,0:0:0:0:
64,192,31496,1,0,0:0:0:0:
192,192,31496,1,0,0:0:0:0:
448,192,31571,1,0,0:0:0:0:
320,192,31571,1,0,0:0:0:0:
64,192,31645,1,0,0:0:0:0:
192,192,31645,1,0,0:0:0:0:
448,192,31719,1,0,0:0:0:0:
192,192,31794,1,0,0:0:0:0:
320,192,31794,1,0,0:0:0:0:
64,192,31868,1,0,0:0:0:0:
320,192,31943,1,0,0:0:0:0:
448,192,31943,1,0,0:0:0:0:
192,192,32017,1,0,0:0:0:0:
448,192,32091,1,0,0:0:0:0:
64,192,32091,1,0,0:0:0:0:
320,192,32166,1,0,0:0:0:0:
64,192,32240,1,0,0:0:0:0:
192,192,32240,1,0,0:0:0:0:
448,192,32315,1,0,0:0:0:0:
64,192,32389,1,0,0:0:0:0:
320,192,32389,1,0,0:0:0:0:
192,192,32463,1,0,0:0:0:0:
448,192,32538,1,0,0:0:0:0:
320,192,32538,1,0,0:0:0:0:
64,192,32612,1,0,0:0:0:0:
448,192,32687,1,0,0:0:0:0:
192,192,32687,1,0,0:0:0:0:
320,192,32761,1,0,0:0:0:0:
64,192,32835,1,0,0:0:0:0:
192,192,32835,1,0,0:0:0:0:
320,192,32910,1,0,0:0:0:0:
64,192,32984,1,0,0:0:0:0:
448,192,32984,1,0,0:0:0:0:
192,192,33059,1,0,0:0:0:0:
448,192,33133,1,0,0:0:0:0:
320,192,33133,1,0,0:0:0:0:
64,192,33207,1,0,0:0:0:0:
320,192,33282,1,0,0:0:0:0:
192,192,33282,1,0,0:0:0:0:
448,192,33356,1,0,0:0:0:0:
192,192,33431,1,0,0:0:0:0:
64,192,33431,1,0,0:0:0:0:
320,192,33505,1,0,0:0:0:0:
64,192,33579,1,0,0:0:0:0:
448,192,33579,1,0,0:0:0:0:
192,192,33654,1,0,0:0:0:0:
448,192,33728,1,0,0:0:0:0:
320,192,33728,1,0,0:0:0:0:
192,192,33803,1,0,0:0:0:0:
448,192,33877,1,0,0:0:0:0:
64,192,33877,1,0,0:0:0:0:
320,192,33951,1,0,0:0:0:0:
64,192,34026,1,0,0:0:0:0:
192,192,34026,1,0,0:0:0:0:
448,192,34100,1,0,0:0:0:0:
64,192,34175,1,0,0:0:0:0:
320,192,34175,1,0,0:0:0:0:
192,192,34249,1,0,0:0:0:0:
448,192,34324,1,0,0:0:0:0:
320,192,34324,1,0,0:0:0:0:
64,192,34398,1,0,0:0:0:0:
448,192,34472,1,0,0:0:0:0:
192,192,34472,1,0,0:0:0:0:
320,192,34547,1,0,0:0:0:0:
64,192,34621,1,0,0:0:0:0:
192,192,34621,1,0,0:0:0:0:
320,192,34696,1,0,0:0:0:0:
64,192,34770,1,0,0:0:0:0:
448,192,34770,1,0,0:0:0:0:
192,192,34844,1,0,0:0:0:0:
448,192,34919,1,0,0:0:0:0:
320,192,34919,1,0,0:0:0:0:
64,192,34993,1,0,0:0:0:0:
320,192,35068,1,0,0:0:0:0:
192,192,35068,1,0,0:0:0:0:
448,192,35142,1,0,0:0:0:0:
192,192,35216,1,0,0:0:0:0:
64,192,35216,1,0,0:0:0:0:
320,192,35291,1,0,0:0:0:0:
64,192,35365,1,0,0:0:0:0:
448,192,35365,1,0,0:0:0:0:
192,192,35440,1,0,0:0:0:0:
448,192,35514,1,0,0:0:0:0:
320,192,35514,1,0,0:0:0:0:
192,192,35588,1,0,0:0:0:0:
448,192,35663,1,0,0:0:0:0:
64,192,35663,1,0,0:0:0:0:
320,192,35737,1,0,0:0:0:0:
448,192,35812,1,0,0:0:0:0:
192,192,35812,1,0,0:0:0:0:
64,192,35886,1,0,0:0:0:0:
320,192,35886,1,0,0:0:0:0:
448,192,35960,1,0,0:0:0:0:
192,192,35960,1,0,0:0:0:0:
64,192,36035,1,0,0:0:0:0:
448,192,36109,1,0,0:0:0:0:
320,192,36109,1,0,0:0:0:0:
64,192,36184,1,0,0:0:0:0:
192,192,36184,1,0,0:0:0:0:
448,192,36258,1,0,0:0:0:0:
320,192,36258,1,0,0:0:0:0:
64,192,36332,1,0,0:0:0:0:
192,192,36332,1,0,0:0:0:0:
448,192,36407,1,0,0:0:0:0:
320,192,36407,1,0,0:0:0:0:
192,192,36481,1,0,0:0:0:0:
64,192,36556,1,0,0:0:0:0:
320,192,36556,1,0,0:0:0:0:
448,192,36630,1,0,0:0:0:0:
192,192,36704,1,0,0:0:0:0:
320,192,36704,1,0,0:0:0:0:
64,192,36779,1,0,0:0:0:0:
448,192,36853,1,0,0:0:0:0:
320,192,36853,1,0,0:0:0:0:
192,192,36928,1,0,0:0:0:0:
320,192,37002,1,0,0:0:0:0:
64,192,37002,1,0,0:0:0:0:
448,192,37076,1,0,0:0:0:0:
192,192,37151,1,0,0:0:0:0:
64,192,37151,1,0,0:0:0:0:
320,192,37225,1,0,0:0:0:0:
448,192,37300,1,0,0:0:0:0:
64,192,37300,1,0,0:0:0:0:
320,192,37374,1,0,0:0:0:0:
192,192,37449,1,0,0:0:0:0:
64,192,37449,1,0,0:0:0:0:
448,192,37523,1,0,0:0:0:0:
320,192,37597,1,0,0:0:0:0:
64,192,37597,1,0,0:0:0:0:
192,192,37672,1,0,0:0:0:0:
448,192,37746,1,0,0:0:0:0:
320,192,37746,1,0,0:0:0:0:
192,192,37821,1,0,0:0:0:0:
64,192,37895,1,0,0:0:0:0:
320,192,37895,1,0,0:0:0:0:
192,192,37969,1,0,0:0:0:0:
448,192,38044,1,0,0:0:0:0:
320,192,38044,1,0,0:0:0:0:
64,192,38118,1,0,0:0:0:0:
192,192,38193,1,0,0:0:0:0:
320,192,38193,1,0,0:0:0:0:
448,192,38267,1,0,0:0:0:0:
64,192,38341,1,0,0:0:0:0:
192,192,38341,1,0,0:0:0:0:
448,192,38416,1,0,0:0:0:0:
320,192,38490,1,0,0:0:0:0:
192,192,38490,1,0,0:0:0:0:
64,192,38565,1,0,0:0:0:0:
448,192,38639,1,0,0:0:0:0:
192,192,38639,1,0,0:0:0:0:
320,192,38713,1,0,0:0:0:0:
64,192,38788,1,0,0:0:0:0:
192,192,38788,1,0,0:0:0:0:
448,192,38862,1,0,0:0:0:0:
320,192,38862,1,0,0:0:0:0:
64,192,38937,1,0,0:0:0:0:
192,192,38937,1,0,0:0:0:0:
448,192,39011,1,0,0:0:0:0:
320,192,39011,1,0,0:0:0:0:
64,192,39085,1,0,0:0:0:0:
192,192,39085,1,0,0:0:0:0:
448,192,39160,1,0,0:0:0:0:
320,192,39160,1,0,0:0:0:0:
64,192,39234,1,0,0:0:0:0:
192,192,39234,1,0,0:0:0:0:
448,192,39309,1,0,0:0:0:0:
320,192,39309,1,0,0:0:0:0:
64,192,39383,1,0,0:0:0:0:
192,192,39383,1,0,0:0:0:0:
448,192,39457,1,0,0:0:0:0:
320,192,39457,1,0,0:0:0:0:
64,192,39532,1,0,0:0:0:0:
192,192,39532,1,0,0:0:0:0:
448,192,39606,1,0,0:0:0:0:
320,192,39606,1,0,0:0:0:0:
64,192,39681,1,0,0:0:0:0:
192,192,39681,1,0,0:0:0:0:
448,192,39755,1,0,0:0:0:0:
320,192,39755,1,0,0:0:0:0:
64,192,39829,1,0,0:0:0:0:
192,192,39829,1,0,0:0:0:0:
448,192,39904,1,0,0:0:0:0:
320,192,39904,1,0,0:0:0:0:
64,192,39978,1,0,0:0:0:0:
192,192,39978,1,0,0:0:0:0:
448,192,40127,1,0,0:0:0:0:
320,192,40127,1,0,0:0:0:0:
64,192,40201,1,0,0:0:0:0:
192,192,40201,1,0,0:0:0:0:
448,192,40350,1,0,0:0:0:0:
320,192,40350,1,0,0:0:0:0:
64,192,40425,1,0,0:0:0:0:
192,192,40425,1,0,0:0:0:0:
448,192,40499,1,0,0:0:0:0:
320,192,40499,1,0,0:0:0:0:
192,192,40574,1,0,0:0:0:0:
448,192,40648,1,0,0:0:0:0:
64,192,40648,1,0,0:0:0:0:
192,192,40722,1,0,0:0:0:0:
320,192,40722,1,0,0:0:0:0:
448,192,40797,1,0,0:0:0:0:
64,192,40797,1,0,0:0:0:0:
320,192,40871,1,0,0:0:0:0:
64,192,40946,1,0,0:0:0:0:
192,192,40946,1,0,0:0:0:0:
448,192,41020,1,0,0:0:0:0:
320,192,41020,1,0,0:0:0:0:
64,192,41094,1,0,0:0:0:0:
192,192,41094,1,0,0:0:0:0:
448,192,41169,1,0,0:0:0:0:
320,192,41169,1,0,0:0:0:0:
192,192,41243,1,0,0:0:0:0:
448,192,41318,1,0,0:0:0:0:
64,192,41318,1,0,0:0:0:0:
320,192,41392,1,0,0:0:0:0:
64,192,41466,1,0,0:0:0:0:
192,192,41466,1,0,0:0:0:0:
320,192,41541,1,0,0:0:0:0:
64,192,41615,1,0,0:0:0:0:
448,192,41615,1,0,0:0:0:0:
192,192,41690,1,0,0:0:0:0:
448,192,41764,1,0,0:0:0:0:
320,192,41764,1,0,0:0:0:0:
192,192,41838,1,0,0:0:0:0:
448,192,41913,1,0,0:0:0:0:
64,192,41913,1,0,0:0:0:0:
320,192,41987,1,0,0:0:0:0:
64,192,42062,1,0,0:0:0:0:
192,192,42062,1,0,0:0:0:0:
320,192,42136,1,0,0:0:0:0:
64,192,42210,1,0,0:0:0:0:
448,192,42210,1,0,0:0:0:0:
192,192,42285,1,0,0:0:0:0:
64,192,42359,1,0,0:0:0:0:
320,192,42359,1,0,0:0:0:0:
448,192,42359,1,0,0:0:0:0:
192,192,42434,1,0,0:0:0:0:
320,192,42508,1,0,0:0:0:0:
448,192,42508,1,0,0:0:0:0:
64,192,42582,1,0,0:0:0:0:
448,192,42657,1,0,0:0:0:0:
192,192,42657,1,0,0:0:0:0:
320,192,42731,1,0,0:0:0:0:
64,192,42806,1,0,0:0:0:0:
192,192,42806,1,0,0:0:0:0:
448,192,42880,1,0,0:0:0:0:
64,192,42954,1,0,0:0:0:0:
192,192,42954,1,0,0:0:0:0:
320,192,42954,1,0,0:0:0:0:
448,192,43029,1,0,0:0:0:0:
64,192,43103,1,0,0:0:0:0:
192,192,43103,1,0,0:0:0:0:
320,192,43178,1,0,0:0:0:0:
192,192,43252,1,0,0:0:0:0:
448,192,43252,1,0,0:0:0:0:
64,192,43326,1,0,0:0:0:0:
448,192,43401,1,0,0:0:0:0:
320,192,43401,1,0,0:0:0:0:
192,192,43475,1,0,0:0:0:0:
64,192,43550,1,0,0:0:0:0:
320,192,43550,1,0,0:0:0:0:
448,192,43550,1,0,0:0:0:0:
192,192,43624,1,0,0:0:0:0:
448,192,43699,1,0,0:0:0:0:
64,192,43699,1,0,0:0:0:0:
320,192,43773,1,0,0:0:0:0:
64,192,43847,1,0,0:0:0:0:
192,192,43847,1,0,0:0:0:0:
448,192,43922,1,0,0:0:0:0:
64,192,43996,1,0,0:0:0:0:
320,192,43996,1,0,0:0:0:0:
192,192,44071,1,0,0:0:0:0:
448,192,44145,1,0,0:0:0:0:
320,192,44145,1,0,0:0:0:0:
64,192,44219,1,0,0:0:0:0:
448,192,44294,1,0,0:0:0:0:
192,192,44294,1,0,0:0:0:0:
320,192,44368,1,0,0:0:0:0:
64,192,44443,1,0,0:0:0:0:
192,192,44443,1,0,0:0:0:0:
320,192,44517,1,0,0:0:0:0:
64,192,44591,1,0,0:0:0:0:
448,192,44591,1,0,0:0:0:0:
192,192,44666,1,0,0:0:0:0:
64,192,44740,1,0,0:0:0:0:
448,192,44740,1,0,0:0:0:0:
320,192,44740,1,0,0:0:0:0:
192,192,44815,1,0,0:0:0:0:
448,192,44889,1,0,0:0:0:0:
320,192,44889,1,0,0:0:0:0:
192,192,44963,1,0,0:0:0:0:
64,192,44963,1,0,0:0:0:0:
448,192,45038,1,0,0:0:0:0:
320,192,45038,1,0,0:0:0:0:
192,192,45112,1,0,0:0:0:0:
448,192,45187,1,0,0:0:0:0:
320,192,45187,1,0,0:0:0:0:
64,192,45187,1,0,0:0:0:0:
192,192,45261,1,0,0:0:0:0:
64,192,45335,1,0,0:0:0:0:
320,192,45335,1,0,0:0:0:0:
448,192,45410,1,0,0:0:0:0:
192,192,45410,1,0,0:0:0:0:
64,192,45484,1,0,0:0:0:0:
320,192,45484,1,0,0:0:0:0:
448,192,45559,1,0,0:0:0:0:
64,192,45633,1,0,0:0:0:0:
192,192,45633,1,0,0:0:0:0:
448,192,45707,1,0,0:0:0:0:
320,192,45707,1,0,0:0:0:0:
64,192,45782,1,0,0:0:0:0:
192,192,45782,1,0,0:0:0:0:
448,192,45856,1,0,0:0:0:0:
320,192,45856,1,0,0:0:0:0:
64,192,45931,1,0,0:0:0:0:
192,192,45931,1,0,0:0:0:0:
320,192,46005,1,0,0:0:0:0:
192,192,46079,1,0,0:0:0:0:
448,192,46079,1,0,0:0:0:0:
64,192,46154,1,0,0:0:0:0:
448,192,46228,1,0,0:0:0:0:
320,192,46228,1,0,0:0:0:0:
192,192,46303,1,0,0:0:0:0:
320,192,46377,1,0,0:0:0:0:
64,192,46377,1,0,0:0:0:0:
448,192,46451,1,0,0:0:0:0:
64,192,46526,1,0,0:0:0:0:
192,192,46526,1,0,0:0:0:0:
320,192,46600,1,0,0:0:0:0:
192,192,46675,1,0,0:0:0:0:
448,192,46675,1,0,0:0:0:0:
64,192,46749,1,0,0:0:0:0:
448,192,46824,1,0,0:0:0:0:
320,192,46824,1,0,0:0:0:0:
192,192,46898,1,0,0:0:0:0:
320,192,46972,1,0,0:0:0:0:
64,192,46972,1,0,0:0:0:0:
448,192,47047,1,0,0:0:0:0:
64,192,47121,1,0,0:0:0:0:
192,192,47121,1,0,0:0:0:0:
320,192,47121,1,0,0:0:0:0:
448,192,47196,1,0,0:0:0:0:
64,192,47270,1,0,0:0:0:0:
192,192,47270,1,0,0:0:0:0:
320,192,47344,1,0,0:0:0:0:
64,192,47419,1,0,0:0:0:0:
448,192,47419,1,0,0:0:0:0:
192,192,47493,1,0,0:0:0:0:
448,192,47568,1,0,0:0:0:0:
320,192,47568,1,0,0:0:0:0:
64,192,47642,1,0,0:0:0:0:
448,192,47716,1,0,0:0:0:0:
320,192,47716,1,0,0:0:0:0:
192,192,47716,1,0,0:0:0:0:
64,192,47791,1,0,0:0:0:0:
448,192,47865,1,0,0:0:0:0:
320,192,47865,1,0,0:0:0:0:
192,192,47940,1,0,0:0:0:0:
320,192,48014,1,0,0:0:0:0:
64,192,48014,1,0,0:0:0:0:
448,192,48088,1,0,0:0:0:0:
64,192,48163,1,0,0:0:0:0:
192,192,48163,1,0,0:0:0:0:
320,192,48237,1,0,0:0:0:0:
64,192,48312,1,0,0:0:0:0:
192,192,48312,1,0,0:0:0:0:
448,192,48312,1,0,0:0:0:0:
320,192,48386,1,0,0:0:0:0:
192,192,48460,1,0,0:0:0:0:
448,192,48460,1,0,0:0:0:0:
64,192,48535,1,0,0:0:0:0:
448,192,48609,1,0,0:0:0:0:
320,192,48609,1,0,0:0:0:0:
192,192,48684,1,0,0:0:0:0:
448,192,48758,1,0,0:0:0:0:
64,192,48758,1,0,0:0:0:0:
320,192,48832,1,0,0:0:0:0:
64,192,48907,1,0,0:0:0:0:
192,192,48907,1,0,0:0:0:0:
320,192,48981,1,0,0:0:0:0:
64,192,49056,1,0,0:0:0:0:
448,192,49056,1,0,0:0:0:0:
192,192,49130,1,0,0:0:0:0:
448,192,49204,1,0,0:0:0:0:
320,192,49204,1,0,0:0:0:0:
192,192,49279,1,0,0:0:0:0:
448,192,49353,1,0,0:0:0:0:
64,192,49353,1,0,0:0:0:0:
320,192,49428,1,0,0:0:0:0:
64,192,49502,1,0,0:0:0:0:
192,192,49502,1,0,0:0:0:0:
448,192,49502,1,0,0:0:0:0:
320,192,49576,1,0,0:0:0:0:
192,192,49651,1,0,0:0:0:0:
64,192,49651,1,0,0:0:0:0:
320,192,49725,1,0,0:0:0:0:
192,192,49800,1,0,0:0:0:0:
448,192,49800,1,0,0:0:0:0:
64,192,49874,1,0,0:0:0:0:
448,192,49949,1,0,0:0:0:0:
320,192,49949,1,0,0:0:0:0:
192,192,50023,1,0,0:0:0:0:
448,192,50097,1,0,0:0:0:0:
64,192,50097,1,0,0:0:0:0:
192,192,50172,1,0,0:0:0:0:
320,192,50172,1,0,0:0:0:0:
448,192,50246,1,0,0:0:0:0:
64,192,50246,1,0,0:0:0:0:
320,192,50321,1,0,0:0:0:0:
64,192,50395,1,0,0:0:0:0:
192,192,50395,1,0,0:0:0:0:
448,192,50469,1,0,0:0:0:0:
320,192,50469,1,0,0:0:0:0:
64,192,50544,1,0,0:0:0:0:
192,192,50544,1,0,0:0:0:0:
448,192,50618,1,0,0:0:0:0:
320,192,50618,1,0,0:0:0:0:
64,192,50693,1,0,0:0:0:0:
192,192,50693,1,0,0:0:0:0:
448,192,50767,1,0,0:0:0:0:
64,192,50841,1,0,0:0:0:0:
320,192,50841,1,0,0:0:0:0:
192,192,50916,1,0,0:0:0:0:
448,192,50990,1,0,0:0:0:0:
320,192,50990,1,0,0:0:0:0:
64,192,51065,1,0,0:0:0:0:
448,192,51139,1,0,0:0:0:0:
192,192,51139,1,0,0:0:0:0:
320,192,51213,1,0,0:0:0:0:
64,192,51288,1,0,0:0:0:0:
192,192,51288,1,0,0:0:0:0:
448,192,51362,1,0,0:0:0:0:
64,192,51437,1,0,0:0:0:0:
320,192,51437,1,0,0:0:0:0:
192,192,51511,1,0,0:0:0:0:
448,192,51585,1,0,0:0:0:0:
320,192,51585,1,0,0:0:0:0:
64,192,51660,1,0,0:0:0:0:
448,192,51734,1,0,0:0:0:0:
192,192,51734,1,0,0:0:0:0:
320,192,51809,1,0,0:0:0:0:
64,192,51883,1,0,0:0:0:0:
192,192,51883,1,0,0:0:0:0:
448,192,51883,1,0,0:0:0:0:
320,192,51957,1,0,0:0:0:0:
64,192,52032,1,0,0:0:0:0:
192,192,52032,1,0,0:0:0:0:
448,192,52106,1,0,0:0:0:0:
64,192,52181,1,0,0:0:0:0:
320,192,52181,1,0,0:0:0:0:
192,192,52255,1,0,0:0:0:0:
448,192,52329,1,0,0:0:0:0:
320,192,52329,1,0,0:0:0:0:
64,192,52404,1,0,0:0:0:0:
320,192,52478,1,0,0:0:0:0:
192,192,52478,1,0,0:0:0:0:
448,192,52478,1,0,0:0:0:0:
64,192,52553,1,0,0:0:0:0:
192,192,52627,1,0,0:0:0:0:
448,192,52627,1,0,0:0:0:0:
320,192,52701,1,0,0:0:0:0:
64,192,52776,1,0,0:0:0:0:
192,192,52776,1,0,0:0:0:0:
320,192,52850,1,0,0:0:0:0:
64,192,52925,1,0,0:0:0:0:
448,192,52925,1,0,0:0:0:0:
192,192,52999,1,0,0:0:0:0:
64,192,53074,1,0,0:0:0:0:
320,192,53074,1,0,0:0:0:0:
448,192,53074,1,0,0:0:0:0:
192,192,53148,1,0,0:0:0:0:
320,192,53222,1,0,0:0:0:0:
448,192,53222,1,0,0:0:0:0:
192,192,53297,1,0,0:0:0:0:
320,192,53371,1,0,0:0:0:0:
64,192,53371,1,0,0:0:0:0:
448,192,53446,1,0,0:0:0:0:
64,192,53520,1,0,0:0:0:0:
192,192,53520,1,0,0:0:0:0:
320,192,53594,1,0,0:0:0:0:
192,192,53669,1,0,0:0:0:0:
448,192,53669,1,0,0:0:0:0:
64,192,53743,1,0,0:0:0:0:
448,192,53818,1,0,0:0:0:0:
320,192,53818,1,0,0:0:0:0:
192,192,53892,1,0,0:0:0:0:
320,192,53966,1,0,0:0:0:0:
64,192,53966,1,0,0:0:0:0:
448,192,54041,1,0,0:0:0:0:
192,192,54115,1,0,0:0:0:0:
64,192,54115,1,0,0:0:0:0:
320,192,54190,1,0,0:0:0:0:
192,192,54264,1,0,0:0:0:0:
448,192,54264,1,0,0:0:0:0:
64,192,54264,1,0,0:0:0:0:
320,192,54338,1,0,0:0:0:0:
192,192,54413,1,0,0:0:0:0:
448,192,54413,1,0,0:0:0:0:
320,192,54487,1,0,0:0:0:0:
64,192,54487,1,0,0:0:0:0:
448,192,54562,1,0,0:0:0:0:
192,192,54562,1,0,0:0:0:0:
64,192,54636,1,0,0:0:0:0:
448,192,54710,1,0,0:0:0:0:
320,192,54710,1,0,0:0:0:0:
192,192,54710,1,0,0:0:0:0:
64,192,54785,1,0,0:0:0:0:
448,192,54859,1,0,0:0:0:0:
320,192,54859,1,0,0:0:0:0:
64,192,54934,1,0,0:0:0:0:
192,192,54934,1,0,0:0:0:0:
448,192,55008,1,0,0:0:0:0:
320,192,55008,1,0,0:0:0:0:
192,192,55082,1,0,0:0:0:0:
320,192,55157,1,0,0:0:0:0:
64,192,55157,1,0,0:0:0:0:
448,192,55231,1,0,0:0:0:0:
192,192,55231,1,0,0:0:0:0:
64,192,55306,1,0,0:0:0:0:
320,192,55306,1,0,0:0:0:0:
448,192,55380,1,0,0:0:0:0:
192,192,55380,1,0,0:0:0:0:
64,192,55454,1,0,0:0:0:0:
320,192,55454,1,0,0:0:0:0:
448,192,55529,1,0,0:0:0:0:
64,192,55603,1,0,0:0:0:0:
192,192,55603,1,0,0:0:0:0:
320,192,55678,1,0,0:0:0:0:
64,192,55752,1,0,0:0:0:0:
448,192,55752,1,0,0:0:0:0:
192,192,55826,1,0,0:0:0:0:
448,192,55901,1,0,0:0:0:0:
320,192,55901,1,0,0:0:0:0:
192,192,55975,1,0,0:0:0:0:
448,192,56050,1,0,0:0:0:0:
64,192,56050,1,0,0:0:0:0:
320,192,56124,1,0,0:0:0:0:
64,192,56199,1,0,0:0:0:0:
192,192,56199,1,0,0:0:0:0:
320,192,56273,1,0,0:0:0:0:
64,192,56347,1,0,0:0:0:0:
448,192,56347,1,0,0:0:0:0:
192,192,56422,1,0,0:0:0:0:
448,192,56496,1,0,0:0:0:0:
320,192,56496,1,0,0:0:0:0:
192,192,56571,1,0,0:0:0:0:
320,192,56645,1,0,0:0:0:0:
64,192,56645,1,0,0:0:0:0:
448,192,56645,1,0,0:0:0:0:
192,192,56719,1,0,0:0:0:0:
320,192,56794,1,0,0:0:0:0:
64,192,56794,1,0,0:0:0:0:
448,192,56868,1,0,0:0:0:0:
64,192,56943,1,0,0:0:0:0:
192,192,56943,1,0,0:0:0:0:
320,192,57017,1,0,0:0:0:0:
192,192,57091,1,0,0:0:0:0:
448,192,57091,1,0,0:0:0:0:
64,192,57166,1,0,0:0:0:0:
448,192,57240,1,0,0:0:0:0:
320,192,57240,1,0,0:0:0:0:
192,192,57315,1,0,0:0:0:0:
320,192,57389,1,0,0:0:0:0:
64,192,57389,1,0,0:0:0:0:
448,192,57463,1,0,0:0:0:0:
64,192,57538,1,0,0:0:0:0:
192,192,57538,1,0,0:0:0:0:
320,192,57612,1,0,0:0:0:0:
192,192,57687,1,0,0:0:0:0:
448,192,57687,1,0,0:0:0:0:
64,192,57761,1,0,0:0:0:0:
192,192,57835,1,0,0:0:0:0:
320,192,57835,1,0,0:0:0:0:
448,192,57835,1,0,0:0:0:0:
64,192,57910,1,0,0:0:0:0:
448,192,57984,1,0,0:0:0:0:
320,192,57984,1,0,0:0:0:0:
192,192,58059,1,0,0:0:0:0:
448,192,58133,1,0,0:0:0:0:
64,192,58133,1,0,0:0:0:0:
320,192,58207,1,0,0:0:0:0:
64,192,58282,1,0,0:0:0:0:
192,192,58282,1,0,0:0:0:0:
320,192,58356,1,0,0:0:0:0:
64,192,58431,1,0,0:0:0:0:
448,192,58431,1,0,0:0:0:0:
192,192,58505,1,0,0:0:0:0:
448,192,58579,1,0,0:0:0:0:
320,192,58579,1,0,0:0:0:0:
192,192,58654,1,0,0:0:0:0:
448,192,58728,1,0,0:0:0:0:
64,192,58728,1,0,0:0:0:0:
320,192,58803,1,0,0:0:0:0:
64,192,58877,1,0,0:0:0:0:
192,192,58877,1,0,0:0:0:0:
320,192,58951,1,0,0:0:0:0:
64,192,59026,1,0,0:0:0:0:
448,192,59026,1,0,0:0:0:0:
192,192,59100,1,0,0:0:0:0:
448,192,59175,1,0,0:0:0:0:
320,192,59175,1,0,0:0:0:0:
192,192,59249,1,0,0:0:0:0:
448,192,59324,1,0,0:0:0:0:
64,192,59324,1,0,0:0:0:0:
320,192,59398,1,0,0:0:0:0:
64,192,59472,1,0,0:0:0:0:
192,192,59472,1,0,0:0:0:0:
320,192,59547,1,0,0:0:0:0:
64,192,59621,1,0,0:0:0:0:
448,192,59621,1,0,0:0:0:0:
320,192,59696,1,0,0:0:0:0:
192,192,59696,1,0,0:0:0:0:
448,192,59770,1,0,0:0:0:0:
64,192,59770,1,0,0:0:0:0:
192,192,59844,1,0,0:0:0:0:
448,192,59919,1,0,0:0:0:0:
320,192,59919,1,0,0:0:0:0:
64,192,59993,1,0,0:0:0:0:
192,192,59993,1,0,0:0:0:0:
448,192,60068,1,0,0:0:0:0:
320,192,60068,1,0,0:0:0:0:
64,192,60142,1,0,0:0:0:0:
192,192,60142,1,0,0:0:0:0:
448,192,60216,1,0,0:0:0:0:
320,192,60216,1,0,0:0:0:0:
64,192,60291,1,0,0:0:0:0:
448,192,60365,1,0,0:0:0:0:
192,192,60365,1,0,0:0:0:0:
320,192,60440,1,0,0:0:0:0:
64,192,60514,1,0,0:0:0:0:
192,192,60514,1,0,0:0:0:0:
448,192,60588,1,0,0:0:0:0:
64,192,60663,1,0,0:0:0:0:
320,192,60663,1,0,0:0:0:0:
192,192,60737,1,0,0:0:0:0:
448,192,60812,1,0,0:0:0:0:
320,192,60812,1,0,0:0:0:0:
64,192,60886,1,0,0:0:0:0:
448,192,60960,1,0,0:0:0:0:
192,192,60960,1,0,0:0:0:0:
320,192,61035,1,0,0:0:0:0:
64,192,61109,1,0,0:0:0:0:
192,192,61109,1,0,0:0:0:0:
448,192,61184,1,0,0:0:0:0:
64,192,61258,1,0,0:0:0:0:
320,192,61258,1,0,0:0:0:0:
192,192,61332,1,0,0:0:0:0:
64,192,61407,1,0,0:0:0:0:
320,192,61407,1,0,0:0:0:0:
448,192,61407,1,0,0:0:0:0:
192,192,61481,1,0,0:0:0:0:
448,192,61556,1,0,0:0:0:0:
320,192,61556,1,0,0:0:0:0:
192,192,61630,1,0,0:0:0:0:
448,192,61704,1,0,0:0:0:0:
64,192,61704,1,0,0:0:0:0:
320,192,61779,1,0,0:0:0:0:
64,192,61853,1,0,0:0:0:0:
192,192,61853,1,0,0:0:0:0:
448,192,61928,1,0,0:0:0:0:
192,192,62002,1,0,0:0:0:0:
64,192,62002,1,0,0:0:0:0:
320,192,62002,1,0,0:0:0:0:
448,192,62076,1,0,0:0:0:0:
192,192,62151,1,0,0:0:0:0:
320,192,62151,1,0,0:0:0:0:
64,192,62225,1,0,0:0:0:0:
448,192,62300,1,0,0:0:0:0:
320,192,62300,1,0,0:0:0:0:
192,192,62374,1,0,0:0:0:0:
448,192,62449,1,0,0:0:0:0:
64,192,62449,1,0,0:0:0:0:
320,192,62523,1,0,0:0:0:0:
64,192,62597,1,0,0:0:0:0:
192,192,62597,1,0,0:0:0:0:
448,192,62597,1,0,0:0:0:0:
320,192,62672,1,0,0:0:0:0:
64,192,62746,1,0,0:0:0:0:
192,192,62746,1,0,0:0:0:0:
448,192,62821,1,0,0:0:0:0:
64,192,62895,1,0,0:0:0:0:
320,192,62895,1,0,0:0:0:0:
192,192,62969,1,0,0:0:0:0:
448,192,63044,1,0,0:0:0:0:
320,192,63044,1,0,0:0:0:0:
64,192,63118,1,0,0:0:0:0:
448,192,63193,1,0,0:0:0:0:
192,192,63193,1,0,0:0:0:0:
320,192,63267,1,0,0:0:0:0:
64,192,63341,1,0,0:0:0:0:
192,192,63341,1,0,0:0:0:0:
448,192,63416,1,0,0:0:0:0:
64,192,63490,1,0,0:0:0:0:
320,192,63490,1,0,0:0:0:0:
192,192,63565,1,0,0:0:0:0:
448,192,63639,1,0,0:0:0:0:
320,192,63639,1,0,0:0:0:0:
64,192,63713,1,0,0:0:0:0:
448,192,63788,1,0,0:0:0:0:
320,192,63788,1,0,0:0:0:0:
192,192,63788,1,0,0:0:0:0:
64,192,63862,1,0,0:0:0:0:
448,192,63937,1,0,0:0:0:0:
320,192,63937,1,0,0:0:0:0:
192,192,64011,1,0,0:0:0:0:
64,192,64011,1,0,0:0:0:0:
448,192,64085,1,0,0:0:0:0:
320,192,64085,1,0,0:0:0:0:
192,192,64160,1,0,0:0:0:0:
448,192,64234,1,0,0:0:0:0:
320,192,64234,1,0,0:0:0:0:
64,192,64234,1,0,0:0:0:0:
192,192,64309,1,0,0:0:0:0:
448,192,64383,1,0,0:0:0:0:
64,192,64383,1,0,0:0:0:0:
192,192,64457,1,0,0:0:0:0:
320,192,64457,1,0,0:0:0:0:
448,192,64532,1,0,0:0:0:0:
64,192,64532,1,0,0:0:0:0:
320,192,64606,1,0,0:0:0:0:
64,192,64681,1,0,0:0:0:0:
192,192,64681,1,0,0:0:0:0:
448,192,64755,1,0,0:0:0:0:
320,192,64755,1,0,0:0:0:0:
64,192,64829,1,0,0:0:0:0:
192,192,64829,1,0,0:0:0:0:
448,192,64904,1,0,0:0:0:0:
320,192,64904,1,0,0:0:0:0:
64,192,64978,1,0,0:0:0:0:
192,192,64978,1,0,0:0:0:0:
320,192,65053,1,0,0:0:0:0:
64,192,65127,1,0,0:0:0:0:
448,192,65127,1,0,0:0:0:0:
192,192,65201,1,0,0:0:0:0:
448,192,65276,1,0,0:0:0:0:
320,192,65276,1,0,0:0:0:0:
192,192,65350,1,0,0:0:0:0:
448,192,65425,1,0,0:0:0:0:
64,192,65425,1,0,0:0:0:0:
320,192,65499,1,0,0:0:0:0:
64,192,65574,1,0,0:0:0:0:
192,192,65574,1,0,0:0:0:0:
320,192,65648,1,0,0:0:0:0:
64,192,65722,1,0,0:0:0:0:
448,192,65722,1,0,0:0:0:0:
192,192,65797,1,0,0:0:0:0:
448,192,65871,1,0,0:0:0:0:
320,192,65871,1,0,0:0:0:0:
192,192,65946,1,0,0:0:0:0:
448,192,66020,1,0,0:0:0:0:
64,192,66020,1,0,0:0:0:0:
320,192,66094,1,0,0:0:0:0:
64,192,66169,1,0,0:0:0:0:
192,192,66169,1,0,0:0:0:0:
448,192,66169,1,0,0:0:0:0:
320,192,66243,1,0,0:0:0:0:
64,192,66318,1,0,0:0:0:0:
192,192,66318,1,0,0:0:0:0:
448,192,66392,1,0,0:0:0:0:
192,192,66466,1,0,0:0:0:0:
320,192,66466,1,0,0:0:0:0:
64,192,66541,1,0,0:0:0:0:
320,192,66615,1,0,0:0:0:0:
448,192,66615,1,0,0:0:0:0:
192,192,66690,1,0,0:0:0:0:
320,192,66764,1,0,0:0:0:0:
64,192,66764,1,0,0:0:0:0:
448,192,66764,1,0,0:0:0:0:
192,192,66838,1,0,0:0:0:0:
448,192,66913,1,0,0:0:0:0:
64,192,66913,1,0,0:0:0:0:
320,192,66987,1,0,0:0:0:0:
64,192,67062,1,0,0:0:0:0:
192,192,67062,1,0,0:0:0:0:
320,192,67136,1,0,0:0:0:0:
192,192,67210,1,0,0:0:0:0:
448,192,67210,1,0,0:0:0:0:
64,192,67285,1,0,0:0:0:0:
192,192,67359,1,0,0:0:0:0:
320,192,67359,1,0,0:0:0:0:
448,192,67359,1,0,0:0:0:0:
64,192,67434,1,0,0:0:0:0:
320,192,67508,1,0,0:0:0:0:
448,192,67508,1,0,0:0:0:0:
192,192,67582,1,0,0:0:0:0:
320,192,67657,1,0,0:0:0:0:
64,192,67657,1,0,0:0:0:0:
448,192,67731,1,0,0:0:0:0:
192,192,67806,1,0,0:0:0:0:
64,192,67806,1,0,0:0:0:0:
320,192,67880,1,0,0:0:0:0:
192,192,67954,1,0,0:0:0:0:
448,192,67954,1,0,0:0:0:0:
64,192,68029,1,0,0:0:0:0:
448,192,68103,1,0,0:0:0:0:
320,192,68103,1,0,0:0:0:0:
192,192,68178,1,0,0:0:0:0:
320,192,68252,1,0,0:0:0:0:
64,192,68252,1,0,0:0:0:0:
448,192,68326,1,0,0:0:0:0:
192,192,68401,1,0,0:0:0:0:
64,192,68401,1,0,0:0:0:0:
320,192,68475,1,0,0:0:0:0:
64,192,68550,1,0,0:0:0:0:
192,192,68550,1,0,0:0:0:0:
448,192,68550,1,0,0:0:0:0:
320,192,68624,1,0,0:0:0:0:
192,192,68699,1,0,0:0:0:0:
448,192,68699,1,0,0:0:0:0:
64,192,68773,1,0,0:0:0:0:
448,192,68847,1,0,0:0:0:0:
320,192,68847,1,0,0:0:0:0:
192,192,68922,1,0,0:0:0:0:
320,192,68996,1,0,0:0:0:0:
64,192,68996,1,0,0:0:0:0:
448,192,69071,1,0,0:0:0:0:
64,192,69145,1,0,0:0:0:0:
192,192,69145,1,0,0:0:0:0:
448,192,69219,1,0,0:0:0:0:
320,192,69219,1,0,0:0:0:0:
64,192,69294,1,0,0:0:0:0:
192,192,69294,1,0,0:0:0:0:
448,192,69368,1,0,0:0:0:0:
192,192,69443,1,0,0:0:0:0:
320,192,69443,1,0,0:0:0:0:
448,192,69517,1,0,0:0:0:0:
64,192,69517,1,0,0:0:0:0:
192,192,69591,1,0,0:0:0:0:
320,192,69591,1,0,0:0:0:0:
448,192,69666,1,0,0:0:0:0:
64,192,69666,1,0,0:0:0:0:
192,192,69740,1,0,0:0:0:0:
320,192,69740,1,0,0:0:0:0:
64,192,69815,1,0,0:0:0:0:
448,192,69889,1,0,0:0:0:0:
320,192,69889,1,0,0:0:0:0:
192,192,69963,1,0,0:0:0:0:
320,192,70038,1,0,0:0:0:0:
64,192,70038,1,0,0:0:0:0:
448,192,70112,1,0,0:0:0:0:
64,192,70187,1,0,0:0:0:0:
192,192,70187,1,0,0:0:0:0:
320,192,70261,1,0,0:0:0:0:
192,192,70335,1,0,0:0:0:0:
448,192,70335,1,0,0:0:0:0:
64,192,70410,1,0,0:0:0:0:
448,192,70484,1,0,0:0:0:0:
320,192,70484,1,0,0:0:0:0:
192,192,70559,1,0,0:0:0:0:
320,192,70633,1,0,0:0:0:0:
64,192,70633,1,0,0:0:0:0:
448,192,70707,1,0,0:0:0:0:
64,192,70782,1,0,0:0:0:0:
192,192,70782,1,0,0:0:0:0:
320,192,70856,1,0,0:0:0:0:
64,192,70931,1,0,0:0:0:0:
192,192,70931,1,0,0:0:0:0:
448,192,70931,1,0,0:0:0:0:
320,192,71005,1,0,0:0:0:0:
192,192,71079,1,0,0:0:0:0:
448,192,71079,1,0,0:0:0:0:
64,192,71154,1,0,0:0:0:0:
448,192,71228,1,0,0:0:0:0:
320,192,71228,1,0,0:0:0:0:
192,192,71303,1,0,0:0:0:0:
448,192,71377,1,0,0:0:0:0:
64,192,71377,1,0,0:0:0:0:
320,192,71451,1,0,0:0:0:0:
448,192,71526,1,0,0:0:0:0:
64,192,71526,1,0,0:0:0:0:
192,192,71526,1,0,0:0:0:0:
320,192,71600,1,0,0:0:0:0:
64,192,71675,1,0,0:0:0:0:
192,192,71675,1,0,0:0:0:0:
448,192,71749,1,0,0:0:0:0:
192,192,71824,1,0,0:0:0:0:
320,192,71824,1,0,0:0:0:0:
64,192,71898,1,0,0:0:0:0:
320,192,71972,1,0,0:0:0:0:
448,192,71972,1,0,0:0:0:0:
192,192,72047,1,0,0:0:0:0:
320,192,72121,1,0,0:0:0:0:
64,192,72121,1,0,0:0:0:0:
448,192,72121,1,0,0:0:0:0:
192,192,72196,1,0,0:0:0:0:
448,192,72270,1,0,0:0:0:0:
64,192,72270,1,0,0:0:0:0:
320,192,72344,1,0,0:0:0:0:
64,192,72419,1,0,0:0:0:0:
192,192,72419,1,0,0:0:0:0:
448,192,72493,1,0,0:0:0:0:
192,192,72568,1,0,0:0:0:0:
320,192,72568,1,0,0:0:0:0:
64,192,72642,1,0,0:0:0:0:
320,192,72716,1,0,0:0:0:0:
448,192,72716,1,0,0:0:0:0:
192,192,72791,1,0,0:0:0:0:
448,192,72865,1,0,0:0:0:0:
64,192,72865,1,0,0:0:0:0:
320,192,72940,1,0,0:0:0:0:
64,192,73014,1,0,0:0:0:0:
192,192,73014,1,0,0:0:0:0:
320,192,73088,1,0,0:0:0:0:
64,192,73163,1,0,0:0:0:0:
448,192,73163,1,0,0:0:0:0:
192,192,73237,1,0,0:0:0:0:
448,192,73312,1,0,0:0:0:0:
320,192,73312,1,0,0:0:0:0:
64,192,73312,1,0,0:0:0:0:
192,192,73386,1,0,0:0:0:0:
448,192,73460,1,0,0:0:0:0:
320,192,73460,1,0,0:0:0:0:
192,192,73535,1,0,0:0:0:0:
64,192,73535,1,0,0:0:0:0:
448,192,73609,1,0,0:0:0:0:
320,192,73609,1,0,0:0:0:0:
192,192,73684,1,0,0:0:0:0:
448,192,73758,1,0,0:0:0:0:
320,192,73758,1,0,0:0:0:0:
64,192,73758,1,0,0:0:0:0:
192,192,73832,1,0,0:0:0:0:
448,192,73907,1,0,0:0:0:0:
320,192,73907,1,0,0:0:0:0:
64,192,73981,1,0,0:0:0:0:
192,192,73981,1,0,0:0:0:0:
448,192,74056,1,0,0:0:0:0:
320,192,74056,1,0,0:0:0:0:
64,192,74130,1,0,0:0:0:0:
320,192,74204,1,0,0:0:0:0:
192,192,74204,1,0,0:0:0:0:
64,192,74279,1,0,0:0:0:0:
448,192,74279,1,0,0:0:0:0:
320,192,74353,1,0,0:0:0:0:
192,192,74353,1,0,0:0:0:0:
448,192,74428,1,0,0:0:0:0:
64,192,74428,1,0,0:0:0:0:
192,192,74502,1,0,0:0:0:0:
320,192,74502,1,0,0:0:0:0:
448,192,74576,1,0,0:0:0:0:
64,192,74651,1,0,0:0:0:0:
192,192,74651,1,0,0:0:0:0:
320,192,74725,1,0,0:0:0:0:
64,192,74800,1,0,0:0:0:0:
192,192,74800,1,0,0:0:0:0:
320,192,74874,1,0,0:0:0:0:
64,192,74949,1,0,0:0:0:0:
192,192,74949,1,0,0:0:0:0:
320,192,75023,1,0,0:0:0:0:
448,192,75097,1,0,0:0:0:0:
64,192,75097,1,0,0:0:0:0:
192,192,75172,1,0,0:0:0:0:
448,192,75246,1,0,0:0:0:0:
320,192,75246,1,0,0:0:0:0:
192,192,75321,1,0,0:0:0:0:
448,192,75395,1,0,0:0:0:0:
320,192,75395,1,0,0:0:0:0:
192,192,75469,1,0,0:0:0:0:
448,192,75544,1,0,0:0:0:0:
320,192,75544,1,0,0:0:0:0:
192,192,75618,1,0,0:0:0:0:
64,192,75693,1,0,0:0:0:0:
448,192,75693,1,0,0:0:0:0:
320,192,75767,1,0,0:0:0:0:
64,192,75841,1,0,0:0:0:0:
192,192,75841,1,0,0:0:0:0:
320,192,75916,1,0,0:0:0:0:
64,192,75990,1,0,0:0:0:0:
192,192,75990,1,0,0:0:0:0:
320,192,76065,1,0,0:0:0:0:
64,192,76139,1,0,0:0:0:0:
192,192,76139,1,0,0:0:0:0:
320,192,76213,1,0,0:0:0:0:
448,192,76288,1,0,0:0:0:0:
64,192,76288,1,0,0:0:0:0:
192,192,76288,1,0,0:0:0:0:
64,192,76511,1,0,0:0:0:0:
320,192,76511,1,0,0:0:0:0:
448,192,76511,1,0,0:0:0:0:
64,192,76734,1,0,0:0:0:0:
192,192,76734,1,0,0:0:0:0:
448,192,76809,1,0,0:0:0:0:
320,192,76809,1,0,0:0:0:0:
64,192,76883,1,0,0:0:0:0:
192,192,76883,1,0,0:0:0:0:
320,192,76957,1,0,0:0:0:0:
64,192,77032,1,0,0:0:0:0:
192,192,77032,1,0,0:0:0:0:
320,192,77106,1,0,0:0:0:0:
64,192,77181,1,0,0:0:0:0:
192,192,77181,1,0,0:0:0:0:
320,192,77255,1,0,0:0:0:0:
64,192,77329,1,0,0:0:0:0:
192,192,77329,1,0,0:0:0:0:
320,192,77404,1,0,0:0:0:0:
448,192,77478,1,0,0:0:0:0:
64,192,77478,1,0,0:0:0:0:
192,192,77553,1,0,0:0:0:0:
448,192,77627,1,0,0:0:0:0:
320,192,77627,1,0,0:0:0:0:
192,192,77701,5,0,0:0:0:0:
448,192,77776,1,0,0:0:0:0:
320,192,77776,1,0,0:0:0:0:
192,192,77850,1,0,0:0:0:0:
448,192,77925,1,0,0:0:0:0:
320,192,77925,1,0,0:0:0:0:
192,192,77999,1,0,0:0:0:0:
448,192,78074,1,0,0:0:0:0:
320,192,78074,1,0,0:0:0:0:
64,192,78148,1,0,0:0:0:0:
192,192,78148,1,0,0:0:0:0:
448,192,78222,1,0,0:0:0:0:
320,192,78222,1,0,0:0:0:0:
64,192,78297,1,0,0:0:0:0:
192,192,78297,1,0,0:0:0:0:
448,192,78371,1,0,0:0:0:0:
320,192,78371,1,0,0:0:0:0:
64,192,78446,1,0,0:0:0:0:
192,192,78446,1,0,0:0:0:0:
448,192,78520,1,0,0:0:0:0:
320,192,78520,1,0,0:0:0:0:
64,192,78594,1,0,0:0:0:0:
192,192,78594,1,0,0:0:0:0:
320,192,78669,5,0,0:0:0:0:
64,192,78743,1,0,0:0:0:0:
448,192,78743,1,0,0:0:0:0:
320,192,78818,1,0,0:0:0:0:
192,192,78818,1,0,0:0:0:0:
64,192,78892,1,0,0:0:0:0:
448,192,78892,1,0,0:0:0:0:
192,192,78966,1,0,0:0:0:0:
448,192,79041,1,0,0:0:0:0:
320,192,79041,1,0,0:0:0:0:
64,192,79115,1,0,0:0:0:0:
192,192,79115,1,0,0:0:0:0:
448,192,79190,1,0,0:0:0:0:
320,192,79190,1,0,0:0:0:0:
64,192,79264,1,0,0:0:0:0:
192,192,79264,1,0,0:0:0:0:
320,192,79338,1,0,0:0:0:0:
448,192,79413,1,0,0:0:0:0:
192,192,79487,1,0,0:0:0:0:
64,192,79562,1,0,0:0:0:0:
320,192,79562,1,0,0:0:0:0:
448,192,79636,1,0,0:0:0:0:
64,192,79710,1,0,0:0:0:0:
192,192,79785,1,0,0:0:0:0:
448,192,79859,1,0,0:0:0:0:
320,192,79859,1,0,0:0:0:0:
64,192,79934,1,0,0:0:0:0:
192,192,80008,1,0,0:0:0:0:
448,192,80082,1,0,0:0:0:0:
64,192,80157,1,0,0:0:0:0:
320,192,80157,1,0,0:0:0:0:
192,192,80231,1,0,0:0:0:0:
448,192,80306,1,0,0:0:0:0:
320,192,80380,1,0,0:0:0:0:
448,192,80454,1,0,0:0:0:0:
64,192,80454,1,0,0:0:0:0:
192,192,80454,1,0,0:0:0:0:
320,192,80529,1,0,0:0:0:0:
192,192,80603,1,0,0:0:0:0:
64,192,80678,1,0,0:0:0:0:
192,192,80752,1,0,0:0:0:0:
448,192,80752,1,0,0:0:0:0:
320,192,80826,1,0,0:0:0:0:
64,192,80901,1,0,0:0:0:0:
192,192,80975,1,0,0:0:0:0:
64,192,81050,1,0,0:0:0:0:
320,192,81050,1,0,0:0:0:0:
448,192,81050,1,0,0:0:0:0:
192,192,81124,1,0,0:0:0:0:
320,192,81199,1,0,0:0:0:0:
448,192,81273,1,0,0:0:0:0:
320,192,81347,1,0,0:0:0:0:
64,192,81347,1,0,0:0:0:0:
192,192,81422,1,0,0:0:0:0:
448,192,81496,1,0,0:0:0:0:
320,192,81571,1,0,0:0:0:0:
64,192,81645,1,0,0:0:0:0:
192,192,81645,1,0,0:0:0:0:
448,192,81645,1,0,0:0:0:0:
320,192,81719,1,0,0:0:0:0:
192,192,81794,1,0,0:0:0:0:
64,192,81868,1,0,0:0:0:0:
320,192,81943,1,0,0:0:0:0:
448,192,81943,1,0,0:0:0:0:
192,192,82017,1,0,0:0:0:0:
320,192,82091,1,0,0:0:0:0:
448,192,82166,1,0,0:0:0:0:
64,192,82240,1,0,0:0:0:0:
192,192,82240,1,0,0:0:0:0:
320,192,82315,1,0,0:0:0:0:
448,192,82389,1,0,0:0:0:0:
320,192,82463,1,0,0:0:0:0:
192,192,82538,1,0,0:0:0:0:
64,192,82612,1,0,0:0:0:0:
448,192,82687,1,0,0:0:0:0:
320,192,82761,1,0,0:0:0:0:
64,192,82835,1,0,0:0:0:0:
192,192,82835,1,0,0:0:0:0:
448,192,82910,1,0,0:0:0:0:
320,192,82984,1,0,0:0:0:0:
64,192,83059,1,0,0:0:0:0:
448,192,83133,1,0,0:0:0:0:
192,192,83133,1,0,0:0:0:0:
320,192,83207,1,0,0:0:0:0:
64,192,83282,1,0,0:0:0:0:
192,192,83356,1,0,0:0:0:0:
448,192,83431,1,0,0:0:0:0:
320,192,83431,1,0,0:0:0:0:
64,192,83505,1,0,0:0:0:0:
192,192,83505,1,0,0:0:0:0:
448,192,83579,1,0,0:0:0:0:
320,192,83579,1,0,0:0:0:0:
64,192,83654,1,0,0:0:0:0:
320,192,83728,1,0,0:0:0:0:
192,192,83728,1,0,0:0:0:0:
64,192,83803,1,0,0:0:0:0:
448,192,83803,1,0,0:0:0:0:
320,192,83877,1,0,0:0:0:0:
192,192,83877,1,0,0:0:0:0:
448,192,83951,1,0,0:0:0:0:
64,192,83951,1,0,0:0:0:0:
192,192,84026,1,0,0:0:0:0:
320,192,84026,1,0,0:0:0:0:
448,192,84100,1,0,0:0:0:0:
64,192,84175,1,0,0:0:0:0:
192,192,84249,1,0,0:0:0:0:
448,192,84324,1,0,0:0:0:0:
320,192,84324,1,0,0:0:0:0:
64,192,84398,1,0,0:0:0:0:
192,192,84472,1,0,0:0:0:0:
448,192,84547,1,0,0:0:0:0:
64,192,84621,1,0,0:0:0:0:
320,192,84621,1,0,0:0:0:0:
192,192,84696,1,0,0:0:0:0:
448,192,84770,1,0,0:0:0:0:
320,192,84844,1,0,0:0:0:0:
64,192,84919,1,0,0:0:0:0:
192,192,84919,1,0,0:0:0:0:
448,192,84993,1,0,0:0:0:0:
320,192,85068,1,0,0:0:0:0:
192,192,85142,1,0,0:0:0:0:
320,192,85216,1,0,0:0:0:0:
64,192,85216,1,0,0:0:0:0:
448,192,85216,1,0,0:0:0:0:
192,192,85291,1,0,0:0:0:0:
64,192,85365,1,0,0:0:0:0:
320,192,85440,1,0,0:0:0:0:
192,192,85514,1,0,0:0:0:0:
448,192,85514,1,0,0:0:0:0:
64,192,85588,1,0,0:0:0:0:
320,192,85663,1,0,0:0:0:0:
448,192,85737,1,0,0:0:0:0:
64,192,85812,1,0,0:0:0:0:
192,192,85812,1,0,0:0:0:0:
320,192,85812,1,0,0:0:0:0:
448,192,85886,1,0,0:0:0:0:
192,192,85960,1,0,0:0:0:0:
320,192,86035,1,0,0:0:0:0:
64,192,86109,1,0,0:0:0:0:
448,192,86109,1,0,0:0:0:0:
192,192,86184,1,0,0:0:0:0:
320,192,86258,1,0,0:0:0:0:
192,192,86332,1,0,0:0:0:0:
320,192,86407,1,0,0:0:0:0:
64,192,86407,1,0,0:0:0:0:
448,192,86407,1,0,0:0:0:0:
192,192,86481,1,0,0:0:0:0:
448,192,86556,1,0,0:0:0:0:
320,192,86630,1,0,0:0:0:0:
64,192,86704,1,0,0:0:0:0:
192,192,86704,1,0,0:0:0:0:
448,192,86779,1,0,0:0:0:0:
320,192,86853,1,0,0:0:0:0:
64,192,86928,1,0,0:0:0:0:
448,192,87002,1,0,0:0:0:0:
192,192,87002,1,0,0:0:0:0:
64,192,87076,1,0,0:0:0:0:
192,192,87151,1,0,0:0:0:0:
320,192,87225,1,0,0:0:0:0:
64,192,87300,1,0,0:0:0:0:
448,192,87300,1,0,0:0:0:0:
192,192,87374,1,0,0:0:0:0:
448,192,87449,1,0,0:0:0:0:
320,192,87523,1,0,0:0:0:0:
448,192,87597,1,0,0:0:0:0:
64,192,87597,1,0,0:0:0:0:
192,192,87597,1,0,0:0:0:0:
320,192,87672,1,0,0:0:0:0:
192,192,87746,1,0,0:0:0:0:
64,192,87821,1,0,0:0:0:0:
448,192,87895,1,0,0:0:0:0:
320,192,87969,1,0,0:0:0:0:
192,192,88044,1,0,0:0:0:0:
448,192,88118,1,0,0:0:0:0:
64,192,88193,1,0,0:0:0:0:
320,192,88193,1,0,0:0:0:0:
448,192,88267,1,0,0:0:0:0:
192,192,88267,1,0,0:0:0:0:
64,192,88341,1,0,0:0:0:0:
320,192,88341,1,0,0:0:0:0:
192,192,88416,1,0,0:0:0:0:
448,192,88490,1,0,0:0:0:0:
320,192,88490,1,0,0:0:0:0:
64,192,88565,1,0,0:0:0:0:
192,192,88565,1,0,0:0:0:0:
448,192,88639,1,0,0:0:0:0:
320,192,88639,1,0,0:0:0:0:
64,192,88713,1,0,0:0:0:0:
192,192,88713,1,0,0:0:0:0:
448,192,88788,1,0,0:0:0:0:
320,192,88788,1,0,0:0:0:0:
64,192,88862,1,0,0:0:0:0:
192,192,88937,1,0,0:0:0:0:
320,192,89011,1,0,0:0:0:0:
64,192,89085,1,0,0:0:0:0:
448,192,89085,1,0,0:0:0:0:
192,192,89160,1,0,0:0:0:0:
320,192,89234,1,0,0:0:0:0:
192,192,89309,1,0,0:0:0:0:
448,192,89383,1,0,0:0:0:0:
64,192,89383,1,0,0:0:0:0:
320,192,89457,1,0,0:0:0:0:
192,192,89532,1,0,0:0:0:0:
448,192,89606,1,0,0:0:0:0:
320,192,89681,1,0,0:0:0:0:
64,192,89681,1,0,0:0:0:0:
192,192,89755,1,0,0:0:0:0:
448,192,89829,1,0,0:0:0:0:
320,192,89904,1,0,0:0:0:0:
448,192,89978,1,0,0:0:0:0:
64,192,89978,1,0,0:0:0:0:
192,192,89978,1,0,0:0:0:0:
320,192,90053,1,0,0:0:0:0:
64,192,90127,1,0,0:0:0:0:
192,192,90201,1,0,0:0:0:0:
448,192,90276,1,0,0:0:0:0:
320,192,90276,1,0,0:0:0:0:
192,192,90350,1,0,0:0:0:0:
64,192,90425,1,0,0:0:0:0:
448,192,90499,1,0,0:0:0:0:
64,192,90574,1,0,0:0:0:0:
192,192,90574,1,0,0:0:0:0:
320,192,90574,1,0,0:0:0:0:
448,192,90648,1,0,0:0:0:0:
64,192,90722,1,0,0:0:0:0:
192,192,90797,1,0,0:0:0:0:
320,192,90871,1,0,0:0:0:0:
448,192,90871,1,0,0:0:0:0:
64,192,90946,1,0,0:0:0:0:
320,192,91020,1,0,0:0:0:0:
192,192,91094,1,0,0:0:0:0:
320,192,91169,1,0,0:0:0:0:
64,192,91169,1,0,0:0:0:0:
448,192,91169,1,0,0:0:0:0:
192,192,91243,1,0,0:0:0:0:
64,192,91318,1,0,0:0:0:0:
320,192,91392,1,0,0:0:0:0:
192,192,91466,1,0,0:0:0:0:
448,192,91466,1,0,0:0:0:0:
64,192,91541,1,0,0:0:0:0:
320,192,91615,1,0,0:0:0:0:
192,192,91690,1,0,0:0:0:0:
448,192,91764,1,0,0:0:0:0:
64,192,91764,1,0,0:0:0:0:
320,192,91838,1,0,0:0:0:0:
192,192,91913,1,0,0:0:0:0:
320,192,91987,1,0,0:0:0:0:
64,192,92062,1,0,0:0:0:0:
448,192,92062,1,0,0:0:0:0:
192,192,92136,1,0,0:0:0:0:
320,192,92210,1,0,0:0:0:0:
192,192,92285,1,0,0:0:0:0:
320,192,92359,1,0,0:0:0:0:
64,192,92359,1,0,0:0:0:0:
448,192,92359,1,0,0:0:0:0:
192,192,92434,1,0,0:0:0:0:
64,192,92508,1,0,0:0:0:0:
320,192,92582,1,0,0:0:0:0:
192,192,92657,1,0,0:0:0:0:
448,192,92657,1,0,0:0:0:0:
64,192,92731,1,0,0:0:0:0:
320,192,92806,1,0,0:0:0:0:
448,192,92880,1,0,0:0:0:0:
64,192,92954,1,0,0:0:0:0:
192,192,92954,1,0,0:0:0:0:
448,192,93029,1,0,0:0:0:0:
320,192,93029,1,0,0:0:0:0:
64,192,93103,1,0,0:0:0:0:
192,192,93103,1,0,0:0:0:0:
320,192,93178,1,0,0:0:0:0:
64,192,93252,1,0,0:0:0:0:
448,192,93252,1,0,0:0:0:0:
320,192,93326,1,0,0:0:0:0:
192,192,93326,1,0,0:0:0:0:
448,192,93401,1,0,0:0:0:0:
64,192,93401,1,0,0:0:0:0:
192,192,93475,1,0,0:0:0:0:
320,192,93475,1,0,0:0:0:0:
64,192,93550,1,0,0:0:0:0:
448,192,93550,1,0,0:0:0:0:
320,192,93624,1,0,0:0:0:0:
192,192,93699,1,0,0:0:0:0:
448,192,93699,1,0,0:0:0:0:
64,192,93773,1,0,0:0:0:0:
320,192,93847,1,0,0:0:0:0:
448,192,93847,1,0,0:0:0:0:
192,192,93922,1,0,0:0:0:0:
64,192,93996,1,0,0:0:0:0:
448,192,93996,1,0,0:0:0:0:
320,192,94071,1,0,0:0:0:0:
192,192,94145,1,0,0:0:0:0:
448,192,94145,1,0,0:0:0:0:
64,192,94219,1,0,0:0:0:0:
320,192,94294,1,0,0:0:0:0:
192,192,94294,1,0,0:0:0:0:
448,192,94368,1,0,0:0:0:0:
192,192,94443,1,0,0:0:0:0:
64,192,94443,1,0,0:0:0:0:
320,192,94517,1,0,0:0:0:0:
192,192,94591,1,0,0:0:0:0:
448,192,94591,1,0,0:0:0:0:
64,192,94666,1,0,0:0:0:0:
320,192,94740,1,0,0:0:0:0:
192,192,94740,1,0,0:0:0:0:
448,192,94815,1,0,0:0:0:0:
64,192,94889,1,0,0:0:0:0:
320,192,94889,1,0,0:0:0:0:
192,192,94963,1,0,0:0:0:0:
448,192,95038,1,0,0:0:0:0:
320,192,95038,1,0,0:0:0:0:
64,192,95112,1,0,0:0:0:0:
320,192,95187,1,0,0:0:0:0:
192,192,95187,1,0,0:0:0:0:
448,192,95261,1,0,0:0:0:0:
64,192,95335,1,0,0:0:0:0:
320,192,95335,1,0,0:0:0:0:
192,192,95410,1,0,0:0:0:0:
448,192,95484,1,0,0:0:0:0:
64,192,95484,1,0,0:0:0:0:
320,192,95559,1,0,0:0:0:0:
64,192,95633,1,0,0:0:0:0:
192,192,95633,1,0,0:0:0:0:
320,192,95707,1,0,0:0:0:0:
64,192,95782,1,0,0:0:0:0:
448,192,95782,1,0,0:0:0:0:
64,192,95931,1,0,0:0:0:0:
192,192,95931,1,0,0:0:0:0:
448,192,96005,1,0,0:0:0:0:
320,192,96005,1,0,0:0:0:0:
64,192,96079,1,0,0:0:0:0:
192,192,96079,1,0,0:0:0:0:
448,192,96154,1,0,0:0:0:0:
320,192,96154,1,0,0:0:0:0:
64,192,96228,1,0,0:0:0:0:
192,192,96228,1,0,0:0:0:0:
448,192,96303,1,0,0:0:0:0:
320,192,96303,1,0,0:0:0:0:
64,192,96377,1,0,0:0:0:0:
192,192,96377,1,0,0:0:0:0:
448,192,96451,1,0,0:0:0:0:
320,192,96451,1,0,0:0:0:0:
64,192,96526,1,0,0:0:0:0:
192,192,96526,1,0,0:0:0:0:
448,192,96600,1,0,0:0:0:0:
320,192,96600,1,0,0:0:0:0:
64,192,96675,1,0,0:0:0:0:
192,192,96675,1,0,0:0:0:0:
448,192,96749,1,0,0:0:0:0:
320,192,96749,1,0,0:0:0:0:
64,192,96824,1,0,0:0:0:0:
192,192,96824,1,0,0:0:0:0:
448,192,96898,1,0,0:0:0:0:
320,192,96898,1,0,0:0:0:0:
64,192,96972,1,0,0:0:0:0:
192,192,96972,1,0,0:0:0:0:
448,192,97047,1,0,0:0:0:0:
320,192,97047,1,0,0:0:0:0:
64,192,97121,1,0,0:0:0:0:
192,192,97121,1,0,0:0:0:0:
448,192,97196,1,0,0:0:0:0:
320,192,97196,1,0,0:0:0:0:
64,192,97270,1,0,0:0:0:0:
192,192,97307,1,0,0:0:0:0:
448,192,97344,1,0,0:0:0:0:
320,192,97382,1,0,0:0:0:0:
64,192,97419,1,0,0:0:0:0:
192,192,97419,1,0,0:0:0:0:
448,192,97493,1,0,0:0:0:0:
320,192,97493,1,0,0:0:0:0:
64,192,97568,1,0,0:0:0:0:
192,192,97605,1,0,0:0:0:0:
320,192,97642,1,0,0:0:0:0:
448,192,97679,1,0,0:0:0:0:
192,192,97716,1,0,0:0:0:0:
64,192,97716,1,0,0:0:0:0:
448,192,97791,1,0,0:0:0:0:
320,192,97791,1,0,0:0:0:0:
192,192,97865,1,0,0:0:0:0:
64,192,97865,1,0,0:0:0:0:
448,192,97940,1,0,0:0:0:0:
320,192,97940,1,0,0:0:0:0:
64,192,98014,1,0,0:0:0:0:
192,192,98051,1,0,0:0:0:0:
448,192,98088,1,0,0:0:0:0:
320,192,98126,1,0,0:0:0:0:
64,192,98163,1,0,0:0:0:0:
192,192,98200,1,0,0:0:0:0:
448,192,98237,1,0,0:0:0:0:
320,192,98274,1,0,0:0:0:0:
192,192,98312,1,0,0:0:0:0:
64,192,98312,1,0,0:0:0:0:
320,192,98386,1,0,0:0:0:0:
448,192,98460,1,0,0:0:0:0:
64,192,98460,1,0,0:0:0:0:
192,192,98535,1,0,0:0:0:0:
448,192,98609,1,0,0:0:0:0:
320,192,98609,1,0,0:0:0:0:
192,192,98684,1,0,0:0:0:0:
64,192,98758,1,0,0:0:0:0:
320,192,98758,1,0,0:0:0:0:
448,192,98832,1,0,0:0:0:0:
192,192,98907,1,0,0:0:0:0:
320,192,98907,1,0,0:0:0:0:
64,192,98981,1,0,0:0:0:0:
448,192,99056,1,0,0:0:0:0:
192,192,99056,1,0,0:0:0:0:
320,192,99130,1,0,0:0:0:0:
64,192,99204,1,0,0:0:0:0:
192,192,99204,1,0,0:0:0:0:
448,192,99279,1,0,0:0:0:0:
64,192,99353,1,0,0:0:0:0:
320,192,99353,1,0,0:0:0:0:
192,192,99428,1,0,0:0:0:0:
64,192,99502,1,0,0:0:0:0:
320,192,99502,1,0,0:0:0:0:
448,192,99502,1,0,0:0:0:0:
192,192,99576,1,0,0:0:0:0:
448,192,99651,1,0,0:0:0:0:
320,192,99651,1,0,0:0:0:0:
192,192,99725,1,0,0:0:0:0:
448,192,99800,1,0,0:0:0:0:
64,192,99800,1,0,0:0:0:0:
320,192,99874,1,0,0:0:0:0:
64,192,99949,1,0,0:0:0:0:
192,192,99949,1,0,0:0:0:0:
320,192,100023,1,0,0:0:0:0:
64,192,100097,1,0,0:0:0:0:
192,192,100097,1,0,0:0:0:0:
448,192,100097,1,0,0:0:0:0:
320,192,100172,1,0,0:0:0:0:
192,192,100246,1,0,0:0:0:0:
448,192,100246,1,0,0:0:0:0:
64,192,100321,1,0,0:0:0:0:
448,192,100395,1,0,0:0:0:0:
320,192,100395,1,0,0:0:0:0:
192,192,100469,1,0,0:0:0:0:
320,192,100544,1,0,0:0:0:0:
64,192,100544,1,0,0:0:0:0:
448,192,100618,1,0,0:0:0:0:
320,192,100693,1,0,0:0:0:0:
64,192,100693,1,0,0:0:0:0:
192,192,100693,1,0,0:0:0:0:
448,192,100767,1,0,0:0:0:0:
64,192,100841,1,0,0:0:0:0:
192,192,100841,1,0,0:0:0:0:
320,192,100916,1,0,0:0:0:0:
192,192,100990,1,0,0:0:0:0:
448,192,100990,1,0,0:0:0:0:
64,192,101065,1,0,0:0:0:0:
448,192,101139,1,0,0:0:0:0:
320,192,101139,1,0,0:0:0:0:
192,192,101213,1,0,0:0:0:0:
320,192,101288,1,0,0:0:0:0:
64,192,101288,1,0,0:0:0:0:
448,192,101362,1,0,0:0:0:0:
64,192,101437,1,0,0:0:0:0:
192,192,101437,1,0,0:0:0:0:
320,192,101511,1,0,0:0:0:0:
192,192,101585,1,0,0:0:0:0:
448,192,101585,1,0,0:0:0:0:
64,192,101660,1,0,0:0:0:0:
448,192,101734,1,0,0:0:0:0:
320,192,101734,1,0,0:0:0:0:
192,192,101809,1,0,0:0:0:0:
320,192,101883,1,0,0:0:0:0:
64,192,101883,1,0,0:0:0:0:
448,192,101957,1,0,0:0:0:0:
64,192,102032,1,0,0:0:0:0:
192,192,102032,1,0,0:0:0:0:
320,192,102106,1,0,0:0:0:0:
192,192,102181,1,0,0:0:0:0:
448,192,102181,1,0,0:0:0:0:
64,192,102255,1,0,0:0:0:0:
448,192,102329,1,0,0:0:0:0:
320,192,102329,1,0,0:0:0:0:
192,192,102404,1,0,0:0:0:0:
64,192,102478,1,0,0:0:0:0:
320,192,102478,1,0,0:0:0:0:
448,192,102553,1,0,0:0:0:0:
192,192,102553,1,0,0:0:0:0:
320,192,102627,1,0,0:0:0:0:
64,192,102627,1,0,0:0:0:0:
448,192,102701,1,0,0:0:0:0:
64,192,102776,1,0,0:0:0:0:
192,192,102776,1,0,0:0:0:0:
448,192,102850,1,0,0:0:0:0:
320,192,102850,1,0,0:0:0:0:
64,192,102925,1,0,0:0:0:0:
192,192,102925,1,0,0:0:0:0:
448,192,102999,1,0,0:0:0:0:
320,192,102999,1,0,0:0:0:0:
64,192,103074,1,0,0:0:0:0:
192,192,103074,1,0,0:0:0:0:
320,192,103148,1,0,0:0:0:0:
192,192,103222,1,0,0:0:0:0:
448,192,103222,1,0,0:0:0:0:
64,192,103297,1,0,0:0:0:0:
448,192,103371,1,0,0:0:0:0:
320,192,103371,1,0,0:0:0:0:
192,192,103446,1,0,0:0:0:0:
448,192,103520,1,0,0:0:0:0:
64,192,103520,1,0,0:0:0:0:
320,192,103594,1,0,0:0:0:0:
64,192,103669,1,0,0:0:0:0:
192,192,103669,1,0,0:0:0:0:
320,192,103743,1,0,0:0:0:0:
64,192,103818,1,0,0:0:0:0:
448,192,103818,1,0,0:0:0:0:
192,192,103892,1,0,0:0:0:0:
448,192,103966,1,0,0:0:0:0:
320,192,103966,1,0,0:0:0:0:
192,192,104041,1,0,0:0:0:0:
448,192,104115,1,0,0:0:0:0:
64,192,104115,1,0,0:0:0:0:
320,192,104190,1,0,0:0:0:0:
64,192,104264,1,0,0:0:0:0:
192,192,104264,1,0,0:0:0:0:
448,192,104264,1,0,0:0:0:0:
320,192,104338,1,0,0:0:0:0:
64,192,104413,1,0,0:0:0:0:
192,192,104413,1,0,0:0:0:0:
448,192,104487,1,0,0:0:0:0:
192,192,104562,1,0,0:0:0:0:
320,192,104562,1,0,0:0:0:0:
64,192,104636,1,0,0:0:0:0:
320,192,104710,1,0,0:0:0:0:
448,192,104710,1,0,0:0:0:0:
192,192,104785,1,0,0:0:0:0:
320,192,104859,1,0,0:0:0:0:
64,192,104859,1,0,0:0:0:0:
448,192,104859,1,0,0:0:0:0:
192,192,104934,1,0,0:0:0:0:
448,192,105008,1,0,0:0:0:0:
64,192,105008,1,0,0:0:0:0:
320,192,105082,1,0,0:0:0:0:
64,192,105157,1,0,0:0:0:0:
192,192,105157,1,0,0:0:0:0:
320,192,105231,1,0,0:0:0:0:
64,192,105306,1,0,0:0:0:0:
448,192,105306,1,0,0:0:0:0:
192,192,105380,1,0,0:0:0:0:
64,192,105454,1,0,0:0:0:0:
320,192,105454,1,0,0:0:0:0:
448,192,105454,1,0,0:0:0:0:
192,192,105529,1,0,0:0:0:0:
448,192,105603,1,0,0:0:0:0:
320,192,105603,1,0,0:0:0:0:
192,192,105678,1,0,0:0:0:0:
448,192,105752,1,0,0:0:0:0:
64,192,105752,1,0,0:0:0:0:
320,192,105826,1,0,0:0:0:0:
64,192,105901,1,0,0:0:0:0:
192,192,105901,1,0,0:0:0:0:
320,192,105975,1,0,0:0:0:0:
64,192,106050,1,0,0:0:0:0:
448,192,106050,1,0,0:0:0:0:
192,192,106124,1,0,0:0:0:0:
448,192,106199,1,0,0:0:0:0:
320,192,106199,1,0,0:0:0:0:
64,192,106273,1,0,0:0:0:0:
448,192,106347,1,0,0:0:0:0:
192,192,106347,1,0,0:0:0:0:
320,192,106422,1,0,0:0:0:0:
64,192,106496,1,0,0:0:0:0:
192,192,106496,1,0,0:0:0:0:
448,192,106571,1,0,0:0:0:0:
64,192,106645,1,0,0:0:0:0:
192,192,106645,1,0,0:0:0:0:
320,192,106645,1,0,0:0:0:0:
448,192,106719,1,0,0:0:0:0:
64,192,106794,1,0,0:0:0:0:
320,192,106794,1,0,0:0:0:0:
192,192,106868,1,0,0:0:0:0:
320,192,106943,1,0,0:0:0:0:
448,192,106943,1,0,0:0:0:0:
64,192,107017,1,0,0:0:0:0:
448,192,107091,1,0,0:0:0:0:
192,192,107091,1,0,0:0:0:0:
320,192,107166,1,0,0:0:0:0:
64,192,107240,1,0,0:0:0:0:
192,192,107240,1,0,0:0:0:0:
448,192,107315,1,0,0:0:0:0:
320,192,107315,1,0,0:0:0:0:
64,192,107389,1,0,0:0:0:0:
192,192,107389,1,0,0:0:0:0:
448,192,107463,1,0,0:0:0:0:
192,192,107538,1,0,0:0:0:0:
320,192,107538,1,0,0:0:0:0:
448,192,107612,1,0,0:0:0:0:
64,192,107612,1,0,0:0:0:0:
192,192,107687,1,0,0:0:0:0:
320,192,107687,1,0,0:0:0:0:
64,192,107761,1,0,0:0:0:0:
448,192,107761,1,0,0:0:0:0:
320,192,107835,1,0,0:0:0:0:
192,192,107835,1,0,0:0:0:0:
64,192,107910,1,0,0:0:0:0:
448,192,107984,1,0,0:0:0:0:
320,192,107984,1,0,0:0:0:0:
192,192,108059,1,0,0:0:0:0:
448,192,108133,1,0,0:0:0:0:
64,192,108133,1,0,0:0:0:0:
320,192,108207,1,0,0:0:0:0:
64,192,108282,1,0,0:0:0:0:
192,192,108282,1,0,0:0:0:0:
320,192,108356,1,0,0:0:0:0:
64,192,108431,1,0,0:0:0:0:
448,192,108431,1,0,0:0:0:0:
192,192,108505,1,0,0:0:0:0:
448,192,108579,1,0,0:0:0:0:
320,192,108579,1,0,0:0:0:0:
192,192,108654,1,0,0:0:0:0:
448,192,108728,1,0,0:0:0:0:
64,192,108728,1,0,0:0:0:0:
320,192,108803,1,0,0:0:0:0:
64,192,108877,1,0,0:0:0:0:
192,192,108877,1,0,0:0:0:0:
320,192,108951,1,0,0:0:0:0:
64,192,109026,1,0,0:0:0:0:
192,192,109026,1,0,0:0:0:0:
448,192,109026,1,0,0:0:0:0:
320,192,109100,1,0,0:0:0:0:
192,192,109175,1,0,0:0:0:0:
448,192,109175,1,0,0:0:0:0:
64,192,109249,1,0,0:0:0:0:
448,192,109324,1,0,0:0:0:0:
320,192,109324,1,0,0:0:0:0:
192,192,109398,1,0,0:0:0:0:
320,192,109472,1,0,0:0:0:0:
64,192,109472,1,0,0:0:0:0:
448,192,109547,1,0,0:0:0:0:
64,192,109621,1,0,0:0:0:0:
192,192,109621,1,0,0:0:0:0:
320,192,109696,1,0,0:0:0:0:
192,192,109770,1,0,0:0:0:0:
448,192,109770,1,0,0:0:0:0:
64,192,109844,1,0,0:0:0:0:
448,192,109919,1,0,0:0:0:0:
320,192,109919,1,0,0:0:0:0:
192,192,109993,1,0,0:0:0:0:
320,192,110068,1,0,0:0:0:0:
64,192,110068,1,0,0:0:0:0:
448,192,110142,1,0,0:0:0:0:
64,192,110216,1,0,0:0:0:0:
192,192,110216,1,0,0:0:0:0:
320,192,110291,1,0,0:0:0:0:
192,192,110365,1,0,0:0:0:0:
448,192,110365,1,0,0:0:0:0:
64,192,110440,1,0,0:0:0:0:
448,192,110514,1,0,0:0:0:0:
320,192,110514,1,0,0:0:0:0:
192,192,110588,1,0,0:0:0:0:
320,192,110663,1,0,0:0:0:0:
64,192,110663,1,0,0:0:0:0:
448,192,110737,1,0,0:0:0:0:
192,192,110812,1,0,0:0:0:0:
64,192,110812,1,0,0:0:0:0:
320,192,110886,1,0,0:0:0:0:
192,192,110960,1,0,0:0:0:0:
448,192,110960,1,0,0:0:0:0:
64,192,111035,1,0,0:0:0:0:
448,192,111109,1,0,0:0:0:0:
320,192,111109,1,0,0:0:0:0:
192,192,111184,1,0,0:0:0:0:
320,192,111258,1,0,0:0:0:0:
64,192,111258,1,0,0:0:0:0:
448,192,111332,1,0,0:0:0:0:
64,192,111407,1,0,0:0:0:0:
192,192,111407,1,0,0:0:0:0:
320,192,111407,1,0,0:0:0:0:
448,192,111481,1,0,0:0:0:0:
64,192,111556,1,0,0:0:0:0:
192,192,111556,1,0,0:0:0:0:
320,192,111630,1,0,0:0:0:0:
64,192,111704,1,0,0:0:0:0:
448,192,111704,1,0,0:0:0:0:
192,192,111779,1,0,0:0:0:0:
448,192,111853,1,0,0:0:0:0:
320,192,111853,1,0,0:0:0:0:
64,192,111928,1,0,0:0:0:0:
192,192,112002,1,0,0:0:0:0:
320,192,112002,1,0,0:0:0:0:
64,192,112076,1,0,0:0:0:0:
448,192,112076,1,0,0:0:0:0:
320,192,112151,1,0,0:0:0:0:
192,192,112151,1,0,0:0:0:0:
448,192,112225,1,0,0:0:0:0:
64,192,112300,1,0,0:0:0:0:
192,192,112300,1,0,0:0:0:0:
448,192,112374,1,0,0:0:0:0:
320,192,112374,1,0,0:0:0:0:
192,192,112449,1,0,0:0:0:0:
64,192,112449,1,0,0:0:0:0:
320,192,112523,1,0,0:0:0:0:
448,192,112523,1,0,0:0:0:0:
64,192,112597,1,0,0:0:0:0:
192,192,112597,1,0,0:0:0:0:
320,192,112672,1,0,0:0:0:0:
64,192,112746,1,0,0:0:0:0:
448,192,112746,1,0,0:0:0:0:
192,192,112821,1,0,0:0:0:0:
320,192,112895,1,0,0:0:0:0:
64,192,112895,1,0,0:0:0:0:
448,192,112969,1,0,0:0:0:0:
192,192,113044,1,0,0:0:0:0:
64,192,113044,1,0,0:0:0:0:
320,192,113118,1,0,0:0:0:0:
64,192,113193,1,0,0:0:0:0:
448,192,113193,1,0,0:0:0:0:
320,192,113267,1,0,0:0:0:0:
192,192,113341,1,0,0:0:0:0:
448,192,113341,1,0,0:0:0:0:
64,192,113416,1,0,0:0:0:0:
320,192,113490,1,0,0:0:0:0:
448,192,113490,1,0,0:0:0:0:
192,192,113565,1,0,0:0:0:0:
64,192,113639,1,0,0:0:0:0:
448,192,113639,1,0,0:0:0:0:
320,192,113713,1,0,0:0:0:0:
192,192,113788,1,0,0:0:0:0:
448,192,113788,1,0,0:0:0:0:
64,192,113862,1,0,0:0:0:0:
320,192,113937,1,0,0:0:0:0:
192,192,113937,1,0,0:0:0:0:
448,192,114011,1,0,0:0:0:0:
64,192,114085,1,0,0:0:0:0:
192,192,114085,1,0,0:0:0:0:
320,192,114160,1,0,0:0:0:0:
448,192,114234,1,0,0:0:0:0:
192,192,114234,1,0,0:0:0:0:
64,192,114309,1,0,0:0:0:0:
320,192,114383,1,0,0:0:0:0:
192,192,114383,1,0,0:0:0:0:
448,192,114457,1,0,0:0:0:0:
64,192,114532,1,0,0:0:0:0:
320,192,114532,1,0,0:0:0:0:
192,192,114606,1,0,0:0:0:0:
448,192,114681,1,0,0:0:0:0:
320,192,114681,1,0,0:0:0:0:
64,192,114755,1,0,0:0:0:0:
192,192,114829,1,0,0:0:0:0:
320,192,114829,1,0,0:0:0:0:
64,192,114904,1,0,0:0:0:0:
448,192,114978,1,0,0:0:0:0:
320,192,114978,1,0,0:0:0:0:
64,192,115053,1,0,0:0:0:0:
192,192,115053,1,0,0:0:0:0:
448,192,115127,1,0,0:0:0:0:
320,192,115127,1,0,0:0:0:0:
64,192,115201,1,0,0:0:0:0:
192,192,115239,1,0,0:0:0:0:
320,192,115276,1,0,0:0:0:0:
448,192,115313,1,0,0:0:0:0:
64,192,115350,1,0,0:0:0:0:
192,192,115350,1,0,0:0:0:0:
448,192,115425,1,0,0:0:0:0:
320,192,115425,1,0,0:0:0:0:
64,192,115499,1,0,0:0:0:0:
192,192,115499,1,0,0:0:0:0:
448,192,115574,1,0,0:0:0:0:
320,192,115574,1,0,0:0:0:0:
64,192,115648,1,0,0:0:0:0:
192,192,115648,1,0,0:0:0:0:
448,192,115722,1,0,0:0:0:0:
320,192,115722,1,0,0:0:0:0:
64,192,115797,1,0,0:0:0:0:
192,192,115834,1,0,0:0:0:0:
448,192,115871,1,0,0:0:0:0:
320,192,115908,1,0,0:0:0:0:
64,192,115946,1,0,0:0:0:0:
192,192,115946,1,0,0:0:0:0:
448,192,116020,1,0,0:0:0:0:
320,192,116020,1,0,0:0:0:0:
64,192,116094,1,0,0:0:0:0:
192,192,116094,1,0,0:0:0:0:
448,192,116169,1,0,0:0:0:0:
320,192,116169,1,0,0:0:0:0:
448,192,116318,5,0,0:0:0:0:
192,192,116318,1,0,0:0:0:0:
64,192,116318,1,0,0:0:0:0:
320,192,116318,1,0,0:0:0:0:
320,192,116541,1,0,0:0:0:0:
448,192,116541,1,0,0:0:0:0:
64,192,116541,1,0,0:0:0:0:
192,192,116541,1,0,0:0:0:0:
64,192,116764,1,0,0:0:0:0:
448,192,116764,1,0,0:0:0:0:
320,192,116838,1,0,0:0:0:0:
192,192,116838,1,0,0:0:0:0:
64,192,116913,1,0,0:0:0:0:
448,192,116913,1,0,0:0:0:0:
192,192,116987,1,0,0:0:0:0:
448,192,117062,1,0,0:0:0:0:
320,192,117062,1,0,0:0:0:0:
64,192,117136,1,0,0:0:0:0:
192,192,117136,1,0,0:0:0:0:
448,192,117210,1,0,0:0:0:0:
320,192,117210,1,0,0:0:0:0:
64,192,117285,1,0,0:0:0:0:
192,192,117285,1,0,0:0:0:0:
448,192,117359,1,0,0:0:0:0:
320,192,117359,1,0,0:0:0:0:
64,192,117657,1,0,0:0:0:0:
192,192,117731,1,0,0:0:0:0:
448,192,117806,1,0,0:0:0:0:
320,192,117880,1,0,0:0:0:0:
192,192,117954,1,0,0:0:0:0:
448,192,118029,1,0,0:0:0:0:
320,192,118103,1,0,0:0:0:0:
64,192,118178,1,0,0:0:0:0:
192,192,118252,1,0,0:0:0:0:
320,192,118326,1,0,0:0:0:0:
64,192,118401,1,0,0:0:0:0:
192,192,118475,1,0,0:0:0:0:
448,192,118550,1,0,0:0:0:0:
320,192,118624,1,0,0:0:0:0:
192,192,118699,1,0,0:0:0:0:
448,192,118773,1,0,0:0:0:0:
320,192,118847,1,0,0:0:0:0:
192,192,118922,1,0,0:0:0:0:
64,192,118996,1,0,0:0:0:0:
448,192,119071,1,0,0:0:0:0:
192,192,119145,1,0,0:0:0:0:
320,192,119219,1,0,0:0:0:0:
64,192,119294,1,0,0:0:0:0:
192,192,119368,1,0,0:0:0:0:
448,192,119443,1,0,0:0:0:0:
320,192,119517,1,0,0:0:0:0:
192,192,119591,1,0,0:0:0:0:
448,192,119666,1,0,0:0:0:0:
320,192,119740,1,0,0:0:0:0:
64,192,119815,1,0,0:0:0:0:
192,192,119889,1,0,0:0:0:0:
320,192,119963,1,0,0:0:0:0:
64,192,120038,1,0,0:0:0:0:
192,192,120112,1,0,0:0:0:0:
448,192,120187,1,0,0:0:0:0:
320,192,120261,1,0,0:0:0:0:
192,192,120335,1,0,0:0:0:0:
448,192,120410,1,0,0:0:0:0:
64,192,120484,1,0,0:0:0:0:
192,192,120559,1,0,0:0:0:0:
448,192,120633,1,0,0:0:0:0:
64,192,120707,1,0,0:0:0:0:
192,192,120782,1,0,0:0:0:0:
448,192,120856,1,0,0:0:0:0:
192,192,120931,1,0,0:0:0:0:
320,192,121005,1,0,0:0:0:0:
64,192,121079,1,0,0:0:0:0:
448,192,121154,1,0,0:0:0:0:
192,192,121228,1,0,0:0:0:0:
320,192,121303,1,0,0:0:0:0:
448,192,121377,1,0,0:0:0:0:
192,192,121451,1,0,0:0:0:0:
64,192,121526,1,0,0:0:0:0:
448,192,121600,1,0,0:0:0:0:
320,192,121675,1,0,0:0:0:0:
192,192,121749,1,0,0:0:0:0:
448,192,121824,1,0,0:0:0:0:
320,192,121898,1,0,0:0:0:0:
64,192,121972,1,0,0:0:0:0:
192,192,122047,1,0,0:0:0:0:
448,192,122121,128,0,125990:0:0:0:0:
64,192,124502,1,0,0:0:0:0:
320,192,124949,1,0,0:0:0:0:
192,192,125395,1,0,0:0:0:0:
64,192,125841,1,0,0:0:0:0:
320,192,126288,1,0,0:0:0:0:
64,192,126883,128,0,128074:0:0:0:0:
192,192,128074,128,0,129264:0:0:0:0:
320,192,129264,128,0,130454:0:0:0:0:
448,192,130454,128,0,131050:0:0:0:0:
192,192,131050,128,0,131645:0:0:0:0:
320,192,131645,128,0,132240:0:0:0:0:
64,192,132240,128,0,132835:0:0:0:0:
448,192,132835,128,0,133431:0:0:0:0:
320,192,133431,128,0,134026:0:0:0:0:
64,192,134026,128,0,134621:0:0:0:0:
192,192,134621,128,0,135216:0:0:0:0:
320,192,135216,128,0,135812:0:0:0:0:
448,192,135812,128,0,136407:0:0:0:0:
64,192,136407,128,0,137597:0:0:0:0:
192,192,137597,128,0,138788:0:0:0:0:
320,192,138788,128,0,139978:0:0:0:0:
448,192,139978,128,0,140574:0:0:0:0:
64,192,140574,128,0,141169:0:0:0:0:
320,192,141169,128,0,141764:0:0:0:0:
448,192,141764,128,0,142359:0:0:0:0:
192,192,142359,128,0,142954:0:0:0:0:
64,192,142954,128,0,145931:0:0:0:0:
192,192,143550,1,0,0:0:0:0:
448,192,143996,1,0,0:0:0:0:
320,192,144443,1,0,0:0:0:0:
448,192,144889,1,0,0:0:0:0:
192,192,145335,1,0,0:0:0:0:
320,192,145633,1,0,0:0:0:0:
192,192,145931,1,0,0:0:0:0:
448,192,145931,1,0,0:0:0:0:
320,192,146005,1,0,0:0:0:0:
192,192,146079,1,0,0:0:0:0:
448,192,146154,1,0,0:0:0:0:
320,192,146228,1,0,0:0:0:0:
64,192,146303,1,0,0:0:0:0:
192,192,146377,1,0,0:0:0:0:
320,192,146451,1,0,0:0:0:0:
64,192,146526,1,0,0:0:0:0:
192,192,146600,1,0,0:0:0:0:
448,192,146675,1,0,0:0:0:0:
320,192,146749,1,0,0:0:0:0:
192,192,146824,1,0,0:0:0:0:
448,192,146898,1,0,0:0:0:0:
320,192,146972,1,0,0:0:0:0:
64,192,147047,1,0,0:0:0:0:
192,192,147121,1,0,0:0:0:0:
448,192,147121,1,0,0:0:0:0:
320,192,147196,1,0,0:0:0:0:
64,192,147270,1,0,0:0:0:0:
192,192,147344,1,0,0:0:0:0:
448,192,147419,1,0,0:0:0:0:
320,192,147493,1,0,0:0:0:0:
192,192,147568,1,0,0:0:0:0:
448,192,147642,1,0,0:0:0:0:
320,192,147716,1,0,0:0:0:0:
64,192,147791,1,0,0:0:0:0:
192,192,147865,1,0,0:0:0:0:
320,192,147940,1,0,0:0:0:0:
64,192,148014,1,0,0:0:0:0:
448,192,148014,1,0,0:0:0:0:
192,192,148088,1,0,0:0:0:0:
448,192,148163,1,0,0:0:0:0:
320,192,148237,1,0,0:0:0:0:
192,192,148312,1,0,0:0:0:0:
64,192,148312,1,0,0:0:0:0:
448,192,148386,1,0,0:0:0:0:
320,192,148460,1,0,0:0:0:0:
64,192,148535,1,0,0:0:0:0:
192,192,148609,1,0,0:0:0:0:
320,192,148684,1,0,0:0:0:0:
64,192,148758,1,0,0:0:0:0:
192,192,148832,1,0,0:0:0:0:
448,192,148907,1,0,0:0:0:0:
320,192,148907,1,0,0:0:0:0:
192,192,148981,1,0,0:0:0:0:
64,192,149056,1,0,0:0:0:0:
448,192,149130,1,0,0:0:0:0:
320,192,149204,1,0,0:0:0:0:
192,192,149279,1,0,0:0:0:0:
64,192,149353,1,0,0:0:0:0:
320,192,149428,1,0,0:0:0:0:
448,192,149502,1,0,0:0:0:0:
192,192,149502,1,0,0:0:0:0:
64,192,150395,1,0,0:0:0:0:
192,192,150693,1,0,0:0:0:0:
320,192,151288,1,0,0:0:0:0:
448,192,151883,1,0,0:0:0:0:
320,192,152478,1,0,0:0:0:0:
64,192,153074,1,0,0:0:0:0:
320,192,153669,1,0,0:0:0:0:
192,192,154264,1,0,0:0:0:0:
448,192,154859,1,0,0:0:0:0:
64,192,155454,1,0,0:0:0:0:
448,192,155454,1,0,0:0:0:0:
320,192,155529,1,0,0:0:0:0:
192,192,155603,1,0,0:0:0:0:
448,192,155678,1,0,0:0:0:0:
320,192,155752,1,0,0:0:0:0:
64,192,155826,1,0,0:0:0:0:
192,192,155901,1,0,0:0:0:0:
320,192,155975,1,0,0:0:0:0:
64,192,156050,1,0,0:0:0:0:
192,192,156124,1,0,0:0:0:0:
448,192,156199,1,0,0:0:0:0:
320,192,156273,1,0,0:0:0:0:
192,192,156347,1,0,0:0:0:0:
448,192,156422,1,0,0:0:0:0:
320,192,156496,1,0,0:0:0:0:
64,192,156571,1,0,0:0:0:0:
448,192,156645,1,0,0:0:0:0:
192,192,156645,1,0,0:0:0:0:
320,192,156719,1,0,0:0:0:0:
64,192,156794,1,0,0:0:0:0:
192,192,156868,1,0,0:0:0:0:
448,192,156943,1,0,0:0:0:0:
320,192,157017,1,0,0:0:0:0:
192,192,157091,1,0,0:0:0:0:
448,192,157166,1,0,0:0:0:0:
320,192,157240,1,0,0:0:0:0:
64,192,157315,1,0,0:0:0:0:
192,192,157389,1,0,0:0:0:0:
320,192,157463,1,0,0:0:0:0:
448,192,157538,1,0,0:0:0:0:
64,192,157538,1,0,0:0:0:0:
192,192,157612,1,0,0:0:0:0:
448,192,157687,1,0,0:0:0:0:
320,192,157761,1,0,0:0:0:0:
64,192,157835,1,0,0:0:0:0:
192,192,157835,1,0,0:0:0:0:
448,192,157910,1,0,0:0:0:0:
320,192,157984,1,0,0:0:0:0:
64,192,158059,1,0,0:0:0:0:
192,192,158133,1,0,0:0:0:0:
320,192,158207,1,0,0:0:0:0:
64,192,158282,1,0,0:0:0:0:
192,192,158356,1,0,0:0:0:0:
64,192,158431,1,0,0:0:0:0:
448,192,158431,1,0,0:0:0:0:
320,192,158505,1,0,0:0:0:0:
192,192,158579,1,0,0:0:0:0:
448,192,158654,1,0,0:0:0:0:
320,192,158728,1,0,0:0:0:0:
64,192,158803,1,0,0:0:0:0:
192,192,158877,1,0,0:0:0:0:
320,192,158951,1,0,0:0:0:0:
448,192,159026,1,0,0:0:0:0:
64,192,159026,1,0,0:0:0:0:
64,192,159324,1,0,0:0:0:0:
192,192,159472,1,0,0:0:0:0:
64,192,159621,1,0,0:0:0:0:
448,192,159621,1,0,0:0:0:0:
320,192,159770,1,0,0:0:0:0:
448,192,159919,1,0,0:0:0:0:
192,192,160068,1,0,0:0:0:0:
64,192,160216,1,0,0:0:0:0:
448,192,160216,1,0,0:0:0:0:
320,192,160365,1,0,0:0:0:0:
64,192,160514,1,0,0:0:0:0:
192,192,160663,1,0,0:0:0:0:
64,192,160812,1,0,0:0:0:0:
448,192,160812,1,0,0:0:0:0:
320,192,160960,1,0,0:0:0:0:
448,192,161109,1,0,0:0:0:0:
192,192,161258,1,0,0:0:0:0:
64,192,161407,1,0,0:0:0:0:
448,192,161407,1,0,0:0:0:0:
320,192,161556,1,0,0:0:0:0:
64,192,161704,1,0,0:0:0:0:
192,192,161853,1,0,0:0:0:0:
64,192,162002,1,0,0:0:0:0:
448,192,162002,1,0,0:0:0:0:
320,192,162151,1,0,0:0:0:0:
448,192,162300,1,0,0:0:0:0:
192,192,162449,1,0,0:0:0:0:
64,192,162597,1,0,0:0:0:0:
448,192,162597,1,0,0:0:0:0:
320,192,162746,1,0,0:0:0:0:
64,192,162895,1,0,0:0:0:0:
448,192,163044,1,0,0:0:0:0:
64,192,163193,1,0,0:0:0:0:
320,192,163341,1,0,0:0:0:0:
448,192,163490,1,0,0:0:0:0:
64,192,163490,1,0,0:0:0:0:
192,192,163639,1,0,0:0:0:0:
448,192,163788,1,0,0:0:0:0:
320,192,163937,1,0,0:0:0:0:
192,192,164085,1,0,0:0:0:0:
64,192,164234,1,0,0:0:0:0:
320,192,164383,1,0,0:0:0:0:
192,192,164532,1,0,0:0:0:0:
448,192,164681,1,0,0:0:0:0:
320,192,164681,1,0,0:0:0:0:
64,192,164755,1,0,0:0:0:0:
192,192,164755,1,0,0:0:0:0:
448,192,164829,1,0,0:0:0:0:
320,192,164829,1,0,0:0:0:0:
64,192,164904,1,0,0:0:0:0:
192,192,164904,1,0,0:0:0:0:
448,192,164978,1,0,0:0:0:0:
320,192,164978,1,0,0:0:0:0:
192,192,165053,1,0,0:0:0:0:
448,192,165127,1,0,0:0:0:0:
64,192,165127,1,0,0:0:0:0:
320,192,165201,1,0,0:0:0:0:
64,192,165276,1,0,0:0:0:0:
192,192,165276,1,0,0:0:0:0:
448,192,165350,1,0,0:0:0:0:
64,192,165425,1,0,0:0:0:0:
320,192,165425,1,0,0:0:0:0:
192,192,165499,1,0,0:0:0:0:
448,192,165574,1,0,0:0:0:0:
320,192,165574,1,0,0:0:0:0:
64,192,165648,1,0,0:0:0:0:
448,192,165722,1,0,0:0:0:0:
192,192,165722,1,0,0:0:0:0:
320,192,165797,1,0,0:0:0:0:
64,192,165871,1,0,0:0:0:0:
192,192,165871,1,0,0:0:0:0:
448,192,165946,1,0,0:0:0:0:
64,192,166020,1,0,0:0:0:0:
320,192,166020,1,0,0:0:0:0:
192,192,166094,1,0,0:0:0:0:
448,192,166169,1,0,0:0:0:0:
320,192,166169,1,0,0:0:0:0:
64,192,166243,1,0,0:0:0:0:
448,192,166318,1,0,0:0:0:0:
192,192,166318,1,0,0:0:0:0:
320,192,166392,1,0,0:0:0:0:
64,192,166466,1,0,0:0:0:0:
192,192,166466,1,0,0:0:0:0:
448,192,166541,1,0,0:0:0:0:
192,192,166615,1,0,0:0:0:0:
320,192,166615,1,0,0:0:0:0:
64,192,166690,1,0,0:0:0:0:
320,192,166764,1,0,0:0:0:0:
448,192,166764,1,0,0:0:0:0:
192,192,166838,1,0,0:0:0:0:
448,192,166913,1,0,0:0:0:0:
64,192,166913,1,0,0:0:0:0:
320,192,166987,1,0,0:0:0:0:
64,192,167062,1,0,0:0:0:0:
192,192,167062,1,0,0:0:0:0:
448,192,167136,1,0,0:0:0:0:
192,192,167210,1,0,0:0:0:0:
320,192,167210,1,0,0:0:0:0:
64,192,167285,1,0,0:0:0:0:
448,192,167359,1,0,0:0:0:0:
320,192,167359,1,0,0:0:0:0:
192,192,167359,1,0,0:0:0:0:
64,192,167434,1,0,0:0:0:0:
448,192,167508,1,0,0:0:0:0:
192,192,167508,1,0,0:0:0:0:
320,192,167582,1,0,0:0:0:0:
64,192,167657,1,0,0:0:0:0:
192,192,167657,1,0,0:0:0:0:
448,192,167731,1,0,0:0:0:0:
64,192,167806,1,0,0:0:0:0:
320,192,167806,1,0,0:0:0:0:
192,192,167880,1,0,0:0:0:0:
448,192,167954,1,0,0:0:0:0:
320,192,167954,1,0,0:0:0:0:
64,192,168029,1,0,0:0:0:0:
448,192,168103,1,0,0:0:0:0:
192,192,168103,1,0,0:0:0:0:
320,192,168178,1,0,0:0:0:0:
64,192,168252,1,0,0:0:0:0:
192,192,168252,1,0,0:0:0:0:
448,192,168326,1,0,0:0:0:0:
64,192,168401,1,0,0:0:0:0:
320,192,168401,1,0,0:0:0:0:
192,192,168475,1,0,0:0:0:0:
320,192,168550,1,0,0:0:0:0:
448,192,168550,1,0,0:0:0:0:
64,192,168624,1,0,0:0:0:0:
320,192,168699,1,0,0:0:0:0:
192,192,168699,1,0,0:0:0:0:
448,192,168773,1,0,0:0:0:0:
192,192,168847,1,0,0:0:0:0:
64,192,168847,1,0,0:0:0:0:
320,192,168922,1,0,0:0:0:0:
64,192,168996,1,0,0:0:0:0:
448,192,168996,1,0,0:0:0:0:
320,192,169071,1,0,0:0:0:0:
192,192,169145,1,0,0:0:0:0:
64,192,169145,1,0,0:0:0:0:
448,192,169219,1,0,0:0:0:0:
320,192,169219,1,0,0:0:0:0:
64,192,169294,1,0,0:0:0:0:
192,192,169294,1,0,0:0:0:0:
448,192,169368,1,0,0:0:0:0:
320,192,169368,1,0,0:0:0:0:
64,192,169443,1,0,0:0:0:0:
192,192,169480,1,0,0:0:0:0:
448,192,169517,1,0,0:0:0:0:
320,192,169554,1,0,0:0:0:0:
64,192,169591,1,0,0:0:0:0:
192,192,169629,1,0,0:0:0:0:
448,192,169666,1,0,0:0:0:0:
320,192,169703,1,0,0:0:0:0:
192,192,169740,1,0,0:0:0:0:
64,192,169740,1,0,0:0:0:0:
320,192,169815,1,0,0:0:0:0:
448,192,169889,1,0,0:0:0:0:
192,192,169889,1,0,0:0:0:0:
64,192,169963,1,0,0:0:0:0:
448,192,170038,1,0,0:0:0:0:
320,192,170038,1,0,0:0:0:0:
64,192,170112,1,0,0:0:0:0:
320,192,170187,1,0,0:0:0:0:
192,192,170187,1,0,0:0:0:0:
448,192,170261,1,0,0:0:0:0:
320,192,170335,1,0,0:0:0:0:
64,192,170335,1,0,0:0:0:0:
192,192,170410,1,0,0:0:0:0:
320,192,170484,1,0,0:0:0:0:
448,192,170484,1,0,0:0:0:0:
64,192,170559,1,0,0:0:0:0:
192,192,170633,1,0,0:0:0:0:
320,192,170633,1,0,0:0:0:0:
448,192,170707,1,0,0:0:0:0:
64,192,170782,1,0,0:0:0:0:
192,192,170782,1,0,0:0:0:0:
320,192,170856,1,0,0:0:0:0:
448,192,170931,1,0,0:0:0:0:
64,192,170931,1,0,0:0:0:0:
320,192,171005,1,0,0:0:0:0:
64,192,171079,1,0,0:0:0:0:
192,192,171079,1,0,0:0:0:0:
448,192,171154,1,0,0:0:0:0:
64,192,171228,1,0,0:0:0:0:
320,192,171228,1,0,0:0:0:0:
192,192,171303,1,0,0:0:0:0:
448,192,171377,1,0,0:0:0:0:
320,192,171377,1,0,0:0:0:0:
64,192,171451,1,0,0:0:0:0:
320,192,171526,1,0,0:0:0:0:
192,192,171526,1,0,0:0:0:0:
448,192,171600,1,0,0:0:0:0:
192,192,171675,1,0,0:0:0:0:
64,192,171675,1,0,0:0:0:0:
320,192,171749,1,0,0:0:0:0:
64,192,171824,1,0,0:0:0:0:
448,192,171824,1,0,0:0:0:0:
192,192,171898,1,0,0:0:0:0:
448,192,171972,1,0,0:0:0:0:
320,192,171972,1,0,0:0:0:0:
64,192,172047,1,0,0:0:0:0:
448,192,172121,1,0,0:0:0:0:
320,192,172121,1,0,0:0:0:0:
192,192,172121,1,0,0:0:0:0:
64,192,172196,1,0,0:0:0:0:
320,192,172270,1,0,0:0:0:0:
192,192,172270,1,0,0:0:0:0:
448,192,172344,1,0,0:0:0:0:
192,192,172419,1,0,0:0:0:0:
64,192,172419,1,0,0:0:0:0:
448,192,172493,1,0,0:0:0:0:
64,192,172568,1,0,0:0:0:0:
320,192,172568,1,0,0:0:0:0:
192,192,172642,1,0,0:0:0:0:
448,192,172716,1,0,0:0:0:0:
320,192,172716,1,0,0:0:0:0:
64,192,172791,1,0,0:0:0:0:
448,192,172865,1,0,0:0:0:0:
192,192,172865,1,0,0:0:0:0:
320,192,172940,1,0,0:0:0:0:
192,192,173014,1,0,0:0:0:0:
64,192,173014,1,0,0:0:0:0:
320,192,173088,1,0,0:0:0:0:
448,192,173163,1,0,0:0:0:0:
64,192,173163,1,0,0:0:0:0:
320,192,173237,1,0,0:0:0:0:
448,192,173312,1,0,0:0:0:0:
192,192,173312,1,0,0:0:0:0:
64,192,173312,1,0,0:0:0:0:
320,192,173386,1,0,0:0:0:0:
64,192,173460,1,0,0:0:0:0:
192,192,173460,1,0,0:0:0:0:
448,192,173535,1,0,0:0:0:0:
64,192,173609,1,0,0:0:0:0:
320,192,173609,1,0,0:0:0:0:
192,192,173684,1,0,0:0:0:0:
448,192,173758,1,0,0:0:0:0:
320,192,173758,1,0,0:0:0:0:
192,192,173832,1,0,0:0:0:0:
448,192,173907,1,0,0:0:0:0:
64,192,173907,1,0,0:0:0:0:
192,192,173981,1,0,0:0:0:0:
320,192,173981,1,0,0:0:0:0:
448,192,174056,1,0,0:0:0:0:
64,192,174056,1,0,0:0:0:0:
320,192,174130,1,0,0:0:0:0:
192,192,174204,1,0,0:0:0:0:
64,192,174204,1,0,0:0:0:0:
448,192,174279,1,0,0:0:0:0:
320,192,174279,1,0,0:0:0:0:
64,192,174353,1,0,0:0:0:0:
192,192,174353,1,0,0:0:0:0:
448,192,174428,1,0,0:0:0:0:
320,192,174428,1,0,0:0:0:0:
64,192,174502,1,0,0:0:0:0:
192,192,174502,1,0,0:0:0:0:
320,192,174576,1,0,0:0:0:0:
192,192,174651,1,0,0:0:0:0:
448,192,174651,1,0,0:0:0:0:
320,192,174725,1,0,0:0:0:0:
64,192,174725,1,0,0:0:0:0:
448,192,174800,1,0,0:0:0:0:
192,192,174800,1,0,0:0:0:0:
320,192,174874,1,0,0:0:0:0:
448,192,174949,1,0,0:0:0:0:
192,192,174949,1,0,0:0:0:0:
64,192,174949,1,0,0:0:0:0:
320,192,175023,1,0,0:0:0:0:
448,192,175097,1,0,0:0:0:0:
192,192,175097,1,0,0:0:0:0:
64,192,175097,1,0,0:0:0:0:
320,192,175172,1,0,0:0:0:0:
64,192,175246,1,0,0:0:0:0:
192,192,175246,1,0,0:0:0:0:
448,192,175321,1,0,0:0:0:0:
320,192,175321,1,0,0:0:0:0:
64,192,175395,1,0,0:0:0:0:
192,192,175395,1,0,0:0:0:0:
448,192,175469,1,0,0:0:0:0:
192,192,175544,1,0,0:0:0:0:
320,192,175544,1,0,0:0:0:0:
64,192,175544,1,0,0:0:0:0:
448,192,175618,1,0,0:0:0:0:
320,192,175693,1,0,0:0:0:0:
192,192,175693,1,0,0:0:0:0:
64,192,175693,1,0,0:0:0:0:
448,192,175767,1,0,0:0:0:0:
64,192,175841,1,0,0:0:0:0:
320,192,175841,1,0,0:0:0:0:
448,192,175916,1,0,0:0:0:0:
192,192,175916,1,0,0:0:0:0:
64,192,175990,1,0,0:0:0:0:
320,192,175990,1,0,0:0:0:0:
192,192,176065,1,0,0:0:0:0:
448,192,176139,1,0,0:0:0:0:
320,192,176139,1,0,0:0:0:0:
64,192,176139,1,0,0:0:0:0:
192,192,176213,1,0,0:0:0:0:
448,192,176288,1,0,0:0:0:0:
320,192,176288,1,0,0:0:0:0:
64,192,176288,1,0,0:0:0:0:
192,192,176362,1,0,0:0:0:0:
64,192,176437,1,0,0:0:0:0:
448,192,176437,1,0,0:0:0:0:
320,192,176511,1,0,0:0:0:0:
192,192,176511,1,0,0:0:0:0:
64,192,176585,1,0,0:0:0:0:
448,192,176585,1,0,0:0:0:0:
320,192,176660,1,0,0:0:0:0:
448,192,176734,1,0,0:0:0:0:
64,192,176734,1,0,0:0:0:0:
192,192,176809,1,0,0:0:0:0:
320,192,176809,1,0,0:0:0:0:
64,192,176883,1,0,0:0:0:0:
448,192,176883,1,0,0:0:0:0:
192,192,176957,1,0,0:0:0:0:
448,192,177032,1,0,0:0:0:0:
320,192,177032,1,0,0:0:0:0:
192,192,177106,1,0,0:0:0:0:
64,192,177106,1,0,0:0:0:0:
448,192,177181,1,0,0:0:0:0:
320,192,177181,1,0,0:0:0:0:
192,192,177255,1,0,0:0:0:0:
448,192,177329,1,0,0:0:0:0:
320,192,177329,1,0,0:0:0:0:
64,192,177329,1,0,0:0:0:0:
192,192,177404,1,0,0:0:0:0:
448,192,177478,1,0,0:0:0:0:
320,192,177478,1,0,0:0:0:0:
64,192,177478,1,0,0:0:0:0:
192,192,177553,1,0,0:0:0:0:
448,192,177627,1,0,0:0:0:0:
64,192,177627,1,0,0:0:0:0:
192,192,177701,1,0,0:0:0:0:
320,192,177701,1,0,0:0:0:0:
448,192,177776,1,0,0:0:0:0:
64,192,177776,1,0,0:0:0:0:
320,192,177850,1,0,0:0:0:0:
192,192,177925,1,0,0:0:0:0:
448,192,177925,1,0,0:0:0:0:
64,192,177925,1,0,0:0:0:0:
320,192,177999,1,0,0:0:0:0:
192,192,178074,1,0,0:0:0:0:
448,192,178074,1,0,0:0:0:0:
64,192,178074,1,0,0:0:0:0:
320,192,178148,1,0,0:0:0:0:
64,192,178222,1,0,0:0:0:0:
192,192,178222,1,0,0:0:0:0:
448,192,178297,1,0,0:0:0:0:
320,192,178297,1,0,0:0:0:0:
64,192,178371,1,0,0:0:0:0:
192,192,178371,1,0,0:0:0:0:
320,192,178446,1,0,0:0:0:0:
192,192,178520,1,0,0:0:0:0:
448,192,178520,1,0,0:0:0:0:
64,192,178520,1,0,0:0:0:0:
320,192,178594,1,0,0:0:0:0:
448,192,178669,1,0,0:0:0:0:
64,192,178669,1,0,0:0:0:0:
320,192,178743,1,0,0:0:0:0:
192,192,178743,1,0,0:0:0:0:
448,192,178818,1,0,0:0:0:0:
64,192,178818,1,0,0:0:0:0:
192,192,178892,1,0,0:0:0:0:
448,192,178966,1,0,0:0:0:0:
320,192,178966,1,0,0:0:0:0:
64,192,179041,1,0,0:0:0:0:
192,192,179041,1,0,0:0:0:0:
448,192,179115,1,0,0:0:0:0:
320,192,179115,1,0,0:0:0:0:
64,192,179190,1,0,0:0:0:0:
192,192,179190,1,0,0:0:0:0:
448,192,179264,1,0,0:0:0:0:
320,192,179264,1,0,0:0:0:0:
192,192,179338,1,0,0:0:0:0:
320,192,179413,1,0,0:0:0:0:
448,192,179413,1,0,0:0:0:0:
192,192,179487,1,0,0:0:0:0:
448,192,179562,1,0,0:0:0:0:
320,192,179562,1,0,0:0:0:0:
192,192,179636,1,0,0:0:0:0:
320,192,179710,1,0,0:0:0:0:
64,192,179710,1,0,0:0:0:0:
448,192,179785,1,0,0:0:0:0:
64,192,179859,1,0,0:0:0:0:
192,192,179859,1,0,0:0:0:0:
320,192,179934,1,0,0:0:0:0:
64,192,180008,1,0,0:0:0:0:
192,192,180008,1,0,0:0:0:0:
320,192,180082,1,0,0:0:0:0:
192,192,180157,1,0,0:0:0:0:
64,192,180157,1,0,0:0:0:0:
320,192,180231,1,0,0:0:0:0:
448,192,180306,1,0,0:0:0:0:
64,192,180306,1,0,0:0:0:0:
192,192,180380,1,0,0:0:0:0:
320,192,180454,1,0,0:0:0:0:
448,192,180454,1,0,0:0:0:0:
64,192,180529,1,0,0:0:0:0:
192,192,180529,1,0,0:0:0:0:
448,192,180603,1,0,0:0:0:0:
320,192,180603,1,0,0:0:0:0:
64,192,180678,1,0,0:0:0:0:
192,192,180678,1,0,0:0:0:0:
448,192,180752,1,0,0:0:0:0:
320,192,180752,1,0,0:0:0:0:
64,192,180826,1,0,0:0:0:0:
192,192,180826,1,0,0:0:0:0:
448,192,180901,1,0,0:0:0:0:
320,192,180901,1,0,0:0:0:0:
64,192,180975,1,0,0:0:0:0:
192,192,180975,1,0,0:0:0:0:
448,192,181050,1,0,0:0:0:0:
320,192,181050,1,0,0:0:0:0:
64,192,181124,1,0,0:0:0:0:
192,192,181124,1,0,0:0:0:0:
448,192,181199,1,0,0:0:0:0:
320,192,181199,1,0,0:0:0:0:
64,192,181273,1,0,0:0:0:0:
192,192,181273,1,0,0:0:0:0:
448,192,181347,1,0,0:0:0:0:
320,192,181385,1,0,0:0:0:0:
192,192,181422,1,0,0:0:0:0:
64,192,181459,1,0,0:0:0:0:
448,192,181496,1,0,0:0:0:0:
320,192,181533,1,0,0:0:0:0:
192,192,181571,1,0,0:0:0:0:
64,192,181608,1,0,0:0:0:0:
448,192,181645,1,0,0:0:0:0:
320,192,181645,1,0,0:0:0:0:
64,192,182091,1,0,0:0:0:0:
320,192,182538,1,0,0:0:0:0:
192,192,182984,1,0,0:0:0:0:
448,192,183431,1,0,0:0:0:0:
320,192,183728,1,0,0:0:0:0:
192,192,183803,1,0,0:0:0:0:
320,192,183877,1,0,0:0:0:0:
192,192,183951,1,0,0:0:0:0:
64,192,184026,1,0,0:0:0:0:
448,192,184026,1,0,0:0:0:0:
320,192,184026,1,0,0:0:0:0:
192,192,184100,1,0,0:0:0:0:
320,192,184175,1,0,0:0:0:0:
64,192,184249,1,0,0:0:0:0:
448,192,184249,1,0,0:0:0:0:
192,192,184324,1,0,0:0:0:0:
64,192,184398,1,0,0:0:0:0:
448,192,184472,1,0,0:0:0:0:
320,192,184472,1,0,0:0:0:0:
192,192,184547,1,0,0:0:0:0:
448,192,184621,1,0,0:0:0:0:
64,192,184621,1,0,0:0:0:0:
320,192,184696,1,0,0:0:0:0:
192,192,184770,1,0,0:0:0:0:
448,192,184844,1,0,0:0:0:0:
64,192,184844,1,0,0:0:0:0:
320,192,184919,1,0,0:0:0:0:
192,192,184993,1,0,0:0:0:0:
320,192,185068,1,0,0:0:0:0:
64,192,185068,1,0,0:0:0:0:
448,192,185142,1,0,0:0:0:0:
320,192,185216,1,0,0:0:0:0:
192,192,185216,1,0,0:0:0:0:
64,192,185216,1,0,0:0:0:0:
448,192,185291,1,0,0:0:0:0:
192,192,185365,1,0,0:0:0:0:
64,192,185440,1,0,0:0:0:0:
320,192,185440,1,0,0:0:0:0:
448,192,185514,1,0,0:0:0:0:
192,192,185588,1,0,0:0:0:0:
320,192,185663,1,0,0:0:0:0:
64,192,185663,1,0,0:0:0:0:
448,192,185737,1,0,0:0:0:0:
64,192,185812,1,0,0:0:0:0:
192,192,185812,1,0,0:0:0:0:
448,192,185886,1,0,0:0:0:0:
192,192,185960,1,0,0:0:0:0:
320,192,185960,1,0,0:0:0:0:
64,192,186035,1,0,0:0:0:0:
320,192,186109,1,0,0:0:0:0:
448,192,186109,1,0,0:0:0:0:
192,192,186184,1,0,0:0:0:0:
64,192,186258,1,0,0:0:0:0:
320,192,186258,1,0,0:0:0:0:
448,192,186332,1,0,0:0:0:0:
192,192,186407,1,0,0:0:0:0:
64,192,186407,1,0,0:0:0:0:
320,192,186407,1,0,0:0:0:0:
448,192,186481,1,0,0:0:0:0:
192,192,186556,1,0,0:0:0:0:
64,192,186630,1,0,0:0:0:0:
448,192,186630,1,0,0:0:0:0:
192,192,186704,1,0,0:0:0:0:
320,192,186779,1,0,0:0:0:0:
64,192,186853,1,0,0:0:0:0:
448,192,186853,1,0,0:0:0:0:
192,192,186928,1,0,0:0:0:0:
320,192,187002,1,0,0:0:0:0:
448,192,187002,1,0,0:0:0:0:
64,192,187076,1,0,0:0:0:0:
192,192,187151,1,0,0:0:0:0:
448,192,187225,5,0,0:0:0:0:
320,192,187225,1,0,0:0:0:0:
64,192,187300,1,0,0:0:0:0:
192,192,187374,1,0,0:0:0:0:
320,192,187449,1,0,0:0:0:0:
448,192,187449,1,0,0:0:0:0:
192,192,187523,1,0,0:0:0:0:
448,192,187597,1,0,0:0:0:0:
320,192,187597,1,0,0:0:0:0:
64,192,187597,1,0,0:0:0:0:
192,192,187672,1,0,0:0:0:0:
448,192,187746,1,0,0:0:0:0:
64,192,187821,1,0,0:0:0:0:
320,192,187821,1,0,0:0:0:0:
192,192,187895,1,0,0:0:0:0:
64,192,187969,1,0,0:0:0:0:
320,192,188044,1,0,0:0:0:0:
448,192,188044,1,0,0:0:0:0:
192,192,188118,1,0,0:0:0:0:
64,192,188193,5,0,0:0:0:0:
448,192,188193,1,0,0:0:0:0:
192,192,188267,1,0,0:0:0:0:
320,192,188267,1,0,0:0:0:0:
448,192,188341,1,0,0:0:0:0:
64,192,188341,1,0,0:0:0:0:
192,192,188416,1,0,0:0:0:0:
448,192,188490,1,0,0:0:0:0:
320,192,188490,1,0,0:0:0:0:
192,192,188565,1,0,0:0:0:0:
64,192,188565,1,0,0:0:0:0:
448,192,188639,1,0,0:0:0:0:
320,192,188639,1,0,0:0:0:0:
64,192,188713,1,0,0:0:0:0:
192,192,188713,1,0,0:0:0:0:
448,192,188788,1,0,0:0:0:0:
320,192,188788,1,0,0:0:0:0:
192,192,188862,1,0,0:0:0:0:
64,192,188937,1,0,0:0:0:0:
320,192,189011,1,0,0:0:0:0:
448,192,189011,1,0,0:0:0:0:
192,192,189085,1,0,0:0:0:0:
64,192,189160,1,0,0:0:0:0:
192,192,189234,1,0,0:0:0:0:
448,192,189234,1,0,0:0:0:0:
320,192,189309,1,0,0:0:0:0:
448,192,189383,1,0,0:0:0:0:
64,192,189383,1,0,0:0:0:0:
192,192,189383,1,0,0:0:0:0:
320,192,189457,1,0,0:0:0:0:
192,192,189532,1,0,0:0:0:0:
320,192,189606,1,0,0:0:0:0:
64,192,189606,1,0,0:0:0:0:
448,192,189681,1,0,0:0:0:0:
320,192,189755,1,0,0:0:0:0:
64,192,189829,1,0,0:0:0:0:
192,192,189829,1,0,0:0:0:0:
448,192,189904,1,0,0:0:0:0:
192,192,189978,1,0,0:0:0:0:
64,192,189978,1,0,0:0:0:0:
320,192,189978,1,0,0:0:0:0:
448,192,190053,1,0,0:0:0:0:
320,192,190127,1,0,0:0:0:0:
64,192,190201,1,0,0:0:0:0:
448,192,190201,1,0,0:0:0:0:
192,192,190276,1,0,0:0:0:0:
320,192,190350,1,0,0:0:0:0:
64,192,190425,1,0,0:0:0:0:
448,192,190425,1,0,0:0:0:0:
192,192,190499,1,0,0:0:0:0:
64,192,190574,1,0,0:0:0:0:
320,192,190574,1,0,0:0:0:0:
448,192,190574,1,0,0:0:0:0:
192,192,190648,1,0,0:0:0:0:
320,192,190722,1,0,0:0:0:0:
64,192,190797,1,0,0:0:0:0:
192,192,190797,1,0,0:0:0:0:
448,192,190871,1,0,0:0:0:0:
320,192,190946,1,0,0:0:0:0:
64,192,191020,1,0,0:0:0:0:
192,192,191020,1,0,0:0:0:0:
320,192,191094,1,0,0:0:0:0:
64,192,191169,1,0,0:0:0:0:
192,192,191169,1,0,0:0:0:0:
448,192,191169,1,0,0:0:0:0:
320,192,191243,1,0,0:0:0:0:
192,192,191318,1,0,0:0:0:0:
64,192,191392,1,0,0:0:0:0:
448,192,191392,1,0,0:0:0:0:
192,192,191466,1,0,0:0:0:0:
320,192,191541,1,0,0:0:0:0:
64,192,191615,1,0,0:0:0:0:
448,192,191615,1,0,0:0:0:0:
192,192,191690,1,0,0:0:0:0:
64,192,191764,1,0,0:0:0:0:
320,192,191764,1,0,0:0:0:0:
448,192,191764,1,0,0:0:0:0:
192,192,191838,1,0,0:0:0:0:
320,192,191913,1,0,0:0:0:0:
64,192,191987,1,0,0:0:0:0:
448,192,191987,1,0,0:0:0:0:
192,192,192062,1,0,0:0:0:0:
320,192,192136,1,0,0:0:0:0:
192,192,192210,1,0,0:0:0:0:
64,192,192210,1,0,0:0:0:0:
320,192,192285,1,0,0:0:0:0:
192,192,192359,1,0,0:0:0:0:
64,192,192359,1,0,0:0:0:0:
448,192,192359,1,0,0:0:0:0:
320,192,192434,1,0,0:0:0:0:
192,192,192508,1,0,0:0:0:0:
64,192,192582,1,0,0:0:0:0:
448,192,192582,1,0,0:0:0:0:
320,192,192657,1,0,0:0:0:0:
192,192,192731,1,0,0:0:0:0:
448,192,192806,1,0,0:0:0:0:
320,192,192806,1,0,0:0:0:0:
192,192,192880,1,0,0:0:0:0:
64,192,192954,1,0,0:0:0:0:
320,192,192954,1,0,0:0:0:0:
448,192,193029,1,0,0:0:0:0:
192,192,193029,1,0,0:0:0:0:
64,192,193103,1,0,0:0:0:0:
320,192,193103,1,0,0:0:0:0:
192,192,193178,1,0,0:0:0:0:
448,192,193252,1,0,0:0:0:0:
320,192,193252,1,0,0:0:0:0:
64,192,193326,1,0,0:0:0:0:
192,192,193326,1,0,0:0:0:0:
448,192,193401,1,0,0:0:0:0:
320,192,193401,1,0,0:0:0:0:
64,192,193475,1,0,0:0:0:0:
192,192,193475,1,0,0:0:0:0:
448,192,193550,1,0,0:0:0:0:
320,192,193550,1,0,0:0:0:0:
64,192,193624,1,0,0:0:0:0:
192,192,193699,1,0,0:0:0:0:
320,192,193773,1,0,0:0:0:0:
448,192,193773,1,0,0:0:0:0:
64,192,193847,1,0,0:0:0:0:
320,192,193922,1,0,0:0:0:0:
192,192,193996,1,0,0:0:0:0:
448,192,193996,1,0,0:0:0:0:
320,192,194071,1,0,0:0:0:0:
64,192,194145,1,0,0:0:0:0:
192,192,194145,1,0,0:0:0:0:
448,192,194219,1,0,0:0:0:0:
320,192,194294,1,0,0:0:0:0:
64,192,194368,1,0,0:0:0:0:
192,192,194368,1,0,0:0:0:0:
448,192,194443,1,0,0:0:0:0:
320,192,194517,1,0,0:0:0:0:
64,192,194591,1,0,0:0:0:0:
192,192,194591,1,0,0:0:0:0:
320,192,194666,1,0,0:0:0:0:
192,192,194740,1,0,0:0:0:0:
64,192,194740,1,0,0:0:0:0:
448,192,194740,1,0,0:0:0:0:
320,192,194815,1,0,0:0:0:0:
192,192,194889,1,0,0:0:0:0:
64,192,194963,1,0,0:0:0:0:
448,192,194963,1,0,0:0:0:0:
192,192,195038,1,0,0:0:0:0:
320,192,195112,1,0,0:0:0:0:
64,192,195187,1,0,0:0:0:0:
448,192,195187,1,0,0:0:0:0:
192,192,195261,1,0,0:0:0:0:
320,192,195335,1,0,0:0:0:0:
448,192,195335,1,0,0:0:0:0:
64,192,195410,1,0,0:0:0:0:
192,192,195484,1,0,0:0:0:0:
448,192,195484,1,0,0:0:0:0:
320,192,195559,1,0,0:0:0:0:
64,192,195633,1,0,0:0:0:0:
192,192,195633,1,0,0:0:0:0:
448,192,195707,1,0,0:0:0:0:
64,192,195782,1,0,0:0:0:0:
320,192,195782,1,0,0:0:0:0:
192,192,195856,1,0,0:0:0:0:
64,192,195931,1,0,0:0:0:0:
320,192,195931,1,0,0:0:0:0:
448,192,195931,1,0,0:0:0:0:
192,192,196005,1,0,0:0:0:0:
320,192,196079,1,0,0:0:0:0:
64,192,196154,1,0,0:0:0:0:
448,192,196154,1,0,0:0:0:0:
192,192,196228,1,0,0:0:0:0:
320,192,196303,1,0,0:0:0:0:
64,192,196377,1,0,0:0:0:0:
448,192,196377,1,0,0:0:0:0:
192,192,196451,1,0,0:0:0:0:
320,192,196526,1,0,0:0:0:0:
448,192,196526,1,0,0:0:0:0:
64,192,196600,1,0,0:0:0:0:
192,192,196675,1,0,0:0:0:0:
448,192,196749,5,0,0:0:0:0:
64,192,196749,1,0,0:0:0:0:
320,192,196824,1,0,0:0:0:0:
192,192,196898,1,0,0:0:0:0:
64,192,196972,1,0,0:0:0:0:
448,192,196972,1,0,0:0:0:0:
320,192,197047,1,0,0:0:0:0:
448,192,197121,1,0,0:0:0:0:
64,192,197121,1,0,0:0:0:0:
192,192,197121,1,0,0:0:0:0:
320,192,197196,1,0,0:0:0:0:
448,192,197270,1,0,0:0:0:0:
64,192,197344,1,0,0:0:0:0:
192,192,197344,1,0,0:0:0:0:
320,192,197419,1,0,0:0:0:0:
192,192,197493,1,0,0:0:0:0:
448,192,197568,1,0,0:0:0:0:
64,192,197568,1,0,0:0:0:0:
320,192,197642,1,0,0:0:0:0:
64,192,197716,5,0,0:0:0:0:
192,192,197716,1,0,0:0:0:0:
448,192,197791,1,0,0:0:0:0:
320,192,197791,1,0,0:0:0:0:
64,192,197865,1,0,0:0:0:0:
192,192,197865,1,0,0:0:0:0:
320,192,197940,1,0,0:0:0:0:
64,192,198014,1,0,0:0:0:0:
448,192,198014,1,0,0:0:0:0:
320,192,198088,1,0,0:0:0:0:
192,192,198088,1,0,0:0:0:0:
64,192,198163,1,0,0:0:0:0:
448,192,198163,1,0,0:0:0:0:
320,192,198237,1,0,0:0:0:0:
192,192,198237,1,0,0:0:0:0:
64,192,198312,1,0,0:0:0:0:
448,192,198312,1,0,0:0:0:0:
192,192,198386,1,0,0:0:0:0:
320,192,198460,1,0,0:0:0:0:
64,192,198535,1,0,0:0:0:0:
448,192,198535,1,0,0:0:0:0:
192,192,198609,1,0,0:0:0:0:
320,192,198684,1,0,0:0:0:0:
64,192,198758,1,0,0:0:0:0:
448,192,198758,1,0,0:0:0:0:
192,192,198832,1,0,0:0:0:0:
64,192,198907,1,0,0:0:0:0:
320,192,198907,1,0,0:0:0:0:
448,192,198907,1,0,0:0:0:0:
192,192,198981,1,0,0:0:0:0:
64,192,199056,1,0,0:0:0:0:
320,192,199130,1,0,0:0:0:0:
448,192,199130,1,0,0:0:0:0:
192,192,199204,1,0,0:0:0:0:
64,192,199279,1,0,0:0:0:0:
320,192,199353,1,0,0:0:0:0:
448,192,199353,1,0,0:0:0:0:
64,192,199428,1,0,0:0:0:0:
320,192,199502,1,0,0:0:0:0:
192,192,199502,1,0,0:0:0:0:
448,192,199502,1,0,0:0:0:0:
64,192,199576,1,0,0:0:0:0:
192,192,199651,1,0,0:0:0:0:
320,192,199725,1,0,0:0:0:0:
448,192,199725,1,0,0:0:0:0:
192,192,199800,1,0,0:0:0:0:
320,192,199874,1,0,0:0:0:0:
64,192,199949,1,0,0:0:0:0:
448,192,199949,1,0,0:0:0:0:
320,192,200023,1,0,0:0:0:0:
448,192,200097,1,0,0:0:0:0:
64,192,200097,1,0,0:0:0:0:
192,192,200097,1,0,0:0:0:0:
320,192,200172,1,0,0:0:0:0:
448,192,200246,1,0,0:0:0:0:
192,192,200321,1,0,0:0:0:0:
64,192,200321,1,0,0:0:0:0:
320,192,200395,1,0,0:0:0:0:
448,192,200469,1,0,0:0:0:0:
192,192,200544,1,0,0:0:0:0:
64,192,200544,1,0,0:0:0:0:
320,192,200618,1,0,0:0:0:0:
64,192,200693,1,0,0:0:0:0:
192,192,200693,1,0,0:0:0:0:
448,192,200693,1,0,0:0:0:0:
320,192,200767,1,0,0:0:0:0:
192,192,200841,1,0,0:0:0:0:
448,192,200916,1,0,0:0:0:0:
64,192,200916,1,0,0:0:0:0:
192,192,200990,1,0,0:0:0:0:
320,192,201065,1,0,0:0:0:0:
64,192,201139,1,0,0:0:0:0:
448,192,201139,1,0,0:0:0:0:
192,192,201213,1,0,0:0:0:0:
320,192,201288,1,0,0:0:0:0:
448,192,201288,1,0,0:0:0:0:
192,192,201362,1,0,0:0:0:0:
64,192,201437,1,0,0:0:0:0:
448,192,201511,5,0,0:0:0:0:
320,192,201511,1,0,0:0:0:0:
192,192,201585,1,0,0:0:0:0:
64,192,201660,1,0,0:0:0:0:
192,192,201734,1,0,0:0:0:0:
448,192,201734,1,0,0:0:0:0:
320,192,201809,1,0,0:0:0:0:
448,192,201883,1,0,0:0:0:0:
64,192,201883,1,0,0:0:0:0:
192,192,201883,1,0,0:0:0:0:
320,192,201957,1,0,0:0:0:0:
448,192,202032,1,0,0:0:0:0:
64,192,202106,1,0,0:0:0:0:
192,192,202106,1,0,0:0:0:0:
320,192,202181,1,0,0:0:0:0:
448,192,202255,1,0,0:0:0:0:
64,192,202329,1,0,0:0:0:0:
192,192,202329,1,0,0:0:0:0:
320,192,202404,1,0,0:0:0:0:
64,192,202478,5,0,0:0:0:0:
448,192,202478,1,0,0:0:0:0:
192,192,202553,1,0,0:0:0:0:
320,192,202553,1,0,0:0:0:0:
448,192,202627,1,0,0:0:0:0:
64,192,202627,1,0,0:0:0:0:
192,192,202701,1,0,0:0:0:0:
64,192,202776,1,0,0:0:0:0:
320,192,202776,1,0,0:0:0:0:
192,192,202850,1,0,0:0:0:0:
448,192,202850,1,0,0:0:0:0:
64,192,202925,1,0,0:0:0:0:
320,192,202925,1,0,0:0:0:0:
192,192,202999,1,0,0:0:0:0:
448,192,202999,1,0,0:0:0:0:
64,192,203074,1,0,0:0:0:0:
320,192,203074,1,0,0:0:0:0:
448,192,203148,1,0,0:0:0:0:
320,192,203222,1,0,0:0:0:0:
64,192,203297,1,0,0:0:0:0:
192,192,203297,1,0,0:0:0:0:
448,192,203371,1,0,0:0:0:0:
320,192,203446,1,0,0:0:0:0:
64,192,203520,1,0,0:0:0:0:
192,192,203520,1,0,0:0:0:0:
448,192,203594,1,0,0:0:0:0:
64,192,203669,1,0,0:0:0:0:
320,192,203669,1,0,0:0:0:0:
192,192,203743,1,0,0:0:0:0:
320,192,203818,1,0,0:0:0:0:
64,192,203892,1,0,0:0:0:0:
448,192,203892,1,0,0:0:0:0:
192,192,203966,1,0,0:0:0:0:
320,192,204041,1,0,0:0:0:0:
64,192,204115,1,0,0:0:0:0:
448,192,204115,1,0,0:0:0:0:
192,192,204190,1,0,0:0:0:0:
64,192,204264,1,0,0:0:0:0:
320,192,204264,1,0,0:0:0:0:
448,192,204264,1,0,0:0:0:0:
192,192,204338,1,0,0:0:0:0:
320,192,204413,1,0,0:0:0:0:
192,192,204487,1,0,0:0:0:0:
448,192,204487,1,0,0:0:0:0:
64,192,204562,1,0,0:0:0:0:
320,192,204636,1,0,0:0:0:0:
192,192,204710,1,0,0:0:0:0:
448,192,204710,1,0,0:0:0:0:
64,192,204785,1,0,0:0:0:0:
320,192,204859,1,0,0:0:0:0:
448,192,204859,1,0,0:0:0:0:
192,192,204934,1,0,0:0:0:0:
64,192,205008,1,0,0:0:0:0:
448,192,205008,1,0,0:0:0:0:
320,192,205082,1,0,0:0:0:0:
448,192,205157,1,0,0:0:0:0:
64,192,205157,1,0,0:0:0:0:
192,192,205157,1,0,0:0:0:0:
320,192,205231,1,0,0:0:0:0:
192,192,205306,1,0,0:0:0:0:
64,192,205306,1,0,0:0:0:0:
448,192,205380,1,0,0:0:0:0:
64,192,205454,1,0,0:0:0:0:
192,192,205454,1,0,0:0:0:0:
320,192,205454,1,0,0:0:0:0:
448,192,205529,1,0,0:0:0:0:
192,192,205603,1,0,0:0:0:0:
320,192,205678,1,0,0:0:0:0:
448,192,205678,1,0,0:0:0:0:
64,192,205752,1,0,0:0:0:0:
192,192,205826,1,0,0:0:0:0:
320,192,205901,1,0,0:0:0:0:
448,192,205901,1,0,0:0:0:0:
64,192,205975,1,0,0:0:0:0:
320,192,206050,1,0,0:0:0:0:
192,192,206050,1,0,0:0:0:0:
448,192,206050,1,0,0:0:0:0:
64,192,206124,1,0,0:0:0:0:
320,192,206199,1,0,0:0:0:0:
448,192,206273,5,0,0:0:0:0:
64,192,206273,1,0,0:0:0:0:
320,192,206347,1,0,0:0:0:0:
192,192,206422,1,0,0:0:0:0:
64,192,206496,1,0,0:0:0:0:
448,192,206496,1,0,0:0:0:0:
320,192,206571,1,0,0:0:0:0:
448,192,206645,1,0,0:0:0:0:
64,192,206645,1,0,0:0:0:0:
192,192,206645,1,0,0:0:0:0:
320,192,206719,1,0,0:0:0:0:
448,192,206794,1,0,0:0:0:0:
64,192,206868,1,0,0:0:0:0:
192,192,206868,1,0,0:0:0:0:
320,192,206943,1,0,0:0:0:0:
448,192,207017,1,0,0:0:0:0:
64,192,207091,1,0,0:0:0:0:
192,192,207091,1,0,0:0:0:0:
320,192,207166,1,0,0:0:0:0:
64,192,207240,5,0,0:0:0:0:
448,192,207240,1,0,0:0:0:0:
192,192,207315,1,0,0:0:0:0:
320,192,207315,1,0,0:0:0:0:
448,192,207389,1,0,0:0:0:0:
64,192,207389,1,0,0:0:0:0:
192,192,207463,1,0,0:0:0:0:
448,192,207538,1,0,0:0:0:0:
320,192,207538,1,0,0:0:0:0:
64,192,207612,1,0,0:0:0:0:
192,192,207612,1,0,0:0:0:0:
448,192,207687,1,0,0:0:0:0:
320,192,207687,1,0,0:0:0:0:
64,192,207761,1,0,0:0:0:0:
192,192,207761,1,0,0:0:0:0:
448,192,207835,1,0,0:0:0:0:
320,192,207835,1,0,0:0:0:0:
192,192,207910,1,0,0:0:0:0:
64,192,207984,1,0,0:0:0:0:
320,192,208059,1,0,0:0:0:0:
448,192,208059,1,0,0:0:0:0:
192,192,208133,1,0,0:0:0:0:
64,192,208207,1,0,0:0:0:0:
320,192,208282,1,0,0:0:0:0:
448,192,208282,1,0,0:0:0:0:
192,192,208356,1,0,0:0:0:0:
320,192,208431,1,0,0:0:0:0:
64,192,208431,1,0,0:0:0:0:
448,192,208431,1,0,0:0:0:0:
192,192,208505,1,0,0:0:0:0:
64,192,208579,1,0,0:0:0:0:
320,192,208654,1,0,0:0:0:0:
448,192,208654,1,0,0:0:0:0:
192,192,208728,1,0,0:0:0:0:
64,192,208803,1,0,0:0:0:0:
192,192,208877,1,0,0:0:0:0:
448,192,208877,1,0,0:0:0:0:
320,192,208951,1,0,0:0:0:0:
192,192,209026,1,0,0:0:0:0:
448,192,209026,1,0,0:0:0:0:
64,192,209026,1,0,0:0:0:0:
320,192,209100,1,0,0:0:0:0:
64,192,209175,1,0,0:0:0:0:
192,192,209249,1,0,0:0:0:0:
448,192,209249,1,0,0:0:0:0:
320,192,209324,1,0,0:0:0:0:
192,192,209398,1,0,0:0:0:0:
64,192,209472,1,0,0:0:0:0:
448,192,209472,1,0,0:0:0:0:
192,192,209547,1,0,0:0:0:0:
64,192,209621,1,0,0:0:0:0:
320,192,209621,1,0,0:0:0:0:
448,192,209621,1,0,0:0:0:0:
192,192,209696,1,0,0:0:0:0:
448,192,209770,1,0,0:0:0:0:
320,192,209844,1,0,0:0:0:0:
64,192,209844,1,0,0:0:0:0:
192,192,209919,1,0,0:0:0:0:
320,192,209993,1,0,0:0:0:0:
64,192,210068,1,0,0:0:0:0:
448,192,210068,1,0,0:0:0:0:
192,192,210142,1,0,0:0:0:0:
320,192,210216,1,0,0:0:0:0:
64,192,210216,1,0,0:0:0:0:
448,192,210216,1,0,0:0:0:0:
192,192,210291,1,0,0:0:0:0:
320,192,210365,1,0,0:0:0:0:
64,192,210440,1,0,0:0:0:0:
448,192,210440,1,0,0:0:0:0:
320,192,210514,1,0,0:0:0:0:
192,192,210588,1,0,0:0:0:0:
64,192,210663,1,0,0:0:0:0:
448,192,210663,1,0,0:0:0:0:
320,192,210737,1,0,0:0:0:0:
448,192,210812,1,0,0:0:0:0:
192,192,210812,1,0,0:0:0:0:
64,192,210812,1,0,0:0:0:0:
320,192,210886,1,0,0:0:0:0:
64,192,210960,1,0,0:0:0:0:
448,192,211035,5,0,0:0:0:0:
192,192,211035,1,0,0:0:0:0:
320,192,211109,1,0,0:0:0:0:
64,192,211184,1,0,0:0:0:0:
192,192,211258,1,0,0:0:0:0:
448,192,211258,1,0,0:0:0:0:
320,192,211332,1,0,0:0:0:0:
448,192,211407,1,0,0:0:0:0:
64,192,211407,1,0,0:0:0:0:
192,192,211407,1,0,0:0:0:0:
320,192,211481,1,0,0:0:0:0:
64,192,211556,1,0,0:0:0:0:
320,192,211630,1,0,0:0:0:0:
192,192,211630,1,0,0:0:0:0:
448,192,211704,1,0,0:0:0:0:
192,192,211779,1,0,0:0:0:0:
448,192,211853,1,0,0:0:0:0:
64,192,211853,1,0,0:0:0:0:
320,192,211928,1,0,0:0:0:0:
192,192,212002,5,0,0:0:0:0:
64,192,212002,1,0,0:0:0:0:
448,192,212076,1,0,0:0:0:0:
320,192,212076,1,0,0:0:0:0:
64,192,212151,1,0,0:0:0:0:
192,192,212151,1,0,0:0:0:0:
320,192,212225,1,0,0:0:0:0:
448,192,212300,5,0,0:0:0:0:
64,192,212300,1,0,0:0:0:0:
320,192,212374,1,0,0:0:0:0:
192,192,212374,1,0,0:0:0:0:
64,192,212449,1,0,0:0:0:0:
448,192,212449,1,0,0:0:0:0:
320,192,212523,1,0,0:0:0:0:
192,192,212523,1,0,0:0:0:0:
64,192,212597,1,0,0:0:0:0:
448,192,212597,1,0,0:0:0:0:
192,192,212672,1,0,0:0:0:0:
320,192,212746,1,0,0:0:0:0:
64,192,212821,1,0,0:0:0:0:
448,192,212821,1,0,0:0:0:0:
192,192,212895,1,0,0:0:0:0:
320,192,212969,1,0,0:0:0:0:
64,192,213044,1,0,0:0:0:0:
448,192,213044,1,0,0:0:0:0:
192,192,213118,1,0,0:0:0:0:
320,192,213193,1,0,0:0:0:0:
448,192,213193,1,0,0:0:0:0:
192,192,213267,1,0,0:0:0:0:
64,192,213341,1,0,0:0:0:0:
320,192,213416,1,0,0:0:0:0:
448,192,213416,1,0,0:0:0:0:
192,192,213490,1,0,0:0:0:0:
64,192,213565,1,0,0:0:0:0:
320,192,213639,1,0,0:0:0:0:
448,192,213639,1,0,0:0:0:0:
192,192,213713,1,0,0:0:0:0:
320,192,213788,1,0,0:0:0:0:
64,192,213788,1,0,0:0:0:0:
448,192,213788,1,0,0:0:0:0:
192,192,213862,1,0,0:0:0:0:
320,192,213937,1,0,0:0:0:0:
64,192,214011,1,0,0:0:0:0:
448,192,214011,1,0,0:0:0:0:
192,192,214085,1,0,0:0:0:0:
320,192,214160,1,0,0:0:0:0:
64,192,214234,1,0,0:0:0:0:
448,192,214234,1,0,0:0:0:0:
192,192,214309,1,0,0:0:0:0:
320,192,214383,1,0,0:0:0:0:
448,192,214383,1,0,0:0:0:0:
64,192,214457,1,0,0:0:0:0:
192,192,214532,1,0,0:0:0:0:
320,192,214532,1,0,0:0:0:0:
448,192,214606,1,0,0:0:0:0:
320,192,214681,1,0,0:0:0:0:
192,192,214681,1,0,0:0:0:0:
64,192,214681,1,0,0:0:0:0:
448,192,214755,1,0,0:0:0:0:
320,192,214829,1,0,0:0:0:0:
64,192,214829,1,0,0:0:0:0:
192,192,214904,1,0,0:0:0:0:
64,192,214978,1,0,0:0:0:0:
320,192,214978,1,0,0:0:0:0:
448,192,214978,1,0,0:0:0:0:
192,192,215053,1,0,0:0:0:0:
320,192,215127,1,0,0:0:0:0:
64,192,215201,1,0,0:0:0:0:
448,192,215201,1,0,0:0:0:0:
320,192,215276,1,0,0:0:0:0:
192,192,215350,1,0,0:0:0:0:
64,192,215425,1,0,0:0:0:0:
448,192,215425,1,0,0:0:0:0:
192,192,215499,1,0,0:0:0:0:
320,192,215574,1,0,0:0:0:0:
64,192,215574,1,0,0:0:0:0:
448,192,215574,1,0,0:0:0:0:
192,192,215648,1,0,0:0:0:0:
320,192,215722,1,0,0:0:0:0:
448,192,215797,5,0,0:0:0:0:
64,192,215797,1,0,0:0:0:0:
320,192,215871,1,0,0:0:0:0:
192,192,215946,1,0,0:0:0:0:
64,192,216020,1,0,0:0:0:0:
448,192,216020,1,0,0:0:0:0:
320,192,216094,1,0,0:0:0:0:
448,192,216169,1,0,0:0:0:0:
64,192,216169,1,0,0:0:0:0:
192,192,216169,1,0,0:0:0:0:
320,192,216243,1,0,0:0:0:0:
448,192,216318,1,0,0:0:0:0:
64,192,216392,1,0,0:0:0:0:
192,192,216392,1,0,0:0:0:0:
320,192,216466,1,0,0:0:0:0:
448,192,216541,1,0,0:0:0:0:
320,192,216615,1,0,0:0:0:0:
192,192,216615,1,0,0:0:0:0:
64,192,216690,1,0,0:0:0:0:
448,192,216764,5,0,0:0:0:0:
192,192,216764,1,0,0:0:0:0:
64,192,216838,1,0,0:0:0:0:
320,192,216838,1,0,0:0:0:0:
448,192,216913,1,0,0:0:0:0:
192,192,216913,1,0,0:0:0:0:
320,192,216987,1,0,0:0:0:0:
192,192,217062,1,0,0:0:0:0:
64,192,217062,1,0,0:0:0:0:
448,192,217136,1,0,0:0:0:0:
320,192,217136,1,0,0:0:0:0:
64,192,217210,1,0,0:0:0:0:
192,192,217210,1,0,0:0:0:0:
448,192,217285,1,0,0:0:0:0:
320,192,217285,1,0,0:0:0:0:
64,192,217359,1,0,0:0:0:0:
192,192,217359,1,0,0:0:0:0:
320,192,217434,1,0,0:0:0:0:
448,192,217508,1,0,0:0:0:0:
192,192,217582,1,0,0:0:0:0:
64,192,217582,1,0,0:0:0:0:
320,192,217657,1,0,0:0:0:0:
192,192,217731,1,0,0:0:0:0:
320,192,217806,1,0,0:0:0:0:
448,192,217806,1,0,0:0:0:0:
64,192,217880,1,0,0:0:0:0:
192,192,217954,1,0,0:0:0:0:
448,192,217954,1,0,0:0:0:0:
320,192,217954,1,0,0:0:0:0:
64,192,218029,1,0,0:0:0:0:
448,192,218103,1,0,0:0:0:0:
192,192,218178,1,0,0:0:0:0:
64,192,218178,1,0,0:0:0:0:
320,192,218252,1,0,0:0:0:0:
64,192,218326,1,0,0:0:0:0:
448,192,218401,1,0,0:0:0:0:
320,192,218401,1,0,0:0:0:0:
192,192,218475,1,0,0:0:0:0:
64,192,218550,1,0,0:0:0:0:
448,192,218550,1,0,0:0:0:0:
320,192,218550,1,0,0:0:0:0:
192,192,218624,1,0,0:0:0:0:
320,192,218699,1,0,0:0:0:0:
192,192,218773,1,0,0:0:0:0:
64,192,218773,1,0,0:0:0:0:
448,192,218847,1,0,0:0:0:0:
192,192,218922,1,0,0:0:0:0:
448,192,218996,1,0,0:0:0:0:
320,192,218996,1,0,0:0:0:0:
64,192,219071,1,0,0:0:0:0:
192,192,219145,1,0,0:0:0:0:
448,192,219145,1,0,0:0:0:0:
320,192,219145,1,0,0:0:0:0:
64,192,219219,1,0,0:0:0:0:
320,192,219294,1,0,0:0:0:0:
192,192,219368,1,0,0:0:0:0:
64,192,219368,1,0,0:0:0:0:
448,192,219443,1,0,0:0:0:0:
192,192,219517,1,0,0:0:0:0:
448,192,219591,1,0,0:0:0:0:
320,192,219591,1,0,0:0:0:0:
192,192,219666,1,0,0:0:0:0:
64,192,219740,1,0,0:0:0:0:
448,192,219740,1,0,0:0:0:0:
320,192,219740,1,0,0:0:0:0:
192,192,219815,1,0,0:0:0:0:
320,192,219889,1,0,0:0:0:0:
192,192,219963,1,0,0:0:0:0:
64,192,219963,1,0,0:0:0:0:
448,192,220038,1,0,0:0:0:0:
192,192,220112,1,0,0:0:0:0:
448,192,220187,1,0,0:0:0:0:
320,192,220187,1,0,0:0:0:0:
64,192,220261,1,0,0:0:0:0:
448,192,220335,1,0,0:0:0:0:
320,192,220335,1,0,0:0:0:0:
64,192,220410,1,0,0:0:0:0:
448,192,220484,1,0,0:0:0:0:
320,192,220484,1,0,0:0:0:0:
192,192,220559,1,0,0:0:0:0:
448,192,220633,1,0,0:0:0:0:
320,192,220633,1,0,0:0:0:0:
64,192,220707,1,0,0:0:0:0:
192,192,220707,1,0,0:0:0:0:
448,192,220782,1,0,0:0:0:0:
320,192,220782,1,0,0:0:0:0:
64,192,220856,1,0,0:0:0:0:
192,192,220856,1,0,0:0:0:0:
448,192,220931,1,0,0:0:0:0:
320,192,220931,1,0,0:0:0:0:
64,192,221005,1,0,0:0:0:0:
192,192,221005,1,0,0:0:0:0:
448,192,221079,1,0,0:0:0:0:
320,192,221117,1,0,0:0:0:0:
64,192,221154,1,0,0:0:0:0:
192,192,221191,1,0,0:0:0:0:
448,192,221228,1,0,0:0:0:0:
320,192,221228,1,0,0:0:0:0:
64,192,221303,1,0,0:0:0:0:
192,192,221303,1,0,0:0:0:0:
448,192,221377,1,0,0:0:0:0:
320,192,221414,1,0,0:0:0:0:
192,192,221451,1,0,0:0:0:0:
64,192,221489,1,0,0:0:0:0:
448,192,221526,1,0,0:0:0:0:
320,192,221526,1,0,0:0:0:0:
64,192,221600,1,0,0:0:0:0:
192,192,221600,1,0,0:0:0:0:
448,192,221675,1,0,0:0:0:0:
320,192,221675,1,0,0:0:0:0:
64,192,221749,1,0,0:0:0:0:
192,192,221749,1,0,0:0:0:0:
448,192,221824,1,0,0:0:0:0:
320,192,221861,1,0,0:0:0:0:
64,192,221898,1,0,0:0:0:0:
192,192,221935,1,0,0:0:0:0:
448,192,221972,1,0,0:0:0:0:
320,192,222010,1,0,0:0:0:0:
64,192,222047,1,0,0:0:0:0:
192,192,222084,1,0,0:0:0:0:
448,192,222121,1,0,0:0:0:0:
320,192,222121,1,0,0:0:0:0:
192,192,222196,1,0,0:0:0:0:
320,192,222270,1,0,0:0:0:0:
64,192,222344,1,0,0:0:0:0:
448,192,222344,1,0,0:0:0:0:
192,192,222419,1,0,0:0:0:0:
320,192,222493,1,0,0:0:0:0:
64,192,222568,1,0,0:0:0:0:
448,192,222568,1,0,0:0:0:0:
192,192,222642,1,0,0:0:0:0:
320,192,222716,1,0,0:0:0:0:
448,192,222716,1,0,0:0:0:0:
192,192,222791,1,0,0:0:0:0:
64,192,222865,1,0,0:0:0:0:
320,192,222940,1,0,0:0:0:0:
448,192,222940,1,0,0:0:0:0:
192,192,223014,1,0,0:0:0:0:
64,192,223088,1,0,0:0:0:0:
320,192,223163,1,0,0:0:0:0:
448,192,223163,1,0,0:0:0:0:
192,192,223237,1,0,0:0:0:0:
320,192,223312,1,0,0:0:0:0:
64,192,223312,1,0,0:0:0:0:
448,192,223312,1,0,0:0:0:0:
192,192,223386,1,0,0:0:0:0:
64,192,223460,1,0,0:0:0:0:
320,192,223535,1,0,0:0:0:0:
448,192,223535,1,0,0:0:0:0:
64,192,223609,1,0,0:0:0:0:
192,192,223684,1,0,0:0:0:0:
320,192,223758,1,0,0:0:0:0:
448,192,223758,1,0,0:0:0:0:
64,192,223832,1,0,0:0:0:0:
192,192,223907,1,0,0:0:0:0:
448,192,223907,1,0,0:0:0:0:
320,192,223981,1,0,0:0:0:0:
64,192,224056,1,0,0:0:0:0:
192,192,224056,1,0,0:0:0:0:
448,192,224130,1,0,0:0:0:0:
192,192,224204,1,0,0:0:0:0:
64,192,224204,1,0,0:0:0:0:
320,192,224204,1,0,0:0:0:0:
448,192,224279,1,0,0:0:0:0:
192,192,224353,1,0,0:0:0:0:
320,192,224353,1,0,0:0:0:0:
64,192,224428,1,0,0:0:0:0:
320,192,224502,1,0,0:0:0:0:
192,192,224502,1,0,0:0:0:0:
448,192,224502,1,0,0:0:0:0:
64,192,224576,1,0,0:0:0:0:
192,192,224651,1,0,0:0:0:0:
64,192,224725,1,0,0:0:0:0:
448,192,224725,1,0,0:0:0:0:
320,192,224800,1,0,0:0:0:0:
192,192,224874,1,0,0:0:0:0:
64,192,224949,1,0,0:0:0:0:
448,192,224949,1,0,0:0:0:0:
320,192,225023,1,0,0:0:0:0:
448,192,225097,1,0,0:0:0:0:
64,192,225097,1,0,0:0:0:0:
192,192,225097,1,0,0:0:0:0:
320,192,225172,1,0,0:0:0:0:
448,192,225246,1,0,0:0:0:0:
64,192,225321,1,0,0:0:0:0:
192,192,225321,1,0,0:0:0:0:
448,192,225395,1,0,0:0:0:0:
320,192,225469,1,0,0:0:0:0:
64,192,225544,1,0,0:0:0:0:
192,192,225544,1,0,0:0:0:0:
320,192,225618,1,0,0:0:0:0:
192,192,225693,1,0,0:0:0:0:
64,192,225693,1,0,0:0:0:0:
448,192,225693,1,0,0:0:0:0:
320,192,225767,1,0,0:0:0:0:
192,192,225841,1,0,0:0:0:0:
64,192,225916,1,0,0:0:0:0:
448,192,225916,1,0,0:0:0:0:
320,192,225990,1,0,0:0:0:0:
192,192,226065,1,0,0:0:0:0:
320,192,226139,1,0,0:0:0:0:
448,192,226139,1,0,0:0:0:0:
192,192,226213,1,0,0:0:0:0:
448,192,226288,5,0,0:0:0:0:
64,192,226288,1,0,0:0:0:0:
320,192,226362,1,0,0:0:0:0:
192,192,226362,1,0,0:0:0:0:
64,192,226437,1,0,0:0:0:0:
448,192,226437,1,0,0:0:0:0:
320,192,226511,1,0,0:0:0:0:
64,192,226585,1,0,0:0:0:0:
192,192,226585,1,0,0:0:0:0:
448,192,226660,1,0,0:0:0:0:
320,192,226660,1,0,0:0:0:0:
64,192,226734,1,0,0:0:0:0:
192,192,226734,1,0,0:0:0:0:
320,192,226809,1,0,0:0:0:0:
448,192,226809,1,0,0:0:0:0:
64,192,226883,1,0,0:0:0:0:
192,192,226883,1,0,0:0:0:0:
448,192,226957,1,0,0:0:0:0:
320,192,227032,1,0,0:0:0:0:
64,192,227106,1,0,0:0:0:0:
192,192,227106,1,0,0:0:0:0:
448,192,227181,1,0,0:0:0:0:
320,192,227255,1,0,0:0:0:0:
64,192,227329,1,0,0:0:0:0:
192,192,227329,1,0,0:0:0:0:
448,192,227404,1,0,0:0:0:0:
192,192,227478,1,0,0:0:0:0:
64,192,227478,1,0,0:0:0:0:
320,192,227478,1,0,0:0:0:0:
448,192,227553,1,0,0:0:0:0:
320,192,227627,1,0,0:0:0:0:
64,192,227701,1,0,0:0:0:0:
448,192,227701,1,0,0:0:0:0:
192,192,227776,1,0,0:0:0:0:
320,192,227850,1,0,0:0:0:0:
64,192,227925,1,0,0:0:0:0:
448,192,227925,1,0,0:0:0:0:
192,192,227999,1,0,0:0:0:0:
64,192,228074,1,0,0:0:0:0:
320,192,228074,1,0,0:0:0:0:
448,192,228074,1,0,0:0:0:0:
192,192,228148,1,0,0:0:0:0:
64,192,228222,1,0,0:0:0:0:
320,192,228297,1,0,0:0:0:0:
448,192,228297,1,0,0:0:0:0:
192,192,228371,1,0,0:0:0:0:
64,192,228446,1,0,0:0:0:0:
320,192,228520,1,0,0:0:0:0:
448,192,228520,1,0,0:0:0:0:
192,192,228594,1,0,0:0:0:0:
320,192,228669,1,0,0:0:0:0:
64,192,228669,1,0,0:0:0:0:
448,192,228669,1,0,0:0:0:0:
192,192,228743,1,0,0:0:0:0:
64,192,228818,1,0,0:0:0:0:
320,192,228892,1,0,0:0:0:0:
448,192,228892,1,0,0:0:0:0:
192,192,228966,1,0,0:0:0:0:
64,192,229041,1,0,0:0:0:0:
192,192,229115,1,0,0:0:0:0:
448,192,229115,1,0,0:0:0:0:
320,192,229190,1,0,0:0:0:0:
448,192,229264,1,0,0:0:0:0:
64,192,229264,1,0,0:0:0:0:
192,192,229264,1,0,0:0:0:0:
320,192,229338,1,0,0:0:0:0:
64,192,229413,1,0,0:0:0:0:
448,192,229487,1,0,0:0:0:0:
192,192,229487,1,0,0:0:0:0:
320,192,229562,1,0,0:0:0:0:
448,192,229636,1,0,0:0:0:0:
64,192,229710,1,0,0:0:0:0:
192,192,229710,1,0,0:0:0:0:
320,192,229785,1,0,0:0:0:0:
192,192,229859,1,0,0:0:0:0:
64,192,229859,1,0,0:0:0:0:
448,192,229859,1,0,0:0:0:0:
320,192,229934,1,0,0:0:0:0:
192,192,230008,1,0,0:0:0:0:
448,192,230082,5,0,0:0:0:0:
64,192,230082,1,0,0:0:0:0:
320,192,230157,1,0,0:0:0:0:
192,192,230231,1,0,0:0:0:0:
64,192,230306,1,0,0:0:0:0:
448,192,230306,1,0,0:0:0:0:
192,192,230380,1,0,0:0:0:0:
64,192,230454,1,0,0:0:0:0:
320,192,230454,1,0,0:0:0:0:
448,192,230454,1,0,0:0:0:0:
192,192,230529,1,0,0:0:0:0:
448,192,230603,1,0,0:0:0:0:
320,192,230678,1,0,0:0:0:0:
192,192,230678,1,0,0:0:0:0:
64,192,230752,1,0,0:0:0:0:
320,192,230826,1,0,0:0:0:0:
192,192,230901,1,0,0:0:0:0:
64,192,230901,1,0,0:0:0:0:
448,192,230975,1,0,0:0:0:0:
320,192,231050,5,0,0:0:0:0:
64,192,231050,1,0,0:0:0:0:
448,192,231124,1,0,0:0:0:0:
192,192,231124,1,0,0:0:0:0:
64,192,231199,1,0,0:0:0:0:
320,192,231199,1,0,0:0:0:0:
192,192,231273,1,0,0:0:0:0:
448,192,231347,1,0,0:0:0:0:
320,192,231347,1,0,0:0:0:0:
64,192,231422,1,0,0:0:0:0:
192,192,231422,1,0,0:0:0:0:
448,192,231496,1,0,0:0:0:0:
320,192,231496,1,0,0:0:0:0:
64,192,231571,1,0,0:0:0:0:
192,192,231571,1,0,0:0:0:0:
448,192,231645,1,0,0:0:0:0:
320,192,231645,1,0,0:0:0:0:
192,192,231719,1,0,0:0:0:0:
64,192,231794,1,0,0:0:0:0:
320,192,231868,1,0,0:0:0:0:
448,192,231868,1,0,0:0:0:0:
192,192,231943,1,0,0:0:0:0:
64,192,232017,1,0,0:0:0:0:
320,192,232091,1,0,0:0:0:0:
448,192,232091,1,0,0:0:0:0:
192,192,232166,1,0,0:0:0:0:
64,192,232240,1,0,0:0:0:0:
448,192,232240,1,0,0:0:0:0:
192,192,232315,1,0,0:0:0:0:
320,192,232389,1,0,0:0:0:0:
448,192,232463,5,0,0:0:0:0:
64,192,232463,1,0,0:0:0:0:
192,192,232538,1,0,0:0:0:0:
320,192,232612,1,0,0:0:0:0:
64,192,232687,1,0,0:0:0:0:
448,192,232687,1,0,0:0:0:0:
192,192,232761,1,0,0:0:0:0:
64,192,232835,1,0,0:0:0:0:
320,192,232835,1,0,0:0:0:0:
448,192,232835,1,0,0:0:0:0:
192,192,232910,1,0,0:0:0:0:
64,192,232984,1,0,0:0:0:0:
320,192,233059,1,0,0:0:0:0:
448,192,233059,1,0,0:0:0:0:
192,192,233133,1,0,0:0:0:0:
64,192,233207,1,0,0:0:0:0:
320,192,233282,1,0,0:0:0:0:
448,192,233282,1,0,0:0:0:0:
64,192,233356,1,0,0:0:0:0:
448,192,233431,5,0,0:0:0:0:
192,192,233431,1,0,0:0:0:0:
320,192,233505,1,0,0:0:0:0:
64,192,233579,1,0,0:0:0:0:
192,192,233579,1,0,0:0:0:0:
448,192,233654,1,0,0:0:0:0:
192,192,233728,1,0,0:0:0:0:
64,192,233728,1,0,0:0:0:0:
320,192,233728,1,0,0:0:0:0:
448,192,233803,1,0,0:0:0:0:
64,192,233877,1,0,0:0:0:0:
320,192,233877,1,0,0:0:0:0:
192,192,233951,1,0,0:0:0:0:
320,192,234026,1,0,0:0:0:0:
64,192,234026,1,0,0:0:0:0:
448,192,234026,1,0,0:0:0:0:
192,192,234100,1,0,0:0:0:0:
448,192,234175,1,0,0:0:0:0:
64,192,234249,1,0,0:0:0:0:
192,192,234249,1,0,0:0:0:0:
320,192,234324,1,0,0:0:0:0:
192,192,234398,1,0,0:0:0:0:
64,192,234472,1,0,0:0:0:0:
448,192,234472,1,0,0:0:0:0:
320,192,234547,1,0,0:0:0:0:
448,192,234621,1,0,0:0:0:0:
64,192,234621,1,0,0:0:0:0:
192,192,234621,1,0,0:0:0:0:
320,192,234696,1,0,0:0:0:0:
448,192,234770,1,0,0:0:0:0:
192,192,234844,1,0,0:0:0:0:
64,192,234844,1,0,0:0:0:0:
320,192,234919,1,0,0:0:0:0:
448,192,234993,1,0,0:0:0:0:
192,192,235068,1,0,0:0:0:0:
64,192,235068,1,0,0:0:0:0:
320,192,235142,1,0,0:0:0:0:
64,192,235216,1,0,0:0:0:0:
192,192,235216,1,0,0:0:0:0:
448,192,235216,1,0,0:0:0:0:
320,192,235291,1,0,0:0:0:0:
192,192,235365,1,0,0:0:0:0:
64,192,235440,1,0,0:0:0:0:
448,192,235440,1,0,0:0:0:0:
320,192,235514,1,0,0:0:0:0:
192,192,235588,1,0,0:0:0:0:
320,192,235663,1,0,0:0:0:0:
448,192,235663,1,0,0:0:0:0:
192,192,235737,1,0,0:0:0:0:
448,192,235812,5,0,0:0:0:0:
64,192,235812,1,0,0:0:0:0:
320,192,235886,1,0,0:0:0:0:
192,192,235886,1,0,0:0:0:0:
64,192,235960,1,0,0:0:0:0:
448,192,235960,1,0,0:0:0:0:
320,192,236035,1,0,0:0:0:0:
64,192,236109,1,0,0:0:0:0:
192,192,236109,1,0,0:0:0:0:
448,192,236184,1,0,0:0:0:0:
320,192,236184,1,0,0:0:0:0:
64,192,236258,1,0,0:0:0:0:
192,192,236258,1,0,0:0:0:0:
320,192,236332,1,0,0:0:0:0:
448,192,236332,1,0,0:0:0:0:
64,192,236407,1,0,0:0:0:0:
192,192,236407,1,0,0:0:0:0:
448,192,236481,1,0,0:0:0:0:
320,192,236556,1,0,0:0:0:0:
64,192,236630,1,0,0:0:0:0:
192,192,236630,1,0,0:0:0:0:
448,192,236704,1,0,0:0:0:0:
320,192,236779,1,0,0:0:0:0:
64,192,236853,1,0,0:0:0:0:
448,192,236853,1,0,0:0:0:0:
192,192,236928,1,0,0:0:0:0:
64,192,237002,1,0,0:0:0:0:
320,192,237002,1,0,0:0:0:0:
448,192,237002,1,0,0:0:0:0:
192,192,237076,1,0,0:0:0:0:
64,192,237151,1,0,0:0:0:0:
320,192,237225,1,0,0:0:0:0:
448,192,237225,1,0,0:0:0:0:
192,192,237300,1,0,0:0:0:0:
448,192,237374,1,0,0:0:0:0:
64,192,237449,1,0,0:0:0:0:
320,192,237449,1,0,0:0:0:0:
192,192,237523,1,0,0:0:0:0:
64,192,237597,1,0,0:0:0:0:
320,192,237597,1,0,0:0:0:0:
448,192,237597,1,0,0:0:0:0:
192,192,237672,1,0,0:0:0:0:
448,192,237746,1,0,0:0:0:0:
192,192,237821,1,0,0:0:0:0:
64,192,237821,1,0,0:0:0:0:
448,192,237895,1,0,0:0:0:0:
320,192,237969,1,0,0:0:0:0:
192,192,238044,1,0,0:0:0:0:
64,192,238044,1,0,0:0:0:0:
320,192,238118,1,0,0:0:0:0:
192,192,238193,1,0,0:0:0:0:
64,192,238193,1,0,0:0:0:0:
448,192,238193,1,0,0:0:0:0:
320,192,238267,1,0,0:0:0:0:
64,192,238341,1,0,0:0:0:0:
192,192,238416,1,0,0:0:0:0:
448,192,238416,1,0,0:0:0:0:
320,192,238490,1,0,0:0:0:0:
192,192,238565,1,0,0:0:0:0:
64,192,238639,1,0,0:0:0:0:
448,192,238639,1,0,0:0:0:0:
192,192,238713,1,0,0:0:0:0:
64,192,238788,1,0,0:0:0:0:
320,192,238788,1,0,0:0:0:0:
448,192,238788,1,0,0:0:0:0:
192,192,238862,1,0,0:0:0:0:
320,192,238937,1,0,0:0:0:0:
64,192,239011,1,0,0:0:0:0:
448,192,239011,1,0,0:0:0:0:
192,192,239085,1,0,0:0:0:0:
320,192,239160,1,0,0:0:0:0:
192,192,239234,1,0,0:0:0:0:
64,192,239234,1,0,0:0:0:0:
320,192,239309,1,0,0:0:0:0:
192,192,239383,1,0,0:0:0:0:
448,192,239383,1,0,0:0:0:0:
64,192,239457,1,0,0:0:0:0:
320,192,239532,1,0,0:0:0:0:
64,192,239606,1,0,0:0:0:0:
192,192,239606,1,0,0:0:0:0:
448,192,239681,1,0,0:0:0:0:
320,192,239755,1,0,0:0:0:0:
192,192,239829,1,0,0:0:0:0:
64,192,239829,1,0,0:0:0:0:
448,192,239904,1,0,0:0:0:0:
192,192,239978,1,0,0:0:0:0:
64,192,239978,1,0,0:0:0:0:
320,192,239978,1,0,0:0:0:0:
448,192,240053,1,0,0:0:0:0:
320,192,240127,1,0,0:0:0:0:
64,192,240201,1,0,0:0:0:0:
448,192,240201,1,0,0:0:0:0:
192,192,240276,1,0,0:0:0:0:
320,192,240350,1,0,0:0:0:0:
64,192,240425,1,0,0:0:0:0:
448,192,240425,1,0,0:0:0:0:
192,192,240499,1,0,0:0:0:0:
320,192,240574,5,0,0:0:0:0:
448,192,240574,1,0,0:0:0:0:
64,192,240648,1,0,0:0:0:0:
192,192,240648,1,0,0:0:0:0:
448,192,240722,1,0,0:0:0:0:
320,192,240722,1,0,0:0:0:0:
192,192,240797,1,0,0:0:0:0:
448,192,240871,1,0,0:0:0:0:
64,192,240871,1,0,0:0:0:0:
192,192,240946,1,0,0:0:0:0:
320,192,240946,1,0,0:0:0:0:
448,192,241020,1,0,0:0:0:0:
64,192,241020,1,0,0:0:0:0:
192,192,241094,1,0,0:0:0:0:
320,192,241094,1,0,0:0:0:0:
448,192,241169,1,0,0:0:0:0:
64,192,241169,1,0,0:0:0:0:
320,192,241243,1,0,0:0:0:0:
192,192,241318,1,0,0:0:0:0:
64,192,241392,1,0,0:0:0:0:
448,192,241392,1,0,0:0:0:0:
320,192,241466,1,0,0:0:0:0:
192,192,241541,1,0,0:0:0:0:
64,192,241615,1,0,0:0:0:0:
448,192,241615,1,0,0:0:0:0:
320,192,241690,1,0,0:0:0:0:
64,192,241764,1,0,0:0:0:0:
192,192,241764,1,0,0:0:0:0:
448,192,241838,1,0,0:0:0:0:
64,192,241913,1,0,0:0:0:0:
320,192,241987,1,0,0:0:0:0:
192,192,241987,1,0,0:0:0:0:
448,192,242062,1,0,0:0:0:0:
64,192,242136,1,0,0:0:0:0:
192,192,242210,1,0,0:0:0:0:
448,192,242210,1,0,0:0:0:0:
320,192,242285,1,0,0:0:0:0:
192,192,242359,1,0,0:0:0:0:
64,192,242359,1,0,0:0:0:0:
448,192,242359,1,0,0:0:0:0:
320,192,242434,1,0,0:0:0:0:
448,192,242508,1,0,0:0:0:0:
192,192,242582,1,0,0:0:0:0:
64,192,242582,1,0,0:0:0:0:
320,192,242657,1,0,0:0:0:0:
64,192,242731,1,0,0:0:0:0:
192,192,242806,1,0,0:0:0:0:
448,192,242806,1,0,0:0:0:0:
320,192,242880,1,0,0:0:0:0:
448,192,242954,5,0,0:0:0:0:
192,192,242954,1,0,0:0:0:0:
64,192,243029,1,0,0:0:0:0:
192,192,243103,1,0,0:0:0:0:
320,192,243103,1,0,0:0:0:0:
448,192,243178,1,0,0:0:0:0:
320,192,243252,1,0,0:0:0:0:
64,192,243252,1,0,0:0:0:0:
192,192,243252,1,0,0:0:0:0:
448,192,243326,1,0,0:0:0:0:
320,192,243401,1,0,0:0:0:0:
64,192,243401,1,0,0:0:0:0:
192,192,243475,1,0,0:0:0:0:
64,192,243550,1,0,0:0:0:0:
320,192,243550,1,0,0:0:0:0:
448,192,243550,1,0,0:0:0:0:
192,192,243624,1,0,0:0:0:0:
448,192,243699,1,0,0:0:0:0:
64,192,243773,1,0,0:0:0:0:
320,192,243773,1,0,0:0:0:0:
192,192,243847,1,0,0:0:0:0:
320,192,243922,1,0,0:0:0:0:
192,192,243996,1,0,0:0:0:0:
448,192,243996,1,0,0:0:0:0:
64,192,244071,1,0,0:0:0:0:
320,192,244145,1,0,0:0:0:0:
192,192,244145,1,0,0:0:0:0:
448,192,244145,1,0,0:0:0:0:
64,192,244219,1,0,0:0:0:0:
192,192,244294,1,0,0:0:0:0:
320,192,244368,1,0,0:0:0:0:
448,192,244368,1,0,0:0:0:0:
64,192,244443,1,0,0:0:0:0:
192,192,244517,1,0,0:0:0:0:
64,192,244591,1,0,0:0:0:0:
448,192,244591,1,0,0:0:0:0:
320,192,244666,1,0,0:0:0:0:
448,192,244740,1,0,0:0:0:0:
192,192,244740,1,0,0:0:0:0:
64,192,244740,1,0,0:0:0:0:
320,192,244815,1,0,0:0:0:0:
192,192,244889,1,0,0:0:0:0:
448,192,244963,1,0,0:0:0:0:
64,192,244963,1,0,0:0:0:0:
192,192,245038,1,0,0:0:0:0:
320,192,245112,1,0,0:0:0:0:
64,192,245187,1,0,0:0:0:0:
448,192,245187,1,0,0:0:0:0:
320,192,245261,1,0,0:0:0:0:
192,192,245335,5,0,0:0:0:0:
64,192,245335,1,0,0:0:0:0:
448,192,245410,1,0,0:0:0:0:
320,192,245410,1,0,0:0:0:0:
64,192,245484,1,0,0:0:0:0:
192,192,245484,1,0,0:0:0:0:
448,192,245559,1,0,0:0:0:0:
192,192,245633,1,0,0:0:0:0:
320,192,245633,1,0,0:0:0:0:
64,192,245707,1,0,0:0:0:0:
448,192,245707,1,0,0:0:0:0:
320,192,245782,1,0,0:0:0:0:
192,192,245782,1,0,0:0:0:0:
448,192,245856,1,0,0:0:0:0:
64,192,245856,1,0,0:0:0:0:
320,192,245931,1,0,0:0:0:0:
192,192,245931,1,0,0:0:0:0:
64,192,246005,1,0,0:0:0:0:
320,192,246079,1,0,0:0:0:0:
64,192,246154,1,0,0:0:0:0:
448,192,246154,1,0,0:0:0:0:
192,192,246228,1,0,0:0:0:0:
320,192,246303,1,0,0:0:0:0:
64,192,246377,1,0,0:0:0:0:
448,192,246377,1,0,0:0:0:0:
192,192,246451,1,0,0:0:0:0:
64,192,246526,1,0,0:0:0:0:
320,192,246526,1,0,0:0:0:0:
448,192,246526,1,0,0:0:0:0:
192,192,246600,1,0,0:0:0:0:
448,192,246675,1,0,0:0:0:0:
64,192,246749,1,0,0:0:0:0:
320,192,246749,1,0,0:0:0:0:
192,192,246824,1,0,0:0:0:0:
64,192,246898,1,0,0:0:0:0:
192,192,246972,1,0,0:0:0:0:
448,192,246972,1,0,0:0:0:0:
320,192,247047,1,0,0:0:0:0:
448,192,247121,1,0,0:0:0:0:
64,192,247121,1,0,0:0:0:0:
192,192,247121,1,0,0:0:0:0:
320,192,247196,1,0,0:0:0:0:
64,192,247270,1,0,0:0:0:0:
192,192,247344,1,0,0:0:0:0:
448,192,247344,1,0,0:0:0:0:
320,192,247419,1,0,0:0:0:0:
192,192,247493,1,0,0:0:0:0:
64,192,247568,1,0,0:0:0:0:
448,192,247568,1,0,0:0:0:0:
320,192,247642,1,0,0:0:0:0:
192,192,247716,1,0,0:0:0:0:
64,192,247716,1,0,0:0:0:0:
448,192,247716,1,0,0:0:0:0:
320,192,247791,1,0,0:0:0:0:
192,192,247865,1,0,0:0:0:0:
64,192,247940,1,0,0:0:0:0:
448,192,247940,1,0,0:0:0:0:
192,192,248014,1,0,0:0:0:0:
320,192,248088,1,0,0:0:0:0:
64,192,248163,1,0,0:0:0:0:
448,192,248163,1,0,0:0:0:0:
192,192,248237,1,0,0:0:0:0:
64,192,248312,1,0,0:0:0:0:
320,192,248312,1,0,0:0:0:0:
448,192,248312,1,0,0:0:0:0:
192,192,248386,1,0,0:0:0:0:
64,192,248460,1,0,0:0:0:0:
320,192,248535,1,0,0:0:0:0:
448,192,248535,1,0,0:0:0:0:
192,192,248609,1,0,0:0:0:0:
64,192,248684,1,0,0:0:0:0:
320,192,248758,1,0,0:0:0:0:
448,192,248758,1,0,0:0:0:0:
192,192,248832,1,0,0:0:0:0:
320,192,248907,1,0,0:0:0:0:
64,192,248907,1,0,0:0:0:0:
448,192,248907,1,0,0:0:0:0:
192,192,248981,1,0,0:0:0:0:
320,192,249056,1,0,0:0:0:0:
448,192,249130,5,0,0:0:0:0:
64,192,249130,1,0,0:0:0:0:
192,192,249204,1,0,0:0:0:0:
320,192,249279,1,0,0:0:0:0:
64,192,249353,1,0,0:0:0:0:
448,192,249353,1,0,0:0:0:0:
192,192,249428,1,0,0:0:0:0:
64,192,249502,1,0,0:0:0:0:
320,192,249502,1,0,0:0:0:0:
448,192,249502,1,0,0:0:0:0:
192,192,249576,1,0,0:0:0:0:
448,192,249651,1,0,0:0:0:0:
64,192,249725,1,0,0:0:0:0:
320,192,249725,1,0,0:0:0:0:
192,192,249800,1,0,0:0:0:0:
448,192,249874,1,0,0:0:0:0:
64,192,249949,1,0,0:0:0:0:
320,192,249949,1,0,0:0:0:0:
192,192,250023,1,0,0:0:0:0:
64,192,250097,5,0,0:0:0:0:
448,192,250097,1,0,0:0:0:0:
192,192,250172,1,0,0:0:0:0:
320,192,250172,1,0,0:0:0:0:
448,192,250246,1,0,0:0:0:0:
64,192,250246,1,0,0:0:0:0:
320,192,250321,1,0,0:0:0:0:
64,192,250395,1,0,0:0:0:0:
192,192,250395,1,0,0:0:0:0:
448,192,250469,1,0,0:0:0:0:
320,192,250469,1,0,0:0:0:0:
64,192,250544,1,0,0:0:0:0:
192,192,250544,1,0,0:0:0:0:
448,192,250618,1,0,0:0:0:0:
320,192,250618,1,0,0:0:0:0:
64,192,250693,1,0,0:0:0:0:
192,192,250693,1,0,0:0:0:0:
320,192,250767,1,0,0:0:0:0:
448,192,250841,1,0,0:0:0:0:
320,192,250916,1,0,0:0:0:0:
64,192,250916,1,0,0:0:0:0:
192,192,250990,1,0,0:0:0:0:
64,192,251065,1,0,0:0:0:0:
320,192,251139,1,0,0:0:0:0:
448,192,251139,1,0,0:0:0:0:
192,192,251213,1,0,0:0:0:0:
64,192,251288,1,0,0:0:0:0:
448,192,251288,1,0,0:0:0:0:
320,192,251362,1,0,0:0:0:0:
192,192,251437,1,0,0:0:0:0:
448,192,251511,5,0,0:0:0:0:
64,192,251511,1,0,0:0:0:0:
320,192,251585,1,0,0:0:0:0:
192,192,251660,1,0,0:0:0:0:
64,192,251734,1,0,0:0:0:0:
448,192,251734,1,0,0:0:0:0:
320,192,251809,1,0,0:0:0:0:
64,192,251883,1,0,0:0:0:0:
192,192,251883,1,0,0:0:0:0:
448,192,251883,1,0,0:0:0:0:
320,192,251957,1,0,0:0:0:0:
192,192,252032,1,0,0:0:0:0:
64,192,252106,1,0,0:0:0:0:
448,192,252106,1,0,0:0:0:0:
192,192,252181,1,0,0:0:0:0:
320,192,252255,1,0,0:0:0:0:
192,192,252329,1,0,0:0:0:0:
448,192,252329,1,0,0:0:0:0:
64,192,252404,1,0,0:0:0:0:
448,192,252478,5,0,0:0:0:0:
320,192,252478,1,0,0:0:0:0:
192,192,252553,1,0,0:0:0:0:
64,192,252627,1,0,0:0:0:0:
448,192,252627,1,0,0:0:0:0:
320,192,252701,1,0,0:0:0:0:
448,192,252776,1,0,0:0:0:0:
64,192,252776,1,0,0:0:0:0:
192,192,252776,1,0,0:0:0:0:
320,192,252850,1,0,0:0:0:0:
192,192,252925,1,0,0:0:0:0:
64,192,252925,1,0,0:0:0:0:
448,192,252999,1,0,0:0:0:0:
64,192,253074,1,0,0:0:0:0:
192,192,253074,1,0,0:0:0:0:
320,192,253074,1,0,0:0:0:0:
448,192,253148,1,0,0:0:0:0:
192,192,253222,1,0,0:0:0:0:
320,192,253297,1,0,0:0:0:0:
448,192,253297,1,0,0:0:0:0:
64,192,253371,1,0,0:0:0:0:
192,192,253446,1,0,0:0:0:0:
320,192,253520,1,0,0:0:0:0:
448,192,253520,1,0,0:0:0:0:
192,192,253594,1,0,0:0:0:0:
320,192,253669,1,0,0:0:0:0:
64,192,253669,1,0,0:0:0:0:
448,192,253669,1,0,0:0:0:0:
192,192,253743,1,0,0:0:0:0:
320,192,253818,1,0,0:0:0:0:
64,192,253892,1,0,0:0:0:0:
448,192,253892,1,0,0:0:0:0:
320,192,253966,1,0,0:0:0:0:
192,192,254041,1,0,0:0:0:0:
64,192,254115,1,0,0:0:0:0:
448,192,254115,1,0,0:0:0:0:
320,192,254190,1,0,0:0:0:0:
448,192,254264,1,0,0:0:0:0:
64,192,254264,1,0,0:0:0:0:
192,192,254264,1,0,0:0:0:0:
320,192,254338,1,0,0:0:0:0:
64,192,254413,1,0,0:0:0:0:
192,192,254487,1,0,0:0:0:0:
448,192,254487,1,0,0:0:0:0:
320,192,254562,1,0,0:0:0:0:
64,192,254636,1,0,0:0:0:0:
192,192,254710,1,0,0:0:0:0:
320,192,254710,1,0,0:0:0:0:
448,192,254785,1,0,0:0:0:0:
64,192,254859,5,0,0:0:0:0:
320,192,254859,1,0,0:0:0:0:
448,192,254934,1,0,0:0:0:0:
192,192,254934,1,0,0:0:0:0:
64,192,255008,1,0,0:0:0:0:
320,192,255008,1,0,0:0:0:0:
192,192,255082,1,0,0:0:0:0:
448,192,255157,1,0,0:0:0:0:
320,192,255157,1,0,0:0:0:0:
64,192,255231,1,0,0:0:0:0:
192,192,255231,1,0,0:0:0:0:
448,192,255306,1,0,0:0:0:0:
320,192,255306,1,0,0:0:0:0:
64,192,255380,1,0,0:0:0:0:
192,192,255380,1,0,0:0:0:0:
448,192,255454,1,0,0:0:0:0:
320,192,255454,1,0,0:0:0:0:
192,192,255529,1,0,0:0:0:0:
448,192,255603,1,0,0:0:0:0:
192,192,255678,1,0,0:0:0:0:
64,192,255678,1,0,0:0:0:0:
320,192,255752,1,0,0:0:0:0:
192,192,255826,1,0,0:0:0:0:
320,192,255901,1,0,0:0:0:0:
448,192,255901,1,0,0:0:0:0:
64,192,255975,1,0,0:0:0:0:
192,192,256050,1,0,0:0:0:0:
320,192,256050,1,0,0:0:0:0:
448,192,256050,1,0,0:0:0:0:
64,192,256124,1,0,0:0:0:0:
448,192,256199,1,0,0:0:0:0:
64,192,256273,1,0,0:0:0:0:
192,192,256273,1,0,0:0:0:0:
320,192,256347,1,0,0:0:0:0:
64,192,256422,1,0,0:0:0:0:
320,192,256496,1,0,0:0:0:0:
448,192,256496,1,0,0:0:0:0:
192,192,256571,1,0,0:0:0:0:
64,192,256645,1,0,0:0:0:0:
320,192,256645,1,0,0:0:0:0:
448,192,256645,1,0,0:0:0:0:
192,192,256719,1,0,0:0:0:0:
448,192,256794,1,0,0:0:0:0:
64,192,256868,1,0,0:0:0:0:
192,192,256868,1,0,0:0:0:0:
320,192,256943,1,0,0:0:0:0:
192,192,257017,1,0,0:0:0:0:
448,192,257091,1,0,0:0:0:0:
320,192,257091,1,0,0:0:0:0:
64,192,257166,1,0,0:0:0:0:
192,192,257240,1,0,0:0:0:0:
320,192,257240,1,0,0:0:0:0:
448,192,257240,1,0,0:0:0:0:
64,192,257315,1,0,0:0:0:0:
448,192,257389,1,0,0:0:0:0:
192,192,257463,1,0,0:0:0:0:
64,192,257463,1,0,0:0:0:0:
448,192,257538,1,0,0:0:0:0:
320,192,257538,1,0,0:0:0:0:
64,192,257612,1,0,0:0:0:0:
192,192,257612,1,0,0:0:0:0:
448,192,257687,1,0,0:0:0:0:
320,192,257687,1,0,0:0:0:0:
64,192,257761,1,0,0:0:0:0:
192,192,257761,1,0,0:0:0:0:
448,192,257835,1,0,0:0:0:0:
320,192,257835,1,0,0:0:0:0:
64,192,257984,1,0,0:0:0:0:
320,192,258282,1,0,0:0:0:0:
192,192,258431,1,0,0:0:0:0:
64,192,258431,1,0,0:0:0:0:
320,192,258431,1,0,0:0:0:0:
448,192,258431,1,0,0:0:0:0:
192,192,258579,1,0,0:0:0:0:
320,192,258877,1,0,0:0:0:0:
192,192,259026,1,0,0:0:0:0:
64,192,259026,1,0,0:0:0:0:
448,192,259026,1,0,0:0:0:0:
320,192,259026,1,0,0:0:0:0:
192,192,259175,1,0,0:0:0:0:
448,192,259324,1,0,0:0:0:0:
64,192,259324,1,0,0:0:0:0:
320,192,259324,1,0,0:0:0:0:
320,192,259472,1,0,0:0:0:0:
64,192,259621,1,0,0:0:0:0:
448,192,259621,1,0,0:0:0:0:
320,192,259696,1,0,0:0:0:0:
192,192,259696,1,0,0:0:0:0:
64,192,259770,1,0,0:0:0:0:
448,192,259770,1,0,0:0:0:0:
320,192,259844,1,0,0:0:0:0:
192,192,259919,1,0,0:0:0:0:
64,192,259919,1,0,0:0:0:0:
320,192,259993,1,0,0:0:0:0:
448,192,259993,1,0,0:0:0:0:
64,192,260068,1,0,0:0:0:0:
192,192,260068,1,0,0:0:0:0:
320,192,260142,1,0,0:0:0:0:
448,192,260142,1,0,0:0:0:0:
64,192,260216,1,0,0:0:0:0:
192,192,260216,1,0,0:0:0:0:
320,192,260291,1,0,0:0:0:0:
192,192,260365,1,0,0:0:0:0:
448,192,260440,1,0,0:0:0:0:
320,192,260440,1,0,0:0:0:0:
64,192,260514,1,0,0:0:0:0:
192,192,260514,1,0,0:0:0:0:
320,192,260588,1,0,0:0:0:0:
64,192,260663,1,0,0:0:0:0:
448,192,260663,1,0,0:0:0:0:
192,192,260737,1,0,0:0:0:0:
320,192,260812,1,0,0:0:0:0:
448,192,260812,1,0,0:0:0:0:
64,192,260886,1,0,0:0:0:0:
192,192,260960,1,0,0:0:0:0:
320,192,261035,1,0,0:0:0:0:
448,192,261035,1,0,0:0:0:0:
64,192,261109,1,0,0:0:0:0:
192,192,261109,1,0,0:0:0:0:
448,192,261184,1,0,0:0:0:0:
192,192,261258,1,0,0:0:0:0:
320,192,261258,1,0,0:0:0:0:
64,192,261332,1,0,0:0:0:0:
192,192,261407,1,0,0:0:0:0:
448,192,261407,1,0,0:0:0:0:
320,192,261481,1,0,0:0:0:0:
192,192,261556,1,0,0:0:0:0:
64,192,261630,1,0,0:0:0:0:
448,192,261630,1,0,0:0:0:0:
192,192,261704,1,0,0:0:0:0:
320,192,261704,1,0,0:0:0:0:
448,192,261779,1,0,0:0:0:0:
320,192,261853,1,0,0:0:0:0:
64,192,261853,1,0,0:0:0:0:
192,192,261928,1,0,0:0:0:0:
64,192,262002,1,0,0:0:0:0:
448,192,262002,1,0,0:0:0:0:
192,192,262076,1,0,0:0:0:0:
320,192,262151,1,0,0:0:0:0:
64,192,262225,1,0,0:0:0:0:
448,192,262225,1,0,0:0:0:0:
320,192,262300,1,0,0:0:0:0:
192,192,262300,1,0,0:0:0:0:
64,192,262374,1,0,0:0:0:0:
192,192,262449,1,0,0:0:0:0:
448,192,262449,1,0,0:0:0:0:
320,192,262523,1,0,0:0:0:0:
64,192,262597,1,0,0:0:0:0:
192,192,262597,1,0,0:0:0:0:
448,192,262672,1,0,0:0:0:0:
320,192,262746,1,0,0:0:0:0:
64,192,262821,1,0,0:0:0:0:
192,192,262821,1,0,0:0:0:0:
320,192,262895,1,0,0:0:0:0:
448,192,262895,1,0,0:0:0:0:
192,192,262969,1,0,0:0:0:0:
64,192,263044,1,0,0:0:0:0:
448,192,263044,1,0,0:0:0:0:
320,192,263118,1,0,0:0:0:0:
64,192,263193,1,0,0:0:0:0:
192,192,263193,1,0,0:0:0:0:
320,192,263267,1,0,0:0:0:0:
448,192,263341,1,0,0:0:0:0:
320,192,263416,5,0,0:0:0:0:
64,192,263416,1,0,0:0:0:0:
192,192,263490,1,0,0:0:0:0:
448,192,263490,1,0,0:0:0:0:
64,192,263565,1,0,0:0:0:0:
320,192,263639,1,0,0:0:0:0:
448,192,263639,1,0,0:0:0:0:
192,192,263713,1,0,0:0:0:0:
64,192,263788,1,0,0:0:0:0:
448,192,263788,1,0,0:0:0:0:
320,192,263862,1,0,0:0:0:0:
192,192,263937,1,0,0:0:0:0:
64,192,264011,1,0,0:0:0:0:
448,192,264011,1,0,0:0:0:0:
192,192,264085,1,0,0:0:0:0:
320,192,264085,1,0,0:0:0:0:
448,192,264160,1,0,0:0:0:0:
192,192,264234,1,0,0:0:0:0:
64,192,264234,1,0,0:0:0:0:
320,192,264309,1,0,0:0:0:0:
64,192,264383,5,0,0:0:0:0:
448,192,264383,1,0,0:0:0:0:
192,192,264457,1,0,0:0:0:0:
320,192,264457,1,0,0:0:0:0:
448,192,264532,1,0,0:0:0:0:
64,192,264532,1,0,0:0:0:0:
192,192,264606,1,0,0:0:0:0:
448,192,264681,1,0,0:0:0:0:
320,192,264681,1,0,0:0:0:0:
64,192,264755,1,0,0:0:0:0:
192,192,264755,1,0,0:0:0:0:
448,192,264829,1,0,0:0:0:0:
320,192,264829,1,0,0:0:0:0:
64,192,264904,1,0,0:0:0:0:
192,192,264904,1,0,0:0:0:0:
448,192,264978,1,0,0:0:0:0:
320,192,264978,1,0,0:0:0:0:
64,192,265053,1,0,0:0:0:0:
192,192,265127,1,0,0:0:0:0:
320,192,265201,1,0,0:0:0:0:
448,192,265201,1,0,0:0:0:0:
64,192,265276,1,0,0:0:0:0:
192,192,265276,1,0,0:0:0:0:
320,192,265350,1,0,0:0:0:0:
64,192,265425,1,0,0:0:0:0:
448,192,265425,1,0,0:0:0:0:
192,192,265499,1,0,0:0:0:0:
320,192,265574,1,0,0:0:0:0:
448,192,265574,1,0,0:0:0:0:
64,192,265648,1,0,0:0:0:0:
192,192,265722,1,0,0:0:0:0:
64,192,265797,1,0,0:0:0:0:
448,192,265797,1,0,0:0:0:0:
320,192,265871,1,0,0:0:0:0:
192,192,265871,1,0,0:0:0:0:
448,192,265946,1,0,0:0:0:0:
64,192,266020,1,0,0:0:0:0:
320,192,266020,1,0,0:0:0:0:
192,192,266094,1,0,0:0:0:0:
320,192,266169,1,0,0:0:0:0:
448,192,266169,1,0,0:0:0:0:
64,192,266243,1,0,0:0:0:0:
192,192,266318,1,0,0:0:0:0:
320,192,266392,1,0,0:0:0:0:
448,192,266392,1,0,0:0:0:0:
64,192,266466,1,0,0:0:0:0:
192,192,266466,1,0,0:0:0:0:
448,192,266541,1,0,0:0:0:0:
64,192,266615,1,0,0:0:0:0:
320,192,266615,1,0,0:0:0:0:
192,192,266690,1,0,0:0:0:0:
64,192,266764,1,0,0:0:0:0:
448,192,266764,1,0,0:0:0:0:
320,192,266838,1,0,0:0:0:0:
192,192,266913,1,0,0:0:0:0:
64,192,266987,1,0,0:0:0:0:
448,192,266987,1,0,0:0:0:0:
192,192,267062,1,0,0:0:0:0:
320,192,267062,1,0,0:0:0:0:
448,192,267136,1,0,0:0:0:0:
64,192,267210,1,0,0:0:0:0:
192,192,267210,1,0,0:0:0:0:
448,192,267285,1,0,0:0:0:0:
192,192,267359,1,0,0:0:0:0:
320,192,267359,1,0,0:0:0:0:
64,192,267434,1,0,0:0:0:0:
448,192,267508,1,0,0:0:0:0:
192,192,267582,1,0,0:0:0:0:
320,192,267582,1,0,0:0:0:0:
64,192,267657,1,0,0:0:0:0:
448,192,267657,1,0,0:0:0:0:
192,192,267731,1,0,0:0:0:0:
320,192,267806,1,0,0:0:0:0:
64,192,267806,1,0,0:0:0:0:
448,192,267880,1,0,0:0:0:0:
192,192,267954,1,0,0:0:0:0:
320,192,267954,1,0,0:0:0:0:
64,192,268029,1,0,0:0:0:0:
448,192,268103,1,0,0:0:0:0:
320,192,268178,1,0,0:0:0:0:
64,192,268178,1,0,0:0:0:0:
448,192,268252,1,0,0:0:0:0:
192,192,268252,1,0,0:0:0:0:
64,192,268326,1,0,0:0:0:0:
320,192,268401,1,0,0:0:0:0:
448,192,268401,1,0,0:0:0:0:
192,192,268475,1,0,0:0:0:0:
64,192,268550,1,0,0:0:0:0:
320,192,268550,1,0,0:0:0:0:
448,192,268624,1,0,0:0:0:0:
192,192,268699,1,0,0:0:0:0:
64,192,268773,1,0,0:0:0:0:
448,192,268773,1,0,0:0:0:0:
320,192,268847,1,0,0:0:0:0:
192,192,268847,1,0,0:0:0:0:
64,192,268922,1,0,0:0:0:0:
320,192,268996,1,0,0:0:0:0:
448,192,268996,1,0,0:0:0:0:
192,192,269071,1,0,0:0:0:0:
64,192,269145,5,0,0:0:0:0:
448,192,269145,1,0,0:0:0:0:
192,192,269219,1,0,0:0:0:0:
320,192,269219,1,0,0:0:0:0:
448,192,269294,1,0,0:0:0:0:
64,192,269294,1,0,0:0:0:0:
320,192,269368,1,0,0:0:0:0:
64,192,269443,1,0,0:0:0:0:
192,192,269443,1,0,0:0:0:0:
448,192,269517,1,0,0:0:0:0:
320,192,269517,1,0,0:0:0:0:
64,192,269591,1,0,0:0:0:0:
192,192,269591,1,0,0:0:0:0:
448,192,269666,1,0,0:0:0:0:
320,192,269666,1,0,0:0:0:0:
64,192,269740,1,0,0:0:0:0:
192,192,269740,1,0,0:0:0:0:
320,192,269815,1,0,0:0:0:0:
448,192,269889,1,0,0:0:0:0:
192,192,269963,1,0,0:0:0:0:
64,192,269963,1,0,0:0:0:0:
320,192,270038,1,0,0:0:0:0:
448,192,270038,1,0,0:0:0:0:
192,192,270112,1,0,0:0:0:0:
64,192,270187,1,0,0:0:0:0:
448,192,270187,1,0,0:0:0:0:
320,192,270261,1,0,0:0:0:0:
64,192,270335,1,0,0:0:0:0:
192,192,270335,1,0,0:0:0:0:
448,192,270410,1,0,0:0:0:0:
320,192,270484,1,0,0:0:0:0:
192,192,270559,1,0,0:0:0:0:
448,192,270559,1,0,0:0:0:0:
64,192,270633,1,0,0:0:0:0:
320,192,270633,1,0,0:0:0:0:
192,192,270707,1,0,0:0:0:0:
64,192,270782,1,0,0:0:0:0:
448,192,270782,1,0,0:0:0:0:
320,192,270856,1,0,0:0:0:0:
64,192,270931,1,0,0:0:0:0:
192,192,270931,1,0,0:0:0:0:
448,192,271005,1,0,0:0:0:0:
320,192,271079,1,0,0:0:0:0:
64,192,271154,1,0,0:0:0:0:
192,192,271154,1,0,0:0:0:0:
320,192,271228,1,0,0:0:0:0:
448,192,271228,1,0,0:0:0:0:
192,192,271303,1,0,0:0:0:0:
64,192,271377,1,0,0:0:0:0:
448,192,271377,1,0,0:0:0:0:
320,192,271451,1,0,0:0:0:0:
64,192,271526,1,0,0:0:0:0:
192,192,271526,1,0,0:0:0:0:
448,192,271600,1,0,0:0:0:0:
320,192,271675,1,0,0:0:0:0:
64,192,271749,1,0,0:0:0:0:
192,192,271749,1,0,0:0:0:0:
320,192,271824,1,0,0:0:0:0:
448,192,271824,1,0,0:0:0:0:
192,192,271898,1,0,0:0:0:0:
64,192,271972,1,0,0:0:0:0:
448,192,271972,1,0,0:0:0:0:
320,192,272047,1,0,0:0:0:0:
192,192,272121,1,0,0:0:0:0:
64,192,272121,1,0,0:0:0:0:
320,192,272196,1,0,0:0:0:0:
448,192,272270,1,0,0:0:0:0:
192,192,272344,1,0,0:0:0:0:
64,192,272344,1,0,0:0:0:0:
320,192,272419,1,0,0:0:0:0:
448,192,272419,1,0,0:0:0:0:
64,192,272493,1,0,0:0:0:0:
192,192,272568,1,0,0:0:0:0:
448,192,272568,1,0,0:0:0:0:
320,192,272642,1,0,0:0:0:0:
64,192,272716,1,0,0:0:0:0:
192,192,272716,1,0,0:0:0:0:
448,192,272791,1,0,0:0:0:0:
320,192,272865,1,0,0:0:0:0:
192,192,272940,5,0,0:0:0:0:
64,192,272940,1,0,0:0:0:0:
320,192,273014,1,0,0:0:0:0:
448,192,273014,1,0,0:0:0:0:
64,192,273088,1,0,0:0:0:0:
192,192,273163,1,0,0:0:0:0:
448,192,273163,1,0,0:0:0:0:
320,192,273237,1,0,0:0:0:0:
192,192,273312,1,0,0:0:0:0:
64,192,273312,1,0,0:0:0:0:
320,192,273386,1,0,0:0:0:0:
448,192,273386,1,0,0:0:0:0:
64,192,273460,1,0,0:0:0:0:
448,192,273535,1,0,0:0:0:0:
192,192,273535,1,0,0:0:0:0:
64,192,273609,1,0,0:0:0:0:
320,192,273609,1,0,0:0:0:0:
448,192,273684,1,0,0:0:0:0:
192,192,273758,1,0,0:0:0:0:
320,192,273758,1,0,0:0:0:0:
64,192,273832,1,0,0:0:0:0:
448,192,273907,5,0,0:0:0:0:
320,192,273907,1,0,0:0:0:0:
64,192,273981,1,0,0:0:0:0:
192,192,273981,1,0,0:0:0:0:
448,192,274056,1,0,0:0:0:0:
320,192,274056,1,0,0:0:0:0:
192,192,274130,1,0,0:0:0:0:
448,192,274204,1,0,0:0:0:0:
64,192,274204,1,0,0:0:0:0:
192,192,274279,1,0,0:0:0:0:
320,192,274279,1,0,0:0:0:0:
448,192,274353,1,0,0:0:0:0:
64,192,274353,1,0,0:0:0:0:
192,192,274428,1,0,0:0:0:0:
320,192,274428,1,0,0:0:0:0:
448,192,274502,1,0,0:0:0:0:
64,192,274502,1,0,0:0:0:0:
320,192,274576,1,0,0:0:0:0:
192,192,274651,1,0,0:0:0:0:
64,192,274725,1,0,0:0:0:0:
448,192,274725,1,0,0:0:0:0:
320,192,274800,1,0,0:0:0:0:
192,192,274800,1,0,0:0:0:0:
448,192,274874,1,0,0:0:0:0:
192,192,274949,1,0,0:0:0:0:
64,192,274949,1,0,0:0:0:0:
320,192,275023,1,0,0:0:0:0:
64,192,275097,1,0,0:0:0:0:
448,192,275097,1,0,0:0:0:0:
192,192,275172,1,0,0:0:0:0:
320,192,275246,1,0,0:0:0:0:
64,192,275321,1,0,0:0:0:0:
448,192,275321,1,0,0:0:0:0:
320,192,275395,1,0,0:0:0:0:
192,192,275395,1,0,0:0:0:0:
64,192,275469,1,0,0:0:0:0:
320,192,275544,1,0,0:0:0:0:
192,192,275544,1,0,0:0:0:0:
448,192,275618,1,0,0:0:0:0:
192,192,275693,1,0,0:0:0:0:
64,192,275693,1,0,0:0:0:0:
320,192,275767,1,0,0:0:0:0:
448,192,275841,1,0,0:0:0:0:
64,192,275916,1,0,0:0:0:0:
320,192,275916,1,0,0:0:0:0:
192,192,275990,1,0,0:0:0:0:
448,192,275990,1,0,0:0:0:0:
64,192,276065,1,0,0:0:0:0:
320,192,276139,1,0,0:0:0:0:
448,192,276139,1,0,0:0:0:0:
192,192,276213,1,0,0:0:0:0:
64,192,276288,1,0,0:0:0:0:
320,192,276288,1,0,0:0:0:0:
448,192,276362,1,0,0:0:0:0:
192,192,276437,1,0,0:0:0:0:
64,192,276511,1,0,0:0:0:0:
448,192,276511,1,0,0:0:0:0:
192,192,276585,1,0,0:0:0:0:
320,192,276585,1,0,0:0:0:0:
64,192,276660,1,0,0:0:0:0:
320,192,276734,1,0,0:0:0:0:
448,192,276734,1,0,0:0:0:0:
192,192,276809,1,0,0:0:0:0:
64,192,276883,1,0,0:0:0:0:
320,192,276883,1,0,0:0:0:0:
448,192,276957,1,0,0:0:0:0:
320,192,277032,1,0,0:0:0:0:
64,192,277106,1,0,0:0:0:0:
192,192,277106,1,0,0:0:0:0:
320,192,277181,1,0,0:0:0:0:
448,192,277181,1,0,0:0:0:0:
64,192,277255,1,0,0:0:0:0:
192,192,277329,1,0,0:0:0:0:
448,192,277329,1,0,0:0:0:0:
320,192,277404,1,0,0:0:0:0:
64,192,277478,1,0,0:0:0:0:
192,192,277478,1,0,0:0:0:0:
448,192,277553,1,0,0:0:0:0:
320,192,277627,1,0,0:0:0:0:
192,192,277701,5,0,0:0:0:0:
64,192,277701,1,0,0:0:0:0:
320,192,277776,1,0,0:0:0:0:
448,192,277776,1,0,0:0:0:0:
64,192,277850,1,0,0:0:0:0:
192,192,277925,1,0,0:0:0:0:
448,192,277925,1,0,0:0:0:0:
320,192,277999,1,0,0:0:0:0:
64,192,278074,1,0,0:0:0:0:
192,192,278074,1,0,0:0:0:0:
448,192,278148,1,0,0:0:0:0:
320,192,278222,1,0,0:0:0:0:
64,192,278297,1,0,0:0:0:0:
192,192,278297,1,0,0:0:0:0:
320,192,278371,1,0,0:0:0:0:
64,192,278446,1,0,0:0:0:0:
192,192,278520,1,0,0:0:0:0:
448,192,278520,1,0,0:0:0:0:
320,192,278594,1,0,0:0:0:0:
192,192,278669,5,0,0:0:0:0:
64,192,278669,1,0,0:0:0:0:
448,192,278743,1,0,0:0:0:0:
320,192,278743,1,0,0:0:0:0:
64,192,278818,1,0,0:0:0:0:
192,192,278818,1,0,0:0:0:0:
448,192,278892,1,0,0:0:0:0:
192,192,278966,1,0,0:0:0:0:
320,192,278966,1,0,0:0:0:0:
448,192,279041,1,0,0:0:0:0:
64,192,279041,1,0,0:0:0:0:
192,192,279115,1,0,0:0:0:0:
320,192,279115,1,0,0:0:0:0:
448,192,279190,1,0,0:0:0:0:
64,192,279190,1,0,0:0:0:0:
192,192,279264,1,0,0:0:0:0:
320,192,279264,1,0,0:0:0:0:
64,192,279338,1,0,0:0:0:0:
320,192,279413,1,0,0:0:0:0:
448,192,279413,1,0,0:0:0:0:
192,192,279487,1,0,0:0:0:0:
448,192,279562,1,0,0:0:0:0:
64,192,279562,1,0,0:0:0:0:
320,192,279636,1,0,0:0:0:0:
64,192,279710,1,0,0:0:0:0:
192,192,279710,1,0,0:0:0:0:
448,192,279785,1,0,0:0:0:0:
64,192,279859,1,0,0:0:0:0:
320,192,279859,1,0,0:0:0:0:
192,192,279934,1,0,0:0:0:0:
448,192,280008,1,0,0:0:0:0:
320,192,280008,1,0,0:0:0:0:
64,192,280082,1,0,0:0:0:0:
448,192,280157,1,0,0:0:0:0:
192,192,280157,1,0,0:0:0:0:
320,192,280231,1,0,0:0:0:0:
64,192,280306,1,0,0:0:0:0:
192,192,280306,1,0,0:0:0:0:
448,192,280380,1,0,0:0:0:0:
192,192,280454,1,0,0:0:0:0:
320,192,280454,1,0,0:0:0:0:
64,192,280529,1,0,0:0:0:0:
320,192,280603,1,0,0:0:0:0:
448,192,280603,1,0,0:0:0:0:
192,192,280678,1,0,0:0:0:0:
448,192,280752,1,0,0:0:0:0:
64,192,280752,1,0,0:0:0:0:
320,192,280826,1,0,0:0:0:0:
64,192,280901,1,0,0:0:0:0:
192,192,280901,1,0,0:0:0:0:
448,192,280975,1,0,0:0:0:0:
64,192,281050,1,0,0:0:0:0:
320,192,281050,1,0,0:0:0:0:
192,192,281124,1,0,0:0:0:0:
448,192,281199,1,0,0:0:0:0:
320,192,281199,1,0,0:0:0:0:
64,192,281273,1,0,0:0:0:0:
448,192,281347,1,0,0:0:0:0:
192,192,281347,1,0,0:0:0:0:
320,192,281422,1,0,0:0:0:0:
64,192,281496,1,0,0:0:0:0:
192,192,281496,1,0,0:0:0:0:
448,192,281571,1,0,0:0:0:0:
192,192,281645,1,0,0:0:0:0:
320,192,281645,1,0,0:0:0:0:
64,192,281719,1,0,0:0:0:0:
320,192,281794,1,0,0:0:0:0:
448,192,281794,1,0,0:0:0:0:
192,192,281868,1,0,0:0:0:0:
448,192,281943,1,0,0:0:0:0:
64,192,281943,1,0,0:0:0:0:
320,192,282017,1,0,0:0:0:0:
64,192,282091,1,0,0:0:0:0:
192,192,282091,1,0,0:0:0:0:
448,192,282166,1,0,0:0:0:0:
64,192,282240,1,0,0:0:0:0:
320,192,282240,1,0,0:0:0:0:
192,192,282315,1,0,0:0:0:0:
448,192,282389,1,0,0:0:0:0:
320,192,282389,1,0,0:0:0:0:
64,192,282463,5,0,0:0:0:0:
448,192,282538,1,0,0:0:0:0:
192,192,282538,1,0,0:0:0:0:
320,192,282612,1,0,0:0:0:0:
64,192,282687,1,0,0:0:0:0:
192,192,282687,1,0,0:0:0:0:
448,192,282761,1,0,0:0:0:0:
64,192,282835,1,0,0:0:0:0:
320,192,282835,1,0,0:0:0:0:
192,192,282910,1,0,0:0:0:0:
320,192,282984,1,0,0:0:0:0:
448,192,282984,1,0,0:0:0:0:
64,192,283059,1,0,0:0:0:0:
320,192,283133,1,0,0:0:0:0:
192,192,283133,1,0,0:0:0:0:
448,192,283207,1,0,0:0:0:0:
64,192,283282,1,0,0:0:0:0:
192,192,283282,1,0,0:0:0:0:
320,192,283356,1,0,0:0:0:0:
448,192,283431,1,0,0:0:0:0:
64,192,283431,1,0,0:0:0:0:
320,192,283505,1,0,0:0:0:0:
192,192,283505,1,0,0:0:0:0:
64,192,283579,1,0,0:0:0:0:
448,192,283579,1,0,0:0:0:0:
320,192,283654,1,0,0:0:0:0:
192,192,283728,1,0,0:0:0:0:
64,192,283728,1,0,0:0:0:0:
448,192,283803,1,0,0:0:0:0:
320,192,283803,1,0,0:0:0:0:
64,192,283877,1,0,0:0:0:0:
192,192,283877,1,0,0:0:0:0:
448,192,283951,1,0,0:0:0:0:
320,192,283951,1,0,0:0:0:0:
64,192,284026,1,0,0:0:0:0:
192,192,284026,1,0,0:0:0:0:
448,192,284100,1,0,0:0:0:0:
320,192,284175,1,0,0:0:0:0:
64,192,284175,1,0,0:0:0:0:
192,192,284249,1,0,0:0:0:0:
320,192,284324,1,0,0:0:0:0:
448,192,284324,1,0,0:0:0:0:
64,192,284398,1,0,0:0:0:0:
192,192,284472,1,0,0:0:0:0:
320,192,284472,1,0,0:0:0:0:
448,192,284547,1,0,0:0:0:0:
64,192,284621,1,0,0:0:0:0:
192,192,284621,1,0,0:0:0:0:
320,192,284696,1,0,0:0:0:0:
448,192,284770,1,0,0:0:0:0:
64,192,284770,1,0,0:0:0:0:
192,192,284844,1,0,0:0:0:0:
320,192,284919,1,0,0:0:0:0:
448,192,284919,1,0,0:0:0:0:
64,192,284993,1,0,0:0:0:0:
192,192,285068,1,0,0:0:0:0:
448,192,285068,1,0,0:0:0:0:
320,192,285142,1,0,0:0:0:0:
192,192,285216,1,0,0:0:0:0:
64,192,285216,1,0,0:0:0:0:
448,192,285291,1,0,0:0:0:0:
320,192,285365,1,0,0:0:0:0:
64,192,285365,1,0,0:0:0:0:
192,192,285440,1,0,0:0:0:0:
320,192,285514,1,0,0:0:0:0:
448,192,285514,1,0,0:0:0:0:
64,192,285588,1,0,0:0:0:0:
192,192,285663,1,0,0:0:0:0:
448,192,285663,1,0,0:0:0:0:
320,192,285737,1,0,0:0:0:0:
192,192,285812,1,0,0:0:0:0:
64,192,285812,1,0,0:0:0:0:
448,192,285886,1,0,0:0:0:0:
320,192,285960,1,0,0:0:0:0:
192,192,285960,1,0,0:0:0:0:
64,192,286035,1,0,0:0:0:0:
448,192,286109,1,0,0:0:0:0:
320,192,286109,1,0,0:0:0:0:
192,192,286184,1,0,0:0:0:0:
448,192,286258,1,0,0:0:0:0:
64,192,286258,1,0,0:0:0:0:
320,192,286332,1,0,0:0:0:0:
192,192,286407,1,0,0:0:0:0:
64,192,286407,1,0,0:0:0:0:
448,192,286481,1,0,0:0:0:0:
320,192,286556,1,0,0:0:0:0:
64,192,286556,1,0,0:0:0:0:
192,192,286630,1,0,0:0:0:0:
320,192,286704,1,0,0:0:0:0:
448,192,286704,1,0,0:0:0:0:
64,192,286779,1,0,0:0:0:0:
192,192,286853,1,0,0:0:0:0:
320,192,286853,1,0,0:0:0:0:
448,192,286928,1,0,0:0:0:0:
64,192,287002,1,0,0:0:0:0:
192,192,287002,1,0,0:0:0:0:
320,192,287076,1,0,0:0:0:0:
448,192,287151,1,0,0:0:0:0:
64,192,287151,1,0,0:0:0:0:
192,192,287225,5,0,0:0:0:0:
320,192,287300,1,0,0:0:0:0:
448,192,287300,1,0,0:0:0:0:
64,192,287374,1,0,0:0:0:0:
192,192,287449,1,0,0:0:0:0:
448,192,287449,1,0,0:0:0:0:
320,192,287523,1,0,0:0:0:0:
192,192,287597,1,0,0:0:0:0:
64,192,287597,1,0,0:0:0:0:
448,192,287672,1,0,0:0:0:0:
320,192,287746,1,0,0:0:0:0:
192,192,287746,1,0,0:0:0:0:
64,192,287821,1,0,0:0:0:0:
448,192,287895,1,0,0:0:0:0:
320,192,287895,1,0,0:0:0:0:
64,192,287969,1,0,0:0:0:0:
192,192,288044,1,0,0:0:0:0:
448,192,288044,1,0,0:0:0:0:
320,192,288118,1,0,0:0:0:0:
448,192,288193,5,0,0:0:0:0:
64,192,288193,1,0,0:0:0:0:
320,192,288267,1,0,0:0:0:0:
192,192,288267,1,0,0:0:0:0:
64,192,288341,1,0,0:0:0:0:
448,192,288341,1,0,0:0:0:0:
192,192,288416,1,0,0:0:0:0:
448,192,288490,1,0,0:0:0:0:
320,192,288490,1,0,0:0:0:0:
64,192,288565,1,0,0:0:0:0:
192,192,288565,1,0,0:0:0:0:
448,192,288639,1,0,0:0:0:0:
320,192,288639,1,0,0:0:0:0:
64,192,288713,1,0,0:0:0:0:
192,192,288713,1,0,0:0:0:0:
448,192,288788,1,0,0:0:0:0:
320,192,288788,1,0,0:0:0:0:
192,192,288862,1,0,0:0:0:0:
64,192,288937,1,0,0:0:0:0:
320,192,289011,1,0,0:0:0:0:
64,192,289085,1,0,0:0:0:0:
192,192,289085,1,0,0:0:0:0:
448,192,289160,1,0,0:0:0:0:
64,192,289234,1,0,0:0:0:0:
192,192,289309,1,0,0:0:0:0:
448,192,289383,1,0,0:0:0:0:
320,192,289383,1,0,0:0:0:0:
64,192,289457,1,0,0:0:0:0:
192,192,289532,1,0,0:0:0:0:
320,192,289606,1,0,0:0:0:0:
192,192,289681,1,0,0:0:0:0:
64,192,289681,1,0,0:0:0:0:
448,192,289755,1,0,0:0:0:0:
64,192,289829,1,0,0:0:0:0:
192,192,289904,1,0,0:0:0:0:
448,192,289978,1,0,0:0:0:0:
320,192,289978,1,0,0:0:0:0:
64,192,290053,1,0,0:0:0:0:
448,192,290127,1,0,0:0:0:0:
320,192,290201,1,0,0:0:0:0:
64,192,290276,1,0,0:0:0:0:
192,192,290276,1,0,0:0:0:0:
448,192,290350,1,0,0:0:0:0:
320,192,290425,1,0,0:0:0:0:
192,192,290499,1,0,0:0:0:0:
64,192,290574,1,0,0:0:0:0:
448,192,290574,1,0,0:0:0:0:
320,192,290648,1,0,0:0:0:0:
192,192,290722,1,0,0:0:0:0:
320,192,290797,1,0,0:0:0:0:
64,192,290871,1,0,0:0:0:0:
192,192,290871,1,0,0:0:0:0:
448,192,290946,1,0,0:0:0:0:
64,192,291020,1,0,0:0:0:0:
192,192,291094,1,0,0:0:0:0:
448,192,291169,1,0,0:0:0:0:
320,192,291169,1,0,0:0:0:0:
64,192,291243,1,0,0:0:0:0:
448,192,291318,1,0,0:0:0:0:
320,192,291392,1,0,0:0:0:0:
64,192,291466,1,0,0:0:0:0:
192,192,291466,1,0,0:0:0:0:
448,192,291541,1,0,0:0:0:0:
320,192,291615,1,0,0:0:0:0:
192,192,291690,1,0,0:0:0:0:
64,192,291764,1,0,0:0:0:0:
448,192,291764,1,0,0:0:0:0:
320,192,291838,1,0,0:0:0:0:
64,192,291913,1,0,0:0:0:0:
192,192,291987,1,0,0:0:0:0:
320,192,292062,1,0,0:0:0:0:
448,192,292062,1,0,0:0:0:0:
192,192,292136,1,0,0:0:0:0:
64,192,292210,1,0,0:0:0:0:
192,192,292285,1,0,0:0:0:0:
448,192,292359,1,0,0:0:0:0:
320,192,292359,1,0,0:0:0:0:
64,192,292434,1,0,0:0:0:0:
448,192,292508,1,0,0:0:0:0:
320,192,292582,1,0,0:0:0:0:
192,192,292657,1,0,0:0:0:0:
64,192,292657,1,0,0:0:0:0:
448,192,292731,1,0,0:0:0:0:
320,192,292806,1,0,0:0:0:0:
64,192,292880,1,0,0:0:0:0:
448,192,292954,5,0,0:0:0:0:
192,192,292954,1,0,0:0:0:0:
64,192,293029,1,0,0:0:0:0:
320,192,293029,1,0,0:0:0:0:
448,192,293103,1,0,0:0:0:0:
192,192,293103,1,0,0:0:0:0:
320,192,293178,1,0,0:0:0:0:
64,192,293252,1,0,0:0:0:0:
192,192,293252,1,0,0:0:0:0:
448,192,293326,1,0,0:0:0:0:
320,192,293326,1,0,0:0:0:0:
64,192,293401,1,0,0:0:0:0:
192,192,293401,1,0,0:0:0:0:
448,192,293475,1,0,0:0:0:0:
320,192,293475,1,0,0:0:0:0:
64,192,293550,1,0,0:0:0:0:
192,192,293550,1,0,0:0:0:0:
448,192,293624,1,0,0:0:0:0:
64,192,293699,1,0,0:0:0:0:
192,192,293773,1,0,0:0:0:0:
448,192,293847,1,0,0:0:0:0:
320,192,293847,1,0,0:0:0:0:
64,192,293922,1,0,0:0:0:0:
320,192,293996,1,0,0:0:0:0:
448,192,294071,1,0,0:0:0:0:
192,192,294145,1,0,0:0:0:0:
64,192,294145,1,0,0:0:0:0:
320,192,294219,1,0,0:0:0:0:
64,192,294294,1,0,0:0:0:0:
192,192,294368,1,0,0:0:0:0:
448,192,294443,1,0,0:0:0:0:
320,192,294443,1,0,0:0:0:0:
64,192,294517,1,0,0:0:0:0:
448,192,294591,1,0,0:0:0:0:
320,192,294666,1,0,0:0:0:0:
64,192,294740,1,0,0:0:0:0:
192,192,294740,1,0,0:0:0:0:
448,192,294815,1,0,0:0:0:0:
64,192,294889,1,0,0:0:0:0:
192,192,294963,1,0,0:0:0:0:
448,192,295038,1,0,0:0:0:0:
320,192,295038,1,0,0:0:0:0:
64,192,295112,1,0,0:0:0:0:
192,192,295187,1,0,0:0:0:0:
320,192,295261,1,0,0:0:0:0:
64,192,295335,1,0,0:0:0:0:
192,192,295335,1,0,0:0:0:0:
448,192,295410,1,0,0:0:0:0:
320,192,295484,1,0,0:0:0:0:
192,192,295559,1,0,0:0:0:0:
64,192,295633,1,0,0:0:0:0:
448,192,295633,1,0,0:0:0:0:
192,192,295707,1,0,0:0:0:0:
448,192,295782,1,0,0:0:0:0:
320,192,295856,1,0,0:0:0:0:
192,192,295931,1,0,0:0:0:0:
64,192,296005,1,0,0:0:0:0:
320,192,296079,1,0,0:0:0:0:
192,192,296154,1,0,0:0:0:0:
64,192,296228,1,0,0:0:0:0:
448,192,296303,1,0,0:0:0:0:
320,192,296377,1,0,0:0:0:0:
192,192,296451,1,0,0:0:0:0:
320,192,296526,1,0,0:0:0:0:
64,192,296600,1,0,0:0:0:0:
448,192,296675,1,0,0:0:0:0:
320,192,296749,1,0,0:0:0:0:
192,192,296824,1,0,0:0:0:0:
448,192,296898,1,0,0:0:0:0:
64,192,296972,1,0,0:0:0:0:
192,192,297047,1,0,0:0:0:0:
320,192,297121,1,0,0:0:0:0:
64,192,297196,1,0,0:0:0:0:
448,192,297270,1,0,0:0:0:0:
192,192,297344,1,0,0:0:0:0:
64,192,297419,1,0,0:0:0:0:
448,192,297493,1,0,0:0:0:0:
320,192,297568,1,0,0:0:0:0:
192,192,297642,1,0,0:0:0:0:
64,192,297716,5,0,0:0:0:0:
448,192,297716,1,0,0:0:0:0:
192,192,297791,1,0,0:0:0:0:
320,192,297791,1,0,0:0:0:0:
448,192,297865,1,0,0:0:0:0:
64,192,297865,1,0,0:0:0:0:
320,192,297940,1,0,0:0:0:0:
64,192,298014,1,0,0:0:0:0:
192,192,298014,1,0,0:0:0:0:
448,192,298088,1,0,0:0:0:0:
320,192,298088,1,0,0:0:0:0:
64,192,298163,1,0,0:0:0:0:
192,192,298163,1,0,0:0:0:0:
448,192,298237,1,0,0:0:0:0:
320,192,298237,1,0,0:0:0:0:
