osu file format v14

[General]
AudioFilename: audio.mp3
AudioLeadIn: 0
PreviewTime: 217643
Countdown: 0
SampleSet: Soft
StackLeniency: 0.7
Mode: 3
LetterboxInBreaks: 0
SpecialStyle: 0
WidescreenStoryboard: 0

[Editor]
DistanceSpacing: 0.8
BeatDivisor: 4
GridSize: 8
TimelineZoom: 2.4

[Metadata]
Title:Ice Angel
TitleUnicode:Ice Angel
Artist:Yooh
ArtistUnicode:Yooh
Creator:-[Hotaru]-
Version:Snow
Source:
Tags:yoohsic roomz c86 eutopia
BeatmapID:1288553
BeatmapSetID:610263

[Difficulty]
HPDrainRate:7
CircleSize:4
OverallDifficulty:7
ApproachRate:5
SliderMultiplier:1.4
SliderTickRate:1

[Events]
//Background and Video events
0,0,"56770_anime_girls_silhouette_girls_silhouette_and_snow.jpg",0,0
//Break Periods
//Storyboard Layer 0 (Background)
//Storyboard Layer 1 (Fail)
//Storyboard Layer 2 (Pass)
//Storyboard Layer 3 (Foreground)
//Storyboard Sound Samples

[TimingPoints]
3715,357.142857142857,4,2,1,30,1,0
266572,-100,4,2,1,30,0,1
312286,-100,4,2,1,30,0,0

[HitObjects]
448,192,3715,5,0,0:0:0:0:
192,192,4072,1,0,0:0:0:0:
320,192,4429,1,0,0:0:0:0:
64,192,4786,1,0,0:0:0:0:
448,192,5143,1,0,0:0:0:0:
192,192,5500,1,0,0:0:0:0:
448,192,5857,1,0,0:0:0:0:
64,192,6215,1,0,0:0:0:0:
320,192,6572,1,0,0:0:0:0:
64,192,6929,1,0,0:0:0:0:
448,192,7286,1,0,0:0:0:0:
192,192,7643,1,0,0:0:0:0:
320,192,8000,1,0,0:0:0:0:
64,192,8357,1,0,0:0:0:0:
448,192,8715,128,0,9072:0:0:0:0:
64,192,9072,128,0,9429:0:0:0:0:
320,192,9429,1,0,0:0:0:0:
64,192,9786,1,0,0:0:0:0:
448,192,10143,1,0,0:0:0:0:
192,192,10500,1,0,0:0:0:0:
320,192,10857,1,0,0:0:0:0:
64,192,11214,1,0,0:0:0:0:
192,192,11572,1,0,0:0:0:0:
320,192,11929,1,0,0:0:0:0:
64,192,12286,1,0,0:0:0:0:
448,192,12643,1,0,0:0:0:0:
320,192,13000,1,0,0:0:0:0:
64,192,13357,1,0,0:0:0:0:
192,192,13714,1,0,0:0:0:0:
448,192,14072,1,0,0:0:0:0:
64,192,14429,128,0,14786:0:0:0:0:
448,192,14786,128,0,15143:0:0:0:0:
192,192,15143,128,0,19429:0:0:0:0:
448,192,15500,1,0,0:0:0:0:
64,192,15857,1,0,0:0:0:0:
320,192,16214,1,0,0:0:0:0:
448,192,16572,1,0,0:0:0:0:
64,192,16929,1,0,0:0:0:0:
320,192,17286,1,0,0:0:0:0:
64,192,17643,1,0,0:0:0:0:
448,192,18000,1,0,0:0:0:0:
64,192,18357,1,0,0:0:0:0:
448,192,18714,1,0,0:0:0:0:
320,192,19072,1,0,0:0:0:0:
64,192,19429,1,0,0:0:0:0:
320,192,19786,1,0,0:0:0:0:
64,192,20143,128,0,20500:0:0:0:0:
320,192,20500,128,0,20857:0:0:0:0:
64,192,20857,1,0,0:0:0:0:
448,192,21214,1,0,0:0:0:0:
320,192,21572,1,0,0:0:0:0:
192,192,21929,1,0,0:0:0:0:
448,192,22286,1,0,0:0:0:0:
64,192,22643,1,0,0:0:0:0:
192,192,23000,1,0,0:0:0:0:
320,192,23357,1,0,0:0:0:0:
64,192,23714,128,0,25143:0:0:0:0:
448,192,24072,1,0,0:0:0:0:
192,192,24429,1,0,0:0:0:0:
448,192,24786,1,0,0:0:0:0:
320,192,25143,1,0,0:0:0:0:
192,192,25857,128,0,26214:0:0:0:0:
320,192,26214,128,0,26572:0:0:0:0:
192,192,26572,1,0,0:0:0:0:
448,192,26572,128,0,30857:0:0:0:0:
320,192,26929,1,0,0:0:0:0:
64,192,27286,1,0,0:0:0:0:
320,192,27643,1,0,0:0:0:0:
192,192,28000,1,0,0:0:0:0:
64,192,28357,1,0,0:0:0:0:
320,192,28714,1,0,0:0:0:0:
64,192,29072,1,0,0:0:0:0:
192,192,29429,1,0,0:0:0:0:
64,192,29786,1,0,0:0:0:0:
320,192,30143,1,0,0:0:0:0:
192,192,30500,1,0,0:0:0:0:
320,192,30857,1,0,0:0:0:0:
64,192,31214,1,0,0:0:0:0:
320,192,31572,128,0,31929:0:0:0:0:
192,192,31929,128,0,32286:0:0:0:0:
448,192,32286,128,0,32822:0:0:0:0:
64,192,32643,1,0,0:0:0:0:
320,192,32822,128,0,33357:0:0:0:0:
64,192,33357,128,0,33893:0:0:0:0:
448,192,33714,1,0,0:0:0:0:
320,192,33893,128,0,34429:0:0:0:0:
192,192,34429,128,0,35500:0:0:0:0:
448,192,34786,1,0,0:0:0:0:
64,192,35143,1,0,0:0:0:0:
320,192,35500,1,0,0:0:0:0:
448,192,35857,1,0,0:0:0:0:
64,192,36214,1,0,0:0:0:0:
192,192,36572,1,0,0:0:0:0:
448,192,36929,1,0,0:0:0:0:
64,192,37286,128,0,37643:0:0:0:0:
320,192,37643,128,0,38000:0:0:0:0:
192,192,38000,1,0,0:0:0:0:
448,192,38357,1,0,0:0:0:0:
64,192,38714,1,0,0:0:0:0:
320,192,39072,1,0,0:0:0:0:
448,192,39429,1,0,0:0:0:0:
64,192,39786,1,0,0:0:0:0:
320,192,40143,1,0,0:0:0:0:
64,192,40500,1,0,0:0:0:0:
192,192,40857,1,0,0:0:0:0:
448,192,41214,1,0,0:0:0:0:
320,192,41572,1,0,0:0:0:0:
64,192,41929,1,0,0:0:0:0:
320,192,42286,1,0,0:0:0:0:
448,192,42643,1,0,0:0:0:0:
64,192,43000,128,0,43357:0:0:0:0:
320,192,43357,128,0,43714:0:0:0:0:
64,192,43714,1,0,0:0:0:0:
448,192,44072,1,0,0:0:0:0:
64,192,44429,1,0,0:0:0:0:
320,192,44786,1,0,0:0:0:0:
448,192,45143,1,0,0:0:0:0:
192,192,45500,1,0,0:0:0:0:
64,192,45857,1,0,0:0:0:0:
448,192,46214,1,0,0:0:0:0:
192,192,46572,1,0,0:0:0:0:
448,192,46929,1,0,0:0:0:0:
64,192,47286,1,0,0:0:0:0:
320,192,47643,1,0,0:0:0:0:
64,192,48000,1,0,0:0:0:0:
448,192,48714,128,0,49072:0:0:0:0:
192,192,49072,128,0,49429:0:0:0:0:
448,192,49429,1,0,0:0:0:0:
64,192,49429,128,0,50857:0:0:0:0:
192,192,49786,1,0,0:0:0:0:
448,192,50143,1,0,0:0:0:0:
192,192,50500,1,0,0:0:0:0:
320,192,50857,128,0,51572:0:0:0:0:
448,192,51214,1,0,0:0:0:0:
192,192,51572,128,0,52286:0:0:0:0:
64,192,51929,1,0,0:0:0:0:
448,192,52286,128,0,53714:0:0:0:0:
320,192,52643,1,0,0:0:0:0:
64,192,53000,1,0,0:0:0:0:
192,192,53357,1,0,0:0:0:0:
64,192,53714,128,0,55143:0:0:0:0:
320,192,53982,1,0,0:0:0:0:
448,192,54250,1,0,0:0:0:0:
192,192,54786,1,0,0:0:0:0:
320,192,55143,128,0,56572:0:0:0:0:
448,192,55500,1,0,0:0:0:0:
64,192,55857,1,0,0:0:0:0:
448,192,56214,1,0,0:0:0:0:
192,192,56572,128,0,57286:0:0:0:0:
64,192,56929,1,0,0:0:0:0:
448,192,57286,128,0,58000:0:0:0:0:
320,192,57643,1,0,0:0:0:0:
192,192,58000,128,0,59429:0:0:0:0:
320,192,58357,1,0,0:0:0:0:
64,192,58714,1,0,0:0:0:0:
448,192,59072,1,0,0:0:0:0:
64,192,59429,128,0,60857:0:0:0:0:
448,192,59786,1,0,0:0:0:0:
320,192,60143,1,0,0:0:0:0:
192,192,60500,1,0,0:0:0:0:
320,192,60857,128,0,62286:0:0:0:0:
448,192,61214,1,0,0:0:0:0:
64,192,61572,1,0,0:0:0:0:
448,192,61929,1,0,0:0:0:0:
64,192,62286,128,0,63000:0:0:0:0:
192,192,62643,1,0,0:0:0:0:
448,192,63000,128,0,63714:0:0:0:0:
192,192,63357,1,0,0:0:0:0:
320,192,63714,128,0,65143:0:0:0:0:
448,192,64072,1,0,0:0:0:0:
64,192,64429,1,0,0:0:0:0:
192,192,64786,1,0,0:0:0:0:
64,192,65143,128,0,66572:0:0:0:0:
448,192,65411,1,0,0:0:0:0:
192,192,65679,1,0,0:0:0:0:
448,192,66214,1,0,0:0:0:0:
320,192,66572,128,0,67286:0:0:0:0:
448,192,66929,1,0,0:0:0:0:
64,192,67286,1,0,0:0:0:0:
192,192,67643,1,0,0:0:0:0:
448,192,68000,128,0,68714:0:0:0:0:
320,192,68357,1,0,0:0:0:0:
192,192,68714,128,0,69429:0:0:0:0:
320,192,68982,1,0,0:0:0:0:
64,192,69250,1,0,0:0:0:0:
448,192,69429,128,0,70857:0:0:0:0:
320,192,69786,1,0,0:0:0:0:
64,192,70143,1,0,0:0:0:0:
192,192,70500,1,0,0:0:0:0:
64,192,70857,1,0,0:0:0:0:
448,192,71214,1,0,0:0:0:0:
192,192,71572,128,0,71929:0:0:0:0:
448,192,71929,128,0,72286:0:0:0:0:
64,192,72286,128,0,73714:0:0:0:0:
192,192,72286,1,0,0:0:0:0:
448,192,72643,1,0,0:0:0:0:
192,192,73000,1,0,0:0:0:0:
320,192,73357,1,0,0:0:0:0:
192,192,73714,128,0,74429:0:0:0:0:
320,192,74072,1,0,0:0:0:0:
448,192,74429,128,0,75143:0:0:0:0:
64,192,74786,1,0,0:0:0:0:
192,192,75143,128,0,76572:0:0:0:0:
320,192,75500,1,0,0:0:0:0:
64,192,75857,1,0,0:0:0:0:
448,192,76214,1,0,0:0:0:0:
320,192,76572,128,0,78000:0:0:0:0:
64,192,76839,1,0,0:0:0:0:
448,192,77107,1,0,0:0:0:0:
192,192,77643,1,0,0:0:0:0:
64,192,78000,128,0,79429:0:0:0:0:
448,192,78357,1,0,0:0:0:0:
192,192,78714,1,0,0:0:0:0:
320,192,79072,1,0,0:0:0:0:
448,192,79429,128,0,80143:0:0:0:0:
192,192,79786,1,0,0:0:0:0:
320,192,80143,128,0,80857:0:0:0:0:
64,192,80500,1,0,0:0:0:0:
192,192,80857,128,0,82286:0:0:0:0:
448,192,81214,1,0,0:0:0:0:
64,192,81572,1,0,0:0:0:0:
320,192,81929,1,0,0:0:0:0:
448,192,82286,128,0,83000:0:0:0:0:
320,192,82643,1,0,0:0:0:0:
64,192,83000,128,0,83357:0:0:0:0:
448,192,83357,128,0,83714:0:0:0:0:
192,192,83714,128,0,85143:0:0:0:0:
320,192,83714,1,0,0:0:0:0:
448,192,84072,1,0,0:0:0:0:
64,192,84429,1,0,0:0:0:0:
320,192,84786,1,0,0:0:0:0:
448,192,85143,128,0,85857:0:0:0:0:
320,192,85500,1,0,0:0:0:0:
64,192,85857,128,0,86572:0:0:0:0:
448,192,86214,1,0,0:0:0:0:
192,192,86572,128,0,88000:0:0:0:0:
320,192,86572,1,0,0:0:0:0:
64,192,86929,1,0,0:0:0:0:
448,192,87286,1,0,0:0:0:0:
64,192,87643,1,0,0:0:0:0:
320,192,88000,128,0,89429:0:0:0:0:
64,192,88268,1,0,0:0:0:0:
448,192,88536,1,0,0:0:0:0:
192,192,89072,1,0,0:0:0:0:
64,192,89429,128,0,90857:0:0:0:0:
448,192,89429,1,0,0:0:0:0:
192,192,89786,1,0,0:0:0:0:
448,192,90143,1,0,0:0:0:0:
192,192,90500,1,0,0:0:0:0:
320,192,90857,128,0,91572:0:0:0:0:
448,192,90857,1,0,0:0:0:0:
192,192,91214,1,0,0:0:0:0:
448,192,91572,1,0,0:0:0:0:
64,192,91572,1,0,0:0:0:0:
192,192,91839,1,0,0:0:0:0:
320,192,91839,1,0,0:0:0:0:
448,192,92107,1,0,0:0:0:0:
64,192,92107,1,0,0:0:0:0:
192,192,92286,1,0,0:0:0:0:
320,192,92286,128,0,93000:0:0:0:0:
448,192,93000,1,0,0:0:0:0:
64,192,93000,1,0,0:0:0:0:
320,192,93357,1,0,0:0:0:0:
448,192,93714,1,0,0:0:0:0:
192,192,93714,1,0,0:0:0:0:
448,192,94429,128,0,94786:0:0:0:0:
64,192,94786,128,0,95143:0:0:0:0:
320,192,95143,1,0,0:0:0:0:
448,192,95143,128,0,96572:0:0:0:0:
64,192,95500,1,0,0:0:0:0:
320,192,95857,1,0,0:0:0:0:
192,192,96214,1,0,0:0:0:0:
64,192,96572,128,0,97286:0:0:0:0:
320,192,96929,1,0,0:0:0:0:
448,192,97286,128,0,98000:0:0:0:0:
320,192,97643,1,0,0:0:0:0:
192,192,98000,128,0,99429:0:0:0:0:
448,192,98357,1,0,0:0:0:0:
64,192,98714,1,0,0:0:0:0:
320,192,99072,1,0,0:0:0:0:
448,192,99429,1,0,0:0:0:0:
320,192,99786,1,0,0:0:0:0:
64,192,100143,128,0,100500:0:0:0:0:
320,192,100500,128,0,100857:0:0:0:0:
192,192,100857,128,0,102286:0:0:0:0:
448,192,100857,1,0,0:0:0:0:
64,192,101214,1,0,0:0:0:0:
448,192,101572,1,0,0:0:0:0:
320,192,101929,1,0,0:0:0:0:
448,192,102286,128,0,103000:0:0:0:0:
320,192,102643,1,0,0:0:0:0:
64,192,103000,128,0,103714:0:0:0:0:
192,192,103357,1,0,0:0:0:0:
320,192,103714,128,0,105143:0:0:0:0:
448,192,104072,1,0,0:0:0:0:
64,192,104429,1,0,0:0:0:0:
192,192,104786,1,0,0:0:0:0:
448,192,105143,128,0,106572:0:0:0:0:
64,192,105857,128,0,106214:0:0:0:0:
192,192,106214,128,0,106572:0:0:0:0:
320,192,106572,128,0,108000:0:0:0:0:
448,192,106929,1,0,0:0:0:0:
192,192,107643,1,0,0:0:0:0:
64,192,108000,128,0,108714:0:0:0:0:
448,192,108357,1,0,0:0:0:0:
320,192,108714,128,0,109429:0:0:0:0:
64,192,109072,1,0,0:0:0:0:
192,192,109429,128,0,110857:0:0:0:0:
448,192,109786,1,0,0:0:0:0:
64,192,110500,1,0,0:0:0:0:
448,192,110857,128,0,112286:0:0:0:0:
320,192,111214,1,0,0:0:0:0:
64,192,111572,128,0,111929:0:0:0:0:
320,192,111929,128,0,112286:0:0:0:0:
64,192,112286,128,0,113714:0:0:0:0:
448,192,112643,1,0,0:0:0:0:
320,192,113000,1,0,0:0:0:0:
192,192,113357,1,0,0:0:0:0:
448,192,113714,128,0,115143:0:0:0:0:
320,192,114072,1,0,0:0:0:0:
64,192,114429,1,0,0:0:0:0:
320,192,114786,1,0,0:0:0:0:
192,192,115143,128,0,116572:0:0:0:0:
448,192,115500,1,0,0:0:0:0:
64,192,115857,1,0,0:0:0:0:
320,192,116214,1,0,0:0:0:0:
64,192,116572,1,0,0:0:0:0:
448,192,116572,128,0,118000:0:0:0:0:
320,192,117286,128,0,118000:0:0:0:0:
192,192,118000,1,0,0:0:0:0:
64,192,118000,1,0,0:0:0:0:
320,192,118357,1,0,0:0:0:0:
64,192,118714,1,0,0:0:0:0:
448,192,119072,1,0,0:0:0:0:
320,192,119429,128,0,120143:0:0:0:0:
192,192,119786,1,0,0:0:0:0:
64,192,120143,128,0,120857:0:0:0:0:
320,192,120500,1,0,0:0:0:0:
448,192,120857,128,0,122286:0:0:0:0:
192,192,121214,1,0,0:0:0:0:
64,192,121572,1,0,0:0:0:0:
320,192,121929,1,0,0:0:0:0:
192,192,122286,1,0,0:0:0:0:
448,192,122643,1,0,0:0:0:0:
64,192,123000,128,0,123357:0:0:0:0:
320,192,123357,128,0,123714:0:0:0:0:
192,192,123714,1,0,0:0:0:0:
448,192,124072,1,0,0:0:0:0:
64,192,124429,1,0,0:0:0:0:
320,192,124786,1,0,0:0:0:0:
192,192,125143,128,0,125857:0:0:0:0:
448,192,125500,1,0,0:0:0:0:
320,192,125857,128,0,126572:0:0:0:0:
64,192,126214,1,0,0:0:0:0:
448,192,126572,128,0,128000:0:0:0:0:
192,192,126929,1,0,0:0:0:0:
64,192,127286,1,0,0:0:0:0:
320,192,127643,1,0,0:0:0:0:
64,192,128000,128,0,129429:0:0:0:0:
320,192,128357,1,0,0:0:0:0:
448,192,128714,128,0,129072:0:0:0:0:
192,192,129072,128,0,129429:0:0:0:0:
320,192,129429,1,0,0:0:0:0:
448,192,129429,1,0,0:0:0:0:
192,192,129786,1,0,0:0:0:0:
64,192,130143,1,0,0:0:0:0:
448,192,130500,1,0,0:0:0:0:
192,192,130857,128,0,131572:0:0:0:0:
64,192,131214,1,0,0:0:0:0:
448,192,131572,128,0,132286:0:0:0:0:
320,192,131929,1,0,0:0:0:0:
64,192,132286,128,0,133714:0:0:0:0:
192,192,132286,1,0,0:0:0:0:
320,192,132643,1,0,0:0:0:0:
448,192,133000,1,0,0:0:0:0:
192,192,133357,1,0,0:0:0:0:
320,192,133714,128,0,135143:0:0:0:0:
448,192,134072,1,0,0:0:0:0:
64,192,134429,128,0,134786:0:0:0:0:
448,192,134786,128,0,135143:0:0:0:0:
64,192,135143,128,0,136572:0:0:0:0:
192,192,135143,1,0,0:0:0:0:
448,192,135500,1,0,0:0:0:0:
192,192,135857,1,0,0:0:0:0:
320,192,136214,1,0,0:0:0:0:
448,192,136572,128,0,138000:0:0:0:0:
192,192,136572,1,0,0:0:0:0:
64,192,136929,1,0,0:0:0:0:
192,192,137286,1,0,0:0:0:0:
320,192,137643,1,0,0:0:0:0:
192,192,138000,128,0,138714:0:0:0:0:
64,192,138000,1,0,0:0:0:0:
448,192,138357,1,0,0:0:0:0:
320,192,138714,128,0,139429:0:0:0:0:
64,192,138714,1,0,0:0:0:0:
192,192,139072,1,0,0:0:0:0:
64,192,139429,1,0,0:0:0:0:
448,192,139607,1,0,0:0:0:0:
320,192,139875,1,0,0:0:0:0:
64,192,140143,1,0,0:0:0:0:
320,192,140411,1,0,0:0:0:0:
192,192,140679,1,0,0:0:0:0:
448,192,140857,1,0,0:0:0:0:
64,192,140857,1,0,0:0:0:0:
448,192,142286,1,0,0:0:0:0:
64,192,143714,1,0,0:0:0:0:
320,192,145143,1,0,0:0:0:0:
64,192,146572,128,0,149429:0:0:0:0:
192,192,149429,1,0,0:0:0:0:
320,192,149964,1,0,0:0:0:0:
448,192,150500,1,0,0:0:0:0:
192,192,151036,1,0,0:0:0:0:
64,192,151572,1,0,0:0:0:0:
192,192,152286,128,0,153714:0:0:0:0:
448,192,153714,128,0,155143:0:0:0:0:
64,192,155143,128,0,156572:0:0:0:0:
320,192,156572,128,0,157286:0:0:0:0:
192,192,157286,128,0,158000:0:0:0:0:
64,192,158000,128,0,158714:0:0:0:0:
448,192,158714,128,0,159429:0:0:0:0:
192,192,159429,128,0,160143:0:0:0:0:
320,192,160143,128,0,160857:0:0:0:0:
64,192,160857,128,0,161572:0:0:0:0:
448,192,161572,128,0,162286:0:0:0:0:
192,192,162286,128,0,163000:0:0:0:0:
320,192,163000,128,0,163714:0:0:0:0:
64,192,163714,128,0,165143:0:0:0:0:
192,192,165143,128,0,166572:0:0:0:0:
320,192,166572,128,0,168000:0:0:0:0:
448,192,168000,128,0,168714:0:0:0:0:
64,192,168714,128,0,169429:0:0:0:0:
320,192,169429,128,0,170143:0:0:0:0:
192,192,170143,128,0,170857:0:0:0:0:
64,192,170857,128,0,171572:0:0:0:0:
448,192,171572,128,0,172286:0:0:0:0:
64,192,172286,128,0,175143:0:0:0:0:
192,192,172822,1,0,0:0:0:0:
320,192,173357,1,0,0:0:0:0:
448,192,173893,1,0,0:0:0:0:
192,192,174429,1,0,0:0:0:0:
320,192,174786,1,0,0:0:0:0:
192,192,175143,1,0,0:0:0:0:
448,192,175143,128,0,176572:0:0:0:0:
320,192,176572,1,0,0:0:0:0:
192,192,177643,1,0,0:0:0:0:
64,192,178000,1,0,0:0:0:0:
320,192,178714,1,0,0:0:0:0:
64,192,179429,1,0,0:0:0:0:
64,192,180500,1,0,0:0:0:0:
192,192,180857,1,0,0:0:0:0:
448,192,181572,1,0,0:0:0:0:
64,192,182286,1,0,0:0:0:0:
448,192,183000,1,0,0:0:0:0:
320,192,183714,1,0,0:0:0:0:
192,192,184429,1,0,0:0:0:0:
64,192,185143,1,0,0:0:0:0:
192,192,185857,1,0,0:0:0:0:
448,192,186572,128,0,188000:0:0:0:0:
64,192,188000,1,0,0:0:0:0:
320,192,189072,1,0,0:0:0:0:
192,192,189429,1,0,0:0:0:0:
64,192,190143,1,0,0:0:0:0:
192,192,190857,1,0,0:0:0:0:
320,192,191572,1,0,0:0:0:0:
448,192,192286,1,0,0:0:0:0:
64,192,193000,1,0,0:0:0:0:
192,192,193714,1,0,0:0:0:0:
448,192,194429,1,0,0:0:0:0:
64,192,195143,1,0,0:0:0:0:
192,192,195679,1,0,0:0:0:0:
320,192,196214,1,0,0:0:0:0:
448,192,196750,1,0,0:0:0:0:
64,192,197286,1,0,0:0:0:0:
320,192,197643,128,0,198000:0:0:0:0:
64,192,198000,1,0,0:0:0:0:
448,192,198000,1,0,0:0:0:0:
192,192,198357,1,0,0:0:0:0:
448,192,198714,1,0,0:0:0:0:
64,192,199072,1,0,0:0:0:0:
320,192,199429,1,0,0:0:0:0:
64,192,199786,1,0,0:0:0:0:
448,192,200143,1,0,0:0:0:0:
192,192,200500,1,0,0:0:0:0:
320,192,200857,1,0,0:0:0:0:
64,192,201214,1,0,0:0:0:0:
448,192,201572,1,0,0:0:0:0:
320,192,201929,1,0,0:0:0:0:
64,192,202286,1,0,0:0:0:0:
192,192,202643,1,0,0:0:0:0:
320,192,203000,1,0,0:0:0:0:
448,192,203357,128,0,203714:0:0:0:0:
64,192,203714,1,0,0:0:0:0:
320,192,204072,1,0,0:0:0:0:
192,192,204429,1,0,0:0:0:0:
448,192,204786,1,0,0:0:0:0:
64,192,205143,1,0,0:0:0:0:
320,192,205500,1,0,0:0:0:0:
64,192,205857,1,0,0:0:0:0:
448,192,206214,1,0,0:0:0:0:
192,192,206572,1,0,0:0:0:0:
320,192,206929,1,0,0:0:0:0:
64,192,207286,1,0,0:0:0:0:
192,192,207643,1,0,0:0:0:0:
320,192,208000,1,0,0:0:0:0:
64,192,208357,1,0,0:0:0:0:
448,192,208714,1,0,0:0:0:0:
192,192,209072,128,0,209429:0:0:0:0:
448,192,209429,1,0,0:0:0:0:
320,192,209697,1,0,0:0:0:0:
64,192,209964,1,0,0:0:0:0:
192,192,210143,1,0,0:0:0:0:
448,192,210411,1,0,0:0:0:0:
64,192,210679,1,0,0:0:0:0:
448,192,210857,1,0,0:0:0:0:
320,192,211125,1,0,0:0:0:0:
64,192,211393,1,0,0:0:0:0:
192,192,211572,1,0,0:0:0:0:
448,192,211839,1,0,0:0:0:0:
192,192,212107,1,0,0:0:0:0:
448,192,212286,1,0,0:0:0:0:
320,192,212554,1,0,0:0:0:0:
64,192,212822,1,0,0:0:0:0:
448,192,213000,1,0,0:0:0:0:
192,192,213268,1,0,0:0:0:0:
320,192,213536,1,0,0:0:0:0:
64,192,213714,1,0,0:0:0:0:
192,192,213982,1,0,0:0:0:0:
448,192,214250,1,0,0:0:0:0:
64,192,214429,1,0,0:0:0:0:
320,192,214697,1,0,0:0:0:0:
64,192,214964,1,0,0:0:0:0:
448,192,215143,1,0,0:0:0:0:
320,192,215411,1,0,0:0:0:0:
64,192,215679,1,0,0:0:0:0:
448,192,215857,1,0,0:0:0:0:
192,192,216125,1,0,0:0:0:0:
448,192,216393,1,0,0:0:0:0:
64,192,216572,1,0,0:0:0:0:
320,192,216839,1,0,0:0:0:0:
64,192,217107,1,0,0:0:0:0:
448,192,217286,1,0,0:0:0:0:
192,192,217554,1,0,0:0:0:0:
320,192,217822,1,0,0:0:0:0:
64,192,218000,1,0,0:0:0:0:
192,192,218536,1,0,0:0:0:0:
320,192,219072,1,0,0:0:0:0:
64,192,219607,1,0,0:0:0:0:
448,192,220143,1,0,0:0:0:0:
192,192,220500,128,0,220857:0:0:0:0:
448,192,220857,128,0,222286:0:0:0:0:
64,192,221214,1,0,0:0:0:0:
320,192,221572,1,0,0:0:0:0:
192,192,221929,1,0,0:0:0:0:
64,192,222286,128,0,223714:0:0:0:0:
448,192,222643,1,0,0:0:0:0:
192,192,223000,1,0,0:0:0:0:
320,192,223357,1,0,0:0:0:0:
448,192,223714,128,0,225143:0:0:0:0:
64,192,224072,1,0,0:0:0:0:
320,192,224429,1,0,0:0:0:0:
64,192,224786,1,0,0:0:0:0:
192,192,225143,128,0,226572:0:0:0:0:
448,192,225500,1,0,0:0:0:0:
64,192,225857,128,0,226214:0:0:0:0:
320,192,226214,128,0,226572:0:0:0:0:
448,192,226572,128,0,227286:0:0:0:0:
192,192,226929,1,0,0:0:0:0:
320,192,227286,128,0,228000:0:0:0:0:
64,192,227643,1,0,0:0:0:0:
192,192,228000,128,0,228714:0:0:0:0:
448,192,228357,1,0,0:0:0:0:
64,192,228714,128,0,229429:0:0:0:0:
320,192,229072,1,0,0:0:0:0:
448,192,229429,128,0,230143:0:0:0:0:
64,192,229786,1,0,0:0:0:0:
320,192,230143,128,0,230857:0:0:0:0:
64,192,230500,1,0,0:0:0:0:
192,192,230857,128,0,232286:0:0:0:0:
448,192,231214,1,0,0:0:0:0:
64,192,231572,128,0,231929:0:0:0:0:
320,192,231929,128,0,232286:0:0:0:0:
448,192,232286,128,0,233714:0:0:0:0:
64,192,232643,1,0,0:0:0:0:
320,192,233000,1,0,0:0:0:0:
192,192,233357,1,0,0:0:0:0:
320,192,233714,128,0,235143:0:0:0:0:
448,192,234072,1,0,0:0:0:0:
64,192,234429,1,0,0:0:0:0:
192,192,234786,1,0,0:0:0:0:
64,192,235143,128,0,236572:0:0:0:0:
448,192,235500,1,0,0:0:0:0:
192,192,235857,1,0,0:0:0:0:
320,192,236214,1,0,0:0:0:0:
448,192,236572,128,0,238000:0:0:0:0:
192,192,236929,1,0,0:0:0:0:
320,192,237286,128,0,237643:0:0:0:0:
64,192,237643,128,0,238000:0:0:0:0:
192,192,238000,128,0,238714:0:0:0:0:
448,192,238357,1,0,0:0:0:0:
320,192,238714,128,0,239429:0:0:0:0:
64,192,239072,1,0,0:0:0:0:
448,192,239429,128,0,240143:0:0:0:0:
192,192,239786,1,0,0:0:0:0:
64,192,240143,128,0,240857:0:0:0:0:
320,192,240500,1,0,0:0:0:0:
448,192,240857,128,0,242286:0:0:0:0:
192,192,241214,1,0,0:0:0:0:
64,192,241572,1,0,0:0:0:0:
320,192,241929,1,0,0:0:0:0:
64,192,242286,128,0,243714:0:0:0:0:
448,192,242643,1,0,0:0:0:0:
192,192,243000,128,0,243357:0:0:0:0:
448,192,243357,128,0,243714:0:0:0:0:
192,192,243714,1,0,0:0:0:0:
320,192,243714,128,0,245143:0:0:0:0:
448,192,244072,1,0,0:0:0:0:
64,192,244429,1,0,0:0:0:0:
192,192,244786,1,0,0:0:0:0:
448,192,245143,128,0,246214:0:0:0:0:
64,192,245500,1,0,0:0:0:0:
320,192,245857,1,0,0:0:0:0:
192,192,246214,1,0,0:0:0:0:
64,192,246572,128,0,247286:0:0:0:0:
320,192,246929,1,0,0:0:0:0:
448,192,247286,128,0,248000:0:0:0:0:
192,192,247643,1,0,0:0:0:0:
64,192,248000,128,0,248714:0:0:0:0:
320,192,248357,1,0,0:0:0:0:
448,192,248714,128,0,249072:0:0:0:0:
192,192,249072,128,0,249429:0:0:0:0:
320,192,249429,128,0,250143:0:0:0:0:
448,192,249786,1,0,0:0:0:0:
64,192,250143,128,0,250857:0:0:0:0:
192,192,250500,1,0,0:0:0:0:
448,192,250857,128,0,251572:0:0:0:0:
320,192,251214,1,0,0:0:0:0:
192,192,251572,128,0,252286:0:0:0:0:
64,192,251929,1,0,0:0:0:0:
320,192,252286,128,0,253000:0:0:0:0:
192,192,252643,1,0,0:0:0:0:
448,192,253000,128,0,253714:0:0:0:0:
320,192,253357,1,0,0:0:0:0:
64,192,253714,128,0,254429:0:0:0:0:
192,192,254072,1,0,0:0:0:0:
448,192,254429,128,0,254786:0:0:0:0:
320,192,254786,128,0,255143:0:0:0:0:
64,192,255143,128,0,256572:0:0:0:0:
192,192,255143,1,0,0:0:0:0:
448,192,255500,1,0,0:0:0:0:
320,192,255857,1,0,0:0:0:0:
192,192,256214,1,0,0:0:0:0:
448,192,256572,128,0,257643:0:0:0:0:
320,192,256929,1,0,0:0:0:0:
64,192,257286,1,0,0:0:0:0:
192,192,257643,1,0,0:0:0:0:
320,192,258000,128,0,258714:0:0:0:0:
448,192,258000,1,0,0:0:0:0:
64,192,258357,1,0,0:0:0:0:
448,192,258714,128,0,259429:0:0:0:0:
192,192,259072,1,0,0:0:0:0:
64,192,259429,128,0,260143:0:0:0:0:
192,192,259786,1,0,0:0:0:0:
448,192,260143,128,0,260500:0:0:0:0:
320,192,260500,128,0,260857:0:0:0:0:
64,192,260857,128,0,261572:0:0:0:0:
192,192,260857,1,0,0:0:0:0:
320,192,261214,1,0,0:0:0:0:
192,192,261572,128,0,262286:0:0:0:0:
320,192,261929,1,0,0:0:0:0:
320,192,262286,128,0,263000:0:0:0:0:
448,192,262286,1,0,0:0:0:0:
192,192,262643,1,0,0:0:0:0:
64,192,263000,128,0,263714:0:0:0:0:
192,192,263357,1,0,0:0:0:0:
448,192,263714,128,0,265143:0:0:0:0:
320,192,263714,1,0,0:0:0:0:
64,192,264072,1,0,0:0:0:0:
320,192,264429,1,0,0:0:0:0:
192,192,264429,1,0,0:0:0:0:
64,192,264786,1,0,0:0:0:0:
320,192,265143,1,0,0:0:0:0:
64,192,265322,128,0,265500:0:0:0:0:
448,192,265679,128,0,265857:0:0:0:0:
192,192,265857,128,0,266214:0:0:0:0:
64,192,266214,128,0,266572:0:0:0:0:
192,192,266572,1,0,0:0:0:0:
448,192,266572,128,0,267643:0:0:0:0:
320,192,266929,1,0,0:0:0:0:
192,192,267286,1,0,0:0:0:0:
64,192,267643,128,0,268000:0:0:0:0:
192,192,268000,128,0,269072:0:0:0:0:
448,192,268357,1,0,0:0:0:0:
64,192,268714,1,0,0:0:0:0:
448,192,269072,128,0,269429:0:0:0:0:
64,192,269429,128,0,270143:0:0:0:0:
320,192,269786,1,0,0:0:0:0:
192,192,270143,128,0,270857:0:0:0:0:
448,192,270500,1,0,0:0:0:0:
320,192,270857,128,0,272286:0:0:0:0:
64,192,271214,1,0,0:0:0:0:
192,192,271572,128,0,271929:0:0:0:0:
448,192,271929,128,0,272286:0:0:0:0:
64,192,272286,128,0,273000:0:0:0:0:
192,192,272643,1,0,0:0:0:0:
320,192,273000,128,0,273714:0:0:0:0:
448,192,273357,1,0,0:0:0:0:
192,192,273714,128,0,274429:0:0:0:0:
64,192,274072,1,0,0:0:0:0:
448,192,274429,128,0,275143:0:0:0:0:
64,192,274786,1,0,0:0:0:0:
192,192,275143,128,0,275857:0:0:0:0:
448,192,275500,1,0,0:0:0:0:
320,192,275857,128,0,276572:0:0:0:0:
64,192,276214,1,0,0:0:0:0:
448,192,276572,128,0,277286:0:0:0:0:
64,192,276929,1,0,0:0:0:0:
192,192,277286,128,0,277643:0:0:0:0:
448,192,277643,128,0,278000:0:0:0:0:
320,192,278000,128,0,279072:0:0:0:0:
64,192,278357,1,0,0:0:0:0:
192,192,278714,1,0,0:0:0:0:
448,192,279072,1,0,0:0:0:0:
64,192,279429,128,0,280500:0:0:0:0:
448,192,279786,1,0,0:0:0:0:
320,192,280143,1,0,0:0:0:0:
192,192,280500,1,0,0:0:0:0:
448,192,280857,128,0,281572:0:0:0:0:
64,192,281214,1,0,0:0:0:0:
192,192,281572,128,0,282286:0:0:0:0:
320,192,281929,1,0,0:0:0:0:
448,192,282286,128,0,283000:0:0:0:0:
320,192,282643,1,0,0:0:0:0:
64,192,283000,128,0,283357:0:0:0:0:
448,192,283357,128,0,283714:0:0:0:0:
320,192,283714,128,0,284429:0:0:0:0:
192,192,284072,1,0,0:0:0:0:
64,192,284429,128,0,285143:0:0:0:0:
448,192,284786,1,0,0:0:0:0:
192,192,285143,128,0,285857:0:0:0:0:
448,192,285500,1,0,0:0:0:0:
320,192,285857,128,0,286572:0:0:0:0:
64,192,286214,1,0,0:0:0:0:
192,192,286572,128,0,288000:0:0:0:0:
448,192,286929,1,0,0:0:0:0:
64,192,287286,1,0,0:0:0:0:
320,192,287643,1,0,0:0:0:0:
448,192,288000,128,0,289429:0:0:0:0:
64,192,288357,1,0,0:0:0:0:
320,192,288714,128,0,289072:0:0:0:0:
192,192,289072,128,0,289429:0:0:0:0:
64,192,289429,128,0,290500:0:0:0:0:
320,192,289786,1,0,0:0:0:0:
448,192,290143,1,0,0:0:0:0:
192,192,290500,1,0,0:0:0:0:
448,192,290857,128,0,291929:0:0:0:0:
320,192,291214,1,0,0:0:0:0:
64,192,291572,1,0,0:0:0:0:
192,192,291929,1,0,0:0:0:0:
320,192,292286,128,0,293000:0:0:0:0:
64,192,292643,1,0,0:0:0:0:
448,192,293000,128,0,293714:0:0:0:0:
192,192,293357,1,0,0:0:0:0:
64,192,293714,128,0,294786:0:0:0:0:
320,192,294072,1,0,0:0:0:0:
192,192,294429,1,0,0:0:0:0:
448,192,294786,1,0,0:0:0:0:
320,192,295143,128,0,295857:0:0:0:0:
64,192,295500,1,0,0:0:0:0:
192,192,295857,128,0,296572:0:0:0:0:
448,192,296214,1,0,0:0:0:0:
64,192,296572,128,0,297286:0:0:0:0:
320,192,296929,1,0,0:0:0:0:
448,192,297286,128,0,298000:0:0:0:0:
192,192,297643,1,0,0:0:0:0:
320,192,298000,128,0,298714:0:0:0:0:
64,192,298357,1,0,0:0:0:0:
192,192,298714,128,0,299429:0:0:0:0:
448,192,299072,1,0,0:0:0:0:
64,192,299429,128,0,300857:0:0:0:0:
320,192,299786,1,0,0:0:0:0:
448,192,300143,128,0,300500:0:0:0:0:
192,192,300500,128,0,300857:0:0:0:0:
320,192,300857,128,0,301929:0:0:0:0:
448,192,301214,1,0,0:0:0:0:
192,192,301572,1,0,0:0:0:0:
64,192,301929,1,0,0:0:0:0:
448,192,302286,128,0,303357:0:0:0:0:
320,192,302643,1,0,0:0:0:0:
64,192,303000,1,0,0:0:0:0:
192,192,303357,1,0,0:0:0:0:
448,192,303714,1,0,0:0:0:0:
64,192,303714,128,0,304429:0:0:0:0:
320,192,304072,1,0,0:0:0:0:
192,192,304429,128,0,305143:0:0:0:0:
448,192,304786,1,0,0:0:0:0:
320,192,305143,128,0,305857:0:0:0:0:
64,192,305500,1,0,0:0:0:0:
448,192,305857,128,0,306214:0:0:0:0:
192,192,306214,128,0,306572:0:0:0:0:
64,192,306572,128,0,307286:0:0:0:0:
448,192,306572,1,0,0:0:0:0:
192,192,306929,1,0,0:0:0:0:
448,192,307286,128,0,308000:0:0:0:0:
320,192,307643,1,0,0:0:0:0:
192,192,308000,128,0,308714:0:0:0:0:
64,192,308000,1,0,0:0:0:0:
448,192,308357,1,0,0:0:0:0:
320,192,308714,128,0,309429:0:0:0:0:
64,192,309072,1,0,0:0:0:0:
448,192,309429,1,0,0:0:0:0:
64,192,310143,1,0,0:0:0:0:
320,192,310143,1,0,0:0:0:0:
192,192,310857,1,0,0:0:0:0:
448,192,310857,1,0,0:0:0:0:
64,192,311214,1,0,0:0:0:0:
320,192,311572,1,0,0:0:0:0:
192,192,311929,128,0,312286:0:0:0:0:
448,192,312286,1,0,0:0:0:0:
64,192,312286,1,0,0:0:0:0:
320,192,312643,1,0,0:0:0:0:
64,192,313000,1,0,0:0:0:0:
448,192,313357,1,0,0:0:0:0:
192,192,313714,1,0,0:0:0:0:
320,192,314072,1,0,0:0:0:0:
64,192,314429,1,0,0:0:0:0:
448,192,314786,1,0,0:0:0:0:
192,192,315143,1,0,0:0:0:0:
320,192,315500,1,0,0:0:0:0:
64,192,315857,1,0,0:0:0:0:
448,192,316214,1,0,0:0:0:0:
64,192,316572,1,0,0:0:0:0:
320,192,316929,1,0,0:0:0:0:
64,192,317286,128,0,317643:0:0:0:0:
448,192,317643,128,0,318000:0:0:0:0:
192,192,318000,1,0,0:0:0:0:
448,192,318357,1,0,0:0:0:0:
192,192,318714,1,0,0:0:0:0:
320,192,319072,1,0,0:0:0:0:
64,192,319429,1,0,0:0:0:0:
192,192,319786,1,0,0:0:0:0:
448,192,320143,1,0,0:0:0:0:
320,192,320500,1,0,0:0:0:0:
64,192,320857,1,0,0:0:0:0:
448,192,321214,1,0,0:0:0:0:
192,192,321572,1,0,0:0:0:0:
448,192,321929,1,0,0:0:0:0:
64,192,322286,1,0,0:0:0:0:
320,192,322643,1,0,0:0:0:0:
448,192,323000,128,0,323357:0:0:0:0:
64,192,323357,128,0,323714:0:0:0:0:
192,192,323714,1,0,0:0:0:0:
320,192,324072,1,0,0:0:0:0:
64,192,324429,1,0,0:0:0:0:
448,192,324786,1,0,0:0:0:0:
192,192,325143,1,0,0:0:0:0:
320,192,325500,1,0,0:0:0:0:
64,192,325857,1,0,0:0:0:0:
448,192,326214,1,0,0:0:0:0:
192,192,326572,1,0,0:0:0:0:
320,192,326929,1,0,0:0:0:0:
64,192,327286,1,0,0:0:0:0:
448,192,327643,1,0,0:0:0:0:
64,192,328000,1,0,0:0:0:0:
320,192,328357,1,0,0:0:0:0:
192,192,328714,128,0,329072:0:0:0:0:
448,192,329072,128,0,329429:0:0:0:0:
64,192,329429,1,0,0:0:0:0:
320,192,329786,1,0,0:0:0:0:
192,192,330143,1,0,0:0:0:0:
448,192,330500,1,0,0:0:0:0:
64,192,330857,1,0,0:0:0:0:
448,192,331214,1,0,0:0:0:0:
192,192,331572,1,0,0:0:0:0:
448,192,331929,1,0,0:0:0:0:
64,192,332286,1,0,0:0:0:0:
192,192,332643,1,0,0:0:0:0:
448,192,333000,1,0,0:0:0:0:
64,192,333357,1,0,0:0:0:0:
320,192,333714,1,0,0:0:0:0:
320,192,334429,128,0,334786:0:0:0:0:
64,192,334786,128,0,335143:0:0:0:0:
320,192,335143,1,0,0:0:0:0:
448,192,335143,1,0,0:0:0:0:
64,192,335500,1,0,0:0:0:0:
448,192,335857,1,0,0:0:0:0:
192,192,336214,1,0,0:0:0:0:
448,192,336572,1,0,0:0:0:0:
64,192,336929,1,0,0:0:0:0:
192,192,337286,1,0,0:0:0:0:
320,192,337643,1,0,0:0:0:0:
64,192,338000,1,0,0:0:0:0:
192,192,338357,1,0,0:0:0:0:
320,192,338714,1,0,0:0:0:0:
448,192,339072,1,0,0:0:0:0:
64,192,339429,1,0,0:0:0:0:
320,192,339786,1,0,0:0:0:0:
192,192,340143,128,0,340500:0:0:0:0:
448,192,340500,128,0,340857:0:0:0:0:
320,192,340857,1,0,0:0:0:0:
64,192,341214,1,0,0:0:0:0:
448,192,341572,1,0,0:0:0:0:
192,192,341929,1,0,0:0:0:0:
448,192,342286,1,0,0:0:0:0:
192,192,342643,1,0,0:0:0:0:
320,192,343000,1,0,0:0:0:0:
64,192,343357,1,0,0:0:0:0:
320,192,343714,1,0,0:0:0:0:
192,192,344072,1,0,0:0:0:0:
320,192,344429,1,0,0:0:0:0:
448,192,344786,1,0,0:0:0:0:
64,192,345143,1,0,0:0:0:0:
320,192,345500,1,0,0:0:0:0:
448,192,345857,128,0,346214:0:0:0:0:
64,192,346214,128,0,346572:0:0:0:0:
320,192,346572,128,0,351572:0:0:0:0:
448,192,346929,1,0,0:0:0:0:
64,192,347286,1,0,0:0:0:0:
192,192,347643,1,0,0:0:0:0:
448,192,348000,1,0,0:0:0:0:
64,192,348357,1,0,0:0:0:0:
448,192,348714,1,0,0:0:0:0:
192,192,349072,1,0,0:0:0:0:
64,192,349429,1,0,0:0:0:0:
448,192,349786,1,0,0:0:0:0:
64,192,350143,1,0,0:0:0:0:
192,192,350500,1,0,0:0:0:0:
448,192,350857,1,0,0:0:0:0:
64,192,351214,1,0,0:0:0:0:
448,192,351572,128,0,351929:0:0:0:0:
64,192,351929,128,0,352286:0:0:0:0:
320,192,352286,1,0,0:0:0:0:
448,192,352643,1,0,0:0:0:0:
64,192,353000,1,0,0:0:0:0:
320,192,353357,1,0,0:0:0:0:
192,192,353714,1,0,0:0:0:0:
448,192,354072,1,0,0:0:0:0:
192,192,354429,1,0,0:0:0:0:
320,192,354786,1,0,0:0:0:0:
64,192,355143,128,0,357286:0:0:0:0:
192,192,355500,1,0,0:0:0:0:
320,192,355857,1,0,0:0:0:0:
448,192,356214,1,0,0:0:0:0:
320,192,356572,1,0,0:0:0:0:
192,192,356929,1,0,0:0:0:0:
448,192,357286,128,0,357643:0:0:0:0:
64,192,357643,128,0,358000:0:0:0:0:
