osu file format v14

[General]
AudioFilename: audio.mp3
AudioLeadIn: 0
PreviewTime: 59901
Countdown: 0
SampleSet: Soft
StackLeniency: 0.7
Mode: 0
LetterboxInBreaks: 0
WidescreenStoryboard: 1

[Editor]
Bookmarks: 10238,20186,25160,40082,50030,59979,99771,109720,119668
DistanceSpacing: 0.9
BeatDivisor: 4
GridSize: 16
TimelineZoom: 2.35

[Metadata]
Title:Heracles
TitleUnicode:Heracles
Artist:Yooh
ArtistUnicode:Yooh
Creator:Twiggykun
Version:Ryxliee's Normal
Source:
Tags:IntegerTempest Hercules Witow08 Ryxliee fa featured artist Instrumental Electronic Symphonic Hardcore adofai A Dance of Fire and Ice
BeatmapID:3404557
BeatmapSetID:1659194

[Difficulty]
HPDrainRate:3
CircleSize:3
OverallDifficulty:4
ApproachRate:5.4
SliderMultiplier:0.999999999999999
SliderTickRate:1

[Events]
//Background and Video events
0,0,"anime-girl-pixiv-fantasia-katana-blue-flame-11-4k.jpg",0,0
//Break Periods
2,20380,24015
2,80069,81217
//Storyboard Layer 0 (Background)
//Storyboard Layer 1 (Fail)
//Storyboard Layer 2 (Pass)
//Storyboard Layer 3 (Foreground)
//Storyboard Layer 4 (Overlay)
//Storyboard Sound Samples

[TimingPoints]
284,310.880829015544,4,2,1,15,1,0
10232,-100,4,2,1,60,0,0
10543,-100,4,2,1,20,0,0
10698,-100,4,2,1,60,0,0
11009,-100,4,2,1,20,0,0
11164,-100,4,2,1,60,0,0
11397,-100,4,2,1,20,0,0
11475,-100,4,2,1,45,0,0
12719,-100,4,2,1,60,0,0
13030,-100,4,2,1,20,0,0
13185,-100,4,2,1,60,0,0
13496,-100,4,2,1,20,0,0
13651,-100,4,2,1,60,0,0
13885,-100,4,2,1,20,0,0
13962,-100,4,2,1,35,0,0
14584,-100,4,2,1,60,0,0
14817,-100,4,2,1,35,0,0
14895,-100,4,2,1,40,0,0
14973,-100,4,2,1,35,0,0
15050,-100,4,2,1,30,0,0
15128,-100,4,2,1,25,0,0
15206,-90.9090909090909,4,2,1,60,0,0
15361,-90.9090909090909,4,2,1,20,0,0
15517,-90.9090909090909,4,2,1,60,0,0
15672,-90.9090909090909,4,2,1,20,0,0
15828,-90.9090909090909,4,2,1,60,0,0
15983,-90.9090909090909,4,2,1,45,0,0
16138,-90.9090909090909,4,2,1,60,0,0
16605,-90.9090909090909,4,2,1,20,0,0
16760,-90.9090909090909,4,2,1,60,0,0
16916,-90.9090909090909,4,2,1,20,0,0
17071,-90.9090909090909,4,2,1,60,0,0
17771,-90.9090909090909,4,2,1,40,0,0
18315,-90.9090909090909,4,2,1,60,0,0
18936,-90.9090909090909,4,2,1,45,0,0
20180,-90.9090909090909,4,2,1,35,0,0
25154,-105.263157894737,4,2,1,30,0,0
28885,-105.263157894737,4,2,1,30,0,0
29506,-105.263157894737,4,2,1,45,0,0
29817,-105.263157894737,4,2,1,45,0,0
30128,-100,4,2,1,60,0,0
30361,-100,4,2,1,20,0,0
30439,-100,4,2,1,60,0,0
30672,-100,4,2,1,20,0,0
30750,-100,4,2,1,60,0,0
30983,-100,4,2,1,20,0,0
31061,-100,4,2,1,60,0,0
31294,-100,4,2,1,20,0,0
31372,-100,4,2,1,60,0,0
31605,-100,4,2,1,20,0,0
31682,-100,4,2,1,60,0,0
31916,-100,4,2,1,20,0,0
31993,-100,4,2,1,60,0,0
32227,-100,4,2,1,20,0,0
32304,-100,4,2,1,60,0,0
32460,-100,4,2,1,20,0,0
32537,-100,4,2,1,60,0,0
32848,-100,4,2,1,20,0,0
32926,-100,4,2,1,60,0,0
33159,-100,4,2,1,20,0,0
33237,-100,4,2,1,60,0,0
33470,-100,4,2,1,20,0,0
33548,-100,4,2,1,60,0,0
33781,-100,4,2,1,20,0,0
33859,-100,4,2,1,60,0,0
34092,-100,4,2,1,20,0,0
34170,-100,4,2,1,60,0,0
34403,-100,4,2,1,20,0,0
34480,-100,4,2,1,60,0,0
35646,-100,4,2,1,20,0,0
35724,-100,4,2,1,60,0,0
36268,-100,4,2,1,20,0,0
36346,-100,4,2,1,60,0,0
36890,-100,4,2,1,20,0,0
36967,-100,4,2,1,60,0,0
37667,-100,4,2,1,20,0,0
37745,-100,4,2,1,60,0,0
37822,-100,4,2,1,20,0,0
37900,-100,4,2,1,60,0,0
37978,-100,4,2,1,20,0,0
38056,-100,4,2,1,60,0,0
38133,-100,4,2,1,20,0,0
38211,-100,4,2,1,60,0,0
38833,-100,4,2,1,20,0,0
39144,-100,4,2,1,45,0,0
39454,-100,4,2,1,60,0,0
39532,-100,4,2,1,20,0,0
39610,-100,4,2,1,60,0,0
39688,-100,4,2,1,20,0,0
39765,-100,4,2,1,40,0,0
39843,-100,4,2,1,20,0,0
39921,-100,4,2,1,60,0,0
39999,-100,4,2,1,20,0,0
40076,-100,4,2,1,75,0,0
40309,-100,4,2,1,25,0,0
40387,-100,4,2,1,75,0,0
40620,-100,4,2,1,20,0,0
40698,-100,4,2,1,75,0,0
40853,-100,4,2,1,20,0,0
40905,-100,4,2,1,75,0,0
41061,-100,4,2,1,20,0,0
41113,-100,4,2,1,75,0,0
41268,-100,4,2,1,20,0,0
41527,-100,4,2,1,75,0,0
41682,-100,4,2,1,20,0,0
41734,-100,4,2,1,75,0,0
42097,-100,4,2,1,20,0,0
42149,-100,4,2,1,75,0,0
42304,-100,4,2,1,20,0,0
42356,-100,4,2,1,75,0,0
42511,-100,4,2,1,20,0,0
42563,-100,4,2,1,75,0,0
43030,-100,4,2,1,45,0,0
43185,-100,4,2,1,75,0,0
44170,-100,4,2,1,20,0,0
44221,-100,4,2,1,75,0,0
44273,-100,4,2,1,20,0,0
44377,-100,4,2,1,75,0,0
44636,-100,4,2,1,20,0,0
44739,-100,4,2,1,75,0,0
45283,-100,4,2,1,20,0,0
45361,-100,4,2,1,55,0,0
45594,-100,4,2,1,20,0,0
45672,-100,4,2,1,75,0,0
45828,-100,4,2,1,20,0,0
45879,-100,4,2,1,75,0,0
46035,-100,4,2,1,20,0,0
46087,-100,4,2,1,75,0,0
46242,-100,4,2,1,20,0,0
46501,-100,4,2,1,75,0,0
46657,-100,4,2,1,20,0,0
46708,-100,4,2,1,75,0,0
47071,-100,4,2,1,20,0,0
47123,-100,4,2,1,75,0,0
47278,-100,4,2,1,20,0,0
47330,-100,4,2,1,75,0,0
47486,-100,4,2,1,20,0,0
47537,-100,4,2,1,75,0,0
47693,-100,4,2,1,25,0,0
47848,-100,4,2,1,60,0,0
48159,-100,4,2,1,75,0,0
48936,-100,4,2,1,25,0,0
49092,-100,4,2,1,75,0,0
49247,-100,4,2,1,25,0,0
49403,-100,4,2,1,75,0,0
49558,-100,4,2,1,25,0,0
49714,-100,4,2,1,75,0,0
49869,-100,4,2,1,25,0,0
50024,-100,4,2,1,75,0,0
50258,-100,4,2,1,20,0,0
50335,-100,4,2,1,55,0,0
50568,-100,4,2,1,20,0,0
50646,-100,4,2,1,75,0,0
50802,-100,4,2,1,20,0,0
50853,-100,4,2,1,75,0,0
51009,-100,4,2,1,20,0,0
51061,-100,4,2,1,75,0,0
51216,-100,4,2,1,20,0,0
51475,-100,4,2,1,75,0,0
51631,-100,4,2,1,20,0,0
51682,-100,4,2,1,75,0,0
52045,-100,4,2,1,20,0,0
52097,-100,4,2,1,75,0,0
52252,-100,4,2,1,20,0,0
52304,-100,4,2,1,75,0,0
52460,-100,4,2,1,20,0,0
52511,-100,4,2,1,75,0,0
52978,-100,4,2,1,45,0,0
53133,-100,4,2,1,75,0,0
54118,-100,4,2,1,20,0,0
54170,-100,4,2,1,75,0,0
54221,-100,4,2,1,20,0,0
54325,-100,4,2,1,75,0,0
54584,-100,4,2,1,20,0,0
54688,-100,4,2,1,75,0,0
55206,-100,4,2,1,20,0,0
55309,-100,4,2,1,75,0,0
55517,-100,4,2,1,20,0,0
55620,-100,4,2,1,75,0,0
55724,-100,4,2,1,25,0,0
55828,-100,4,2,1,55,0,0
55931,-100,4,2,1,75,0,0
56035,-100,4,2,1,55,0,0
56138,-100,4,2,1,25,0,0
56242,-100,4,2,1,75,0,0
56346,-100,4,2,1,25,0,0
56449,-100,4,2,1,55,0,0
56553,-100,4,2,1,75,0,0
56657,-100,4,2,1,55,0,0
56760,-100,4,2,1,25,0,0
56864,-100,4,2,1,75,0,0
56967,-100,4,2,1,25,0,0
57071,-100,4,2,1,55,0,0
57175,-100,4,2,1,75,0,0
57278,-100,4,2,1,55,0,0
57382,-100,4,2,1,25,0,0
57486,-100,4,2,1,75,0,0
59973,-90.9090909090909,4,2,1,75,0,1
60050,-90.9090909090909,4,2,1,20,0,1
60128,-90.9090909090909,4,2,1,75,0,1
60206,-90.9090909090909,4,2,1,20,0,1
60283,-90.9090909090909,4,2,1,75,0,1
62382,-90.9090909090909,4,2,1,25,0,1
62460,-90.9090909090909,4,2,1,75,0,1
62615,-90.9090909090909,4,2,1,25,0,1
62693,-90.9090909090909,4,2,1,75,0,1
62848,-90.9090909090909,4,2,1,25,0,1
62926,-90.9090909090909,4,2,1,75,0,1
63004,-90.9090909090909,4,2,1,25,0,1
63081,-90.9090909090909,4,2,1,75,0,1
63237,-90.9090909090909,4,2,1,25,0,1
63315,-90.9090909090909,4,2,1,75,0,1
63470,-90.9090909090909,4,2,1,25,0,1
63548,-90.9090909090909,4,2,1,75,0,1
63625,-90.9090909090909,4,2,1,25,0,1
63703,-90.9090909090909,4,2,1,75,0,1
63859,-90.9090909090909,4,2,1,25,0,1
63936,-90.9090909090909,4,2,1,75,0,1
64092,-90.9090909090909,4,2,1,25,0,1
64170,-90.9090909090909,4,2,1,75,0,1
64247,-90.9090909090909,4,2,1,25,0,1
64325,-90.9090909090909,4,2,1,75,0,1
64714,-90.9090909090909,4,2,1,25,0,1
64791,-90.9090909090909,4,2,1,75,0,1
64869,-90.9090909090909,4,2,1,25,0,1
64947,-90.9090909090909,4,2,1,75,0,1
65024,-90.9090909090909,4,2,1,25,0,1
65102,-90.9090909090909,4,2,1,75,0,1
65180,-90.9090909090909,4,2,1,25,0,1
65258,-90.9090909090909,4,2,1,75,0,1
66890,-90.9090909090909,4,2,1,25,0,1
66967,-90.9090909090909,4,2,1,75,0,1
67045,-90.9090909090909,4,2,1,25,0,1
67123,-90.9090909090909,4,2,1,75,0,1
67201,-90.9090909090909,4,2,1,25,0,1
67278,-90.9090909090909,4,2,1,75,0,1
67356,-90.9090909090909,4,2,1,25,0,1
67434,-90.9090909090909,4,2,1,75,0,1
67589,-90.9090909090909,4,2,1,25,0,1
67667,-90.9090909090909,4,2,1,75,0,1
67822,-90.9090909090909,4,2,1,25,0,1
67900,-90.9090909090909,4,2,1,75,0,1
67978,-90.9090909090909,4,2,1,25,0,1
68056,-90.9090909090909,4,2,1,75,0,1
68211,-90.9090909090909,4,2,1,25,0,1
68289,-90.9090909090909,4,2,1,75,0,1
68444,-90.9090909090909,4,2,1,25,0,1
68522,-90.9090909090909,4,2,1,75,0,1
68600,-90.9090909090909,4,2,1,25,0,1
68677,-90.9090909090909,4,2,1,75,0,1
69144,-90.9090909090909,4,2,1,55,0,1
69221,-90.9090909090909,4,2,1,75,0,1
69377,-90.9090909090909,4,2,1,25,0,1
69454,-90.9090909090909,4,2,1,75,0,1
69532,-90.9090909090909,4,2,1,25,0,1
69610,-90.9090909090909,4,2,1,75,0,1
69688,-90.9090909090909,4,2,1,25,0,1
69765,-90.9090909090909,4,2,1,75,0,1
69843,-90.9090909090909,4,2,1,25,0,1
69921,-90.9090909090909,4,2,1,75,0,1
69999,-90.9090909090909,4,2,1,25,0,1
70076,-90.9090909090909,4,2,1,75,0,1
70154,-90.9090909090909,4,2,1,25,0,1
70232,-90.9090909090909,4,2,1,75,0,1
71864,-90.9090909090909,4,2,1,25,0,1
71942,-90.9090909090909,4,2,1,75,0,1
72019,-90.9090909090909,4,2,1,25,0,1
72097,-90.9090909090909,4,2,1,75,0,1
72175,-90.9090909090909,4,2,1,25,0,1
72252,-90.9090909090909,4,2,1,75,0,1
72330,-90.9090909090909,4,2,1,25,0,1
72408,-90.9090909090909,4,2,1,75,0,1
75050,-90.9090909090909,4,2,1,25,0,1
75128,-90.9090909090909,4,2,1,75,0,1
75284,-90.9090909090909,4,2,1,25,0,1
75361,-90.9090909090909,4,2,1,75,0,1
75439,-90.9090909090909,4,2,1,25,0,1
75517,-90.9090909090909,4,2,1,75,0,1
75594,-90.9090909090909,4,2,1,25,0,1
75672,-90.9090909090909,4,2,1,75,0,1
76294,-90.9090909090909,4,2,1,25,0,1
76372,-90.9090909090909,4,2,1,75,0,1
76527,-90.9090909090909,4,2,1,25,0,1
76605,-90.9090909090909,4,2,1,75,0,1
76682,-90.9090909090909,4,2,1,25,0,1
76760,-90.9090909090909,4,2,1,75,0,1
76838,-90.9090909090909,4,2,1,25,0,1
76916,-90.9090909090909,4,2,1,75,0,1
77537,-90.9090909090909,4,2,1,55,0,1
77693,-90.9090909090909,4,2,1,75,0,1
78159,-90.9090909090909,4,2,1,55,0,1
78315,-90.9090909090909,4,2,1,75,0,1
79869,-90.9090909090909,4,2,1,75,0,0
81967,-90.9090909090909,4,2,1,10,0,0
82045,-90.9090909090909,4,2,1,55,0,0
82278,-90.9090909090909,4,2,1,25,0,0
82356,-90.9090909090909,4,2,1,75,0,1
82511,-90.9090909090909,4,2,1,25,0,1
82589,-90.9090909090909,4,2,1,75,0,1
82745,-90.9090909090909,4,2,1,25,0,1
82822,-90.9090909090909,4,2,1,75,0,1
82900,-90.9090909090909,4,2,1,25,0,1
82978,-90.9090909090909,4,2,1,75,0,1
83133,-90.9090909090909,4,2,1,25,0,1
83211,-90.9090909090909,4,2,1,75,0,1
83366,-90.9090909090909,4,2,1,25,0,1
83444,-90.9090909090909,4,2,1,75,0,1
83522,-90.9090909090909,4,2,1,25,0,1
83600,-90.9090909090909,4,2,1,75,0,1
83755,-90.9090909090909,4,2,1,25,0,1
83833,-90.9090909090909,4,2,1,75,0,1
83988,-90.9090909090909,4,2,1,25,0,1
84066,-90.9090909090909,4,2,1,75,0,1
84144,-90.9090909090909,4,2,1,25,0,1
84221,-90.9090909090909,4,2,1,75,0,1
84610,-90.9090909090909,4,2,1,25,0,1
84688,-90.9090909090909,4,2,1,75,0,1
84765,-90.9090909090909,4,2,1,25,0,1
84843,-90.9090909090909,4,2,1,75,0,1
84921,-90.9090909090909,4,2,1,25,0,1
84999,-90.9090909090909,4,2,1,75,0,1
85076,-90.9090909090909,4,2,1,25,0,1
85154,-90.9090909090909,4,2,1,75,0,1
86786,-90.9090909090909,4,2,1,25,0,1
86864,-90.9090909090909,4,2,1,75,0,1
86942,-90.9090909090909,4,2,1,25,0,1
87019,-90.9090909090909,4,2,1,75,0,1
87097,-90.9090909090909,4,2,1,25,0,1
87175,-90.9090909090909,4,2,1,75,0,1
87252,-90.9090909090909,4,2,1,25,0,1
87330,-90.9090909090909,4,2,1,75,0,1
87486,-90.9090909090909,4,2,1,25,0,1
87563,-90.9090909090909,4,2,1,75,0,1
87719,-90.9090909090909,4,2,1,25,0,1
87796,-90.9090909090909,4,2,1,75,0,1
87874,-90.9090909090909,4,2,1,25,0,1
87952,-90.9090909090909,4,2,1,75,0,1
88107,-90.9090909090909,4,2,1,25,0,1
88185,-90.9090909090909,4,2,1,75,0,1
88340,-90.9090909090909,4,2,1,25,0,1
88418,-90.9090909090909,4,2,1,75,0,1
88496,-90.9090909090909,4,2,1,25,0,1
88574,-90.9090909090909,4,2,1,75,0,1
89895,-90.9090909090909,4,2,1,25,0,1
89973,-90.9090909090909,4,2,1,75,0,1
90050,-90.9090909090909,4,2,1,25,0,1
90128,-90.9090909090909,4,2,1,75,0,1
90517,-90.9090909090909,4,2,1,25,0,1
90594,-90.9090909090909,4,2,1,75,0,1
90672,-90.9090909090909,4,2,1,25,0,1
90750,-90.9090909090909,4,2,1,75,0,1
90828,-90.9090909090909,4,2,1,25,0,1
90905,-90.9090909090909,4,2,1,75,0,1
90983,-90.9090909090909,4,2,1,25,0,1
91061,-90.9090909090909,4,2,1,75,0,1
91138,-90.9090909090909,4,2,1,25,0,1
91216,-90.9090909090909,4,2,1,75,0,1
91294,-90.9090909090909,4,2,1,25,0,1
91372,-90.9090909090909,4,2,1,75,0,1
91760,-90.9090909090909,4,2,1,25,0,1
91838,-90.9090909090909,4,2,1,75,0,1
91916,-90.9090909090909,4,2,1,25,0,1
91993,-90.9090909090909,4,2,1,75,0,1
92071,-90.9090909090909,4,2,1,25,0,1
92149,-90.9090909090909,4,2,1,75,0,1
93004,-90.9090909090909,4,2,1,25,0,1
93081,-90.9090909090909,4,2,1,75,0,1
93159,-90.9090909090909,4,2,1,25,0,1
93237,-90.9090909090909,4,2,1,75,0,1
93315,-90.9090909090909,4,2,1,25,0,1
93392,-90.9090909090909,4,2,1,75,0,1
93470,-90.9090909090909,4,2,1,25,0,1
93548,-90.9090909090909,4,2,1,75,0,1
93625,-90.9090909090909,4,2,1,25,0,1
93703,-90.9090909090909,4,2,1,75,0,1
93781,-90.9090909090909,4,2,1,25,0,1
93859,-90.9090909090909,4,2,1,75,0,1
93936,-90.9090909090909,4,2,1,25,0,1
94014,-90.9090909090909,4,2,1,75,0,1
94092,-90.9090909090909,4,2,1,25,0,1
94170,-90.9090909090909,4,2,1,75,0,1
94869,-90.9090909090909,4,2,1,35,0,1
94947,-90.9090909090909,4,2,1,75,0,1
95335,-90.9090909090909,4,2,1,25,0,1
95413,-90.9090909090909,4,2,1,75,0,1
95491,-90.9090909090909,4,2,1,25,0,1
95568,-90.9090909090909,4,2,1,75,0,1
95957,-90.9090909090909,4,2,1,25,0,1
96035,-90.9090909090909,4,2,1,75,0,1
96113,-90.9090909090909,4,2,1,25,0,1
96190,-90.9090909090909,4,2,1,75,0,1
96579,-90.9090909090909,4,2,1,25,0,1
96657,-90.9090909090909,4,2,1,75,0,1
96734,-90.9090909090909,4,2,1,55,0,1
96812,-90.9090909090909,4,2,1,75,0,1
96890,-90.9090909090909,4,2,1,55,0,1
96967,-90.9090909090909,4,2,1,75,0,1
97434,-90.9090909090909,4,2,1,55,0,1
98522,-90.9090909090909,4,2,1,75,0,1
98755,-90.9090909090909,4,2,1,25,0,1
98833,-90.9090909090909,4,2,1,75,0,1
99066,-90.9090909090909,4,2,1,25,0,1
99144,-90.9090909090909,4,2,1,55,0,1
99221,-90.9090909090909,4,2,1,45,0,1
99765,-100,4,2,1,75,0,0
99999,-100,4,2,1,25,0,0
100076,-100,4,2,1,75,0,0
100232,-100,4,2,1,25,0,0
100309,-100,4,2,1,75,0,0
100465,-100,4,2,1,25,0,0
100543,-100,4,2,1,75,0,0
100620,-100,4,2,1,25,0,0
100698,-100,4,2,1,75,0,0
100776,-100,4,2,1,25,0,0
100853,-100,4,2,1,75,0,0
100931,-100,4,2,1,25,0,0
101009,-100,4,2,1,75,0,0
101242,-100,4,2,1,25,0,0
101320,-100,4,2,1,75,0,0
101475,-100,4,2,1,25,0,0
101553,-100,4,2,1,75,0,0
101708,-100,4,2,1,25,0,0
101786,-100,4,2,1,75,0,0
101864,-100,4,2,1,25,0,0
101942,-100,4,2,1,75,0,0
102019,-100,4,2,1,25,0,0
102097,-100,4,2,1,75,0,0
102175,-100,4,2,1,25,0,0
102252,-100,4,2,1,75,0,0
102486,-100,4,2,1,25,0,0
102563,-100,4,2,1,75,0,0
102719,-100,4,2,1,25,0,0
102796,-100,4,2,1,75,0,0
102952,-100,4,2,1,25,0,0
103030,-100,4,2,1,75,0,0
103107,-100,4,2,1,25,0,0
103185,-100,4,2,1,75,0,0
103263,-100,4,2,1,25,0,0
103340,-100,4,2,1,75,0,0
103418,-100,4,2,1,25,0,0
103496,-100,4,2,1,75,0,0
103729,-100,4,2,1,25,0,0
103807,-100,4,2,1,75,0,0
103962,-100,4,2,1,25,0,0
104040,-100,4,2,1,75,0,0
104351,-100,4,2,1,25,0,0
104429,-100,4,2,1,75,0,0
104662,-100,4,2,1,25,0,0
104739,-100,4,2,1,75,0,0
104973,-100,4,2,1,25,0,0
105050,-100,4,2,1,75,0,0
105206,-100,4,2,1,25,0,0
105283,-100,4,2,1,75,0,0
105439,-100,4,2,1,25,0,0
105517,-100,4,2,1,75,0,0
105594,-100,4,2,1,25,0,0
105672,-100,4,2,1,75,0,0
105750,-100,4,2,1,25,0,0
105828,-100,4,2,1,75,0,0
105905,-100,4,2,1,25,0,0
105983,-100,4,2,1,75,0,0
106216,-100,4,2,1,25,0,0
106294,-100,4,2,1,75,0,0
106449,-100,4,2,1,25,0,0
106527,-100,4,2,1,75,0,0
106682,-100,4,2,1,25,0,0
106760,-100,4,2,1,75,0,0
106838,-100,4,2,1,25,0,0
106916,-100,4,2,1,75,0,0
106993,-100,4,2,1,25,0,0
107071,-100,4,2,1,75,0,0
107149,-100,4,2,1,25,0,0
107227,-100,4,2,1,75,0,0
107460,-100,4,2,1,25,0,0
107537,-100,4,2,1,75,0,0
107693,-100,4,2,1,25,0,0
107771,-100,4,2,1,75,0,0
107926,-100,4,2,1,25,0,0
108004,-100,4,2,1,75,0,0
108081,-100,4,2,1,25,0,0
108159,-100,4,2,1,75,0,0
108625,-100,4,2,1,25,0,0
108781,-100,4,2,1,75,0,0
108936,-100,4,2,1,25,0,0
109092,-100,4,2,1,65,0,0
109247,-100,4,2,1,25,0,0
109403,-100,4,2,1,75,0,0
109558,-100,4,2,1,25,0,0
109714,-100,4,2,1,75,0,0
110180,-100,4,2,1,25,0,0
110258,-100,4,2,1,75,0,0
110413,-100,4,2,1,25,0,0
110491,-100,4,2,1,75,0,0
110568,-100,4,2,1,25,0,0
110646,-100,4,2,1,75,0,0
110724,-100,4,2,1,25,0,0
110802,-100,4,2,1,75,0,0
111190,-100,4,2,1,25,0,0
111268,-100,4,2,1,75,0,0
111423,-100,4,2,1,25,0,0
111501,-100,4,2,1,75,0,0
111657,-100,4,2,1,25,0,0
111734,-100,4,2,1,75,0,0
111812,-100,4,2,1,25,0,0
111890,-100,4,2,1,75,0,0
111967,-100,4,2,1,25,0,0
112045,-100,4,2,1,75,0,0
112123,-100,4,2,1,25,0,0
112201,-100,4,2,1,75,0,0
112434,-100,4,2,1,25,0,0
112511,-100,4,2,1,75,0,0
112667,-100,4,2,1,25,0,0
112745,-100,4,2,1,75,0,0
112900,-100,4,2,1,25,0,0
112978,-100,4,2,1,75,0,0
113056,-100,4,2,1,25,0,0
113133,-100,4,2,1,75,0,0
113211,-100,4,2,1,25,0,0
113289,-100,4,2,1,75,0,0
113366,-100,4,2,1,25,0,0
113444,-100,4,2,1,75,0,0
113677,-100,4,2,1,25,0,0
113755,-100,4,2,1,75,0,0
113910,-100,4,2,1,25,0,0
113988,-100,4,2,1,75,0,0
114299,-100,4,2,1,25,0,0
114377,-100,4,2,1,75,0,0
114610,-100,4,2,1,25,0,0
114688,-100,4,2,1,65,0,0
115232,-100,4,2,1,25,0,0
115309,-100,4,2,1,65,0,0
115853,-100,4,2,1,25,0,0
115931,-100,4,2,1,65,0,0
116475,-100,4,2,1,25,0,0
116553,-100,4,2,1,65,0,0
117097,-100,4,2,1,25,0,0
117175,-100,4,2,1,75,0,0
119662,-100,4,2,1,30,0,0

[Colours]
Combo1 : 136,214,247
Combo2 : 249,67,6
Combo3 : 242,180,13
Combo4 : 12,99,243

[HitObjects]
358,101,10232,6,0,B|420:92|420:92|436:72|436:72|496:63,2,150,6|6|6,1:3|1:3|1:3,2:2:0:0:
272,73,11475,1,2,2:2:0:0:
209,137,11786,1,2,2:2:0:0:
255,213,12097,2,0,P|259:261|226:296,1,99.9999999999999,2|2,2:2|2:2,2:2:0:0:
147,340,12719,6,0,B|84:331|84:331|69:311|69:311|8:302,2,150,6|6|6,1:3|1:3|1:3,2:2:0:0:
226,296,13962,1,2,2:2:0:0:
298,350,14273,1,2,2:2:0:0:
373,301,14584,2,0,P|424:290|470:282,1,99.9999999999999,2|10,2:2|2:3,2:2:0:0:
510,190,15206,5,14,1:3:0:0:
435,124,15517,1,10,1:2:0:0:
352,178,15828,2,0,P|322:181|297:186,1,55.0000016784668,10|0,1:2|2:2,0:0:0:0:
263,221,16138,2,0,P|235:216|208:213,1,55.0000016784668,10|2,1:2|1:2,0:0:0:0:
161,230,16449,2,0,B|149:205|136:179|136:179|144:158|153:129,1,110.000003356934,14|10,1:3|1:2,2:2:0:0:
204,43,17071,2,0,P|252:37|313:33,1,110.000003356934,10|10,1:2|1:2,0:0:0:0:
364,20,17537,1,2,1:2:0:0:
364,20,17693,5,14,1:3:0:0:
439,83,18004,1,10,1:2:0:0:
419,180,18315,2,0,P|430:219|436:258,2,73.3333355712891,6|6|6,1:3|1:3|1:3,0:0:0:0:
359,152,18936,2,0,B|305:138|265:197|275:204|285:212|245:268|183:251,1,220.000006713867,2|2,2:2|2:2,2:2:0:0:
110,185,19869,1,10,2:2:0:0:
29,243,20180,5,0,1:2:0:0:
442,150,25154,6,0,B|483:150|496:191|496:191|469:246|447:297,1,189.999994926453,2|10,2:2|2:2,2:2:0:0:
287,359,26397,2,0,P|251:329|205:331,1,94.9999974632263,2|2,2:2|1:2,0:0:0:0:
134,379,27019,1,10,2:2:0:0:
46,232,27641,2,0,P|89:153|178:163,1,189.999994926453,2|10,1:2|2:2,0:0:0:0:
321,256,28885,2,0,P|331:209|347:165,1,94.9999974632263,2|2,2:2|1:2,0:0:0:0:
420,120,29506,2,0,P|409:98|392:83,1,47.4999987316131,10|2,2:2|1:2,0:0:0:0:
376,43,29817,2,2,P|352:41|330:48,1,47.4999987316131,2|2,2:2|2:2,2:2:0:0:
288,65,30128,6,0,P|237:55|183:47,1,99.9999999999999,14|10,2:3|2:3,2:2:0:0:
114,98,30750,2,0,P|64:105|15:115,1,99.9999999999999,10|10,2:3|2:3,2:2:0:0:
50,198,31372,1,10,2:3:0:0:
1,273,31682,1,10,2:3:0:0:
60,340,31993,1,10,2:3:0:0:
144,309,32304,1,10,2:3:0:0:
139,219,32615,6,0,P|179:190|228:196,1,99.9999999999999,14|10,2:3|2:3,2:2:0:0:
280,270,33237,2,0,P|319:298|368:292,1,99.9999999999999,10|10,2:3|2:3,2:2:0:0:
458,296,33859,1,10,2:3:0:0:
506,220,34170,1,10,2:3:0:0:
469,138,34480,2,0,P|441:141|420:148,1,50,10|10,2:3|2:3,0:0:0:0:
386,178,34791,2,0,P|361:180|337:172,1,50,10|10,2:3|2:3,0:0:0:0:
299,148,35102,6,0,L|281:46,1,99.9999999999999,14|0,2:3|2:2,2:2:0:0:
192,60,35724,2,0,L|209:158,1,99.9999999999999,14|0,2:3|2:2,2:2:0:0:
120,175,36346,2,0,L|102:76,1,99.9999999999999,14|0,2:3|2:2,2:2:0:0:
14,93,36967,2,0,L|31:191,1,99.9999999999999,14|0,2:3|2:2,2:2:0:0:
31,281,37589,6,0,P|52:294|76:295,1,50,14|10,2:3|2:3,2:2:0:0:
119,309,37900,2,0,P|142:300|169:292,1,50,10|10,2:3|2:3,2:2:0:0:
204,268,38211,2,0,P|213:218|223:169,1,99.9999999999999,10|10,2:2|2:2,0:0:0:0:
192,84,38833,1,0,1:2:0:0:
264,31,39144,2,0,P|288:34|312:42,1,50,10|10,2:2|2:2,0:0:0:0:
354,25,39454,2,0,P|378:28|402:36,1,50,2|2,2:2|2:2,2:2:0:0:
447,34,39765,1,10,1:3:0:0:
493,111,40076,6,0,P|472:156|458:204,1,99.9999999999999,4|8,1:3|2:2,2:2:0:0:
400,274,40698,2,0,P|412:309|422:342,2,66.6666666666666,10|2|2,2:3|1:2|1:2,2:2:0:0:
305,199,41527,2,0,P|272:198|243:215,1,66.6666666666666,2|2,1:2|1:2,2:2:0:0:
192,245,41942,2,0,P|163:228|130:229,2,66.6666666666666,10|2|2,2:3|1:2|1:2,2:2:0:0:
229,291,42563,5,2,1:2:0:0:
51,319,43185,2,0,P|60:355|66:386,2,66.6666666666666,10|2|2,2:3|1:2|1:2,0:2:0:0:
5,207,44014,2,0,P|10:174|18:141,1,66.6666666666666,2|2,1:2|1:2,2:2:0:0:
41,86,44429,1,6,1:3:0:0:
120,42,44739,1,6,1:3:0:0:
195,90,45050,6,0,B|244:103|244:103|289:83,1,99.9999999999999,4|8,1:3|2:2,2:2:0:0:
358,25,45672,2,0,B|388:10|388:10|429:13,2,66.6666666666666,10|2|2,2:3|1:2|1:2,2:2:0:0:
379,143,46501,2,0,P|372:175|367:208,1,66.6666666666666,2|0,1:2|1:2,2:2:0:0:
346,265,46916,2,0,P|352:301|357:338,2,66.6666666666666,10|2|2,2:3|1:2|1:2,2:2:0:0:
296,231,47537,5,0,1:2:0:0:
220,279,47848,1,0,2:2:0:0:
141,234,48159,2,0,P|102:222|64:210,2,66.6666666666666,10|2|2,2:3|1:2|1:2,2:2:0:0:
181,191,48781,2,0,P|210:152|206:103,1,99.9999999999999,6|2,1:2|2:2,2:2:0:0:
143,37,49403,2,0,P|93:45|44:55,1,99.9999999999999,6|2,1:2|2:2,2:2:0:0:
0,134,50024,6,0,P|13:182|23:231,1,99.9999999999999,6|10,1:3|2:2,2:2:0:0:
95,285,50646,2,0,P|87:321|82:355,2,66.6666666666666,10|2|2,2:3|1:2|1:2,2:2:0:0:
177,197,51475,2,0,P|209:196|238:213,1,66.6666666666666,2|2,1:2|1:2,2:2:0:0:
294,234,51890,2,0,P|326:216|363:220,2,66.6666666666666,10|2|2,2:3|1:2|1:2,2:2:0:0:
272,290,52511,5,2,1:2:0:0:
225,116,53133,2,0,P|192:98|155:102,2,66.6666666666666,10|2|2,2:3|1:2|1:2,2:2:0:0:
327,178,53962,2,0,P|359:177|388:160,1,66.6666666666666,2|2,1:2|1:2,2:2:0:0:
429,117,54377,1,14,1:3:0:0:
498,174,54688,1,6,1:3:0:0:
471,260,54999,6,0,P|422:269|374:282,1,99.9999999999999,6|0,1:3|1:2,2:2:0:0:
288,311,55620,2,0,P|279:347|270:380,2,66.6666666666666,10|2|2,1:3|2:2|1:3,2:2:0:0:
247,266,56242,2,0,P|238:229|229:196,2,66.6666666666666,10|2|2,1:3|2:2|2:2,2:2:0:0:
200,303,56864,2,0,P|191:339|182:374,2,66.6666666666666,10|2|2,1:3|2:2|2:2,2:2:0:0:
155,262,57486,5,10,1:3:0:0:
79,309,57796,1,10,1:3:0:0:
13,247,58107,1,10,1:3:0:0:
45,163,58418,1,10,1:3:0:0:
134,169,58729,1,2,2:2:0:0:
424,353,59973,6,0,B|433:304|433:304|437:294|437:294|450:229,1,110.000003356934,6|10,1:3|1:3,2:2:0:0:
495,159,60594,2,0,P|487:132|469:112,1,55.0000016784668,2|2,1:2|2:2,2:2:0:0:
443,77,60905,1,10,1:3:0:0:
443,77,61061,1,2,2:2:0:0:
354,121,61372,2,0,B|329:121|304:129|304:129|282:114|252:100,1,110.000003356934,2|2,2:2|2:2,0:0:0:0:
238,53,61837,2,0,P|207:55|177:59,1,55.0000016784668,2|2,1:2|2:2,0:0:0:0:
133,54,62148,1,10,1:3:0:0:
43,96,62460,6,0,B|26:124|10:147|10:147|15:174|40:184,1,110.000003356934,2|10,1:2|1:3,2:2:0:0:
70,230,62926,1,2,2:2:0:0:
70,230,63081,2,0,P|127:228|161:288,1,110.000003356934,2|10,1:2|1:3,2:2:0:0:
185,314,63548,1,2,2:2:0:0:
185,314,63703,2,0,B|238:318|220:354|282:358,1,110.000003356934,2|10,1:2|1:3,2:2:0:0:
332,382,64170,1,2,2:2:0:0:
332,382,64325,1,2,1:2:0:0:
394,305,64636,1,10,1:3:0:0:
361,211,64947,6,0,P|306:203|251:197,1,110.000003356934,2|10,1:2|1:3,2:2:0:0:
171,254,65568,2,0,B|142:263|114:273|114:273|92:260|70:249,1,110.000003356934,2|10,1:2|1:3,2:2:0:0:
26,237,66035,1,2,2:2:0:0:
26,237,66190,1,2,1:2:0:0:
68,147,66501,2,0,P|62:121|53:93,1,55.0000016784668,10|2,1:3|2:2,0:0:0:0:
20,57,66812,1,2,1:2:0:0:
107,10,67123,1,10,1:3:0:0:
174,82,67434,6,0,B|189:99|215:96|215:96|236:71|270:63,1,110.000003356934,2|10,1:2|1:3,2:2:0:0:
313,37,67900,1,2,2:2:0:0:
313,37,68055,2,0,P|372:46|437:58,1,110.000003356934,2|10,1:2|1:3,2:2:0:0:
468,85,68522,1,2,2:2:0:0:
468,85,68677,1,2,1:2:0:0:
401,158,68988,1,10,1:3:0:0:
448,245,69299,2,0,P|440:271|420:289,1,55.0000016784668,2|2,1:2|1:2,2:2:0:0:
409,337,69610,2,0,P|382:343|356:335,1,55.0000016784668,2|2,1:2|1:2,2:2:0:0:
324,297,69921,6,0,P|271:286|226:316,1,110.000003356934,6|10,1:3|1:3,2:2:0:0:
154,383,70543,1,2,1:2:0:0:
73,326,70853,2,0,P|68:301|59:268,1,55.0000016784668,10|2,1:3|2:2,0:0:0:0:
22,241,71164,2,0,B|33:191|33:191|39:182|39:182|54:130,1,110.000003356934,2|10,1:2|1:3,2:2:0:0:
138,86,71786,1,2,1:2:0:0:
221,139,72097,1,10,1:3:0:0:
167,222,72408,6,0,B|151:234|149:256|149:256|176:290|187:314,1,110.000003356934,2|10,1:2|1:3,2:2:0:0:
290,327,73030,1,2,1:2:0:0:
290,327,73185,2,0,P|281:353|275:379,2,55.0000016784668,2|10|2,2:2|1:3|2:2,0:0:0:0:
326,293,73651,1,2,1:2:0:0:
409,345,73962,1,10,1:3:0:0:
489,287,74273,2,0,P|497:260|494:233,1,55.0000016784668,2|2,1:2|2:2,2:2:0:0:
511,187,74584,2,0,P|492:166|467:155,1,55.0000016784668,10|10,1:3|1:3,0:0:0:0:
418,149,74895,6,0,B|404:183|404:183|399:188|399:188|384:223,2,82.5000025177002,6|2|2,1:3|1:2|1:2,2:2:0:0:
406,105,75517,1,2,1:3:0:0:
406,105,75672,1,2,2:2:0:0:
316,74,75984,1,2,2:2:0:0:
316,74,76138,2,0,B|300:38|300:38|295:33|295:33|282:0,2,82.5000025177002,6|2|2,1:3|1:2|1:2,2:2:0:0:
298,122,76760,1,2,1:2:0:0:
298,122,76916,1,2,2:2:0:0:
226,189,77227,1,2,2:2:0:0:
226,189,77382,6,0,P|171:181|116:177,1,110.000003356934,4|10,1:3|1:3,2:2:0:0:
95,274,78004,2,0,P|149:278|204:285,1,110.000003356934,6|10,1:3|1:3,2:2:0:0:
289,337,78625,2,0,P|315:330|333:310,1,55.0000016784668,2|10,1:2|2:2,0:0:0:0:
363,270,78936,2,0,P|394:279|431:296,2,55.0000016784668,10|10|10,1:3|2:2|1:3,0:0:0:0:
337,233,79403,1,10,2:2:0:0:
337,233,79558,1,8,1:3:0:0:
304,139,79869,5,8,1:3:0:0:
177,33,82356,6,0,B|148:26|125:44|125:44|122:74|99:91,1,110.000003356934,6|10,1:3|1:3,2:2:0:0:
63,123,82822,1,2,2:2:0:0:
63,123,82978,2,0,P|73:176|83:230,1,110.000003356934,2|10,1:2|1:3,2:2:0:0:
78,283,83444,1,2,2:2:0:0:
78,283,83600,2,0,B|103:298|120:315|120:315|145:309|176:308,1,110.000003356934,2|10,1:2|1:3,2:2:0:0:
226,331,84066,1,2,2:2:0:0:
226,331,84221,1,2,1:2:0:0:
302,268,84532,1,10,1:3:0:0:
265,175,84843,6,0,B|249:157|224:157|224:157|200:183|166:178,1,110.000003356934,2|10,1:2|1:3,2:2:0:0:
101,103,85465,2,0,P|114:51|164:34,1,110.000003356934,2|10,1:2|1:3,2:2:0:0:
214,20,85931,1,2,2:2:0:0:
214,20,86087,1,2,1:2:0:0:
291,80,86397,2,0,P|318:72|345:65,1,55.0000016784668,10|2,1:3|2:2,0:0:0:0:
382,32,86708,1,2,1:2:0:0:
474,67,87019,1,10,1:3:0:0:
447,162,87330,6,0,B|454:211|454:211|457:220|457:220|466:289,1,110.000003356934,2|10,1:2|1:3,2:2:0:0:
483,321,87796,1,2,2:2:0:0:
483,321,87952,2,0,B|418:316|433:348|380:352,1,110.000003356934,2|10,1:2|1:3,2:2:0:0:
341,380,88418,1,2,2:2:0:0:
341,380,88574,1,2,1:2:0:0:
278,303,88885,1,10,1:3:0:0:
186,339,89195,2,0,P|158:340|135:326,1,55.0000016784668,0|2,1:2|1:2,0:0:0:0:
86,323,89506,2,0,P|71:299|72:272,1,55.0000016784668,2|2,1:2|1:2,0:0:0:0:
45,238,89817,5,14,1:3:0:0:
45,238,89973,2,0,P|34:183|21:130,1,110.000003356934,2|2,2:2|2:2,2:2:0:0:
2,84,90439,1,10,1:3:0:0:
80,23,90750,1,10,1:3:0:0:
161,89,91061,1,10,1:3:0:0:
161,89,91216,2,0,P|201:122|252:107,1,110.000003356934,2|2,2:2|2:2,2:2:0:0:
285,71,91682,1,10,1:3:0:0:
364,129,91993,2,0,P|360:157|358:184,1,55.0000016784668,10|10,1:3|1:2,2:2:0:0:
386,232,92305,5,10,1:3:0:0:
386,232,92460,2,0,B|383:258|359:270|359:270|327:265|296:262,1,110.000003356934,2|2,2:2|2:2,0:0:0:0:
263,226,92926,1,10,1:3:0:0:
172,265,93237,1,10,1:3:0:0:
83,220,93548,2,0,P|34:242|24:294,1,110.000003356934,10|10,1:3|1:3,2:2:0:0:
67,383,94170,2,0,P|93:376|120:372,1,55.0000016784668,10|10,1:3|1:2,0:0:0:0:
165,352,94480,2,0,P|192:356|218:362,1,55.0000016784668,10|10,1:3|1:2,0:0:0:0:
265,345,94791,6,0,B|281:296|281:296|286:288|286:288|301:241,1,110.000003356934,14|10,1:3|1:2,2:2:0:0:
340,209,95258,1,10,1:2:0:0:
340,209,95413,1,14,1:3:0:0:
273,135,95724,1,10,1:2:0:0:
333,56,96035,2,0,B|391:53|377:92|434:90,1,110.000003356934,14|10,1:3|1:2,2:2:0:0:
487,90,96501,1,10,1:3:0:0:
487,90,96657,2,0,P|496:117|502:143,1,55.0000016784668,14|10,1:3|1:2,0:0:0:0:
488,190,96967,2,0,P|479:216|473:242,1,55.0000016784668,10|10,1:2|1:3,0:0:0:0:
486,290,97278,6,0,P|447:325|396:312,1,110.000003356934,14|10,1:3|2:3,2:2:0:0:
335,233,97900,2,0,P|296:197|245:210,1,110.000003356934,10|10,1:3|2:3,0:0:0:0:
187,291,98522,1,2,1:2:0:0:
243,372,98833,1,2,1:2:0:0:
418,167,99765,5,6,1:3:0:0:
361,97,100076,2,0,B|354:62|354:62|369:25,2,74.9999999999999,10|2|2,1:3|1:2|1:2,2:2:0:0:
335,134,100698,2,0,P|311:139|288:149,1,50,10|2,1:3|1:2,2:2:0:0:
258,182,101009,1,2,1:2:0:0:
189,240,101320,2,0,B|182:274|182:274|197:311,2,74.9999999999999,10|2|2,1:3|1:2|1:2,2:2:0:0:
163,202,101942,2,0,P|140:191|115:186,1,50,10|2,1:3|1:2,2:2:0:0:
71,192,102253,5,2,1:2:0:0:
17,120,102563,2,0,P|10:83|0:47,2,74.9999999999999,10|2|2,1:3|1:2|1:2,2:2:0:0:
53,92,103185,2,0,P|72:76|96:72,1,50,10|2,1:3|1:2,2:2:0:0:
133,45,103496,2,0,P|184:57|238:77,1,99.9999999999999,2|10,1:2|1:3,2:2:0:0:
282,145,104118,1,2,1:2:0:0:
351,88,104429,1,2,1:2:0:0:
414,150,104739,5,2,1:2:0:0:
483,92,105050,2,0,P|478:54|469:18,2,74.9999999999999,10|2|2,1:3|1:2|1:2,2:2:0:0:
510,127,105672,2,0,P|504:151|501:176,1,50,10|2,1:3|1:2,2:2:0:0:
477,214,105983,1,2,1:2:0:0:
416,280,106294,2,0,P|425:316|430:353,2,74.9999999999999,10|2|2,1:3|1:2|1:2,2:2:0:0:
374,261,106916,2,0,P|351:254|326:258,1,50,10|2,1:3|1:2,2:2:0:0:
288,283,107227,5,2,1:2:0:0:
198,288,107537,2,0,P|167:308|131:301,2,74.9999999999999,10|2|2,1:3|1:2|1:2,2:2:0:0:
200,242,108159,2,0,P|205:218|212:194,1,50,10|2,1:3|1:2,0:0:0:0:
247,165,108470,2,0,P|237:115|227:66,1,99.9999999999999,6|2,1:2|2:2,2:2:0:0:
315,49,109092,2,0,P|324:98|334:147,1,99.9999999999999,6|2,1:2|2:2,2:2:0:0:
406,201,109714,5,14,1:3:0:0:
366,281,110024,2,0,P|317:293|276:321,1,99.9999999999999,10|10,1:3|1:3,2:2:0:0:
233,335,110491,2,0,P|226:367|219:395,2,50,2|10|2,2:2|1:3|2:2,2:2:0:0:
200,303,110957,1,10,1:3:0:0:
109,302,111268,2,0,P|77:265|87:217,1,99.9999999999999,10|10,1:3|1:3,2:2:0:0:
110,180,111734,2,0,P|134:177|155:163,2,50,2|10|2,2:2|1:3|2:2,2:2:0:0:
77,148,112201,5,10,1:3:0:0:
107,63,112511,2,0,B|157:57|149:87|202:81,1,99.9999999999999,10|10,1:3|1:3,2:2:0:0:
246,67,112978,2,0,P|246:38|232:11,2,50,2|10|2,2:2|1:3|2:2,2:2:0:0:
277,98,113444,2,0,P|265:146|255:195,1,99.9999999999999,10|10,1:3|1:3,2:2:0:0:
190,257,114066,1,10,1:3:0:0:
229,338,114377,1,10,1:3:0:0:
318,346,114688,6,0,B|348:360|348:360|351:365|351:365|396:387,2,74.9999999999999,14|10|10,1:3|1:3|1:2,2:2:0:0:
314,301,115309,1,14,1:3:0:0:
369,230,115620,1,10,1:2:0:0:
310,161,115931,2,0,B|279:175|279:175|277:180|277:180|232:202,2,74.9999999999999,14|10|10,1:3|1:3|1:3,2:2:0:0:
319,116,116553,1,14,1:3:0:0:
264,44,116864,1,10,1:2:0:0:
343,1,117175,6,0,P|391:4|420:43,1,99.9999999999999,14|10,1:3|1:3,0:0:0:0:
456,79,117641,1,10,1:3:0:0:
456,79,117796,2,0,P|450:103|445:127,1,50,10|10,1:3|1:3,0:0:0:0:
414,160,118107,2,0,P|420:184|425:208,1,50,10|10,1:3|1:3,0:0:0:0:
256,192,118418,12,0,119662,1:2:0:0:
