osu file format v14

[General]
AudioFilename: audio.mp3
AudioLeadIn: 0
PreviewTime: 59901
Countdown: 0
SampleSet: Soft
StackLeniency: 0.7
Mode: 0
LetterboxInBreaks: 0
WidescreenStoryboard: 0

[Editor]
Bookmarks: 20186,40082,59979,79875,99771,119668
DistanceSpacing: 4.6
BeatDivisor: 8
GridSize: 16
TimelineZoom: 3.049999

[Metadata]
Title:Heracles
TitleUnicode:Heracles
Artist:Yooh
ArtistUnicode:Yooh
Creator:Twiggykun
Version:Rampage
Source:
Tags:IntegerTempest Hercules Witow08 Ryxliee fa featured artist Instrumental Electronic Symphonic Hardcore adofai A Dance of Fire and Ice
BeatmapID:3387004
BeatmapSetID:1659194

[Difficulty]
HPDrainRate:5
CircleSize:4
OverallDifficulty:9
ApproachRate:9.7
SliderMultiplier:2
SliderTickRate:1

[Events]
//Background and Video events
0,0,"anime-girl-pixiv-fantasia-katana-blue-flame-11-4k.jpg",0,0
//Break Periods
2,20379,24659
//Storyboard Layer 0 (Background)
//Storyboard Layer 1 (Fail)
//Storyboard Layer 2 (Pass)
//Storyboard Layer 3 (Foreground)
//Storyboard Layer 4 (Overlay)
//Storyboard Sound Samples

[TimingPoints]
284,310.880829015544,4,2,1,15,1,0
284,-133.333333333333,4,2,1,30,0,0
439,-133.333333333333,4,2,1,10,0,0
594,-133.333333333333,4,2,1,30,0,0
750,-133.333333333333,4,2,1,10,0,0
905,-133.333333333333,4,2,1,30,0,0
1061,-133.333333333333,4,2,1,10,0,0
1216,-133.333333333333,4,2,1,30,0,0
1372,-133.333333333333,4,2,1,10,0,0
1527,-133.333333333333,4,2,1,30,0,0
1682,-133.333333333333,4,2,1,10,0,0
1838,-133.333333333333,4,2,1,30,0,0
1993,-133.333333333333,4,2,1,10,0,0
2149,-133.333333333333,4,2,1,30,0,0
2304,-133.333333333333,4,2,1,10,0,0
2460,-133.333333333333,4,2,1,30,0,0
2615,-133.333333333333,4,2,1,10,0,0
2771,-133.333333333333,4,2,1,30,0,0
5413,-133.333333333333,4,2,1,10,0,0
5568,-133.333333333333,4,2,1,30,0,0
5724,-133.333333333333,4,2,1,10,0,0
5879,-133.333333333333,4,2,1,30,0,0
6035,-133.333333333333,4,2,1,10,0,0
6190,-133.333333333333,4,2,1,30,0,0
6346,-133.333333333333,4,2,1,10,0,0
6501,-133.333333333333,4,2,1,30,0,0
6657,-133.333333333333,4,2,1,10,0,0
6812,-133.333333333333,4,2,1,30,0,0
6967,-133.333333333333,4,2,1,10,0,0
7123,-133.333333333333,4,2,1,30,0,0
7278,-133.333333333333,4,2,1,10,0,0
7434,-133.333333333333,4,2,1,30,0,0
7589,-133.333333333333,4,2,1,10,0,0
9532,-133.333333333333,4,2,1,30,0,0
9610,-100,4,2,1,30,0,0
9843,-100,4,2,1,30,0,0
9921,-83.3333333333333,4,2,1,35,0,0
10076,-71.4285714285714,4,2,1,35,0,0
10232,-66.6666666666667,4,2,1,60,0,0
10543,-66.6666666666667,4,2,1,20,0,0
10698,-66.6666666666667,4,2,1,60,0,0
11009,-66.6666666666667,4,2,1,20,0,0
11164,-66.6666666666667,4,2,1,60,0,0
11397,-66.6666666666667,4,2,1,20,0,0
11475,-133.333333333333,4,2,1,45,0,0
12719,-66.6666666666667,4,2,1,60,0,0
13030,-66.6666666666667,4,2,1,20,0,0
13185,-66.6666666666667,4,2,1,60,0,0
13496,-66.6666666666667,4,2,1,20,0,0
13651,-66.6666666666667,4,2,1,60,0,0
13885,-66.6666666666667,4,2,1,20,0,0
13962,-133.333333333333,4,2,1,35,0,0
14584,-100,4,2,1,60,0,0
14817,-100,4,2,1,35,0,0
14895,-100,4,2,1,40,0,0
14973,-100,4,2,1,35,0,0
15050,-100,4,2,1,30,0,0
15128,-100,4,2,1,25,0,0
15206,-100,4,2,1,60,0,0
15361,-100,4,2,1,20,0,0
15517,-100,4,2,1,60,0,0
15672,-100,4,2,1,20,0,0
15828,-100,4,2,1,60,0,0
15983,-100,4,2,1,45,0,0
16138,-100,4,2,1,60,0,0
16605,-100,4,2,1,20,0,0
16760,-100,4,2,1,60,0,0
16916,-100,4,2,1,20,0,0
17071,-100,4,2,1,60,0,0
17771,-100,4,2,1,40,0,0
18315,-100,4,2,1,60,0,0
18936,-133.333333333333,4,2,1,45,0,0
19869,-76.9230769230769,4,2,1,45,0,0
20180,-76.9230769230769,4,2,1,35,0,0
25154,-100,4,2,1,30,0,0
28885,-100,4,2,1,30,0,0
29506,-100,4,2,1,45,0,0
29817,-66.6666666666667,4,2,1,45,0,0
30128,-66.6666666666667,4,2,1,60,0,0
30361,-66.6666666666667,4,2,1,20,0,0
30439,-66.6666666666667,4,2,1,60,0,0
30672,-66.6666666666667,4,2,1,20,0,0
30750,-66.6666666666667,4,2,1,60,0,0
30983,-66.6666666666667,4,2,1,20,0,0
31061,-66.6666666666667,4,2,1,60,0,0
31294,-66.6666666666667,4,2,1,20,0,0
31372,-66.6666666666667,4,2,1,60,0,0
31605,-66.6666666666667,4,2,1,20,0,0
31682,-66.6666666666667,4,2,1,60,0,0
31916,-66.6666666666667,4,2,1,20,0,0
31993,-66.6666666666667,4,2,1,60,0,0
32227,-66.6666666666667,4,2,1,20,0,0
32304,-66.6666666666667,4,2,1,60,0,0
32460,-66.6666666666667,4,2,1,20,0,0
32537,-66.6666666666667,4,2,1,60,0,0
32848,-66.6666666666667,4,2,1,20,0,0
32926,-66.6666666666667,4,2,1,60,0,0
33159,-66.6666666666667,4,2,1,20,0,0
33237,-66.6666666666667,4,2,1,60,0,0
33470,-66.6666666666667,4,2,1,20,0,0
33548,-66.6666666666667,4,2,1,60,0,0
33781,-66.6666666666667,4,2,1,20,0,0
33859,-66.6666666666667,4,2,1,60,0,0
34092,-66.6666666666667,4,2,1,20,0,0
34170,-66.6666666666667,4,2,1,60,0,0
34403,-66.6666666666667,4,2,1,20,0,0
34480,-66.6666666666667,4,2,1,60,0,0
35646,-66.6666666666667,4,2,1,20,0,0
35724,-66.6666666666667,4,2,1,60,0,0
36268,-66.6666666666667,4,2,1,20,0,0
36346,-66.6666666666667,4,2,1,60,0,0
36890,-66.6666666666667,4,2,1,20,0,0
36967,-66.6666666666667,4,2,1,60,0,0
37589,-33.3333333333333,4,2,1,60,0,0
37667,-33.3333333333333,4,2,1,20,0,0
37745,-33.3333333333333,4,2,1,60,0,0
37822,-33.3333333333333,4,2,1,20,0,0
37900,-33.3333333333333,4,2,1,60,0,0
37978,-33.3333333333333,4,2,1,20,0,0
38056,-33.3333333333333,4,2,1,60,0,0
38133,-33.3333333333333,4,2,1,20,0,0
38211,-33.3333333333333,4,2,1,60,0,0
38833,-50,4,2,1,20,0,0
39144,-50,4,2,1,45,0,0
39454,-33.3333333333333,4,2,1,60,0,0
39532,-33.3333333333333,4,2,1,20,0,0
39610,-33.3333333333333,4,2,1,60,0,0
39688,-33.3333333333333,4,2,1,20,0,0
39765,-33.3333333333333,4,2,1,40,0,0
39843,-33.3333333333333,4,2,1,20,0,0
39921,-33.3333333333333,4,2,1,60,0,0
39999,-33.3333333333333,4,2,1,20,0,0
40076,-50,4,2,1,75,0,0
40309,-50,4,2,1,25,0,0
40387,-100,4,2,1,75,0,0
40620,-100,4,2,1,20,0,0
40698,-40,4,2,1,75,0,0
40853,-40,4,2,1,20,0,0
40905,-40,4,2,1,75,0,0
41061,-40,4,2,1,20,0,0
41113,-40,4,2,1,75,0,0
41268,-40,4,2,1,20,0,0
41527,-50,4,2,1,75,0,0
41682,-50,4,2,1,20,0,0
41734,-50,4,2,1,75,0,0
41942,-40,4,2,1,75,0,0
42097,-40,4,2,1,20,0,0
42149,-40,4,2,1,75,0,0
42304,-40,4,2,1,20,0,0
42356,-40,4,2,1,75,0,0
42511,-40,4,2,1,20,0,0
42563,-66.6666666666667,4,2,1,75,0,0
43030,-66.6666666666667,4,2,1,45,0,0
43185,-40,4,2,1,75,0,0
44170,-40,4,2,1,20,0,0
44221,-40,4,2,1,75,0,0
44273,-40,4,2,1,20,0,0
44377,-40,4,2,1,75,0,0
44429,-50,4,2,1,75,0,0
44636,-50,4,2,1,20,0,0
44739,-50,4,2,1,75,0,0
45283,-50,4,2,1,20,0,0
45361,-100,4,2,1,55,0,0
45594,-100,4,2,1,20,0,0
45672,-40,4,2,1,75,0,0
45828,-40,4,2,1,20,0,0
45879,-40,4,2,1,75,0,0
46035,-40,4,2,1,20,0,0
46087,-40,4,2,1,75,0,0
46242,-40,4,2,1,20,0,0
46501,-50,4,2,1,75,0,0
46657,-50,4,2,1,20,0,0
46708,-50,4,2,1,75,0,0
46916,-40,4,2,1,75,0,0
47071,-40,4,2,1,20,0,0
47123,-40,4,2,1,75,0,0
47278,-40,4,2,1,20,0,0
47330,-40,4,2,1,75,0,0
47486,-40,4,2,1,20,0,0
47537,-100,4,2,1,75,0,0
47693,-100,4,2,1,25,0,0
47848,-100,4,2,1,60,0,0
48159,-40,4,2,1,75,0,0
48781,-50,4,2,1,75,0,0
48936,-50,4,2,1,25,0,0
49092,-50,4,2,1,75,0,0
49247,-50,4,2,1,25,0,0
49403,-50,4,2,1,75,0,0
49558,-50,4,2,1,25,0,0
49714,-50,4,2,1,75,0,0
49869,-50,4,2,1,25,0,0
50024,-50,4,2,1,75,0,0
50258,-50,4,2,1,20,0,0
50335,-100,4,2,1,55,0,0
50568,-100,4,2,1,20,0,0
50646,-40,4,2,1,75,0,0
50802,-40,4,2,1,20,0,0
50853,-40,4,2,1,75,0,0
51009,-40,4,2,1,20,0,0
51061,-40,4,2,1,75,0,0
51216,-40,4,2,1,20,0,0
51475,-50,4,2,1,75,0,0
51631,-50,4,2,1,20,0,0
51682,-50,4,2,1,75,0,0
51890,-40,4,2,1,75,0,0
52045,-40,4,2,1,20,0,0
52097,-40,4,2,1,75,0,0
52252,-40,4,2,1,20,0,0
52304,-40,4,2,1,75,0,0
52460,-40,4,2,1,20,0,0
52511,-66.6666666666667,4,2,1,75,0,0
52978,-66.6666666666667,4,2,1,45,0,0
53133,-40,4,2,1,75,0,0
54118,-40,4,2,1,20,0,0
54170,-40,4,2,1,75,0,0
54221,-40,4,2,1,20,0,0
54325,-40,4,2,1,75,0,0
54584,-40,4,2,1,20,0,0
54688,-40,4,2,1,75,0,0
54999,-50,4,2,1,75,0,0
55206,-50,4,2,1,20,0,0
55309,-50,4,2,1,75,0,0
55517,-50,4,2,1,20,0,0
55620,-50,4,2,1,75,0,0
55724,-50,4,2,1,25,0,0
55828,-50,4,2,1,55,0,0
55931,-50,4,2,1,75,0,0
56035,-50,4,2,1,55,0,0
56138,-50,4,2,1,25,0,0
56242,-50,4,2,1,75,0,0
56346,-50,4,2,1,25,0,0
56449,-50,4,2,1,55,0,0
56553,-50,4,2,1,75,0,0
56657,-50,4,2,1,55,0,0
56760,-50,4,2,1,25,0,0
56864,-66.6666666666667,4,2,1,75,0,0
56967,-66.6666666666667,4,2,1,25,0,0
57071,-66.6666666666667,4,2,1,55,0,0
57175,-66.6666666666667,4,2,1,75,0,0
57278,-66.6666666666667,4,2,1,55,0,0
57382,-66.6666666666667,4,2,1,25,0,0
57486,-66.6666666666667,4,2,1,75,0,0
58729,-100,4,2,1,45,0,0
58807,-100,4,2,1,20,0,0
58885,-100,4,2,1,45,0,0
58962,-100,4,2,1,20,0,0
59040,-100,4,2,1,45,0,0
59118,-100,4,2,1,20,0,0
59195,-100,4,2,1,45,0,0
59273,-100,4,2,1,20,0,0
59351,-66.6666666666667,4,2,1,45,0,0
59429,-66.6666666666667,4,2,1,20,0,0
59506,-66.6666666666667,4,2,1,45,0,0
59584,-66.6666666666667,4,2,1,45,0,0
59662,-66.6666666666667,4,2,1,55,0,0
59973,-50,4,2,1,75,0,1
60050,-50,4,2,1,20,0,1
60128,-50,4,2,1,75,0,1
60206,-50,4,2,1,20,0,1
60283,-50,4,2,1,75,0,1
62382,-50,4,2,1,25,0,1
62460,-50,4,2,1,75,0,1
62615,-50,4,2,1,25,0,1
62693,-50,4,2,1,75,0,1
62848,-50,4,2,1,25,0,1
62926,-50,4,2,1,75,0,1
63004,-50,4,2,1,25,0,1
63081,-50,4,2,1,75,0,1
63237,-50,4,2,1,25,0,1
63315,-50,4,2,1,75,0,1
63470,-50,4,2,1,25,0,1
63548,-50,4,2,1,75,0,1
63625,-50,4,2,1,25,0,1
63703,-50,4,2,1,75,0,1
63859,-50,4,2,1,25,0,1
63936,-50,4,2,1,75,0,1
64092,-50,4,2,1,25,0,1
64170,-50,4,2,1,75,0,1
64247,-50,4,2,1,25,0,1
64325,-50,4,2,1,75,0,1
64714,-50,4,2,1,25,0,1
64791,-50,4,2,1,75,0,1
64869,-50,4,2,1,25,0,1
64947,-50,4,2,1,75,0,1
65024,-50,4,2,1,25,0,1
65102,-50,4,2,1,75,0,1
65180,-50,4,2,1,25,0,1
65258,-50,4,2,1,75,0,1
66890,-50,4,2,1,25,0,1
66967,-50,4,2,1,75,0,1
67045,-50,4,2,1,25,0,1
67123,-50,4,2,1,75,0,1
67201,-50,4,2,1,25,0,1
67278,-50,4,2,1,75,0,1
67356,-50,4,2,1,25,0,1
67434,-50,4,2,1,75,0,1
67589,-50,4,2,1,25,0,1
67667,-50,4,2,1,75,0,1
67822,-50,4,2,1,25,0,1
67900,-50,4,2,1,75,0,1
67978,-50,4,2,1,25,0,1
68056,-50,4,2,1,75,0,1
68211,-50,4,2,1,25,0,1
68289,-50,4,2,1,75,0,1
68444,-50,4,2,1,25,0,1
68522,-50,4,2,1,75,0,1
68600,-50,4,2,1,25,0,1
68677,-50,4,2,1,75,0,1
69144,-50,4,2,1,55,0,1
69221,-50,4,2,1,75,0,1
69377,-50,4,2,1,25,0,1
69454,-50,4,2,1,75,0,1
69532,-50,4,2,1,25,0,1
69610,-50,4,2,1,75,0,1
69688,-50,4,2,1,25,0,1
69765,-50,4,2,1,75,0,1
69843,-50,4,2,1,25,0,1
69921,-50,4,2,1,75,0,1
69999,-50,4,2,1,25,0,1
70076,-50,4,2,1,75,0,1
70154,-50,4,2,1,25,0,1
70232,-50,4,2,1,75,0,1
71864,-50,4,2,1,25,0,1
71942,-50,4,2,1,75,0,1
72019,-50,4,2,1,25,0,1
72097,-50,4,2,1,75,0,1
72175,-50,4,2,1,25,0,1
72252,-50,4,2,1,75,0,1
72330,-50,4,2,1,25,0,1
72408,-50,4,2,1,75,0,1
75050,-50,4,2,1,25,0,1
75128,-50,4,2,1,75,0,1
75284,-50,4,2,1,25,0,1
75361,-50,4,2,1,75,0,1
75439,-50,4,2,1,25,0,1
75517,-50,4,2,1,75,0,1
75594,-50,4,2,1,25,0,1
75672,-50,4,2,1,75,0,1
76294,-50,4,2,1,25,0,1
76372,-50,4,2,1,75,0,1
76527,-50,4,2,1,25,0,1
76605,-50,4,2,1,75,0,1
76682,-50,4,2,1,25,0,1
76760,-50,4,2,1,75,0,1
76838,-50,4,2,1,25,0,1
76916,-50,4,2,1,75,0,1
77537,-50,4,2,1,55,0,1
77693,-50,4,2,1,75,0,1
78159,-50,4,2,1,55,0,1
78315,-50,4,2,1,75,0,1
79558,-50,4,2,1,75,0,1
79869,-50,4,2,1,75,0,0
81967,-50,4,2,1,10,0,0
82045,-200,4,2,1,55,0,0
82278,-200,4,2,1,25,0,0
82356,-50,4,2,1,75,0,1
82511,-50,4,2,1,25,0,1
82589,-50,4,2,1,75,0,1
82745,-50,4,2,1,25,0,1
82822,-50,4,2,1,75,0,1
82900,-50,4,2,1,25,0,1
82978,-50,4,2,1,75,0,1
83133,-50,4,2,1,25,0,1
83211,-50,4,2,1,75,0,1
83366,-50,4,2,1,25,0,1
83444,-50,4,2,1,75,0,1
83522,-50,4,2,1,25,0,1
83600,-50,4,2,1,75,0,1
83755,-50,4,2,1,25,0,1
83833,-50,4,2,1,75,0,1
83988,-50,4,2,1,25,0,1
84066,-50,4,2,1,75,0,1
84144,-50,4,2,1,25,0,1
84221,-50,4,2,1,75,0,1
84610,-50,4,2,1,25,0,1
84688,-50,4,2,1,75,0,1
84765,-50,4,2,1,25,0,1
84843,-50,4,2,1,75,0,1
84921,-50,4,2,1,25,0,1
84999,-50,4,2,1,75,0,1
85076,-50,4,2,1,25,0,1
85154,-50,4,2,1,75,0,1
86786,-50,4,2,1,25,0,1
86864,-50,4,2,1,75,0,1
86942,-50,4,2,1,25,0,1
87019,-50,4,2,1,75,0,1
87097,-50,4,2,1,25,0,1
87175,-50,4,2,1,75,0,1
87252,-50,4,2,1,25,0,1
87330,-50,4,2,1,75,0,1
87486,-50,4,2,1,25,0,1
87563,-50,4,2,1,75,0,1
87719,-50,4,2,1,25,0,1
87796,-50,4,2,1,75,0,1
87874,-50,4,2,1,25,0,1
87952,-50,4,2,1,75,0,1
88107,-50,4,2,1,25,0,1
88185,-50,4,2,1,75,0,1
88340,-50,4,2,1,25,0,1
88418,-50,4,2,1,75,0,1
88496,-50,4,2,1,25,0,1
88574,-50,4,2,1,75,0,1
89895,-50,4,2,1,25,0,1
89973,-50,4,2,1,75,0,1
90050,-50,4,2,1,25,0,1
90128,-50,4,2,1,75,0,1
90517,-50,4,2,1,25,0,1
90594,-50,4,2,1,75,0,1
90672,-50,4,2,1,25,0,1
90750,-50,4,2,1,75,0,1
90828,-50,4,2,1,25,0,1
90905,-50,4,2,1,75,0,1
90983,-50,4,2,1,25,0,1
91061,-50,4,2,1,75,0,1
91138,-50,4,2,1,25,0,1
91216,-50,4,2,1,75,0,1
91294,-50,4,2,1,25,0,1
91372,-50,4,2,1,75,0,1
91760,-50,4,2,1,25,0,1
91838,-50,4,2,1,75,0,1
91916,-50,4,2,1,25,0,1
91993,-50,4,2,1,75,0,1
92071,-50,4,2,1,25,0,1
92149,-50,4,2,1,75,0,1
93004,-50,4,2,1,25,0,1
93081,-50,4,2,1,75,0,1
93159,-50,4,2,1,25,0,1
93237,-50,4,2,1,75,0,1
93315,-50,4,2,1,25,0,1
93392,-50,4,2,1,75,0,1
93470,-50,4,2,1,25,0,1
93548,-50,4,2,1,75,0,1
93625,-50,4,2,1,25,0,1
93703,-50,4,2,1,75,0,1
93781,-50,4,2,1,25,0,1
93859,-50,4,2,1,75,0,1
93936,-50,4,2,1,25,0,1
94014,-50,4,2,1,75,0,1
94092,-50,4,2,1,25,0,1
94170,-50,4,2,1,75,0,1
94869,-50,4,2,1,35,0,1
94947,-50,4,2,1,75,0,1
95335,-50,4,2,1,25,0,1
95413,-50,4,2,1,75,0,1
95491,-50,4,2,1,25,0,1
95568,-50,4,2,1,75,0,1
95957,-50,4,2,1,25,0,1
96035,-50,4,2,1,75,0,1
96113,-50,4,2,1,25,0,1
96190,-50,4,2,1,75,0,1
96579,-50,4,2,1,25,0,1
96657,-50,4,2,1,75,0,1
96734,-50,4,2,1,55,0,1
96812,-50,4,2,1,75,0,1
96890,-50,4,2,1,55,0,1
96967,-50,4,2,1,75,0,1
97278,-100,4,2,1,75,0,1
97434,-100,4,2,1,55,0,1
98522,-66.6666666666667,4,2,1,75,0,1
98755,-66.6666666666667,4,2,1,25,0,1
98833,-66.6666666666667,4,2,1,75,0,1
99066,-66.6666666666667,4,2,1,25,0,1
99144,-66.6666666666667,4,2,1,55,0,1
99221,-66.6666666666667,4,2,1,45,0,1
99765,-66.6666666666667,4,2,1,75,0,0
99999,-66.6666666666667,4,2,1,25,0,0
100076,-50,4,2,1,75,0,0
100232,-50,4,2,1,25,0,0
100309,-200,4,2,1,75,0,0
100465,-200,4,2,1,25,0,0
100543,-50,4,2,1,75,0,0
100620,-50,4,2,1,25,0,0
100698,-40,4,2,1,75,0,0
100776,-40,4,2,1,25,0,0
100853,-33.3333333333333,4,2,1,75,0,0
100931,-33.3333333333333,4,2,1,25,0,0
101009,-66.6666666666667,4,2,1,75,0,0
101242,-66.6666666666667,4,2,1,25,0,0
101320,-50,4,2,1,75,0,0
101475,-50,4,2,1,25,0,0
101553,-200,4,2,1,75,0,0
101708,-200,4,2,1,25,0,0
101786,-50,4,2,1,75,0,0
101864,-50,4,2,1,25,0,0
101942,-40,4,2,1,75,0,0
102019,-40,4,2,1,25,0,0
102097,-33.3333333333333,4,2,1,75,0,0
102175,-33.3333333333333,4,2,1,25,0,0
102252,-66.6666666666667,4,2,1,75,0,0
102486,-66.6666666666667,4,2,1,25,0,0
102563,-50,4,2,1,75,0,0
102719,-50,4,2,1,25,0,0
102796,-200,4,2,1,75,0,0
102952,-200,4,2,1,25,0,0
103030,-50,4,2,1,75,0,0
103107,-50,4,2,1,25,0,0
103185,-40,4,2,1,75,0,0
103263,-40,4,2,1,25,0,0
103340,-33.3333333333333,4,2,1,75,0,0
103418,-33.3333333333333,4,2,1,25,0,0
103496,-66.6666666666667,4,2,1,75,0,0
103729,-66.6666666666667,4,2,1,25,0,0
103807,-66.6666666666667,4,2,1,75,0,0
103962,-66.6666666666667,4,2,1,25,0,0
104040,-66.6666666666667,4,2,1,75,0,0
104118,-50,4,2,1,75,0,0
104351,-50,4,2,1,25,0,0
104429,-50,4,2,1,75,0,0
104662,-50,4,2,1,25,0,0
104739,-50,4,2,1,75,0,0
104973,-50,4,2,1,25,0,0
105050,-50,4,2,1,75,0,0
105206,-50,4,2,1,25,0,0
105283,-200,4,2,1,75,0,0
105439,-200,4,2,1,25,0,0
105517,-50,4,2,1,75,0,0
105594,-50,4,2,1,25,0,0
105672,-40,4,2,1,75,0,0
105750,-40,4,2,1,25,0,0
105828,-33.3333333333333,4,2,1,75,0,0
105905,-33.3333333333333,4,2,1,25,0,0
105983,-66.6666666666667,4,2,1,75,0,0
106216,-66.6666666666667,4,2,1,25,0,0
106294,-50,4,2,1,75,0,0
106449,-50,4,2,1,25,0,0
106527,-200,4,2,1,75,0,0
106682,-200,4,2,1,25,0,0
106760,-50,4,2,1,75,0,0
106838,-50,4,2,1,25,0,0
106916,-40,4,2,1,75,0,0
106993,-40,4,2,1,25,0,0
107071,-33.3333333333333,4,2,1,75,0,0
107149,-33.3333333333333,4,2,1,25,0,0
107227,-66.6666666666667,4,2,1,75,0,0
107460,-66.6666666666667,4,2,1,25,0,0
107537,-50,4,2,1,75,0,0
107693,-50,4,2,1,25,0,0
107771,-200,4,2,1,75,0,0
107926,-200,4,2,1,25,0,0
108004,-50,4,2,1,75,0,0
108081,-50,4,2,1,25,0,0
108159,-50,4,2,1,75,0,0
108625,-50,4,2,1,25,0,0
108781,-50,4,2,1,75,0,0
108936,-50,4,2,1,25,0,0
109092,-50,4,2,1,65,0,0
109247,-50,4,2,1,25,0,0
109403,-50,4,2,1,75,0,0
109558,-50,4,2,1,25,0,0
109714,-50,4,2,1,75,0,0
110180,-50,4,2,1,25,0,0
110258,-50,4,2,1,75,0,0
110413,-50,4,2,1,25,0,0
110491,-50,4,2,1,75,0,0
110568,-50,4,2,1,25,0,0
110646,-50,4,2,1,75,0,0
110724,-50,4,2,1,25,0,0
110802,-50,4,2,1,75,0,0
110957,-100,4,2,1,75,0,0
111190,-100,4,2,1,25,0,0
111268,-50,4,2,1,75,0,0
111423,-50,4,2,1,25,0,0
111501,-50,4,2,1,75,0,0
111657,-50,4,2,1,25,0,0
111734,-50,4,2,1,75,0,0
111812,-50,4,2,1,25,0,0
111890,-50,4,2,1,75,0,0
111967,-50,4,2,1,25,0,0
112045,-50,4,2,1,75,0,0
112123,-50,4,2,1,25,0,0
112201,-100,4,2,1,75,0,0
112434,-100,4,2,1,25,0,0
112511,-50,4,2,1,75,0,0
112667,-50,4,2,1,25,0,0
112745,-50,4,2,1,75,0,0
112900,-50,4,2,1,25,0,0
112978,-50,4,2,1,75,0,0
113056,-50,4,2,1,25,0,0
113133,-50,4,2,1,75,0,0
113211,-50,4,2,1,25,0,0
113289,-50,4,2,1,75,0,0
113366,-50,4,2,1,25,0,0
113444,-100,4,2,1,75,0,0
113677,-100,4,2,1,25,0,0
113755,-50,4,2,1,75,0,0
113910,-50,4,2,1,25,0,0
113988,-50,4,2,1,75,0,0
114299,-50,4,2,1,25,0,0
114377,-50,4,2,1,75,0,0
114610,-50,4,2,1,25,0,0
114688,-50,4,2,1,65,0,0
115232,-50,4,2,1,25,0,0
115309,-50,4,2,1,65,0,0
115853,-50,4,2,1,25,0,0
115931,-50,4,2,1,65,0,0
116475,-50,4,2,1,25,0,0
116553,-50,4,2,1,65,0,0
117097,-50,4,2,1,25,0,0
117175,-50,4,2,1,75,0,0
119662,-50,4,2,1,30,0,0

[Colours]
Combo1 : 234,181,182
Combo2 : 249,67,6
Combo3 : 242,180,13
Combo4 : 12,99,243
Combo5 : 136,214,247
Combo6 : 191,223,219

[HitObjects]
24,60,284,70,0,L|41:168,1,75.0000028610231,2|0,2:2|2:2,2:2:0:0:
105,45,594,2,0,L|122:153,1,75.0000028610231,2|0,2:2|2:2,2:2:0:0:
186,30,905,2,0,L|203:138,1,75.0000028610231,2|0,2:2|2:2,2:2:0:0:
267,15,1216,2,0,L|284:123,1,75.0000028610231,2|0,2:2|2:2,2:2:0:0:
440,149,1527,6,0,L|423:257,1,75.0000028610231,2|0,0:2|2:2,2:2:0:0:
359,134,1837,2,0,L|342:242,1,75.0000028610231,2|0,2:2|2:2,2:2:0:0:
278,119,2148,2,0,L|261:227,1,75.0000028610231,2|0,2:2|2:2,2:2:0:0:
197,104,2459,2,0,L|180:212,1,75.0000028610231,2|0,2:2|2:2,2:2:0:0:
153,334,2771,70,0,P|104:369|20:346,2,150.000005722046,2|2|2,2:2|2:2|2:2,2:2:0:0:
70,158,3703,1,2,2:2:0:0:
0,108,4014,6,0,P|49:73|133:96,2,150.000005722046,2|2|2,2:2|2:2|2:2,2:2:0:0:
82,288,4947,1,2,2:2:0:0:
345,350,5258,70,0,B|384:338|384:338|425:368,1,75.0000028610231,2|0,2:2|2:2,2:2:0:0:
483,305,5568,2,0,B|471:265|471:265|501:224,1,75.0000028610231,2|0,2:2|2:2,2:2:0:0:
438,166,5879,2,0,B|398:177|398:177|357:147,1,75.0000028610231,2|0,2:2|2:2,2:2:0:0:
299,211,6190,2,0,B|310:250|310:250|280:291,1,75.0000028610231,2|0,2:2|2:2,2:2:0:0:
369,149,6501,6,0,B|398:170|398:170|441:158,1,75.0000028610231,2|0,2:2|2:2,2:2:0:0:
499,236,6812,2,0,B|477:265|477:265|489:308,1,75.0000028610231,2|0,2:2|2:2,2:2:0:0:
413,366,7123,2,0,B|383:344|383:344|340:356,1,75.0000028610231,2|0,2:2|2:2,2:2:0:0:
282,279,7434,2,0,B|303:249|303:249|291:206,1,75.0000028610231,2|0,2:2|2:2,2:2:0:0:
256,192,7745,12,0,9532,2:2:0:0:
13,323,9610,70,0,L|27:383,3,50,2|2|2|2,1:3|2:2|2:2|1:2,2:2:0:0:
89,302,9921,2,0,L|103:362,1,59.9999981689454,10|0,1:2|2:2,2:2:0:0:
163,280,10076,2,0,L|179:350,1,69.9999978637696,10|0,1:2|2:2,2:2:0:0:
191,51,10232,22,0,B|209:124|209:124|186:188|186:188|236:233|236:233|259:325,1,300.000011444092,6|0,1:3|2:2,2:2:0:0:
470,273,10698,2,0,B|448:186|448:186|471:122|471:122|421:77|421:77|402:4,1,300.000011444092,6|0,1:3|2:2,2:2:0:0:
315,120,11164,2,0,P|333:194|324:118,1,225.000008583069,6|0,1:3|2:2,2:2:0:0:
93,40,11475,70,0,L|10:55,1,75.0000028610231,2|4,2:2|2:2,2:2:0:0:
107,116,11786,2,0,L|24:131,1,75.0000028610231,2|4,2:2|2:2,2:2:0:0:
318,273,12097,2,0,L|401:288,1,75.0000028610231,2|4,2:2|2:2,2:2:0:0:
304,349,12408,2,0,L|387:364,1,75.0000028610231,2|4,2:2|2:2,2:2:0:0:
83,368,12719,6,0,B|84:196|228:307|230:112,1,300.000011444092,6|0,1:3|2:2,2:2:0:0:
107,116,13185,2,0,B|75:285|237:203|202:395,1,300.000011444092,6|0,1:3|2:2,2:2:0:0:
64,23,13651,2,0,L|327:48,1,225.000008583069,6|0,1:3|2:2,2:2:0:0:
493,50,13962,70,0,P|478:101|492:152,1,75.0000028610231,2|6,2:2|2:2,2:2:0:0:
413,173,14195,1,2,2:2:0:0:
372,101,14273,2,0,P|387:50|373:-1,1,75.0000028610231,2|6,2:2|2:2,2:2:0:0:
492,208,14584,2,0,B|502:264|502:264|484:309|484:309|492:377,1,150,2|0,2:2|2:2,2:2:0:0:
342,363,14895,69,10,2:3:0:0:
327,342,14972,1,10,2:3:0:0:
292,322,15050,1,10,2:3:0:0:
246,323,15128,1,10,2:3:0:0:
200,365,15206,54,0,L|61:346,1,100,14|0,1:3|2:2,2:2:0:0:
20,41,15517,2,0,L|159:60,1,100,10|0,1:2|2:2,2:2:0:0:
442,86,15828,5,10,1:2:0:0:
145,130,15983,1,0,2:2:0:0:
451,8,16138,1,10,1:2:0:0:
119,54,16294,1,2,1:2:0:0:
328,316,16449,70,0,L|314:216,1,100,14|0,1:3|2:2,2:2:0:0:
38,214,16760,2,0,L|24:313,1,100,10|0,1:2|2:2,2:2:0:0:
470,282,17071,5,10,1:2:0:0:
150,232,17226,1,2,1:2:0:0:
479,360,17381,1,10,1:2:0:0:
124,308,17537,1,2,1:2:0:0:
382,38,17693,69,14,1:3:0:0:
397,51,17771,1,10,1:3:0:0:
418,82,17848,1,10,1:2:0:0:
423,123,17926,1,10,1:2:0:0:
386,182,18004,1,10,1:2:0:0:
313,199,18081,1,10,1:2:0:0:
250,156,18159,1,10,1:2:0:0:
248,78,18237,1,10,1:2:0:0:
311,26,18315,5,6,1:3:0:0:
272,349,18522,69,6,1:3:0:0:
311,26,18729,5,6,1:3:0:0:
10,173,18936,6,0,B|56:181|56:181|73:221,1,75.0000028610231,2|4,2:2|2:2,2:2:0:0:
38,357,19247,2,0,B|21:316|21:316|47:277,1,75.0000028610231,2|4,2:2|2:2,2:2:0:0:
166,255,19559,1,2,2:2:0:0:
184,257,19636,1,2,2:2:0:0:
203,259,19714,1,2,2:2:0:0:
221,261,19792,1,2,2:2:0:0:
237,263,19869,2,0,B|359:278|359:278|373:274|373:274|500:288,1,259.999988098145,10|0,2:2|1:2,2:2:0:0:
498,234,25154,6,0,L|516:107,3,100,2|2|2|2,2:2|2:2|2:2|1:2,2:2:0:0:
392,15,25776,2,0,L|410:142,1,100,10|2,2:2|2:2,2:2:0:0:
268,194,26087,2,0,B|219:212|219:212|172:177,1,100,2|2,2:2|1:2,2:2:0:0:
76,93,26397,69,2,2:2:0:0:
76,93,26553,1,2,1:2:0:0:
199,20,26708,2,0,B|247:1|247:1|294:36,1,100,2|2,1:2|2:2,2:2:0:0:
410,132,27019,5,10,2:2:0:0:
410,132,27174,1,2,2:2:0:0:
278,120,27330,2,0,L|142:104,1,100,2|2,2:2|2:2,2:2:0:0:
41,98,27641,69,2,1:2:0:0:
20,241,27796,1,2,2:2:0:0:
119,346,27952,1,2,2:2:0:0:
263,333,28107,1,2,1:2:0:0:
111,148,28263,5,10,2:2:0:0:
100,219,28418,1,2,2:2:0:0:
150,272,28574,1,2,2:2:0:0:
222,265,28729,1,2,1:2:0:0:
354,279,28885,69,2,2:2:0:0:
378,281,28962,1,2,2:2:0:0:
403,284,29040,1,2,1:2:0:0:
428,287,29118,1,2,2:2:0:0:
449,291,29195,2,0,L|508:300,3,50,2|2|2|2,1:2|2:2|2:2|2:2,2:2:0:0:
512,84,29506,5,10,2:2:0:0:
439,93,29583,1,2,2:2:0:0:
368,104,29661,1,2,1:2:0:0:
297,114,29739,1,2,2:2:0:0:
226,127,29817,2,2,L|125:144,1,75.0000028610231,2|2,2:2|2:2,2:2:0:0:
81,152,29973,2,0,L|-19:169,1,75.0000028610231,2|2,2:2|2:2,2:2:0:0:
44,243,30128,38,0,B|104:232|141:286|141:286|155:221|222:212,1,225.000008583069,14|0,2:3|2:2,2:2:0:0:
188,54,30439,2,0,B|128:65|90:10|90:10|77:76|9:84,1,225.000008583069,10|0,2:3|2:2,2:2:0:0:
44,243,30750,2,0,B|104:232|141:286|141:286|155:221|222:212,1,225.000008583069,10|0,2:3|2:2,2:2:0:0:
188,54,31061,2,0,B|128:65|90:10|90:10|77:76|9:84,1,225.000008583069,10|0,2:3|2:2,2:2:0:0:
241,308,31372,6,0,B|320:324|320:324|327:320|327:320|385:334|385:334|390:340|390:340|479:358,1,225.000008583069,10|0,2:3|2:2,2:2:0:0:
388,143,31682,2,0,B|334:203|334:203|334:211|334:211|293:254|293:254|285:256|285:256|225:324,1,225.000008583069,10|0,2:3|2:2,2:2:0:0:
457,352,31993,2,0,B|431:275|431:275|424:271|424:271|407:214|407:214|410:206|410:206|381:120,1,225.000008583069,10|0,2:3|2:2,2:2:0:0:
417,19,32304,2,0,P|392:56|418:19,1,150.000005722046,10|0,2:3|2:2,2:2:0:0:
358,306,32537,1,2,2:2:0:0:
355,324,32615,70,0,B|344:374|344:374|150:331,1,225.000008583069,14|0,2:3|2:2,2:2:0:0:
0,234,32926,2,0,B|168:197|168:197|179:248,1,225.000008583069,10|0,2:3|2:2,2:2:0:0:
355,324,33237,2,0,B|344:374|344:374|150:331,1,225.000008583069,10|0,2:3|2:2,2:2:0:0:
0,234,33548,2,0,B|168:197|168:197|179:248,1,225.000008583069,10|0,2:3|2:2,2:2:0:0:
61,316,33859,6,0,B|45:237|45:237|49:230|49:230|35:172|35:172|29:167|29:167|15:99,1,225.000008583069,10|0,2:3|2:2,2:2:0:0:
320,51,34170,2,0,B|304:129|304:129|308:136|308:136|294:194|294:194|288:199|288:199|274:267,1,225.000008583069,10|0,2:3|2:2,2:2:0:0:
199,4,34480,69,10,2:3:0:0:
460,64,34636,1,10,2:3:0:0:
132,75,34791,1,10,2:3:0:0:
486,151,34947,1,10,2:3:0:0:
491,167,35024,1,10,2:3:0:0:
496,184,35102,6,0,P|489:256|419:294,1,150.000005722046,14|10,2:3|2:2,2:2:0:0:
410,293,35335,2,0,L|331:274,1,75.0000028610231,8|0,2:2|2:2,2:2:0:0:
269,226,35491,1,10,2:2:0:0:
345,192,35568,2,0,L|424:211,1,75.0000028610231,10|0,2:2|2:2,2:2:0:0:
440,384,35724,70,0,L|246:337,1,150.000005722046,14|10,2:3|2:2,2:2:0:0:
276,344,35957,2,0,L|196:352,1,75.0000028610231,10|0,2:2|2:2,2:2:0:0:
144,290,36113,1,10,2:2:0:0:
86,351,36190,2,0,L|6:343,1,75.0000028610231,10|0,2:2|2:2,2:2:0:0:
32,39,36346,6,0,P|111:61|118:160,1,150.000005722046,14|10,2:3|2:2,2:2:0:0:
131,134,36579,2,0,L|123:214,1,75.0000028610231,10|0,2:2|2:2,2:2:0:0:
66,270,36734,1,10,2:2:0:0:
44,193,36812,2,0,L|52:113,1,75.0000028610231,10|0,2:2|2:2,2:2:0:0:
238,20,36967,70,0,B|273:-1|273:-1|404:15,1,150.000005722046,14|10,2:3|2:2,2:2:0:0:
397,16,37201,2,0,L|471:23,1,75.0000028610231,10|0,2:2|2:2,2:2:0:0:
506,102,37356,1,10,2:2:0:0:
470,178,37434,2,0,L|395:185,1,75.0000028610231,10|0,2:2|2:2,2:2:0:0:
321,235,37589,6,0,B|290:275|290:275|300:382,1,150.000005722046,14|0,2:3|2:2,2:2:0:0:
159,249,37745,2,0,B|196:283|196:283|206:389,1,150.000005722046,10|0,2:3|2:2,2:2:0:0:
341,95,37900,2,0,B|310:135|310:135|320:242,1,150.000005722046,10|0,2:3|2:2,2:2:0:0:
111,116,38056,2,0,B|148:150|148:150|158:256,1,150.000005722046,10|0,2:3|2:2,2:2:0:0:
238,212,38211,69,10,2:2:0:0:
235,186,38288,1,10,2:2:0:0:
232,161,38366,1,10,2:2:0:0:
230,136,38444,1,10,2:2:0:0:
227,111,38521,1,10,2:2:0:0:
225,86,38599,1,10,2:2:0:0:
222,60,38677,1,10,2:2:0:0:
219,35,38755,1,10,2:2:0:0:
217,10,38833,6,0,B|204:50|204:50|175:70|175:70|205:85|205:85|228:121|228:121|243:81|243:81|269:60|269:60|239:47|239:47|217:10,1,300,0|0,1:2|2:2,2:2:0:0:
98,3,39144,69,10,2:2:0:0:
43,83,39221,1,10,2:2:0:0:
61,178,39299,1,10,2:2:0:0:
142,232,39377,1,10,2:2:0:0:
238,211,39454,6,0,B|313:222|313:222|346:288,1,150.000005722046,2|0,2:2|2:2,2:2:0:0:
489,95,39610,2,0,B|414:83|414:83|380:17,1,150.000005722046,2|0,2:2|2:2,2:2:0:0:
305,29,39765,2,0,B|293:103|293:103|227:137,1,150.000005722046,10|0,1:3|2:2,2:2:0:0:
421,279,39921,2,0,B|432:204|432:204|498:170,1,150.000005722046,2|0,2:2|2:2,2:2:0:0:
265,296,40076,38,0,B|219:357|219:357|159:345|159:345|145:349|145:349|64:332|64:332|56:323|56:323|4:309,1,300,4|0,1:3|2:2,2:2:0:0:
84,18,40387,6,0,P|147:30|165:131,1,150,8|0,2:2|2:2,2:2:0:0:
174,117,40698,70,0,B|169:143|141:165|141:165|164:194|158:226|158:226|164:194|192:171|192:171|169:143|174:117,1,250,10|0,2:3|2:2,2:2:0:0:
278,104,40905,2,0,B|287:128|272:162|272:162|308:176|319:206|319:206|308:176|321:141|321:141|287:128|278:104,1,250,2|0,1:2|2:2,2:2:0:0:
363,46,41113,2,0,B|383:62|387:98|387:98|424:93|450:113|450:113|424:93|419:56|419:56|383:62|363:46,1,250,2|0,1:2|2:2,2:2:0:0:
352,384,41527,6,0,B|432:380|430:333|427:289|512:286,1,200,2|0,1:2|2:2,2:2:0:0:
506,280,41734,2,0,B|420:283|423:326|425:373|345:377,1,200,2|0,1:2|1:2,2:2:0:0:
271,335,41942,70,0,B|279:310|263:277|263:277|298:261|309:230|309:230|298:261|313:295|313:295|279:310|271:335,1,250,10|0,2:3|2:2,2:2:0:0:
167,331,42149,2,0,B|162:305|132:284|132:284|154:254|148:222|148:222|154:254|183:276|183:276|162:305|167:331,1,250,2|0,1:2|2:2,2:2:0:0:
73,374,42356,2,0,B|55:354|19:351|19:351|23:313|2:289|2:289|23:313|60:317|60:317|55:354|73:374,1,250,2|0,1:2|2:2,2:2:0:0:
69,164,42563,6,0,B|99:130|139:127|139:127|124:89|144:56|144:56|105:46|84:13|84:13|60:41|17:41|17:41|31:81|7:115|7:115|45:124|66:156,1,450.000017166138,2|0,1:2|2:2,2:2:0:0:
261,94,43185,70,0,B|357:76|398:158|398:158|405:64|499:37,2,333.333333333333,10|2|2,2:3|1:2|1:2,2:2:0:0:
456,292,44014,2,0,B|445:386|445:386|412:216,1,250,2|0,1:2|2:2,2:2:0:0:
371,23,44221,2,0,L|392:123,1,83.3333333333333,2|0,1:2|2:2,2:2:0:0:
318,361,44377,1,2,1:2:0:0:
288,290,44429,22,0,B|195:305|195:305|153:344|153:344|2:364,1,266.666666666667,6|0,1:3|2:2,2:2:0:0:
254,220,44739,6,0,B|161:235|161:235|119:274|119:274|2:288,1,266.666666666667,6|10,1:3|2:2,2:2:0:0:
56,107,44999,1,10,2:2:0:0:
45,100,45050,38,0,B|-13:57|-13:57|47:69|47:69|61:65|61:65|142:82|142:82|150:91|150:91|215:106,1,300,4|0,1:3|2:2,2:2:0:0:
405,232,45361,6,0,P|469:223|494:123,1,150,8|0,2:2|2:2,2:2:0:0:
500,132,45672,70,0,B|496:105|518:76|518:76|488:54|485:22|485:22|488:54|467:84|467:84|496:105|500:132,1,250,10|0,2:3|2:2,2:2:0:0:
372,146,45879,2,0,B|368:119|390:91|390:91|360:68|357:37|357:37|360:68|339:98|339:98|368:119|372:146,1,250,2|0,1:2|2:2,2:2:0:0:
244,159,46087,2,0,B|240:132|262:103|262:103|232:81|229:49|229:49|232:81|211:111|211:111|240:132|244:159,1,250,2|0,1:2|2:2,2:2:0:0:
411,378,46501,6,0,B|459:358|459:358|485:187,1,200.000007629395,2|0,1:2|2:2,2:2:0:0:
473,204,46708,2,0,B|450:350|450:350|402:370,1,200,0|0,1:2|1:2,2:2:0:0:
281,380,46916,70,0,B|284:353|262:324|262:324|292:302|295:270|295:270|292:302|313:332|313:332|284:353|281:380,1,250,10|0,2:3|2:2,2:2:0:0:
152,366,47123,2,0,B|155:339|133:311|133:311|163:288|166:257|166:257|163:288|184:318|184:318|155:339|152:366,1,250,2|0,1:2|2:2,2:2:0:0:
24,352,47330,2,0,B|27:325|5:296|5:296|35:274|38:242|38:242|35:274|56:304|56:304|27:325|24:352,1,250,2|0,1:2|2:2,2:2:0:0:
33,111,47537,6,0,B|12:77|12:77|46:10,1,100,0|0,1:2|2:2,2:2:0:0:
432,160,47848,69,0,2:2:0:0:
362,184,47925,1,8,2:2:0:0:
293,161,48003,1,8,2:2:0:0:
254,98,48081,1,8,2:2:0:0:
263,26,48159,6,0,B|337:36|337:36|367:78|367:78|412:4|412:4|444:45|444:45|517:55,2,333.333333333333,10|2|2,2:3|1:2|1:2,2:2:0:0:
413,356,48781,6,0,B|476:333|476:333|497:203,1,200,6|0,1:2|2:2,2:2:0:0:
132,93,49092,2,0,B|80:136|80:136|107:265,1,200,2|0,2:2|2:2,2:2:0:0:
380,93,49403,6,0,B|431:136|431:136|404:265,1,200,6|0,1:2|2:2,2:2:0:0:
99,356,49714,2,0,B|35:333|35:333|14:203,1,200,2|0,2:2|2:2,2:2:0:0:
253,0,50024,38,0,B|266:57|266:57|260:62|260:62|269:110|269:110|196:179|196:179|189:179|189:179|204:267,1,300,6|0,1:3|2:2,2:2:0:0:
398,373,50335,6,0,P|479:338|485:268,1,150,10|0,2:2|2:2,2:2:0:0:
490,260,50646,70,0,B|494:234|474:204|474:204|505:183|511:151|511:151|505:183|525:214|525:214|494:234|490:260,1,250,10|0,2:3|2:2,2:2:0:0:
387,270,50853,2,0,B|377:245|345:229|345:229|362:195|351:165|351:165|362:195|395:212|395:212|377:245|387:270,1,250,2|0,1:2|2:2,2:2:0:0:
299,327,51061,2,0,B|279:310|243:312|243:312|241:275|216:255|216:255|241:275|277:274|277:274|279:310|299:327,1,250,2|0,1:2|2:2,2:2:0:0:
35,167,51475,6,0,B|1:207|1:207|36:350,1,200,2|0,1:2|2:2,2:2:0:0:
23,346,51682,2,0,B|-12:203|-12:203|22:163,1,200,2|0,1:2|1:2,2:2:0:0:
210,13,51890,70,0,B|190:29|154:27|154:27|152:64|127:84|127:84|152:64|188:65|188:65|190:29|210:13,1,250,10|0,2:3|2:2,2:2:0:0:
298,70,52097,2,0,B|288:94|256:110|256:110|273:144|262:174|262:174|273:144|306:127|306:127|288:94|298:70,1,250,2|0,1:2|2:2,2:2:0:0:
401,80,52304,2,0,B|405:105|385:135|385:135|416:156|422:188|422:188|416:156|436:125|436:125|405:105|401:80,1,250,2|0,1:2|2:2,2:2:0:0:
389,374,52511,6,0,B|441:339|501:361|501:361|466:307|487:248|487:248|433:284|374:261|374:261|409:314|389:374,1,450.000017166138,2|0,1:2|2:2,2:2:0:0:
242,384,53133,70,0,B|-12:353|-12:353|99:325,2,333.333333333333,10|2|2,2:3|1:2|1:2,2:2:0:0:
229,0,53962,2,0,B|282:7|282:7|259:233,1,250,2|0,1:2|2:2,2:2:0:0:
242,384,54170,2,0,L|256:256,1,83.3333333333333,2|0,1:2|2:2,2:2:0:0:
16,110,54325,1,2,1:2:0:0:
9,189,54377,22,0,B|162:208|157:143|148:64|325:85,1,333.333333333333,14|0,1:3|2:2,2:2:0:0:
512,120,54688,6,0,B|367:172|356:109|348:29|180:89,1,333.333333333333,6|10,1:3|2:2,2:2:0:0:
229,191,54947,1,10,2:2:0:0:
224,206,54999,38,0,P|309:228|224:203,1,266.666666666667,4|0,1:3|2:2,2:2:0:0:
175,295,55309,2,0,P|294:333|396:228,1,266.666666666667,0|0,1:2|2:2,2:2:0:0:
26,24,55620,6,0,P|12:55|65:137,1,133.333333333333,10|0,1:3|2:2,2:2:0:0:
200,93,55828,2,0,P|180:65|81:70,1,133.333333333333,2|10,2:2|1:3,2:2:0:0:
53,210,56035,2,0,P|86:206|131:118,1,133.333333333333,2|0,2:2|2:2,2:2:0:0:
486,24,56242,70,0,P|499:55|446:137,1,133.333333333333,10|0,1:3|2:2,2:2:0:0:
312,93,56450,2,0,P|331:65|430:70,1,133.333333333333,2|10,2:2|1:3,2:2:0:0:
459,210,56657,2,0,P|425:206|380:118,1,133.333333333333,2|0,2:2|2:2,2:2:0:0:
358,357,56864,6,0,L|341:248,1,100.000003814697,10|0,1:3|2:2,2:2:0:0:
270,370,57071,2,0,L|253:261,1,100.000003814697,2|10,2:2|1:3,2:2:0:0:
182,384,57278,2,0,L|165:275,1,100.000003814697,2|0,2:2|2:2,2:2:0:0:
9,24,57486,69,10,1:3:0:0:
60,322,57641,1,10,1:3:0:0:
227,55,57796,1,10,1:3:0:0:
55,340,57952,1,10,1:3:0:0:
116,26,58107,5,10,1:3:0:0:
121,99,58184,1,10,1:3:0:0:
171,154,58262,1,10,1:3:0:0:
243,167,58340,1,10,1:3:0:0:
309,134,58417,1,10,1:3:0:0:
361,82,58495,1,10,1:3:0:0:
434,76,58573,1,10,1:3:0:0:
494,119,58651,1,10,1:3:0:0:
511,190,58729,38,0,L|501:261,1,50,2|0,2:2|2:2,2:2:0:0:
437,360,58885,2,0,L|446:291,1,50,2|0,2:2|2:2,2:2:0:0:
407,177,59040,2,0,L|398:242,1,50,2|0,2:2|2:2,2:2:0:0:
326,345,59196,2,0,L|335:273,1,50,2|0,2:2|2:2,2:2:0:0:
257,30,59351,6,0,P|218:65|208:91,1,75.0000028610231,2|0,1:2|2:2,2:2:0:0:
0,61,59506,2,0,P|44:87|59:111,1,75.0000028610231,2|0,2:2|1:2,2:2:0:0:
130,59,59662,1,10,2:3:0:0:
138,133,59739,1,10,2:3:0:0:
147,207,59817,1,10,2:3:0:0:
156,282,59895,1,10,2:3:0:0:
164,356,59973,38,0,L|7:336,1,100,6|0,1:3|2:2,2:2:0:0:
56,269,60128,2,0,L|155:281,1,100,2|0,2:2|2:2,2:2:0:0:
348,295,60283,5,10,1:3:0:0:
397,300,60360,1,2,2:2:0:0:
442,281,60438,1,2,2:2:0:0:
474,243,60516,1,2,2:2:0:0:
483,194,60594,2,0,B|495:108|495:108|479:83|479:83|491:-8,1,200,2|2,1:2|2:2,2:2:0:0:
138,133,60905,1,10,1:3:0:0:
379,193,61061,1,2,2:2:0:0:
251,381,61216,6,0,B|238:295|238:295|254:270|254:270|242:178,1,200,2|2,1:2|2:2,2:2:0:0:
166,30,61527,53,10,1:3:0:0:
117,25,61604,1,2,2:2:0:0:
72,44,61682,1,2,2:2:0:0:
40,82,61760,1,2,2:2:0:0:
35,132,61838,1,2,1:2:0:0:
152,262,61993,1,2,2:2:0:0:
4,365,62149,2,0,P|7:281|17:373,1,300,10|0,1:3|2:2,2:2:0:0:
189,357,62460,6,0,B|235:328|235:328|442:340,1,200,2|2,1:2|2:2,2:2:0:0:
472,346,62693,1,2,2:2:0:0:
437,259,62771,2,0,L|446:154,1,100,10|0,1:3|2:2,2:2:0:0:
274,0,62926,2,0,L|283:105,1,100,2|0,2:2|2:2,2:2:0:0:
508,94,63081,6,0,P|470:72|355:147,1,200,2|2,1:2|2:2,2:2:0:0:
338,240,63315,1,2,2:2:0:0:
267,188,63392,2,0,L|147:169,1,100,10|0,1:3|2:2,2:2:0:0:
53,16,63548,2,0,L|173:-3,1,100,2|0,2:2|2:2,2:2:0:0:
21,286,63703,54,0,B|30:203|30:203|-1:166|-1:166|8:92,1,200,2|2,1:2|2:2,2:2:0:0:
93,124,63936,1,2,2:2:0:0:
173,80,64014,2,0,L|293:99,1,100,10|0,1:3|2:2,2:2:0:0:
313,372,64170,2,0,L|193:353,1,100,2|0,2:2|2:2,2:2:0:0:
511,177,64325,5,2,1:2:0:0:
505,227,64402,1,2,2:2:0:0:
498,277,64480,1,2,2:2:0:0:
491,326,64558,1,2,2:2:0:0:
485,376,64636,2,0,P|435:320|388:319,1,100,10|0,1:3|2:2,2:2:0:0:
330,225,64791,2,0,P|256:240|232:280,1,100,2|0,1:2|2:2,2:2:0:0:
121,283,64947,6,0,L|95:379,1,100,2|0,1:2|2:2,2:2:0:0:
17,360,65102,2,0,L|43:264,1,100,2|0,2:2|2:2,2:2:0:0:
190,119,65258,53,10,1:3:0:0:
188,69,65335,1,2,2:2:0:0:
162,27,65413,1,2,2:2:0:0:
119,4,65491,1,2,2:2:0:0:
70,5,65568,2,0,B|49:63|49:63|78:122|78:122|61:196,1,200,2|2,1:2|2:2,2:2:0:0:
315,336,65879,1,10,1:3:0:0:
17,360,66035,1,2,2:2:0:0:
315,336,66190,6,0,B|357:374|357:374|510:342,1,200,2|2,1:2|2:2,2:2:0:0:
366,118,66501,1,10,1:3:0:0:
368,68,66578,1,2,2:2:0:0:
394,26,66656,1,2,2:2:0:0:
437,3,66734,1,2,2:2:0:0:
486,4,66812,70,0,L|505:108,1,100,2|0,1:2|2:2,2:2:0:0:
462,273,66967,2,0,L|443:169,1,100,2|0,2:2|2:2,2:2:0:0:
276,0,67123,2,0,L|295:104,1,100,10|0,1:3|2:2,2:2:0:0:
238,350,67279,2,0,L|219:246,1,100,2|0,2:2|2:2,2:2:0:0:
101,65,67434,6,0,P|8:104|0:195,1,200,2|2,1:2|2:2,2:2:0:0:
35,271,67667,1,2,2:2:0:0:
10,360,67745,2,0,L|132:343,1,100,10|0,1:3|2:2,2:2:0:0:
186,142,67900,2,0,L|64:159,1,100,2|0,2:2|2:2,2:2:0:0:
298,306,68056,70,0,B|370:313|370:313|407:354|407:354|515:359,1,200,2|2,1:2|2:2,2:2:0:0:
441,279,68289,1,2,2:2:0:0:
493,214,68366,2,0,L|507:112,1,100,10|0,1:3|2:2,2:2:0:0:
263,8,68522,2,0,L|276:107,1,100,2|0,2:2|2:2,2:2:0:0:
511,38,68677,5,2,1:2:0:0:
290,182,68833,1,2,2:2:0:0:
410,11,68988,2,0,B|399:75|399:75|425:124|425:124|413:202,1,200,10|2,1:3|2:2,2:2:0:0:
255,377,69221,1,2,1:2:0:0:
185,327,69299,70,0,B|135:316|135:316|84:349,1,100,2|0,1:2|2:2,2:2:0:0:
42,134,69454,2,0,B|91:144|91:144|142:111,1,100,2|0,1:2|2:2,2:2:0:0:
210,159,69610,2,0,B|199:208|199:208|232:259,1,100,2|0,1:2|2:2,2:2:0:0:
17,302,69765,2,0,B|27:252|27:252|-5:201,1,100,2|0,1:2|2:2,2:2:0:0:
285,109,69921,6,0,L|384:99,1,100,6|0,1:3|2:2,2:2:0:0:
390,184,70076,2,0,L|290:194,1,100,2|0,2:2|2:2,2:2:0:0:
376,0,70232,1,10,1:3:0:0:
425,5,70309,1,2,2:2:0:0:
464,35,70387,1,2,2:2:0:0:
483,81,70465,1,2,2:2:0:0:
476,130,70543,69,2,1:2:0:0:
404,384,70698,1,2,2:2:0:0:
217,192,70853,1,10,1:3:0:0:
472,262,71009,1,2,2:2:0:0:
223,382,71164,6,0,B|233:305|233:305|206:265|206:265|218:183,1,200,2|2,1:2|2:2,2:2:0:0:
53,138,71397,1,2,2:2:0:0:
49,153,71475,2,0,B|38:226|38:226|65:266|65:266|55:343,1,200,10|2,1:3|2:2,2:2:0:0:
392,333,71708,1,2,2:2:0:0:
397,350,71786,70,0,L|509:333,1,100,2|0,1:2|2:2,2:2:0:0:
421,122,71942,2,0,L|309:105,1,100,2|0,2:2|2:2,2:2:0:0:
223,382,72097,2,0,L|335:365,1,100,10|0,1:3|2:2,2:2:0:0:
246,96,72252,2,0,L|134:79,1,100,2|0,2:2|2:2,2:2:0:0:
86,318,72408,6,0,B|59:309|15:324|15:324|58:279|134:274,1,200,2|2,1:2|2:2,2:2:0:0:
495,334,72719,1,10,1:3:0:0:
498,299,72796,1,2,2:2:0:0:
500,266,72874,1,2,2:2:0:0:
504,232,72952,1,2,2:2:0:0:
506,199,73029,69,2,1:2:0:0:
215,29,73185,1,2,2:2:0:0:
322,306,73340,1,10,1:3:0:0:
512,69,73496,1,2,2:2:0:0:
124,270,73651,5,2,1:2:0:0:
75,269,73728,1,2,2:2:0:0:
32,243,73806,1,2,2:2:0:0:
12,198,73884,1,2,2:2:0:0:
98,188,73962,69,10,1:3:0:0:
72,145,74039,1,2,2:2:0:0:
75,95,74117,1,2,2:2:0:0:
104,56,74195,1,2,2:2:0:0:
159,125,74273,6,0,B|243:135|243:135|276:115|276:115|354:125,1,200,2|2,1:2|2:2,2:2:0:0:
488,307,74584,1,10,1:3:0:0:
512,0,74739,1,10,1:3:0:0:
252,309,74895,70,0,P|313:371|431:344,1,200,6|2,1:3|2:2,2:2:0:0:
452,224,75128,2,0,P|390:161|272:188,1,200,2|0,1:2|2:2,2:2:0:0:
106,263,75361,2,0,L|84:375,1,100,2|0,1:2|2:2,2:2:0:0:
2,362,75517,2,0,L|22:264,1,100,2|0,1:3|2:2,2:2:0:0:
74,10,75672,1,2,2:2:0:0:
172,371,75828,1,10,1:3:0:0:
238,27,75983,1,2,2:2:0:0:
109,249,76138,6,0,B|182:260|182:260|219:300|219:300|290:310,1,200,6|2,1:2|2:2,2:2:0:0:
331,193,76372,2,0,B|401:206|401:206|438:246|438:246|514:259,1,200,2|0,1:2|2:2,2:2:0:0:
503,105,76605,2,0,L|484:6,1,100,2|0,1:2|2:2,2:2:0:0:
400,9,76760,2,0,L|419:108,1,100,2|0,1:2|2:2,2:2:0:0:
469,354,76916,1,2,2:2:0:0:
238,27,77071,1,10,1:3:0:0:
298,384,77227,1,2,2:2:0:0:
309,81,77382,70,0,B|284:123|284:123|121:99,1,200,4|2,1:2|2:2,2:2:0:0:
32,36,77693,1,10,1:3:0:0:
28,110,77770,1,2,2:2:0:0:
25,185,77848,1,2,2:2:0:0:
21,260,77926,1,2,2:2:0:0:
18,335,78004,6,0,B|43:377|43:377|206:353,1,200,4|2,1:2|2:2,2:2:0:0:
480,36,78315,1,10,1:3:0:0:
483,110,78392,1,2,2:2:0:0:
487,185,78470,1,2,2:2:0:0:
490,260,78548,1,2,2:2:0:0:
494,335,78625,69,2,1:2:0:0:
203,202,78781,1,10,2:2:0:0:
480,36,78936,5,10,1:3:0:0:
346,314,79092,1,10,2:2:0:0:
170,59,79247,5,10,1:3:0:0:
333,200,79403,1,10,2:2:0:0:
121,270,79558,1,8,1:3:0:0:
95,267,79635,1,8,1:3:0:0:
70,265,79713,1,8,1:3:0:0:
45,263,79791,1,8,1:3:0:0:
21,260,79868,1,8,1:3:0:0:
256,192,79947,12,0,81967,2:2:0:0:
461,18,82045,54,0,L|473:95,1,75,10|0,2:2|2:2,2:2:0:0:
485,190,82356,6,0,P|373:220|358:302,1,200,6|0,1:3|2:2,2:2:0:0:
382,368,82589,1,2,2:2:0:0:
467,376,82667,2,0,L|448:268,1,100,10|0,1:3|2:2,2:2:0:0:
268,168,82822,2,0,L|250:266,1,100,2|0,2:2|2:2,2:2:0:0:
94,378,82978,70,0,P|11:333|12:231,1,200,2|0,1:2|2:2,2:2:0:0:
87,195,83211,1,2,2:2:0:0:
29,127,83289,2,0,L|13:22,1,100,10|0,1:3|2:2,2:2:0:0:
193,0,83444,2,0,L|208:98,1,100,2|0,2:2|2:2,2:2:0:0:
96,283,83600,6,0,B|165:300|165:300|206:347|206:347|315:369,1,200,2|0,1:2|2:2,2:2:0:0:
336,296,83833,1,2,2:2:0:0:
394,229,83910,2,0,L|411:130,1,100,10|0,1:3|2:2,2:2:0:0:
512,275,84066,2,0,L|494:373,1,100,2|0,2:2|2:2,2:2:0:0:
326,76,84221,69,2,1:2:0:0:
361,41,84298,1,2,2:2:0:0:
409,28,84376,1,2,2:2:0:0:
457,38,84454,1,2,2:2:0:0:
495,71,84532,2,0,P|510:128|487:179,1,100,10|0,1:3|2:2,2:2:0:0:
394,229,84688,2,0,P|336:213|303:168,1,100,2|0,1:2|2:2,2:2:0:0:
181,69,84843,6,0,L|70:93,1,100,2|0,1:2|2:2,2:2:0:0:
35,21,84999,2,0,L|146:-3,1,100,2|0,2:2|2:2,2:2:0:0:
229,185,85154,69,10,1:3:0:0:
223,234,85231,1,2,2:2:0:0:
217,284,85309,1,2,2:2:0:0:
212,334,85387,1,2,2:2:0:0:
206,383,85465,2,0,B|153:346|153:346|18:380,1,200,2|2,1:2|2:2,2:2:0:0:
342,326,85776,1,10,1:3:0:0:
17,277,85931,1,2,2:2:0:0:
356,329,86087,6,0,B|412:335|443:288|443:288|461:342|517:350,1,200,2|2,1:2|2:2,2:2:0:0:
512,2,86397,1,10,1:3:0:0:
462,0,86474,1,2,2:2:0:0:
418,19,86552,1,2,2:2:0:0:
391,61,86630,1,2,2:2:0:0:
389,110,86708,70,0,L|407:229,1,100,2|0,1:2|2:2,2:2:0:0:
263,309,86864,2,2,L|280:190,1,100,2|2,2:2|2:2,2:2:0:0:
201,0,87019,2,0,L|218:118,1,100,10|0,1:3|2:2,2:2:0:0:
94,342,87175,2,0,L|111:223,1,100,2|0,2:2|2:2,2:2:0:0:
0,35,87330,6,0,P|15:141|138:124,1,200,2|0,1:2|2:2,2:2:0:0:
131,83,87563,1,2,2:2:0:0:
215,98,87641,2,0,L|318:112,1,100,10|0,1:3|2:2,2:2:0:0:
499,267,87796,2,0,P|461:308|407:315,1,100,2|0,2:2|2:2,2:2:0:0:
416,35,87952,70,0,B|404:110|404:110|430:154|430:154|415:252,1,200,2|0,1:2|2:2,2:2:0:0:
345,283,88185,1,2,2:2:0:0:
348,367,88263,2,0,L|245:348,1,100,10|0,1:3|2:2,2:2:0:0:
244,180,88418,2,0,L|346:198,1,100,2|0,2:2|2:2,2:2:0:0:
138,371,88574,5,2,1:2:0:0:
146,321,88651,1,2,2:2:0:0:
154,272,88729,1,2,2:2:0:0:
162,223,88807,1,2,2:2:0:0:
79,202,88885,69,10,1:3:0:0:
70,152,88962,1,2,2:2:0:0:
62,103,89040,1,2,2:2:0:0:
54,54,89118,1,2,2:2:0:0:
44,0,89195,5,0,1:2:0:0:
320,25,89351,1,2,1:2:0:0:
287,304,89506,1,2,1:2:0:0:
17,276,89662,1,2,1:2:0:0:
408,132,89817,70,0,L|507:145,1,100,14|0,1:3|2:2,2:2:0:0:
497,237,89973,2,0,L|398:224,1,100,2|0,2:2|2:2,2:2:0:0:
292,216,90128,2,0,P|199:275|219:368,1,200,10|2,1:3|2:2,2:2:0:0:
287,304,90361,1,2,2:2:0:0:
382,313,90439,6,0,L|496:328,1,100,10|0,1:3|2:2,2:2:0:0:
298,130,90594,2,0,L|184:115,1,100,2|0,2:2|2:2,2:2:0:0:
384,325,90750,2,0,L|498:340,1,100,10|0,1:3|2:2,2:2:0:0:
296,119,90905,2,0,L|182:104,1,100,2|0,2:2|2:2,2:2:0:0:
0,289,91061,70,0,P|16:348|97:367,1,100,10|0,1:3|2:2,2:2:0:0:
141,311,91216,2,0,P|125:252|44:233,1,100,2|0,2:2|2:2,2:2:0:0:
0,188,91372,2,0,B|7:99|7:99|42:73|42:73|47:6,1,200,10|2,1:3|2:2,2:2:0:0:
121,58,91605,1,2,2:2:0:0:
196,105,91682,6,0,P|230:43|284:25,1,100,10|0,1:3|2:2,2:2:0:0:
329,210,91838,2,0,P|258:211|215:173,1,100,2|0,2:2|2:2,2:2:0:0:
356,44,91993,2,0,P|392:104|381:160,1,100,10|0,1:3|2:2,2:2:0:0:
301,121,92149,1,10,1:2:0:0:
301,121,92227,1,10,1:2:0:0:
301,121,92304,69,10,1:3:0:0:
481,70,92460,1,2,2:2:0:0:
440,253,92615,2,0,B|440:313|490:335|490:335|441:342|407:387,1,200,10|2,1:3|2:2,2:2:0:0:
327,335,92848,1,2,2:2:0:0:
240,373,92926,6,0,L|131:386,1,100,10|10,1:3|2:2,1:3:0:0:
0,261,93081,2,0,L|109:274,1,100,2|0,2:2|2:2,2:2:0:0:
221,132,93237,2,0,L|112:145,1,100,10|0,1:3|2:2,2:2:0:0:
30,4,93392,2,0,L|139:17,1,100,2|0,2:2|2:2,2:2:0:0:
326,254,93548,70,0,B|379:240|379:240|419:268,1,100,10|0,1:3|2:2,2:2:0:0:
485,230,93703,2,0,B|471:177|471:177|496:139,1,100,2|0,2:2|2:2,2:2:0:0:
461,71,93859,2,0,B|408:85|408:85|370:59,1,100,10|0,1:3|2:2,2:2:0:0:
302,95,94014,2,0,B|316:148|316:148|288:188,1,100,2|0,2:2|2:2,2:2:0:0:
489,317,94170,5,10,1:3:0:0:
303,15,94325,1,10,1:2:0:0:
496,329,94480,1,10,1:3:0:0:
296,2,94636,1,10,1:2:0:0:
146,358,94791,70,0,P|87:347|31:366,1,100,14|0,1:3|2:2,2:2:0:0:
167,206,94947,1,10,1:2:0:0:
163,224,95024,2,0,P|183:279|227:319,1,100,10|10,2:3|1:2,2:2:0:0:
22,280,95181,1,10,2:3:0:0:
38,275,95258,2,0,P|76:229|88:171,1,100,10|0,1:2|2:2,2:2:0:0:
195,58,95413,6,0,L|315:81,1,100,14|0,1:3|2:2,2:2:0:0:
181,131,95568,2,0,L|301:154,1,100,10|10,1:2|2:3,2:2:0:0:
103,115,95724,2,0,L|-17:92,1,100,10|10,1:2|2:3,2:2:0:0:
116,43,95880,2,0,L|-4:20,1,100,10|0,1:2|2:2,2:2:0:0:
366,358,96035,70,0,P|424:347|480:366,1,100,14|0,1:3|2:2,2:2:0:0:
345,206,96191,1,10,1:2:0:0:
349,224,96268,2,0,P|328:279|284:319,1,100,10|10,2:3|1:2,2:2:0:0:
490,280,96423,1,10,2:3:0:0:
474,275,96501,2,8,P|435:229|423:171,1,100,10|8,1:3|1:2,1:2:0:0:
452,3,96657,5,14,1:3:0:0:
430,73,96734,1,0,2:2:0:0:
369,113,96812,1,10,1:2:0:0:
296,104,96890,1,10,2:3:0:0:
246,50,96967,1,10,1:2:0:0:
187,6,97045,1,10,1:3:0:0:
113,3,97123,1,10,1:3:0:0:
50,41,97201,1,10,1:2:0:0:
18,108,97278,6,0,B|42:142|42:142|32:215,1,100,14|10,1:3|2:3,2:2:0:0:
162,127,97511,1,10,2:2:0:0:
153,132,97589,2,0,B|120:158|120:158|110:230,1,100,10|10,2:3|2:3,2:2:0:0:
57,293,97900,53,10,1:3:0:0:
28,305,97978,1,10,2:3:0:0:
16,333,98055,1,10,2:3:0:0:
27,361,98133,1,10,2:3:0:0:
55,372,98211,1,10,2:3:0:0:
83,362,98288,1,10,2:3:0:0:
96,334,98366,1,10,2:3:0:0:
84,306,98444,1,10,2:3:0:0:
57,293,98522,6,0,P|134:283|226:396,1,225.000008583069,2|0,1:2|2:2,2:2:0:0:
443,232,98833,2,0,P|365:246|316:383,1,225.000008583069,2|0,1:2|2:2,2:2:0:0:
251,256,99144,69,10,2:0:0:0:
248,241,99221,1,10,2:2:0:0:
245,221,99299,1,10,2:2:0:0:
241,194,99377,1,10,2:2:0:0:
236,167,99454,1,10,2:3:0:0:
231,135,99532,1,2,2:2:0:0:
224,98,99610,1,2,2:2:0:0:
218,61,99688,1,2,2:2:0:0:
210,14,99765,54,0,B|325:43|325:43|301:149,1,225.000008583069,6|0,1:3|2:2,2:2:0:0:
203,335,100076,2,0,L|-9:365,1,200,10|0,1:3|2:2,2:2:0:0:
3,350,100309,2,0,P|27:320|46:313,1,50,2|0,1:2|2:2,2:2:0:0:
263,276,100543,6,0,P|287:318|279:373,1,100,2|0,1:2|2:2,2:2:0:0:
361,362,100698,2,0,P|361:300|334:244,1,125,10|0,1:3|2:2,2:2:0:0:
409,215,100853,2,0,P|437:290|438:374,1,150.000005722046,2|0,1:2|2:2,2:2:0:0:
480,182,101009,70,0,B|529:77|529:77|417:18,1,225.000008583069,2|0,1:2|2:2,2:2:0:0:
213,3,101320,2,0,L|2:39,1,200,10|0,1:3|2:2,2:2:0:0:
18,50,101553,2,0,P|50:71|70:71,1,50,2|0,1:2|2:2,2:2:0:0:
322,2,101786,6,0,B|358:41|358:41|340:84,1,100,2|0,1:2|2:2,2:2:0:0:
401,132,101942,2,0,B|381:195|381:195|323:202,1,125,10|0,1:3|2:2,2:2:0:0:
311,279,102097,2,0,B|233:296|233:296|191:240,1,150.000005722046,2|0,1:2|2:2,2:2:0:0:
79,223,102252,70,0,B|38:384|38:384|18:321,1,225.000008583069,2|0,1:2|2:2,2:2:0:0:
299,381,102563,2,0,L|509:344,1,200,10|0,1:3|2:2,2:2:0:0:
494,334,102796,2,0,P|461:312|441:312,1,50,2|0,1:2|2:2,2:2:0:0:
172,152,103030,6,0,L|185:48,1,100,2|0,1:2|2:2,2:2:0:0:
266,31,103185,2,0,L|251:156,1,125,10|0,1:3|2:2,2:2:0:0:
330,159,103340,2,0,L|348:10,1,150.000005722046,2|0,1:2|2:2,2:2:0:0:
468,84,103496,70,0,P|468:161|448:86,1,225.000008583069,2|0,1:2|2:2,2:2:0:0:
430,236,103807,2,0,P|368:298|391:372,1,150.000005722046,10|0,1:3|2:2,2:2:0:0:
288,368,104040,1,2,1:2:0:0:
258,285,104118,22,0,B|150:302|150:302|126:361|126:361|-19:372,1,300,2|0,1:2|2:2,2:2:0:0:
209,0,104429,6,0,B|317:17|317:17|341:76|341:76|486:87,1,300,2|0,1:2|2:2,2:2:0:0:
46,288,104739,38,0,B|30:54|30:54|65:113,1,300,2|0,1:2|2:2,2:2:0:0:
493,164,105050,2,0,L|458:360,1,200,10|0,1:3|2:2,2:2:0:0:
443,366,105283,2,0,P|426:347|420:323,1,50,2|0,1:2|2:2,2:2:0:0:
400,161,105517,6,0,P|351:155|308:179,1,100,2|0,1:2|2:2,2:2:0:0:
282,104,105672,2,0,P|339:80|400:83,1,125,10|0,1:3|2:2,2:2:0:0:
397,6,105828,2,0,P|322:6|250:33,1,150.000005722046,2|0,1:2|2:2,2:2:0:0:
207,285,105983,70,0,B|311:332|311:332|377:227,1,225.000008583069,2|0,1:2|2:2,2:2:0:0:
19,164,106294,2,0,L|54:360,1,200,10|0,1:3|2:2,2:2:0:0:
69,366,106527,2,0,P|86:347|92:323,1,50,2|0,1:2|2:2,2:2:0:0:
102,169,106760,6,0,B|109:116|109:116|154:103,1,100,2|0,1:2|2:2,2:2:0:0:
152,24,106916,2,0,B|213:0|213:0|255:40,1,125,10|0,1:3|2:2,2:2:0:0:
323,2,107071,2,0,B|385:51|385:51|368:119,1,150.000005722046,2|0,1:2|2:2,2:2:0:0:
460,96,107227,70,0,B|492:246|492:246|512:158,1,225.000008583069,2|0,1:2|2:2,2:2:0:0:
507,380,107537,2,0,L|310:348,1,200,10|0,1:3|2:2,2:2:0:0:
304,333,107771,2,0,P|322:315|346:309,1,50,2|0,1:2|2:2,2:2:0:0:
271,128,108004,6,0,L|257:243,1,100,2|0,1:2|2:2,2:2:0:0:
197,327,108159,1,10,1:3:0:0:
147,336,108236,1,2,2:2:0:0:
98,345,108314,1,2,1:2:0:0:
49,354,108392,1,2,2:2:0:0:
0,363,108470,6,0,B|11:282|11:282|42:253|42:253|51:177,1,200,6|0,1:2|2:2,2:2:0:0:
340,15,108781,2,0,B|350:80|351:96|351:96|382:125|382:125|391:201,1,200,2|0,2:2|2:2,2:2:0:0:
121,200,109092,6,0,B|130:124|130:124|161:95|161:95|161:79|172:14,1,200,6|0,1:2|2:2,2:2:0:0:
461,177,109403,2,0,B|470:253|470:253|501:282|501:282|512:363,1,200,2|0,2:2|2:2,2:2:0:0:
198,161,109714,37,14,1:3:0:0:
312,187,109869,1,2,2:2:0:0:
136,370,110024,2,0,P|33:348|19:248,1,200,10|2,1:3|2:2,2:2:0:0:
63,201,110258,1,2,2:2:0:0:
14,136,110335,2,0,L|-1:19,1,100,10|0,1:3|2:2,2:2:0:0:
227,240,110491,2,0,L|212:357,1,100,2|0,2:2|2:2,2:2:0:0:
91,125,110646,2,0,L|76:8,1,100,10|0,1:3|2:2,2:2:0:0:
298,350,110802,1,2,2:2:0:0:
378,364,110879,1,2,2:2:0:0:
460,378,110957,6,0,B|468:309|468:309|488:292|488:292|495:238,1,150,10|0,1:3|2:2,2:2:0:0:
419,8,111268,2,0,P|302:61|310:135,1,200,10|2,1:3|2:2,2:2:0:0:
324,196,111501,1,2,2:2:0:0:
407,187,111579,2,0,L|387:90,1,100,10|0,1:3|2:2,2:2:0:0:
222,19,111734,2,0,L|202:116,1,100,2|0,2:2|2:2,2:2:0:0:
485,174,111890,2,0,L|465:77,1,100,10|0,1:3|2:2,2:2:0:0:
144,5,112045,2,0,L|124:102,1,100,2|0,2:2|2:2,2:2:0:0:
64,384,112201,70,0,B|65:319|34:320|2:320|3:248,1,150,10|0,1:3|2:2,2:2:0:0:
245,200,112511,2,0,B|177:281|177:281|45:236,1,200,10|2,1:3|2:2,2:2:0:0:
71,168,112745,1,2,2:2:0:0:
157,183,112822,2,0,L|177:280,1,100,10|0,1:3|2:2,2:2:0:0:
379,374,112978,2,0,L|399:277,1,100,2|0,2:2|2:2,2:2:0:0:
245,200,113133,2,0,L|265:297,1,100,10|0,1:3|2:2,2:2:0:0:
466,361,113289,2,0,L|486:264,1,100,2|0,2:2|2:2,2:2:0:0:
512,75,113444,6,0,B|493:101|493:101|377:80,1,150,10|0,1:3|2:2,2:2:0:0:
331,12,113755,2,0,P|224:45|226:142,1,200,10|2,1:3|2:2,2:2:0:0:
245,201,113988,1,2,2:2:0:0:
187,268,114066,6,8,B|104:270|80:356|80:356|89:268|16:233,1,300,10|0,1:3|2:2,1:3:0:0:
43,85,114377,6,0,B|126:83|150:-3|150:-3|141:85|214:120,1,300,10|0,1:3|2:2,2:2:0:0:
333,215,114688,38,0,L|457:232,1,100,14|2,1:3|1:2,2:2:0:0:
492,316,114843,1,10,1:2:0:0:
478,315,114921,2,0,L|354:298,1,100,10|10,1:3|1:2,2:2:0:0:
406,143,115076,2,0,L|530:160,1,100,10|10,2:3|1:3,2:2:0:0:
179,215,115309,6,0,L|55:232,1,100,14|2,1:3|1:2,2:2:0:0:
20,316,115465,1,10,1:2:0:0:
34,315,115543,2,0,L|158:298,1,100,10|10,1:3|1:2,2:2:0:0:
106,143,115698,2,0,L|-18:160,1,100,10|10,2:3|1:3,2:2:0:0:
295,4,115931,70,0,P|344:53|345:85,1,100,14|2,1:3|1:2,2:2:0:0:
190,86,116087,1,10,1:2:0:0:
176,85,116164,2,0,P|194:17|221:0,1,100,10|10,1:3|1:2,2:2:0:0:
306,145,116320,2,0,P|238:162|210:148,1,100,10|10,2:3|1:3,2:2:0:0:
256,257,116553,6,0,L|256:362,1,100,14|2,1:3|1:2,2:2:0:0:
170,229,116708,1,10,1:2:0:0:
163,242,116786,2,0,L|110:332,1,100,10|10,1:3|1:2,2:2:0:0:
349,242,116942,2,8,L|401:332,1,100,10|10,2:3|1:3,1:2:0:0:
100,172,117175,69,14,1:3:0:0:
87,118,117252,1,2,1:2:0:0:
104,67,117330,1,10,1:3:0:0:
145,35,117408,1,2,1:2:0:0:
198,28,117485,1,10,1:3:0:0:
246,51,117563,1,2,1:2:0:0:
273,93,117641,1,10,1:3:0:0:
276,146,117719,1,2,1:2:0:0:
249,191,117796,5,10,1:3:0:0:
237,260,117873,1,10,1:3:0:0:
266,324,117951,1,10,1:3:0:0:
326,360,118029,1,10,1:3:0:0:
397,356,118106,1,10,1:3:0:0:
452,313,118184,1,10,1:3:0:0:
473,245,118263,1,10,1:3:0:0:
452,178,118340,1,10,1:3:0:0:
256,192,118418,12,0,119662,1:2:0:0:
