osu file format v14

[General]
AudioFilename: audio.mp3
AudioLeadIn: 0
PreviewTime: 59901
Countdown: 0
SampleSet: Soft
StackLeniency: 0.7
Mode: 0
LetterboxInBreaks: 0
WidescreenStoryboard: 1

[Editor]
Bookmarks: 20186,40082,59979,79875,99771,119668
DistanceSpacing: 0.9
BeatDivisor: 4
GridSize: 16
TimelineZoom: 2.35

[Metadata]
Title:Heracles
TitleUnicode:Heracles
Artist:Yooh
ArtistUnicode:Yooh
Creator:Twiggykun
Version:IntegerTempest's Extreme
Source:
Tags:IntegerTempest Hercules Witow08 Ryxliee fa featured artist Instrumental Electronic Symphonic Hardcore adofai A Dance of Fire and Ice
BeatmapID:3447150
BeatmapSetID:1659194

[Difficulty]
HPDrainRate:5
CircleSize:4
OverallDifficulty:9
ApproachRate:9.4
SliderMultiplier:2
SliderTickRate:1

[Events]
//Background and Video events
0,0,"anime-girl-pixiv-fantasia-katana-blue-flame-11-4k.jpg",0,0
//Break Periods
2,20379,24614
//Storyboard Layer 0 (Background)
//Storyboard Layer 1 (Fail)
//Storyboard Layer 2 (Pass)
//Storyboard Layer 3 (Foreground)
//Storyboard Layer 4 (Overlay)
//Storyboard Sound Samples

[TimingPoints]
284,310.880829015544,4,2,1,15,1,0
284,-133.333333333333,4,2,1,30,0,0
439,-133.333333333333,4,2,1,10,0,0
594,-133.333333333333,4,2,1,30,0,0
750,-133.333333333333,4,2,1,10,0,0
905,-133.333333333333,4,2,1,30,0,0
1061,-133.333333333333,4,2,1,10,0,0
1216,-133.333333333333,4,2,1,30,0,0
1372,-133.333333333333,4,2,1,10,0,0
1527,-133.333333333333,4,2,1,30,0,0
1682,-133.333333333333,4,2,1,10,0,0
1838,-133.333333333333,4,2,1,30,0,0
1993,-133.333333333333,4,2,1,10,0,0
2149,-133.333333333333,4,2,1,30,0,0
2304,-133.333333333333,4,2,1,10,0,0
2460,-133.333333333333,4,2,1,30,0,0
2615,-133.333333333333,4,2,1,10,0,0
2771,-133.333333333333,4,2,1,30,0,0
5413,-133.333333333333,4,2,1,10,0,0
5568,-133.333333333333,4,2,1,30,0,0
5724,-133.333333333333,4,2,1,10,0,0
5879,-133.333333333333,4,2,1,30,0,0
6035,-133.333333333333,4,2,1,10,0,0
6190,-133.333333333333,4,2,1,30,0,0
6346,-133.333333333333,4,2,1,10,0,0
6501,-133.333333333333,4,2,1,30,0,0
6657,-133.333333333333,4,2,1,10,0,0
6812,-133.333333333333,4,2,1,30,0,0
6967,-133.333333333333,4,2,1,10,0,0
7123,-133.333333333333,4,2,1,30,0,0
7278,-133.333333333333,4,2,1,10,0,0
7434,-133.333333333333,4,2,1,30,0,0
7589,-133.333333333333,4,2,1,10,0,0
9532,-133.333333333333,4,2,1,5,0,0
9610,-100,4,2,1,30,0,0
9921,-83.3333333333333,4,2,1,35,0,0
10076,-71.4285714285714,4,2,1,35,0,0
10232,-66.6666666666667,4,2,1,60,0,0
10543,-66.6666666666667,4,2,1,20,0,0
10698,-66.6666666666667,4,2,1,60,0,0
11009,-66.6666666666667,4,2,1,20,0,0
11164,-66.6666666666667,4,2,1,60,0,0
11397,-66.6666666666667,4,2,1,20,0,0
11475,-133.333333333333,4,2,1,45,0,0
12719,-66.6666666666667,4,2,1,60,0,0
13030,-66.6666666666667,4,2,1,20,0,0
13185,-66.6666666666667,4,2,1,60,0,0
13496,-66.6666666666667,4,2,1,20,0,0
13651,-66.6666666666667,4,2,1,60,0,0
13885,-66.6666666666667,4,2,1,20,0,0
13962,-133.333333333333,4,2,1,35,0,0
14584,-100,4,2,1,60,0,0
14817,-100,4,2,1,35,0,0
14895,-100,4,2,1,40,0,0
14973,-100,4,2,1,35,0,0
15050,-100,4,2,1,30,0,0
15128,-100,4,2,1,25,0,0
15206,-100,4,2,1,60,0,0
15361,-100,4,2,1,20,0,0
15517,-100,4,2,1,60,0,0
15672,-100,4,2,1,20,0,0
15828,-100,4,2,1,60,0,0
15983,-100,4,2,1,45,0,0
16138,-100,4,2,1,60,0,0
16605,-100,4,2,1,20,0,0
16760,-100,4,2,1,60,0,0
16916,-100,4,2,1,20,0,0
17071,-100,4,2,1,60,0,0
17771,-100,4,2,1,40,0,0
18315,-100,4,2,1,60,0,0
18936,-133.333333333333,4,2,1,45,0,0
19869,-83.3333333333333,4,2,1,45,0,0
20180,-83.3333333333333,4,2,1,35,0,0
25154,-100,4,2,1,30,0,0
28885,-100,4,2,1,30,0,0
29506,-100,4,2,1,45,0,0
29817,-66.6666666666667,4,2,1,45,0,0
30128,-66.6666666666667,4,2,1,60,0,0
30361,-66.6666666666667,4,2,1,20,0,0
30439,-66.6666666666667,4,2,1,60,0,0
30672,-66.6666666666667,4,2,1,20,0,0
30750,-66.6666666666667,4,2,1,60,0,0
30983,-66.6666666666667,4,2,1,20,0,0
31061,-66.6666666666667,4,2,1,60,0,0
31294,-66.6666666666667,4,2,1,20,0,0
31372,-66.6666666666667,4,2,1,60,0,0
31605,-66.6666666666667,4,2,1,20,0,0
31682,-66.6666666666667,4,2,1,60,0,0
31916,-66.6666666666667,4,2,1,20,0,0
31993,-66.6666666666667,4,2,1,60,0,0
32227,-66.6666666666667,4,2,1,20,0,0
32304,-66.6666666666667,4,2,1,60,0,0
32460,-66.6666666666667,4,2,1,20,0,0
32537,-66.6666666666667,4,2,1,60,0,0
32848,-66.6666666666667,4,2,1,20,0,0
32926,-66.6666666666667,4,2,1,60,0,0
33159,-66.6666666666667,4,2,1,20,0,0
33237,-66.6666666666667,4,2,1,60,0,0
33470,-66.6666666666667,4,2,1,20,0,0
33548,-66.6666666666667,4,2,1,60,0,0
33781,-66.6666666666667,4,2,1,20,0,0
33859,-66.6666666666667,4,2,1,60,0,0
34092,-66.6666666666667,4,2,1,20,0,0
34170,-66.6666666666667,4,2,1,60,0,0
34403,-66.6666666666667,4,2,1,20,0,0
34480,-66.6666666666667,4,2,1,60,0,0
35646,-66.6666666666667,4,2,1,20,0,0
35724,-66.6666666666667,4,2,1,60,0,0
36268,-66.6666666666667,4,2,1,20,0,0
36346,-66.6666666666667,4,2,1,60,0,0
36890,-66.6666666666667,4,2,1,20,0,0
36967,-66.6666666666667,4,2,1,60,0,0
37589,-33.3333333333333,4,2,1,60,0,0
37667,-33.3333333333333,4,2,1,20,0,0
37745,-33.3333333333333,4,2,1,60,0,0
37822,-33.3333333333333,4,2,1,20,0,0
37900,-33.3333333333333,4,2,1,60,0,0
37978,-33.3333333333333,4,2,1,20,0,0
38056,-33.3333333333333,4,2,1,60,0,0
38133,-33.3333333333333,4,2,1,20,0,0
38211,-33.3333333333333,4,2,1,60,0,0
38522,-100,4,2,1,60,0,0
38833,-66.6666666666667,4,2,1,20,0,0
39144,-100,4,2,1,45,0,0
39454,-66.6666666666667,4,2,1,60,0,0
39532,-66.6666666666667,4,2,1,20,0,0
39610,-66.6666666666667,4,2,1,60,0,0
39688,-66.6666666666667,4,2,1,20,0,0
39765,-66.6666666666667,4,2,1,40,0,0
39843,-66.6666666666667,4,2,1,20,0,0
39921,-66.6666666666667,4,2,1,60,0,0
39999,-66.6666666666667,4,2,1,20,0,0
40076,-181.818181818181,4,2,1,75,0,0
40309,-181.818181818181,4,2,1,25,0,0
40387,-50,4,2,1,75,0,0
40594,-50,4,2,1,20,0,0
40698,-66.6666666666667,4,2,1,75,0,0
40853,-33.3333333333333,4,2,1,20,0,0
40905,-66.6666666666667,4,2,1,75,0,0
41061,-33.3333333333333,4,2,1,20,0,0
41113,-66.6666666666667,4,2,1,75,0,0
41268,-33.3333333333333,4,2,1,20,0,0
41527,-66.6666666666667,4,2,1,75,0,0
41682,-50,4,2,1,20,0,0
41734,-66.6666666666667,4,2,1,75,0,0
41942,-66.6666666666667,4,2,1,75,0,0
42097,-33.3333333333333,4,2,1,20,0,0
42149,-66.6666666666667,4,2,1,75,0,0
42304,-33.3333333333333,4,2,1,20,0,0
42356,-66.6666666666667,4,2,1,75,0,0
42511,-33.3333333333333,4,2,1,20,0,0
42563,-98.0392156862745,4,2,1,75,0,0
43030,-108.695652173913,4,2,1,45,0,0
43185,-66.6666666666667,4,2,1,75,0,0
43340,-66.6666666666667,4,2,1,20,0,0
43392,-66.6666666666667,4,2,1,75,0,0
43548,-66.6666666666667,4,2,1,20,0,0
43600,-66.6666666666667,4,2,1,75,0,0
43755,-66.6666666666667,4,2,1,20,0,0
44014,-66.6666666666667,4,2,1,75,0,0
44170,-40,4,2,1,20,0,0
44221,-66.6666666666667,4,2,1,75,0,0
44273,-66.6666666666667,4,2,1,20,0,0
44377,-40,4,2,1,75,0,0
44429,-71.4285714285714,4,2,1,75,0,0
44636,-71.4285714285714,4,2,1,20,0,0
44739,-71.4285714285714,4,2,1,75,0,0
45258,-71.4285714285714,4,2,1,20,0,0
45361,-50,4,2,1,55,0,0
45568,-50,4,2,1,20,0,0
45672,-66.6666666666667,4,2,1,75,0,0
45828,-33.3333333333333,4,2,1,20,0,0
45879,-66.6666666666667,4,2,1,75,0,0
46035,-33.3333333333333,4,2,1,20,0,0
46087,-66.6666666666667,4,2,1,75,0,0
46242,-33.3333333333333,4,2,1,20,0,0
46501,-66.6666666666667,4,2,1,75,0,0
46657,-50,4,2,1,20,0,0
46708,-66.6666666666667,4,2,1,75,0,0
46916,-66.6666666666667,4,2,1,75,0,0
47071,-33.3333333333333,4,2,1,20,0,0
47123,-66.6666666666667,4,2,1,75,0,0
47278,-33.3333333333333,4,2,1,20,0,0
47330,-66.6666666666667,4,2,1,75,0,0
47486,-33.3333333333333,4,2,1,20,0,0
47537,-100,4,2,1,75,0,0
47693,-100,4,2,1,25,0,0
47848,-200,4,2,1,60,0,0
48159,-66.6666666666667,4,2,1,75,0,0
48315,-66.6666666666667,4,2,1,20,0,0
48366,-66.6666666666667,4,2,1,75,0,0
48522,-66.6666666666667,4,2,1,20,0,0
48574,-66.6666666666667,4,2,1,75,0,0
48729,-66.6666666666667,4,2,1,20,0,0
48781,-71.4285714285714,4,2,1,75,0,0
48936,-71.4285714285714,4,2,1,25,0,0
49092,-181.818181818181,4,2,1,75,0,0
49247,-181.818181818181,4,2,1,25,0,0
49403,-71.4285714285714,4,2,1,75,0,0
49558,-71.4285714285714,4,2,1,25,0,0
49714,-181.818181818181,4,2,1,75,0,0
49869,-181.818181818181,4,2,1,25,0,0
50024,-181.818181818181,4,2,1,75,0,0
50232,-181.818181818181,4,2,1,20,0,0
50335,-50,4,2,1,55,0,0
50543,-50,4,2,1,20,0,0
50646,-66.6666666666667,4,2,1,75,0,0
50802,-33.3333333333333,4,2,1,20,0,0
50853,-66.6666666666667,4,2,1,75,0,0
51009,-33.3333333333333,4,2,1,20,0,0
51061,-66.6666666666667,4,2,1,75,0,0
51216,-33.3333333333333,4,2,1,20,0,0
51475,-66.6666666666667,4,2,1,75,0,0
51631,-50,4,2,1,20,0,0
51682,-66.6666666666667,4,2,1,75,0,0
51890,-66.6666666666667,4,2,1,75,0,0
52045,-33.3333333333333,4,2,1,20,0,0
52097,-66.6666666666667,4,2,1,75,0,0
52252,-33.3333333333333,4,2,1,20,0,0
52304,-66.6666666666667,4,2,1,75,0,0
52460,-33.3333333333333,4,2,1,20,0,0
52511,-98.0392156862745,4,2,1,75,0,0
52978,-108.695652173913,4,2,1,45,0,0
53133,-66.6666666666667,4,2,1,75,0,0
53289,-66.6666666666667,4,2,1,20,0,0
53340,-66.6666666666667,4,2,1,75,0,0
53496,-66.6666666666667,4,2,1,20,0,0
53548,-66.6666666666667,4,2,1,75,0,0
53703,-66.6666666666667,4,2,1,20,0,0
53962,-66.6666666666667,4,2,1,75,0,0
54118,-40,4,2,1,20,0,0
54170,-66.6666666666667,4,2,1,75,0,0
54221,-40,4,2,1,20,0,0
54325,-71.4285714285714,4,2,1,75,0,0
54584,-71.4285714285714,4,2,1,20,0,0
54688,-71.4285714285714,4,2,1,75,0,0
55206,-71.4285714285714,4,2,1,20,0,0
55309,-50,4,2,1,75,0,0
55517,-50,4,2,1,20,0,0
55620,-50,4,2,1,75,0,0
55724,-50,4,2,1,25,0,0
55828,-50,4,2,1,55,0,0
55931,-50,4,2,1,75,0,0
56035,-50,4,2,1,55,0,0
56138,-50,4,2,1,25,0,0
56242,-40,4,2,1,75,0,0
56346,-40,4,2,1,25,0,0
56449,-40,4,2,1,55,0,0
56553,-40,4,2,1,75,0,0
56657,-40,4,2,1,55,0,0
56760,-40,4,2,1,25,0,0
56864,-33.3333333333333,4,2,1,75,0,0
56967,-33.3333333333333,4,2,1,25,0,0
57071,-33.3333333333333,4,2,1,55,0,0
57175,-33.3333333333333,4,2,1,75,0,0
57278,-33.3333333333333,4,2,1,55,0,0
57382,-33.3333333333333,4,2,1,25,0,0
57486,-45.4545454545455,4,2,1,75,0,0
58729,-100,4,2,1,45,0,0
59662,-100,4,2,1,55,0,0
59973,-50,4,2,1,75,0,1
60050,-50,4,2,1,20,0,1
60128,-50,4,2,1,75,0,1
60206,-50,4,2,1,20,0,1
60283,-50,4,2,1,75,0,1
60594,-66.6666666666667,4,2,1,75,0,1
60750,-50,4,2,1,75,0,1
61372,-66.6666666666667,4,2,1,75,0,1
62149,-50,4,2,1,75,0,1
62382,-50,4,2,1,25,0,1
62460,-66.6666666666667,4,2,1,75,0,1
62615,-66.6666666666667,4,2,1,25,0,1
62693,-66.6666666666667,4,2,1,75,0,1
62848,-66.6666666666667,4,2,1,25,0,1
62926,-66.6666666666667,4,2,1,75,0,1
63004,-66.6666666666667,4,2,1,25,0,1
63081,-66.6666666666667,4,2,1,75,0,1
63237,-66.6666666666667,4,2,1,25,0,1
63315,-66.6666666666667,4,2,1,75,0,1
63470,-66.6666666666667,4,2,1,25,0,1
63548,-66.6666666666667,4,2,1,75,0,1
63625,-66.6666666666667,4,2,1,25,0,1
63703,-66.6666666666667,4,2,1,75,0,1
63859,-66.6666666666667,4,2,1,25,0,1
63936,-66.6666666666667,4,2,1,75,0,1
64092,-66.6666666666667,4,2,1,25,0,1
64170,-66.6666666666667,4,2,1,75,0,1
64247,-66.6666666666667,4,2,1,25,0,1
64325,-66.6666666666667,4,2,1,75,0,1
64714,-66.6666666666667,4,2,1,25,0,1
64791,-66.6666666666667,4,2,1,75,0,1
64869,-66.6666666666667,4,2,1,25,0,1
64947,-50,4,2,1,75,0,1
65024,-50,4,2,1,25,0,1
65102,-50,4,2,1,75,0,1
65180,-50,4,2,1,25,0,1
65258,-50,4,2,1,75,0,1
65568,-66.6666666666667,4,2,1,75,0,1
65724,-50,4,2,1,75,0,1
66346,-66.6666666666667,4,2,1,75,0,1
66890,-66.6666666666667,4,2,1,25,0,1
66967,-66.6666666666667,4,2,1,75,0,1
67045,-66.6666666666667,4,2,1,25,0,1
67123,-66.6666666666667,4,2,1,75,0,1
67201,-66.6666666666667,4,2,1,25,0,1
67278,-66.6666666666667,4,2,1,75,0,1
67356,-66.6666666666667,4,2,1,25,0,1
67434,-66.6666666666667,4,2,1,75,0,1
67589,-66.6666666666667,4,2,1,25,0,1
67667,-66.6666666666667,4,2,1,75,0,1
67822,-66.6666666666667,4,2,1,25,0,1
67900,-66.6666666666667,4,2,1,75,0,1
67978,-66.6666666666667,4,2,1,25,0,1
68056,-66.6666666666667,4,2,1,75,0,1
68211,-66.6666666666667,4,2,1,25,0,1
68289,-66.6666666666667,4,2,1,75,0,1
68444,-66.6666666666667,4,2,1,25,0,1
68522,-66.6666666666667,4,2,1,75,0,1
68600,-66.6666666666667,4,2,1,25,0,1
68677,-66.6666666666667,4,2,1,75,0,1
69144,-66.6666666666667,4,2,1,55,0,1
69221,-66.6666666666667,4,2,1,75,0,1
69377,-66.6666666666667,4,2,1,25,0,1
69454,-66.6666666666667,4,2,1,75,0,1
69532,-66.6666666666667,4,2,1,25,0,1
69610,-66.6666666666667,4,2,1,75,0,1
69688,-66.6666666666667,4,2,1,25,0,1
69765,-66.6666666666667,4,2,1,75,0,1
69843,-66.6666666666667,4,2,1,25,0,1
69921,-50,4,2,1,75,0,1
69999,-50,4,2,1,25,0,1
70076,-50,4,2,1,75,0,1
70154,-50,4,2,1,25,0,1
70232,-50,4,2,1,75,0,1
70543,-66.6666666666667,4,2,1,75,0,1
71164,-50,4,2,1,75,0,1
71786,-66.6666666666667,4,2,1,75,0,1
71864,-66.6666666666667,4,2,1,25,0,1
71942,-66.6666666666667,4,2,1,75,0,1
72019,-66.6666666666667,4,2,1,25,0,1
72097,-66.6666666666667,4,2,1,75,0,1
72175,-66.6666666666667,4,2,1,25,0,1
72252,-66.6666666666667,4,2,1,75,0,1
72330,-66.6666666666667,4,2,1,25,0,1
72408,-50,4,2,1,75,0,1
73030,-66.6666666666667,4,2,1,75,0,1
74273,-66.6666666666667,4,2,1,75,0,1
74351,-66.6666666666667,4,2,1,20,0,1
74429,-66.6666666666667,4,2,1,75,0,1
74506,-66.6666666666667,4,2,1,20,0,1
74584,-66.6666666666667,4,2,1,75,0,1
74662,-66.6666666666667,4,2,1,20,0,1
74739,-66.6666666666667,4,2,1,75,0,1
74817,-66.6666666666667,4,2,1,20,0,1
74895,-50,4,2,1,75,0,1
75050,-50,4,2,1,25,0,1
75128,-50,4,2,1,75,0,1
75206,-66.6666666666667,4,2,1,75,0,1
75284,-66.6666666666667,4,2,1,25,0,1
75361,-66.6666666666667,4,2,1,75,0,1
75439,-66.6666666666667,4,2,1,25,0,1
75517,-66.6666666666667,4,2,1,75,0,1
75594,-66.6666666666667,4,2,1,25,0,1
75672,-66.6666666666667,4,2,1,75,0,1
76138,-50,4,2,1,75,0,1
76294,-50,4,2,1,25,0,1
76372,-50,4,2,1,75,0,1
76449,-66.6666666666667,4,2,1,75,0,1
76527,-66.6666666666667,4,2,1,25,0,1
76605,-66.6666666666667,4,2,1,75,0,1
76682,-66.6666666666667,4,2,1,25,0,1
76760,-66.6666666666667,4,2,1,75,0,1
76838,-66.6666666666667,4,2,1,25,0,1
76916,-66.6666666666667,4,2,1,75,0,1
77382,-50,4,2,1,75,0,1
77537,-50,4,2,1,55,0,1
77693,-50,4,2,1,75,0,1
78159,-50,4,2,1,55,0,1
78315,-50,4,2,1,75,0,1
78625,-66.6666666666667,4,2,1,75,0,1
78703,-66.6666666666667,4,2,1,20,0,1
78781,-66.6666666666667,4,2,1,75,0,1
78859,-66.6666666666667,4,2,1,20,0,1
78936,-66.6666666666667,4,2,1,75,0,1
79014,-66.6666666666667,4,2,1,20,0,1
79092,-66.6666666666667,4,2,1,75,0,1
79170,-66.6666666666667,4,2,1,20,0,1
79247,-66.6666666666667,4,2,1,75,0,1
79325,-66.6666666666667,4,2,1,75,0,1
79403,-66.6666666666667,4,2,1,75,0,1
79480,-66.6666666666667,4,2,1,75,0,1
79558,-66.6666666666667,4,2,1,55,0,1
79869,-50,4,2,1,75,0,0
81967,-50,4,2,1,10,0,0
82045,-200,4,2,1,55,0,0
82278,-200,4,2,1,25,0,0
82356,-50,4,2,1,75,0,1
82511,-50,4,2,1,25,0,1
82589,-66.6666666666667,4,2,1,75,0,1
82745,-66.6666666666667,4,2,1,25,0,1
82822,-66.6666666666667,4,2,1,75,0,1
82900,-66.6666666666667,4,2,1,25,0,1
82978,-50,4,2,1,75,0,1
83133,-50,4,2,1,25,0,1
83211,-66.6666666666667,4,2,1,75,0,1
83366,-66.6666666666667,4,2,1,25,0,1
83444,-66.6666666666667,4,2,1,75,0,1
83522,-66.6666666666667,4,2,1,25,0,1
83600,-50,4,2,1,75,0,1
83755,-50,4,2,1,25,0,1
83833,-66.6666666666667,4,2,1,75,0,1
83988,-66.6666666666667,4,2,1,25,0,1
84066,-66.6666666666667,4,2,1,75,0,1
84144,-66.6666666666667,4,2,1,25,0,1
84221,-66.6666666666667,4,2,1,75,0,1
84610,-66.6666666666667,4,2,1,25,0,1
84688,-66.6666666666667,4,2,1,75,0,1
84765,-66.6666666666667,4,2,1,25,0,1
84843,-50,4,2,1,75,0,1
84921,-50,4,2,1,25,0,1
84999,-50,4,2,1,75,0,1
85076,-50,4,2,1,25,0,1
85154,-50,4,2,1,75,0,1
85465,-66.6666666666667,4,2,1,75,0,1
85620,-50,4,2,1,75,0,1
86242,-66.6666666666667,4,2,1,75,0,1
86786,-66.6666666666667,4,2,1,25,0,1
86864,-66.6666666666667,4,2,1,75,0,1
86942,-66.6666666666667,4,2,1,25,0,1
87019,-66.6666666666667,4,2,1,75,0,1
87097,-66.6666666666667,4,2,1,25,0,1
87175,-66.6666666666667,4,2,1,75,0,1
87252,-66.6666666666667,4,2,1,25,0,1
87330,-50,4,2,1,75,0,1
87486,-50,4,2,1,25,0,1
87563,-50,4,2,1,75,0,1
87641,-66.6666666666667,4,2,1,75,0,1
87719,-66.6666666666667,4,2,1,25,0,1
87796,-66.6666666666667,4,2,1,75,0,1
87874,-66.6666666666667,4,2,1,25,0,1
87952,-50,4,2,1,75,0,1
88107,-50,4,2,1,25,0,1
88185,-50,4,2,1,75,0,1
88263,-66.6666666666667,4,2,1,75,0,1
88340,-66.6666666666667,4,2,1,25,0,1
88418,-66.6666666666667,4,2,1,75,0,1
88496,-66.6666666666667,4,2,1,25,0,1
88574,-66.6666666666667,4,2,1,75,0,1
89817,-50,4,2,1,75,0,1
89895,-50,4,2,1,25,0,1
89973,-50,4,2,1,75,0,1
90050,-50,4,2,1,25,0,1
90128,-50,4,2,1,75,0,1
90517,-50,4,2,1,25,0,1
90594,-50,4,2,1,75,0,1
90672,-50,4,2,1,25,0,1
90750,-50,4,2,1,75,0,1
90828,-50,4,2,1,25,0,1
90905,-50,4,2,1,75,0,1
90983,-50,4,2,1,25,0,1
91061,-50,4,2,1,75,0,1
91138,-50,4,2,1,25,0,1
91216,-50,4,2,1,75,0,1
91294,-50,4,2,1,25,0,1
91372,-50,4,2,1,75,0,1
91760,-50,4,2,1,25,0,1
91838,-50,4,2,1,75,0,1
91916,-50,4,2,1,25,0,1
91993,-50,4,2,1,75,0,1
92071,-50,4,2,1,25,0,1
92149,-50,4,2,1,75,0,1
93004,-50,4,2,1,25,0,1
93081,-50,4,2,1,75,0,1
93159,-50,4,2,1,25,0,1
93237,-50,4,2,1,75,0,1
93315,-50,4,2,1,25,0,1
93392,-50,4,2,1,75,0,1
93470,-50,4,2,1,25,0,1
93548,-50,4,2,1,75,0,1
93625,-50,4,2,1,25,0,1
93703,-50,4,2,1,75,0,1
93781,-50,4,2,1,25,0,1
93859,-50,4,2,1,75,0,1
93936,-50,4,2,1,25,0,1
94014,-50,4,2,1,75,0,1
94092,-50,4,2,1,25,0,1
94170,-50,4,2,1,75,0,1
94791,-40,4,2,1,75,0,1
94869,-40,4,2,1,35,0,1
94947,-40,4,2,1,75,0,1
95335,-40,4,2,1,25,0,1
95413,-40,4,2,1,75,0,1
95491,-40,4,2,1,25,0,1
95568,-40,4,2,1,75,0,1
95957,-40,4,2,1,25,0,1
96035,-40,4,2,1,75,0,1
96113,-40,4,2,1,25,0,1
96190,-40,4,2,1,75,0,1
96579,-40,4,2,1,25,0,1
96657,-40,4,2,1,75,0,1
96734,-40,4,2,1,55,0,1
96812,-40,4,2,1,75,0,1
96890,-40,4,2,1,55,0,1
96967,-40,4,2,1,75,0,1
97278,-100,4,2,1,75,0,1
97434,-100,4,2,1,55,0,1
98522,-66.6666666666667,4,2,1,75,0,1
98677,-66.6666666666667,4,2,1,75,0,1
98755,-66.6666666666667,4,2,1,25,0,1
98833,-66.6666666666667,4,2,1,75,0,1
98988,-66.6666666666667,4,2,1,75,0,1
99066,-66.6666666666667,4,2,1,25,0,1
99144,-66.6666666666667,4,2,1,55,0,1
99221,-66.6666666666667,4,2,1,45,0,1
99454,-83.3333333333333,4,2,1,45,0,1
99688,-83.3333333333333,4,2,1,45,0,1
99765,-66.6666666666667,4,2,1,75,0,0
99999,-66.6666666666667,4,2,1,25,0,0
100076,-50,4,2,1,75,0,0
100232,-50,4,2,1,25,0,0
100309,-200,4,2,1,75,0,0
100465,-200,4,2,1,25,0,0
100543,-50,4,2,1,75,0,0
100620,-50,4,2,1,25,0,0
100698,-40,4,2,1,75,0,0
100776,-40,4,2,1,25,0,0
100853,-33.3333333333333,4,2,1,75,0,0
100931,-33.3333333333333,4,2,1,25,0,0
101009,-66.6666666666667,4,2,1,75,0,0
101242,-66.6666666666667,4,2,1,25,0,0
101320,-50,4,2,1,75,0,0
101475,-50,4,2,1,25,0,0
101553,-200,4,2,1,75,0,0
101708,-200,4,2,1,25,0,0
101786,-50,4,2,1,75,0,0
101864,-50,4,2,1,25,0,0
101942,-40,4,2,1,75,0,0
102019,-40,4,2,1,25,0,0
102097,-33.3333333333333,4,2,1,75,0,0
102175,-33.3333333333333,4,2,1,25,0,0
102252,-83.3333333333333,4,2,1,75,0,0
102486,-83.3333333333333,4,2,1,25,0,0
102563,-50,4,2,1,75,0,0
102719,-50,4,2,1,25,0,0
102796,-200,4,2,1,75,0,0
102952,-200,4,2,1,25,0,0
103030,-50,4,2,1,75,0,0
103107,-50,4,2,1,25,0,0
103185,-40,4,2,1,75,0,0
103263,-40,4,2,1,25,0,0
103340,-33.3333333333333,4,2,1,75,0,0
103418,-33.3333333333333,4,2,1,25,0,0
103496,-66.6666666666667,4,2,1,75,0,0
103729,-66.6666666666667,4,2,1,25,0,0
103807,-50,4,2,1,75,0,0
103962,-50,4,2,1,25,0,0
104040,-50,4,2,1,75,0,0
104118,-50,4,2,1,75,0,0
104351,-50,4,2,1,25,0,0
104429,-50,4,2,1,75,0,0
104662,-50,4,2,1,25,0,0
104739,-50,4,2,1,75,0,0
104973,-50,4,2,1,25,0,0
105050,-50,4,2,1,75,0,0
105206,-50,4,2,1,25,0,0
105283,-200,4,2,1,75,0,0
105439,-200,4,2,1,25,0,0
105517,-50,4,2,1,75,0,0
105594,-50,4,2,1,25,0,0
105672,-40,4,2,1,75,0,0
105750,-40,4,2,1,25,0,0
105828,-33.3333333333333,4,2,1,75,0,0
105905,-33.3333333333333,4,2,1,25,0,0
105983,-66.6666666666667,4,2,1,75,0,0
106216,-66.6666666666667,4,2,1,25,0,0
106294,-50,4,2,1,75,0,0
106449,-50,4,2,1,25,0,0
106527,-200,4,2,1,75,0,0
106682,-200,4,2,1,25,0,0
106760,-50,4,2,1,75,0,0
106838,-50,4,2,1,25,0,0
106916,-40,4,2,1,75,0,0
106993,-40,4,2,1,25,0,0
107071,-33.3333333333333,4,2,1,75,0,0
107149,-33.3333333333333,4,2,1,25,0,0
107227,-83.3333333333333,4,2,1,75,0,0
107460,-83.3333333333333,4,2,1,25,0,0
107537,-50,4,2,1,75,0,0
107693,-50,4,2,1,25,0,0
107771,-200,4,2,1,75,0,0
107926,-200,4,2,1,25,0,0
108004,-50,4,2,1,75,0,0
108081,-50,4,2,1,25,0,0
108159,-50,4,2,1,75,0,0
108625,-50,4,2,1,25,0,0
108781,-50,4,2,1,75,0,0
108936,-50,4,2,1,25,0,0
109092,-50,4,2,1,65,0,0
109247,-50,4,2,1,25,0,0
109403,-50,4,2,1,75,0,0
109558,-50,4,2,1,25,0,0
109714,-50,4,2,1,75,0,0
110180,-50,4,2,1,25,0,0
110258,-50,4,2,1,75,0,0
110413,-50,4,2,1,25,0,0
110491,-50,4,2,1,75,0,0
110568,-50,4,2,1,25,0,0
110646,-50,4,2,1,75,0,0
110724,-50,4,2,1,25,0,0
110802,-50,4,2,1,75,0,0
111113,-50,4,2,1,75,0,0
111190,-50,4,2,1,25,0,0
111268,-50,4,2,1,75,0,0
111423,-50,4,2,1,25,0,0
111501,-50,4,2,1,75,0,0
111657,-50,4,2,1,25,0,0
111734,-50,4,2,1,75,0,0
111812,-50,4,2,1,25,0,0
111890,-50,4,2,1,75,0,0
111967,-50,4,2,1,25,0,0
112045,-50,4,2,1,75,0,0
112123,-50,4,2,1,25,0,0
112201,-50,4,2,1,75,0,0
112356,-50,4,2,1,25,0,0
112511,-50,4,2,1,75,0,0
112667,-50,4,2,1,25,0,0
112745,-50,4,2,1,75,0,0
112900,-50,4,2,1,25,0,0
112978,-50,4,2,1,75,0,0
113056,-50,4,2,1,25,0,0
113133,-50,4,2,1,75,0,0
113211,-50,4,2,1,25,0,0
113289,-50,4,2,1,75,0,0
113366,-50,4,2,1,25,0,0
113444,-50,4,2,1,75,0,0
113600,-50,4,2,1,25,0,0
113755,-50,4,2,1,75,0,0
113910,-50,4,2,1,25,0,0
113988,-50,4,2,1,75,0,0
114299,-50,4,2,1,25,0,0
114377,-50,4,2,1,75,0,0
114610,-50,4,2,1,25,0,0
114688,-50,4,2,1,65,0,0
115232,-50,4,2,1,25,0,0
115309,-50,4,2,1,65,0,0
115853,-50,4,2,1,25,0,0
115931,-50,4,2,1,65,0,0
116475,-50,4,2,1,25,0,0
116553,-50,4,2,1,65,0,0
117097,-50,4,2,1,25,0,0
117175,-50,4,2,1,75,0,0
119040,-66.6666666666667,4,2,1,55,0,0
119351,-100,4,2,1,55,0,0
119429,-100,4,2,1,20,0,0
119506,-100,4,2,1,55,0,0
119584,-100,4,2,1,20,0,0
119662,-100,4,2,1,55,0,0
124325,-100,4,2,1,5,0,0

[Colours]
Combo1 : 136,214,247
Combo2 : 249,67,6
Combo3 : 242,180,13
Combo4 : 12,99,243

[HitObjects]
206,181,284,6,0,B|200:144|200:144|228:98,1,75.0000028610231,2|0,2:2|2:2,2:2:0:0:
173,32,594,2,0,B|136:37|136:37|90:9,1,75.0000028610231,2|0,2:2|2:2,2:2:0:0:
23,65,905,2,0,B|28:101|28:101|0:147,1,75.0000028610231,2|0,2:2|2:2,2:2:0:0:
56,214,1216,2,0,B|92:208|92:208|138:236,1,75.0000028610231,2|0,2:2|2:2,2:2:0:0:
324,187,1527,6,0,B|360:192|360:192|406:164,1,75.0000028610231,2|0,0:2|2:2,2:2:0:0:
473,220,1837,2,0,B|467:256|467:256|495:302,1,75.0000028610231,2|0,2:2|2:2,2:2:0:0:
440,370,2148,2,0,B|403:364|403:364|357:392,1,75.0000028610231,2|0,2:2|2:2,2:2:0:0:
291,337,2459,2,0,B|296:300|296:300|268:254,1,75.0000028610231,2|0,2:2|2:2,2:2:0:0:
153,160,2771,6,0,B|82:151|82:151|67:141|67:141|-9:132,2,150.000005722046,2|2|2,2:2|2:2|2:2,2:2:0:0:
259,175,3703,1,2,2:2:0:0:
317,69,4014,6,0,B|388:60|388:60|403:50|403:50|479:41,2,150.000005722046,2|2|2,2:2|2:2|2:2,2:2:0:0:
211,84,4946,1,2,2:2:0:0:
188,189,5258,6,0,P|206:221|207:259,1,75.0000028610231,2|0,2:2|2:2,2:2:0:0:
164,345,5568,2,0,P|132:363|95:364,1,75.0000028610231,2|0,2:2|2:2,2:2:0:0:
21,311,5879,2,0,P|3:279|3:242,1,75.0000028610231,2|0,2:2|2:2,2:2:0:0:
45,156,6190,2,0,P|77:138|115:138,1,75.0000028610231,2|0,2:2|2:2,2:2:0:0:
328,188,6501,6,0,P|360:206|397:206,1,75.0000028610231,2|0,2:2|2:2,2:2:0:0:
484,164,6811,2,0,P|502:131|502:94,1,75.0000028610231,2|0,2:2|2:2,2:2:0:0:
450,21,7122,2,0,P|417:2|380:2,1,75.0000028610231,2|0,2:2|2:2,2:2:0:0:
296,45,7434,2,0,P|277:77|277:114,1,75.0000028610231,2|0,2:2|2:2,2:2:0:0:
256,192,7745,12,0,9532,2:2:0:0:
153,155,9610,6,0,P|135:180|102:193,3,50,2|2|2|2,1:2|2:2|2:2|1:2,2:2:0:0:
35,165,9921,2,0,P|20:138|23:102,1,59.9999981689454,10|0,1:2|2:2,2:2:0:0:
80,49,10076,2,0,P|114:49|146:72,1,69.9999978637696,10|0,1:2|2:2,2:2:0:0:
459,139,10232,6,0,B|416:70|435:-4|435:-4|415:76|336:110,1,300.000011444092,6|0,1:3|2:2,2:2:0:0:
387,310,10698,2,0,B|468:307|522:360|522:360|463:303|473:217,1,300.000011444092,6|0,1:3|2:2,2:2:0:0:
263,179,11164,2,0,B|234:232|179:248|179:248|238:231|290:269,1,225.000008583069,6|0,1:3|2:2,2:2:0:0:
401,384,11475,6,0,L|387:310,1,75.0000028610231,2|4,2:2|2:2,2:2:0:0:
482,373,11786,2,0,L|468:299,1,75.0000028610231,2|4,2:2|2:2,2:2:0:0:
294,28,12097,6,0,L|280:101,1,75.0000028610231,2|4,2:2|2:2,2:2:0:0:
216,12,12408,2,0,L|202:85,1,75.0000028610231,2|4,2:2|2:2,2:2:0:0:
142,292,12719,6,0,B|143:311|143:311|33:389|33:389|59:265|59:265|75:255,1,300.000011444092,6|0,1:3|2:2,2:2:0:0:
219,169,13185,2,0,B|234:156|234:156|356:213|356:213|231:253|231:253|220:243,1,300.000011444092,6|0,1:3|2:2,2:2:0:0:
81,159,13651,2,0,B|65:149|65:149|58:54|58:54|128:114|128:114|127:133,1,225.000008583069,6|0,1:3|2:2,2:2:0:0:
509,142,13962,6,0,P|485:113|475:77,1,75.0000028610231,2|6,2:2|2:2,2:2:0:0:
353,35,14195,1,2,2:2:0:0:
353,35,14273,2,0,P|324:58|288:67,1,75.0000028610231,2|6,2:2|2:2,2:2:0:0:
383,152,14506,5,0,0:0:0:0:
374,174,14584,2,0,P|398:129|366:168,1,150,2|0,2:2|2:2,2:2:0:0:
455,370,14895,5,10,2:3:0:0:
434,324,14973,1,10,2:3:0:0:
390,297,15050,1,10,2:3:0:0:
338,300,15128,1,10,2:3:0:0:
302,329,15206,6,0,B|253:340|253:340|218:299,1,100,14|0,1:3|2:2,2:2:0:0:
199,126,15517,2,0,B|233:162|233:162|215:213,1,100,10|0,1:2|2:2,2:2:0:0:
75,314,15828,2,0,B|89:265|89:265|142:256,1,100,10|0,1:2|2:2,0:0:0:0:
372,375,16138,5,10,1:2:0:0:
420,109,16294,1,2,1:2:0:0:
512,271,16449,6,0,L|406:288,1,100,14|0,1:3|2:2,2:2:0:0:
191,324,16760,2,0,L|297:307,1,100,10|0,1:2|2:2,2:2:0:0:
170,23,17071,5,10,1:2:0:0:
138,257,17227,1,2,1:2:0:0:
268,158,17382,5,10,1:2:0:0:
34,126,17538,1,2,1:2:0:0:
307,346,17693,5,14,1:3:0:0:
296,329,17771,1,10,1:3:0:0:
286,293,17848,1,10,1:2:0:0:
294,252,17926,1,10,1:2:0:0:
347,207,18004,1,10,1:2:0:0:
422,214,18081,1,10,1:2:0:0:
493,180,18159,1,10,1:2:0:0:
512,104,18237,1,10,1:2:0:0:
482,31,18315,5,6,1:3:0:0:
422,214,18522,1,6,1:3:0:0:
365,384,18729,1,6,1:3:0:0:
0,139,18936,6,0,P|49:147|77:183,1,75.0000028610231,2|4,2:2|2:2,2:2:0:0:
115,371,19247,2,0,P|97:324|114:282,1,75.0000028610231,2|4,2:2|2:2,2:2:0:0:
214,115,19558,5,2,2:2:0:0:
226,117,19636,1,2,2:2:0:0:
238,118,19714,1,2,2:2:0:0:
249,119,19791,1,2,2:2:0:0:
262,123,19869,2,0,P|218:187|146:217,2,119.999996337891,10|0|0,2:2|0:0|1:2,2:2:0:0:
500,148,25154,6,0,P|438:168|414:212,3,100,2|2|2|2,2:2|2:2|2:2|1:2,2:2:0:0:
325,172,25776,2,0,P|307:124|267:96,1,100,10|2,2:2|2:2,2:2:0:0:
408,0,26087,2,0,L|387:111,1,100,2|2,2:2|1:2,2:2:0:0:
357,266,26397,5,2,2:2:0:0:
357,266,26553,1,2,1:2:0:0:
484,384,26708,2,0,P|466:336|426:308,1,100,2|2,1:2|2:2,2:2:0:0:
357,266,27019,5,10,2:2:0:0:
357,266,27175,1,2,2:2:0:0:
201,332,27330,2,0,P|229:291|276:275,1,100,2|2,2:2|2:2,2:2:0:0:
446,237,27641,5,2,1:2:0:0:
312,190,27796,1,2,2:2:0:0:
359,59,27952,1,2,2:2:0:0:
491,104,28107,1,2,1:2:0:0:
288,102,28263,5,10,2:2:0:0:
255,8,28418,1,2,2:2:0:0:
161,41,28574,1,2,2:2:0:0:
193,134,28729,1,2,1:2:0:0:
0,146,28885,5,2,2:2:0:0:
34,135,28962,1,2,2:2:0:0:
69,143,29040,1,2,1:2:0:0:
98,164,29118,1,2,2:2:0:0:
115,195,29195,2,0,P|117:229|102:263,3,50,2|2|2|2,1:2|2:2|2:2|2:2,2:2:0:0:
242,371,29506,5,10,2:2:0:0:
252,311,29584,1,2,2:2:0:0:
262,251,29662,1,2,1:2:0:0:
272,192,29739,1,2,2:2:0:0:
281,136,29817,2,2,L|299:38,3,75.0000028610231,2|2|2|2,2:2|2:2|2:2|2:2,2:2:0:0:
495,236,30128,6,0,P|392:205|354:323,1,225.000008583069,14|0,2:3|2:2,2:2:0:0:
358,332,30439,2,0,P|460:362|498:244,1,225.000008583069,10|0,2:3|2:2,2:2:0:0:
495,236,30750,2,0,P|392:205|354:323,1,225.000008583069,10|0,2:3|2:2,2:2:0:0:
358,332,31061,2,0,P|460:362|498:244,1,225.000008583069,10|0,2:3|2:2,2:2:0:0:
279,138,31372,6,0,B|178:116|178:116|170:107|170:107|59:85,1,225.000008583069,10|0,2:3|2:2,2:2:0:0:
12,160,31682,2,0,B|118:182|118:182|125:190|125:190|237:213,1,225.000008583069,10|0,2:3|2:2,2:2:0:0:
267,307,31993,2,0,B|166:285|166:285|158:276|158:276|47:254,1,225.000008583069,10|0,2:3|2:2,2:2:0:0:
0,330,32303,2,0,B|106:352|106:352|113:360|113:360|225:383,1,225.000008583069,10|2,2:3|2:2,2:2:0:0:
485,189,32615,6,0,B|382:138|382:138|320:238,1,225.000008583069,14|0,2:3|2:2,2:2:0:0:
344,313,32926,2,0,B|447:364|447:364|509:264,1,225.000008583069,10|0,2:3|2:2,2:2:0:0:
485,189,33237,2,0,B|382:138|382:138|320:238,1,225.000008583069,10|0,2:3|2:2,2:2:0:0:
344,313,33548,2,0,B|447:364|447:364|509:264,1,225.000008583069,10|0,2:3|2:2,2:2:0:0:
366,36,33859,6,0,B|380:104|380:104|386:109|386:109|400:167|400:167|396:174|396:174|412:253,1,225.000008583069,10|0,2:3|2:2,2:2:0:0:
185,341,34170,2,0,B|201:262|201:262|197:255|197:255|211:197|211:197|217:192|217:192|231:124,1,225.000008583069,10|0,2:3|2:2,2:2:0:0:
44,67,34480,5,10,2:3:0:0:
233,1,34635,1,10,2:3:0:0:
301,191,34791,1,10,2:3:0:0:
110,259,34946,1,10,2:3:0:0:
110,259,35024,1,10,2:3:0:0:
110,259,35102,6,0,L|149:96,1,150.000005722046,14|10,2:3|2:2,2:2:0:0:
233,1,35335,2,0,L|257:74,1,75.0000028610231,8|0,2:2|2:2,2:2:0:0:
301,191,35491,1,10,2:2:0:0:
301,191,35568,2,0,L|331:279,1,75.0000028610231,10|0,2:2|2:2,2:2:0:0:
371,384,35724,6,0,P|401:317|474:286,1,150.000005722046,14|10,2:3|2:2,2:2:0:0:
438,160,35957,2,0,L|348:138,1,75.0000028610231,10|0,2:2|2:2,2:2:0:0:
189,99,36113,1,10,2:2:0:0:
189,99,36190,2,0,L|99:77,1,75.0000028610231,10|0,2:2|2:2,2:2:0:0:
20,200,36346,6,0,B|37:274|37:274|119:257,1,150.000005722046,14|10,2:3|2:2,2:2:0:0:
223,319,36579,2,0,L|245:229,1,75.0000028610231,10|0,2:2|2:2,2:2:0:0:
296,72,36735,1,10,2:2:0:0:
296,72,36812,2,0,L|318:-18,1,75.0000028610231,10|0,2:2|2:2,2:2:0:0:
443,0,36967,6,0,B|485:10|485:10|511:116,1,150.000005722046,14|10,2:3|2:2,2:2:0:0:
439,258,37201,2,0,L|349:236,1,75.0000028610231,10|0,2:2|2:2,2:2:0:0:
172,195,37357,1,10,2:2:0:0:
172,195,37434,2,0,L|82:173,1,75.0000028610231,10|0,2:2|2:2,2:2:0:0:
338,384,37589,5,14,2:3:0:0:
306,150,37745,1,10,2:3:0:0:
439,258,37900,5,10,2:3:0:0:
205,290,38056,1,10,2:3:0:0:
361,23,38211,5,10,2:2:0:0:
371,66,38288,1,10,2:2:0:0:
381,110,38366,1,10,2:2:0:0:
392,154,38444,1,10,2:2:0:0:
403,192,38522,2,0,P|381:208|370:229,3,50,10|10|10|10,2:2|2:2|2:2|2:2,0:0:0:0:
205,290,38833,6,0,B|215:241|215:241|208:245|208:245|219:194|219:194|225:198|225:198|235:150|235:150|227:153|227:153|237:103,1,225.000008583069,0|0,1:2|2:2,2:2:0:0:
140,0,39144,6,0,L|150:48,1,50,10|10,2:2|2:2,0:0:0:0:
61,19,39299,2,0,L|71:67,1,50,10|10,2:2|2:2,0:0:0:0:
0,168,39454,6,0,P|33:174|64:219,1,75.0000028610231,2|0,2:2|2:2,2:2:0:0:
255,321,39610,2,0,P|222:315|191:270,1,75.0000028610231,2|0,2:2|2:2,2:2:0:0:
51,372,39765,2,0,P|57:339|102:308,1,75.0000028610231,10|0,1:3|2:2,2:2:0:0:
204,117,39921,2,0,P|198:150|153:181,1,75.0000028610231,2|0,2:2|2:2,2:2:0:0:
370,317,40076,6,0,P|406:317|434:350,1,82.5000025177003,4|0,1:3|2:2,2:2:0:0:
443,361,40387,6,0,B|456:255|456:255|462:250|462:250|469:185|469:185|465:179|465:179|475:91,1,266.666666666667,8|0,2:2|0:0,2:2:0:0:
413,42,40698,6,0,B|372:31|360:-6|360:-6|364:32|335:60,1,150.000005722046,10|0,2:3|2:2,2:2:0:0:
453,178,40905,2,0,B|482:147|521:156|521:156|485:141|475:101,1,150.000005722046,2|0,1:2|2:2,2:2:0:0:
315,146,41113,2,0,B|326:186|299:216|299:216|330:192|370:204,1,150.000005722046,2|0,1:2|2:2,2:2:0:0:
370,204,41527,6,0,B|330:192|299:216|299:216|326:186|315:146,1,150.000005722046,2|0,1:2|2:2,2:2:0:0:
251,278,41734,2,0,B|220:250|181:258|181:258|219:243|225:201,1,150.000005722046,2|0,1:2|1:2,2:2:0:0:
72,268,41942,6,0,B|56:231|17:222|17:222|58:224|81:189,1,150.000005722046,10|0,2:3|2:2,2:2:0:0:
160,154,42149,2,0,B|201:159|228:130|228:130|207:164|225:202,1,150.000005722046,2|0,1:2|2:2,2:2:0:0:
207,281,42356,2,0,B|185:314|197:352|197:352|178:316|136:313,1,150.000005722046,2|0,1:2|2:2,2:2:0:0:
72,268,42563,6,0,B|124:205|103:124|103:124|139:200|225:202,1,306.000001867676,2|0,1:2|2:2,2:2:0:0:
363,227,43185,6,0,B|324:221|305:186|305:186|317:225|290:257,1,150.000005722046,10|0,2:3|0:0,1:2:0:0:
450,122,43392,2,0,B|464:159|443:193|443:193|471:163|512:171,1,150.000005722046,2|0,1:2|0:0,0:0:0:0:
313,97,43600,2,0,B|338:65|378:66|378:66|337:58|324:18,1,150.000005722046,2|0,1:2|0:0,0:0:0:0:
324,18,44014,6,0,B|337:58|378:66|378:66|338:65|313:97,1,150.000005722046,2|0,1:2|2:2,2:2:0:0:
224,76,44221,2,0,B|208:114|234:147|234:147|204:121|164:129,1,150.000005722046,2|2,1:2|1:2,2:2:0:0:
43,0,44429,6,0,P|70:90|98:202,1,186.666660970052,6|0,1:3|2:2,2:2:0:0:
50,342,44739,2,0,P|89:299|139:251,1,93.3333304850261,6|0,1:3|0:0,2:2:0:0:
125,266,44895,2,0,P|148:246|171:228,2,46.6666652425131,0|10|10,0:0|2:2|2:2,0:0:0:0:
353,201,45050,2,0,P|260:179|150:147,1,186.666660970052,4|0,1:3|0:0,2:2:0:0:
254,360,45361,6,0,P|343:334|529:294,1,266.666666666667,8|0,2:2|0:0,2:2:0:0:
423,197,45672,6,0,B|462:167|447:128|447:128|407:149|423:197,1,150.000005722046,10|0,2:3|2:2,2:2:0:0:
456,307,45879,2,0,B|462:355|503:362|503:362|505:317|456:307,1,150.000005722046,2|0,1:2|2:2,2:2:0:0:
353,275,46087,2,0,B|307:256|281:288|281:288|319:312|353:275,1,150.000005722046,2|0,1:2|2:2,2:2:0:0:
353,275,46501,6,0,B|307:256|281:288|281:288|319:312|353:275,1,150.000005722046,2|0,1:2|2:2,2:2:0:0:
277,160,46708,2,0,B|232:182|240:223|240:223|283:210|277:160,1,150.000005722046,0|0,1:2|1:2,2:2:0:0:
155,198,46916,6,2,B|123:236|147:270|147:270|181:241|155:198,1,150.000005722046,10|2,2:3|2:2,2:2:0:0:
107,83,47123,2,2,B|89:36|48:39|48:39|56:84|107:83,1,150.000005722046,2|2,1:2|2:2,2:2:0:0:
217,93,47330,2,2,B|265:101|283:63|283:63|241:48|217:93,1,150.000005722046,2|2,1:2|2:2,2:2:0:0:
52,175,47537,6,2,P|-1:197|49:170,1,166.666666666667,2|2,1:2|0:0,2:2:0:0:
52,175,47848,2,2,L|22:189,3,25,2|10|10|10,2:2|2:2|2:2|2:2,0:0:0:0:
154,198,48159,6,2,B|123:236|147:270|147:270|181:241|159:206,1,150.000005722046,10|2,2:3|0:0,2:2:0:0:
218,93,48366,2,2,B|265:101|283:63|283:63|241:48|221:84,1,150.000005722046,2|2,1:2|0:0,0:0:0:0:
106,81,48574,2,2,B|89:36|48:39|48:39|56:84|95:82,1,150.000005722046,2|2,1:2|0:0,0:0:0:0:
253,195,48781,6,2,P|343:168|487:135,1,233.333326212565,6|2,1:2|0:0,2:2:0:0:
479,137,49092,2,2,P|492:90|504:58,1,73.3333355712891,2|2,2:2|0:0,2:2:0:0:
349,0,49403,6,2,P|376:90|409:234,1,233.333326212565,6|2,1:2|0:0,2:2:0:0:
407,225,49714,2,2,P|366:234|323:249,1,73.3333355712891,2|2,2:2|0:0,2:2:0:0:
148,374,50024,6,0,P|107:365|64:350,1,73.3333355712891,6|0,1:3|0:0,2:2:0:0:
65,348,50335,6,0,B|52:242|52:242|46:237|46:237|39:172|39:172|43:166|43:166|33:78,1,266.666666666667,10|0,2:2|0:0,2:2:0:0:
95,29,50646,6,0,B|136:18|148:-19|148:-19|144:19|173:47,1,150.000005722046,10|0,2:3|2:2,2:2:0:0:
55,165,50853,2,0,B|26:134|-13:143|-13:143|23:128|33:88,1,150.000005722046,2|0,1:2|2:2,2:2:0:0:
193,133,51061,2,0,B|182:173|209:203|209:203|178:179|138:191,1,150.000005722046,2|0,1:2|2:2,2:2:0:0:
138,190,51475,6,0,B|178:178|209:202|209:202|182:172|193:132,1,150.000005722046,2|0,1:2|2:2,2:2:0:0:
294,271,51682,2,0,B|325:243|364:251|364:251|326:236|320:194,1,150.000005722046,2|0,1:2|1:2,2:2:0:0:
473,261,51890,6,0,B|489:224|528:215|528:215|487:217|464:182,1,150.000005722046,10|0,2:3|2:2,2:2:0:0:
385,147,52097,2,0,B|344:152|317:123|317:123|338:157|320:195,1,150.000005722046,2|0,1:2|2:2,2:2:0:0:
338,274,52304,2,0,B|360:307|348:345|348:345|367:309|409:306,1,150.000005722046,2|0,1:2|2:2,2:2:0:0:
473,261,52511,6,0,B|421:198|442:117|442:117|406:193|320:195,1,306.000001867676,2|0,1:2|2:2,2:2:0:0:
181,215,53133,6,0,B|220:209|239:174|239:174|227:213|254:245,1,150.000005722046,10|0,2:3|0:0,2:2:0:0:
94,110,53340,2,0,B|80:147|101:181|101:181|73:151|32:159,1,150.000005722046,2|0,1:2|0:0,0:0:0:0:
231,85,53548,2,0,B|206:53|166:54|166:54|207:46|220:6,1,150.000005722046,2|0,1:2|0:0,0:0:0:0:
219,7,53962,6,0,B|207:46|166:54|166:54|206:53|231:85,1,150.000005722046,2|0,1:2|2:2,2:2:0:0:
319,63,54170,2,0,B|335:101|309:134|309:134|339:108|379:116,1,150.000005722046,2|2,1:2|1:2,2:2:0:0:
362,208,54377,6,0,P|374:260|247:340,1,209.999993591309,14|0,1:3|0:0,2:2:0:0:
191,384,54688,2,0,P|156:373|129:311,1,93.3333304850261,6|0,1:3|0:0,2:2:0:0:
128,313,54843,2,0,P|134:288|152:262,2,46.6666652425131,0|10|10,0:0|2:2|2:2,0:0:0:0:
112,192,54999,2,0,P|151:155|283:225,1,209.999993591309,6|0,1:3|0:0,2:2:0:0:
351,384,55309,6,0,P|384:204|407:106,1,266.666666666667,0|0,1:2|2:2,2:2:0:0:
344,74,55620,6,0,B|306:66|293:34|293:34|299:68|275:94,1,133.333333333333,10|0,1:3|2:2,2:2:0:0:
262,172,55828,2,0,B|274:207|252:235|252:235|278:212|314:220,1,133.333333333333,2|10,2:2|1:3,2:2:0:0:
387,192,56035,2,0,B|410:162|446:168|446:168|413:156|401:121,1,133.333333333333,2|0,2:2|2:2,2:2:0:0:
347,55,56242,6,0,B|300:46|284:5|284:5|291:47|261:81,1,166.666666666667,10|0,1:3|2:2,2:2:0:0:
244,178,56450,2,0,B|259:222|231:258|231:258|264:229|310:239,1,166.666666666667,2|10,2:2|1:3,2:2:0:0:
398,205,56657,2,0,B|428:167|472:174|472:174|431:160|416:116,1,166.666666666667,2|0,2:2|2:2,2:2:0:0:
350,37,56864,6,0,B|294:26|275:-22|275:-22|283:28|247:69,1,200.000007629395,10|0,1:3|2:2,2:2:0:0:
229,185,57072,2,0,B|247:237|214:280|214:280|253:245|308:257,1,200.000007629395,2|10,2:2|1:3,2:2:0:0:
411,216,57279,2,0,B|447:172|500:180|500:180|450:163|433:110,1,200.000007629395,2|0,2:2|2:2,2:2:0:0:
350,37,57486,6,0,P|242:61|134:81,1,220.000006713867,10|10,1:3|1:3,0:0:0:0:
0,235,57796,2,0,P|108:255|215:279,1,220.000006713867,10|10,1:3|1:3,0:0:0:0:
313,238,58107,6,0,P|325:292|342:345,3,110.000003356934,10|10|10|10,1:3|1:3|1:3|1:3,0:0:0:0:
411,216,58418,2,0,P|427:268|439:322,3,110.000003356934,10|10|10|10,1:3|1:3|1:3|1:3,0:0:0:0:
229,185,58729,6,0,P|180:170|128:160,1,100,2|2,2:2|2:2,2:2:0:0:
23,197,59040,1,2,2:2:0:0:
23,197,59195,1,2,2:2:0:0:
44,321,59351,2,0,P|93:311|140:296,1,100,2|2,1:2|2:2,2:2:0:0:
359,373,59662,5,10,2:3:0:0:
365,338,59739,1,10,2:3:0:0:
371,303,59817,1,10,2:3:0:0:
377,268,59895,1,10,2:3:0:0:
435,228,59973,6,0,B|410:126|410:126|312:150,1,200,6|2,1:3|2:2,2:2:0:0:
216,266,60283,5,10,1:3:0:0:
201,228,60361,1,2,2:2:0:0:
171,200,60439,1,2,2:2:0:0:
131,193,60517,1,2,2:2:0:0:
92,204,60594,2,0,L|70:105,1,75.0000028610231,2|0,1:2|0:0,2:2:0:0:
209,0,60750,2,0,B|273:11|273:11|237:185,1,200,2|10,2:2|1:3,0:0:0:0:
207,363,61061,6,0,B|298:346|298:346|308:334|308:334|403:317,1,200,2|2,2:2|1:2,0:0:0:0:
512,180,61372,2,0,L|413:158,1,75.0000028610231,2|0,2:2|0:0,0:0:0:0:
317,15,61527,5,10,1:3:0:0:
301,67,61605,1,2,2:2:0:0:
262,104,61683,1,2,2:2:0:0:
209,113,61761,1,2,2:2:0:0:
159,102,61838,2,0,L|181:204,1,75.0000028610231,2|0,1:2|0:0,0:0:0:0:
84,120,61993,2,0,L|105:218,1,75.0000028610231,2|0,2:2|0:0,0:0:0:0:
3,245,62149,6,0,B|-16:315|-16:315|241:370,1,300,10|0,1:3|2:2,2:2:0:0:
294,250,62460,6,0,L|260:98,1,150.000005722046,2|2,1:2|2:2,2:2:0:0:
387,22,62693,1,2,2:2:0:0:
387,22,62771,2,0,L|460:38,1,75.0000028610231,10|0,1:3|2:2,2:2:0:0:
439,158,62926,2,0,L|365:174,1,75.0000028610231,2|0,2:2|2:2,2:2:0:0:
192,221,63081,6,0,P|121:268|120:345,1,150.000005722046,2|2,1:2|2:2,2:2:0:0:
224,384,63315,1,2,2:2:0:0:
224,384,63392,2,0,L|207:310,1,75.0000028610231,10|0,1:3|2:2,2:2:0:0:
169,140,63548,2,0,L|152:66,1,75.0000028610231,2|0,2:2|2:2,2:2:0:0:
282,0,63703,6,0,B|358:18|358:18|340:91,1,150.000005722046,2|2,1:2|2:2,2:2:0:0:
298,198,63936,1,2,2:2:0:0:
298,198,64014,2,0,L|224:214,1,75.0000028610231,10|0,1:3|2:2,2:2:0:0:
95,241,64170,2,0,L|21:257,1,75.0000028610231,2|0,2:2|2:2,2:2:0:0:
224,384,64325,5,2,1:2:0:0:
240,332,64403,1,2,2:2:0:0:
279,295,64481,1,2,2:2:0:0:
332,286,64559,1,2,2:2:0:0:
382,296,64636,2,0,L|397:222,1,75.0000028610231,10|0,1:3|2:2,2:2:0:0:
442,31,64791,2,0,L|426:104,1,75.0000028610231,2|0,1:2|2:2,2:2:0:0:
253,121,64947,6,0,B|162:104|162:104|152:92|152:92|57:75,1,200,2|2,1:2|2:2,2:2:0:0:
0,172,65258,5,10,1:3:0:0:
8,223,65336,1,2,2:2:0:0:
17,275,65414,1,2,2:2:0:0:
26,326,65491,1,2,2:2:0:0:
35,375,65568,2,0,L|113:355,1,75.0000028610231,2|0,1:2|0:0,2:2:0:0:
181,221,65724,2,0,P|274:215|319:313,1,200,2|10,2:2|1:3,0:0:0:0:
434,384,66035,6,0,B|485:371|485:371|516:207,1,200,2|2,2:2|1:2,0:0:0:0:
425,104,66346,2,0,L|351:120,1,75.0000028610231,2|0,2:2|0:0,0:0:0:0:
320,299,66501,5,10,1:3:0:0:
304,247,66579,1,2,2:2:0:0:
263,214,66657,1,2,2:2:0:0:
211,210,66735,1,2,2:2:0:0:
163,235,66812,2,0,L|178:161,1,75.0000028610231,2|0,1:2|2:2,2:2:0:0:
89,220,66967,2,0,L|104:146,1,75.0000028610231,2|0,2:2|2:2,2:2:0:0:
0,57,67123,6,0,L|74:41,1,75.0000028610231,10|0,1:3|2:2,2:2:0:0:
188,16,67278,2,0,L|262:0,1,75.0000028610231,2|0,2:2|2:2,2:2:0:0:
425,104,67434,6,0,L|392:250,1,150.000005722046,2|2,1:2|2:2,2:2:0:0:
249,370,67667,1,2,2:2:0:0:
249,370,67745,2,0,L|234:296,1,75.0000028610231,10|0,1:3|2:2,2:2:0:0:
201,162,67900,2,0,L|186:88,1,75.0000028610231,2|0,2:2|2:2,2:2:0:0:
261,0,68056,6,0,P|335:-4|371:73,1,150.000005722046,2|2,1:2|2:2,2:2:0:0:
482,224,68289,1,2,2:2:0:0:
482,224,68367,2,0,L|408:209,1,75.0000028610231,10|0,1:3|2:2,2:2:0:0:
274,176,68522,2,0,L|200:161,1,75.0000028610231,2|0,2:2|2:2,2:2:0:0:
102,74,68677,6,0,B|26:92|26:92|43:161,1,150.000005722046,2|2,1:2|2:2,0:0:0:0:
29,292,68910,1,0,0:0:0:0:
29,292,68988,2,0,L|103:277,1,75.0000028610231,10|0,1:3|0:0,2:2:0:0:
288,102,69144,5,2,2:2:0:0:
288,102,69221,1,2,1:2:0:0:
288,102,69299,2,0,L|273:176,1,75.0000028610231,2|0,1:2|2:2,2:2:0:0:
237,356,69454,2,0,L|252:282,1,75.0000028610231,2|0,1:2|2:2,2:2:0:0:
132,204,69610,6,0,L|206:219,1,75.0000028610231,2|0,1:2|2:2,2:2:0:0:
386,255,69765,2,0,L|312:240,1,75.0000028610231,2|0,1:2|2:2,2:2:0:0:
479,56,69921,6,0,B|388:73|388:73|378:85|378:85|283:102,1,200,6|2,1:3|2:2,2:2:0:0:
157,124,70232,5,10,1:3:0:0:
141,72,70310,1,2,2:2:0:0:
100,39,70388,1,2,2:2:0:0:
48,35,70466,1,2,2:2:0:0:
0,60,70543,2,0,L|15:134,1,75.0000028610231,2|0,1:2|0:0,0:0:0:0:
132,204,70698,2,0,L|117:278,1,75.0000028610231,2|0,2:2|0:0,0:0:0:0:
51,384,70853,6,0,P|30:353|33:316,1,75.0000028610231,10|0,1:3|0:0,0:0:0:0:
203,270,71009,2,0,P|223:300|220:337,1,75.0000028610231,2|0,2:2|0:0,0:0:0:0:
379,384,71164,6,0,B|396:293|396:293|408:283|408:283|425:188,1,200,2|2,1:2|2:2,2:2:0:0:
512,117,71397,1,2,2:2:0:0:
512,117,71475,2,0,B|495:24|495:24|391:41,1,200,10|2,1:3|2:2,2:2:0:0:
216,196,71708,5,2,2:2:0:0:
216,196,71786,2,0,L|200:283,1,75.0000028610231,2|0,1:2|2:2,2:2:0:0:
235,73,71942,2,0,L|251:-14,1,75.0000028610231,2|0,2:2|2:2,2:2:0:0:
105,287,72097,6,0,L|121:374,1,75.0000028610231,10|0,1:3|2:2,2:2:0:0:
79,141,72253,2,0,L|63:54,1,75.0000028610231,2|0,2:2|2:2,2:2:0:0:
302,144,72408,6,0,P|401:187|406:304,1,200,2|2,1:2|2:2,2:2:0:0:
260,365,72719,1,10,1:3:0:0:
53,221,72874,5,2,2:2:0:0:
53,221,72952,1,2,2:2:0:0:
53,221,73030,2,0,L|140:205,1,75.0000028610231,2|0,1:2|0:0,0:0:0:0:
186,351,73185,2,0,L|259:364,1,75.0000028610231,2|0,2:2|0:0,0:0:0:0:
374,171,73340,6,0,P|395:202|392:239,1,75.0000028610231,10|0,1:3|0:0,0:0:0:0:
238,279,73496,2,0,P|218:249|221:212,1,75.0000028610231,2|0,2:2|0:0,0:0:0:0:
375,64,73651,5,2,1:2:0:0:
340,58,73728,1,2,2:2:0:0:
305,52,73806,1,2,2:2:0:0:
270,46,73884,1,2,2:2:0:0:
213,97,73962,5,10,1:3:0:0:
178,103,74039,1,2,2:2:0:0:
143,109,74117,1,2,2:2:0:0:
108,115,74195,1,2,2:2:0:0:
50,73,74273,6,0,L|63:0,1,75.0000028610231,2|0,1:2|0:0,2:2:0:0:
28,198,74429,2,0,L|14:271,1,75.0000028610231,2|0,2:2|0:0,0:0:0:0:
163,29,74584,6,0,L|177:102,1,75.0000028610231,10|0,1:3|0:0,0:0:0:0:
215,313,74740,2,0,L|202:240,1,75.0000028610231,10|0,1:3|0:0,0:0:0:0:
274,154,74895,6,0,B|365:171|365:171|375:183|375:183|470:200,1,200,6|2,1:3|2:2,2:2:0:0:
512,298,75128,1,2,1:2:0:0:
512,298,75206,2,0,L|439:311,1,75.0000028610231,0|0,0:0|2:2,0:0:0:0:
376,99,75361,2,0,L|363:172,1,75.0000028610231,2|0,1:2|2:2,2:2:0:0:
287,80,75517,2,0,L|274:153,1,75.0000028610231,2|0,1:3|2:2,2:2:0:0:
90,154,75672,5,2,2:2:0:0:
376,98,75828,1,10,1:3:0:0:
90,154,75983,1,2,2:2:0:0:
156,28,76138,6,0,P|255:71|260:188,1,200,6|2,1:2|2:2,2:2:0:0:
201,239,76372,1,2,1:2:0:0:
201,239,76449,2,0,L|214:312,1,75.0000028610231,0|0,0:0|2:2,0:0:0:0:
436,185,76605,2,0,L|363:172,1,75.0000028610231,2|0,1:2|2:2,2:2:0:0:
351,252,76760,2,0,L|424:265,1,75.0000028610231,2|0,1:2|2:2,2:2:0:0:
512,354,76916,5,2,2:2:0:0:
451,79,77072,1,10,1:3:0:0:
512,354,77227,1,2,2:2:0:0:
351,252,77382,6,0,B|326:150|326:150|228:174,1,200,4|2,1:2|2:2,2:2:0:0:
0,221,77693,5,10,1:3:0:0:
52,205,77771,1,2,2:2:0:0:
85,164,77849,1,2,2:2:0:0:
89,112,77927,1,2,2:2:0:0:
71,66,78004,6,0,B|162:49|162:49|172:37|172:37|267:20,1,200,6|2,1:2|2:2,2:2:0:0:
464,12,78315,5,10,1:3:0:0:
453,65,78392,1,2,2:2:0:0:
445,118,78470,1,2,2:2:0:0:
436,171,78548,1,2,2:2:0:0:
430,221,78625,6,0,L|357:208,1,75.0000028610231,2|0,1:2|0:0,0:0:0:0:
193,176,78781,2,0,L|266:189,1,75.0000028610231,10|0,2:2|0:0,0:0:0:0:
223,352,78936,6,0,L|204:249,1,75.0000028610231,10|0,1:3|0:0,0:0:0:0:
159,18,79092,2,0,L|177:120,1,75.0000028610231,10|0,2:2|0:0,0:0:0:0:
23,207,79247,6,0,L|125:188,1,75.0000028610231,10|0,1:3|0:0,0:0:0:0:
357,143,79403,2,0,L|254:161,1,75.0000028610231,10|0,2:2|0:0,0:0:0:0:
196,187,79558,5,8,1:3:0:0:
181,182,79636,1,8,1:3:0:0:
181,167,79714,1,8,1:3:0:0:
196,163,79791,1,8,1:3:0:0:
204,175,79869,1,8,1:3:0:0:
256,192,79947,12,0,81967,2:2:0:0:
463,130,82045,6,0,L|454:49,1,75,10|0,2:2|2:2,2:2:0:0:
452,36,82356,6,0,B|435:127|435:127|423:137|423:137|406:232,1,200,6|0,1:3|2:2,2:2:0:0:
317,367,82589,1,2,2:2:0:0:
317,367,82667,2,0,L|301:293,1,75.0000028610231,10|0,1:3|2:2,2:2:0:0:
274,168,82822,2,0,L|258:94,1,75.0000028610231,2|0,2:2|2:2,2:2:0:0:
144,4,82978,6,0,B|45:-17|45:-17|20:84,1,200,2|0,1:2|2:2,2:2:0:0:
120,179,83211,1,2,2:2:0:0:
120,179,83289,2,0,L|193:163,1,75.0000028610231,10|0,1:3|2:2,2:2:0:0:
345,133,83444,2,0,L|418:117,1,75.0000028610231,2|0,2:2|2:2,2:2:0:0:
507,228,83600,6,0,P|502:309|385:340,1,200,2|0,1:2|2:2,2:2:0:0:
234,306,83833,1,2,2:2:0:0:
234,306,83911,2,0,L|249:232,1,75.0000028610231,10|0,1:3|2:2,2:2:0:0:
37,309,84066,2,0,L|52:382,1,75.0000028610231,2|0,2:2|2:2,2:2:0:0:
120,179,84221,5,2,1:2:0:0:
172,163,84299,1,2,2:2:0:0:
209,124,84377,1,2,2:2:0:0:
218,71,84455,1,2,2:2:0:0:
208,21,84532,2,0,L|282:6,1,75.0000028610231,10|0,1:3|2:2,2:2:0:0:
418,147,84688,2,0,L|344:132,1,75.0000028610231,2|0,1:2|2:2,2:2:0:0:
234,306,84843,6,0,B|325:289|325:289|335:277|335:277|430:260,1,200,2|2,1:2|2:2,2:2:0:0:
339,131,85154,5,10,1:3:0:0:
288,123,85232,1,2,2:2:0:0:
236,114,85310,1,2,2:2:0:0:
185,105,85387,1,2,2:2:0:0:
136,94,85465,2,0,L|120:168,1,75.0000028610231,2|0,1:2|0:0,2:2:0:0:
0,244,85620,2,0,P|92:252|121:356,1,200,2|10,2:2|1:3,0:0:0:0:
247,384,85931,6,0,L|446:347,1,200,2|2,2:2|1:2,0:0:0:0:
491,160,86242,2,0,L|401:144,1,75.0000028610231,2|0,2:2|0:0,0:0:0:0:
233,209,86397,5,10,1:3:0:0:
273,174,86475,1,2,2:2:0:0:
288,123,86553,1,2,2:2:0:0:
272,74,86631,1,2,2:2:0:0:
238,37,86708,2,0,L|164:21,1,75.0000028610231,2|0,1:2|2:2,2:2:0:0:
353,55,86864,2,2,L|426:70,1,75.0000028610231,2|2,2:2|2:2,2:2:0:0:
151,172,87019,6,0,L|77:156,1,75.0000028610231,10|0,1:3|2:2,2:2:0:0:
358,212,87175,2,0,L|431:227,1,75.0000028610231,2|0,2:2|2:2,2:2:0:0:
240,368,87330,6,0,B|141:389|141:389|116:288,1,200,2|0,1:2|2:2,2:2:0:0:
0,277,87563,1,2,2:2:0:0:
0,277,87641,2,0,L|16:203,1,75.0000028610231,10|0,1:3|2:2,2:2:0:0:
44,73,87796,2,0,L|60:-1,1,75.0000028610231,2|0,2:2|2:2,2:2:0:0:
182,105,87952,6,0,B|199:196|199:196|211:206|211:206|228:301,1,200,2|0,1:2|2:2,2:2:0:0:
386,384,88185,1,2,2:2:0:0:
386,384,88263,2,0,L|401:311,1,75.0000028610231,10|0,1:3|2:2,2:2:0:0:
431,175,88418,2,0,L|446:102,1,75.0000028610231,2|0,2:2|2:2,2:2:0:0:
368,18,88574,5,2,1:2:0:0:
333,12,88651,1,2,2:2:0:0:
298,6,88729,1,2,2:2:0:0:
263,0,88807,1,2,2:2:0:0:
213,49,88885,5,10,1:3:0:0:
178,55,88962,1,2,2:2:0:0:
143,61,89040,1,2,2:2:0:0:
108,67,89118,1,2,2:2:0:0:
31,48,89195,6,0,L|47:122,1,75.0000028610231,0|0,1:2|0:0,0:0:0:0:
94,327,89351,2,0,L|78:253,1,75.0000028610231,2|0,1:2|0:0,0:0:0:0:
325,78,89506,6,0,L|309:152,1,75.0000028610231,2|0,1:2|0:0,0:0:0:0:
256,379,89662,2,0,L|272:305,1,75.0000028610231,2|0,1:2|0:0,0:0:0:0:
142,144,89817,6,0,L|259:122,1,100,14|0,1:3|2:2,2:2:0:0:
257,208,89973,2,0,L|158:226,1,100,2|0,2:2|2:2,2:2:0:0:
0,254,90128,2,0,P|85:266|123:365,1,200,10|2,1:3|2:2,2:2:0:0:
345,335,90361,5,2,2:2:0:0:
345,335,90439,2,0,L|363:228,1,100,10|0,1:3|2:2,2:2:0:0:
478,258,90594,2,0,L|461:356,1,100,2|0,2:2|2:2,2:2:0:0:
332,332,90750,2,0,L|350:225,1,100,10|0,1:3|2:2,2:2:0:0:
490,261,90905,2,0,L|473:359,1,100,2|0,2:2|2:2,2:2:0:0:
370,63,91061,6,0,P|389:108|433:127,1,100,10|0,1:3|2:2,2:2:0:0:
493,64,91216,2,0,P|473:18|429:0,1,100,2|0,2:2|2:2,2:2:0:0:
306,152,91372,2,0,B|209:168|209:168|202:166|202:166|105:182,1,200,10|2,1:3|2:2,2:2:0:0:
12,63,91682,6,0,P|43:25|92:15,1,100,10|0,1:3|2:2,2:2:0:0:
160,55,91838,2,0,P|176:101|160:147,1,100,2|0,2:2|2:2,2:2:0:0:
91,186,91993,2,0,P|42:177|10:140,1,100,10|0,1:3|2:2,2:2:0:0:
93,104,92149,5,10,1:2:0:0:
93,104,92227,1,10,1:2:0:0:
93,104,92304,1,10,1:3:0:0:
169,245,92460,2,0,B|266:261|266:261|273:259|273:259|370:275,1,200,2|10,2:2|1:3,0:0:0:0:
491,180,92771,5,2,2:2:0:0:
491,180,92848,1,2,2:2:0:0:
491,180,92926,2,0,L|472:72,1,100,10|0,1:3|2:2,1:3:0:0:
347,0,93081,2,0,L|329:98,1,100,2|0,2:2|2:2,2:2:0:0:
223,182,93237,2,0,L|204:74,1,100,10|0,1:3|2:2,2:2:0:0:
79,2,93392,2,0,L|61:100,1,100,2|0,2:2|2:2,2:2:0:0:
31,217,93548,6,0,P|124:241|167:329,1,200,10|2,1:3|2:2,2:2:0:0:
341,349,93859,6,0,P|386:330|405:286,1,100,10|0,1:3|2:2,2:2:0:0:
342,226,94014,2,0,P|296:246|278:290,1,100,2|0,2:2|2:2,2:2:0:0:
502,321,94170,5,10,1:3:0:0:
182,246,94325,1,10,1:2:0:0:
512,324,94480,1,10,1:3:0:0:
170,243,94635,1,10,1:2:0:0:
339,226,94791,6,0,P|322:163|377:111,1,125,14|0,1:3|2:2,2:2:0:0:
342,49,94947,1,10,1:2:0:0:
342,49,95024,2,0,P|405:65|422:139,1,125,10|10,2:3|1:2,2:2:0:0:
494,140,95180,1,10,2:3:0:0:
494,140,95258,2,0,P|447:186|375:164,1,125,10|0,1:2|2:2,2:2:0:0:
335,234,95413,6,0,P|313:162|363:107,1,125,14|0,1:3|2:2,2:2:0:0:
338,41,95568,1,10,1:2:0:0:
338,41,95646,2,0,P|410:57|435:131,1,125,10|10,2:3|1:2,0:0:0:0:
503,140,95802,1,10,2:3:0:0:
503,140,95880,2,0,P|454:193|393:189,1,125,10|0,1:2|2:2,2:2:0:0:
330,242,96035,6,0,P|303:171|336:112,1,125,14|0,1:3|2:2,2:2:0:0:
334,35,96190,1,10,1:2:0:0:
333,33,96268,2,0,P|410:45|444:98,1,125,10|10,2:3|1:2,2:2:0:0:
511,140,96423,1,10,2:3:0:0:
511,140,96501,2,8,P|464:198|403:202,1,125,10|8,1:3|1:2,1:2:0:0:
261,62,96657,5,14,1:3:0:0:
236,52,96735,1,0,2:2:0:0:
199,53,96812,1,10,1:2:0:0:
165,79,96890,1,10,2:3:0:0:
147,147,96968,1,10,1:2:0:0:
177,217,97045,1,10,1:3:0:0:
165,295,97123,1,10,1:3:0:0:
99,336,97201,1,10,1:2:0:0:
22,316,97278,6,0,L|4:207,1,100,14|10,1:3|2:3,2:2:0:0:
69,147,97511,1,10,2:2:0:0:
69,147,97589,2,0,L|87:256,1,100,10|10,2:3|2:3,2:2:0:0:
266,384,97900,5,10,1:3:0:0:
270,355,97977,1,10,2:3:0:0:
275,326,98055,1,10,2:3:0:0:
280,298,98133,1,10,2:3:0:0:
285,269,98210,1,10,2:3:0:0:
290,241,98288,1,10,2:3:0:0:
295,212,98366,1,10,2:3:0:0:
300,184,98444,1,10,2:3:0:0:
305,155,98522,6,0,P|361:235|444:246,1,150.000005722046,2|0,1:2|0:0,2:2:0:0:
486,156,98833,2,0,P|430:76|347:65,1,150.000005722046,2|0,1:2|0:0,2:2:0:0:
285,24,99144,5,10,2:0:0:0:
269,30,99221,1,10,2:2:0:0:
254,35,99299,1,10,2:2:0:0:
240,39,99377,1,10,2:2:0:0:
227,43,99454,2,0,P|286:27|225:36,1,179.999994506836,10|2,2:3|2:2,0:0:0:0:
34,0,99765,6,0,P|90:73|156:189,1,225.000008583069,6|0,1:3|2:2,2:2:0:0:
257,365,100076,6,0,P|292:255|336:174,1,200,10|0,1:3|2:2,2:2:0:0:
342,165,100309,2,0,L|282:174,1,50,2|0,1:2|2:2,2:2:0:0:
131,311,100543,6,0,P|93:287|40:274,1,100,2|0,1:2|2:2,2:2:0:0:
24,173,100698,2,0,P|71:147|127:91,1,125,10|0,1:3|2:2,2:2:0:0:
204,136,100853,2,0,P|201:189|235:298,1,150.000005722046,2|0,1:2|2:2,2:2:0:0:
372,384,101009,6,0,P|385:309|362:381,1,225.000008583069,2|0,1:2|2:2,2:2:0:0:
305,268,101320,6,0,P|361:312|504:334,1,200,10|0,1:3|2:2,2:2:0:0:
500,330,101553,2,0,L|477:268,1,50,2|0,1:2|2:2,2:2:0:0:
402,213,101786,6,0,P|440:189|493:176,1,100,2|0,1:2|2:2,2:2:0:0:
509,75,101942,2,0,P|462:49|406:-7,1,125,10|0,1:3|2:2,2:2:0:0:
329,38,102097,2,0,P|332:91|298:200,1,150.000005722046,2|0,1:2|2:2,2:2:0:0:
380,295,102252,6,0,B|354:350|407:370|407:370|433:323|381:296,1,179.999994506836,2|0,1:2|2:2,2:2:0:0:
305,268,102563,6,0,P|172:317|123:381,1,200,10|0,1:3|2:2,2:2:0:0:
126,371,102796,2,0,L|118:302,1,50,2|0,1:2|2:2,2:2:0:0:
110,226,103030,6,0,P|72:202|19:189,1,100,2|0,1:2|2:2,2:2:0:0:
3,88,103185,2,0,P|50:62|106:6,1,125,10|0,1:3|2:2,2:2:0:0:
183,51,103340,2,0,P|180:104|214:213,1,150.000005722046,2|0,1:2|2:2,2:2:0:0:
305,268,103496,6,0,B|321:305|321:305|289:325|267:359|267:359|271:319|264:283|264:283|298:269,1,225.000008583069,2|0,1:2|2:2,2:2:0:0:
182,293,103807,6,0,P|285:316|373:381,1,200,10|0,1:3|2:2,2:2:0:0:
422,277,104040,5,2,1:2:0:0:
422,277,104118,2,0,B|388:201|432:86|597:119|556:258|492:243,1,300,2|0,1:2|2:2,2:2:0:0:
278,185,104429,6,0,B|288:103|212:5|63:85|143:206|200:173,1,300,2|0,1:2|2:2,2:2:0:0:
366,85,104739,6,0,P|223:138|65:182,1,300,2|0,1:2|2:2,2:2:0:0:
0,263,105050,6,0,P|103:296|203:340,1,200,10|0,1:3|2:2,2:2:0:0:
206,344,105283,2,0,L|197:289,1,50,2|0,1:2|2:2,2:2:0:0:
402,383,105517,6,0,P|445:358|494:346,1,100,2|0,1:2|2:2,2:2:0:0:
510,246,105672,2,0,P|456:214|411:170,1,125,10|0,1:3|2:2,2:2:0:0:
329,208,105828,2,0,P|330:283|308:354,1,150.000005722046,2|0,1:2|2:2,2:2:0:0:
206,344,105983,6,0,P|132:323|201:353,1,225.000008583069,2|0,1:2|2:2,2:2:0:0:
252,256,106294,6,0,P|163:320|45:320,1,200,10|0,1:3|2:2,2:2:0:0:
53,325,106527,2,0,L|69:262,1,50,2|0,1:2|2:2,2:2:0:0:
120,0,106760,6,0,P|77:25|28:37,1,100,2|0,1:2|2:2,2:2:0:0:
12,137,106916,2,0,P|66:169|111:213,1,125,10|0,1:3|2:2,2:2:0:0:
193,175,107071,2,0,P|192:100|214:29,1,150.000005722046,2|0,1:2|2:2,2:2:0:0:
311,0,107227,6,0,B|304:60|360:62|360:62|370:9|312:0,1,179.999994506836,2|0,1:2|2:2,2:2:0:0:
471,53,107537,6,0,P|368:90|301:181,1,200,10|0,1:3|2:2,2:2:0:0:
305,181,107771,2,0,L|313:247,1,50,2|0,1:2|2:2,2:2:0:0:
420,351,108004,6,0,P|374:330|326:320,1,100,2|0,1:2|2:2,2:2:0:0:
174,182,108159,5,10,1:3:0:0:
158,187,108237,1,2,2:2:0:0:
143,192,108315,1,2,1:2:0:0:
126,198,108392,1,2,2:2:0:0:
112,203,108470,6,0,P|164:289|191:385,1,200,6|0,1:2|2:2,2:2:0:0:
305,181,108781,2,0,P|332:85|384:-1,1,200,2|0,2:2|2:2,2:2:0:0:
40,30,109092,6,0,P|125:81|221:108,1,200,6|0,1:2|2:2,2:2:0:0:
482,223,109403,2,0,P|386:249|300:301,1,200,2|0,2:2|2:2,2:2:0:0:
104,349,109714,6,0,P|141:289|127:358,1,200,14|2,1:3|2:2,0:0:0:0:
42,206,110024,6,0,P|129:254|230:272,1,200,10|2,1:3|2:2,2:2:0:0:
298,347,110258,1,2,2:2:0:0:
298,347,110335,2,0,P|314:297|358:258,1,100,10|0,1:3|2:2,2:2:0:0:
411,171,110491,2,0,P|446:209|458:267,1,100,2|0,2:2|2:2,2:2:0:0:
512,357,110646,2,0,P|460:368|404:349,1,100,10|0,1:3|2:2,2:2:0:0:
283,213,110802,5,2,2:2:0:0:
283,213,110879,1,2,2:2:0:0:
283,213,110957,2,0,B|308:153|249:134|249:134|223:189|282:212,1,200,10|0,1:3|0:0,2:2:0:0:
201,0,111268,6,0,P|143:91|52:138,1,200,10|2,1:3|2:2,2:2:0:0:
3,202,111501,1,2,2:2:0:0:
3,202,111579,2,0,P|9:254|44:300,1,100,10|0,1:3|2:2,2:2:0:0:
199,231,111734,2,0,P|150:210|92:217,1,100,2|0,2:2|2:2,2:2:0:0:
70,378,111890,2,0,P|112:346|134:292,1,100,10|0,1:3|2:2,2:2:0:0:
3,202,112045,2,0,P|9:254|44:300,1,100,2|0,2:2|2:2,2:2:0:0:
212,148,112201,6,0,B|226:114|226:114|259:123|295:116|295:116|266:139|247:165|247:165|216:152,1,200,10|0,1:3|0:0,2:2:0:0:
306,17,112511,6,0,P|316:127|373:192,1,200,10|2,1:3|2:2,2:2:0:0:
511,206,112745,1,2,2:2:0:0:
511,206,112822,2,0,P|464:221|432:259,1,100,10|0,1:3|2:2,2:2:0:0:
345,368,112978,2,0,P|355:319|338:273,1,100,2|0,2:2|2:2,2:2:0:0:
294,137,113133,2,0,P|325:175|371:191,1,100,10|0,1:3|2:2,2:2:0:0:
511,206,113289,2,0,P|464:221|432:259,1,100,2|0,2:2|2:2,2:2:0:0:
224,289,113444,6,0,P|208:220|246:280,1,200,10|0,1:3|0:0,2:2:0:0:
168,384,113755,6,0,P|95:310|0:289,1,200,10|2,1:3|2:2,2:2:0:0:
25,203,114066,6,8,B|108:204|196:119|102:-19|-10:72|28:125,1,300,10|2,1:3|2:2,1:3:0:0:
224,289,114377,6,0,B|271:219|392:198|449:357|308:393|289:331,1,300,10|0,1:3|2:2,2:2:0:0:
204,57,114688,6,0,P|198:100|229:155,1,100,14|2,1:3|1:2,2:2:0:0:
295,174,114843,1,10,1:2:0:0:
295,174,114921,2,0,P|335:157|367:103,1,100,10|10,1:3|1:2,2:2:0:0:
350,37,115076,2,0,P|315:10|252:9,1,100,10|10,2:3|1:3,2:2:0:0:
180,132,115309,6,0,P|136:155|87:150,1,100,14|2,1:3|1:2,2:2:0:0:
1,192,115465,1,10,1:2:0:0:
1,192,115543,2,0,P|43:217|63:262,1,100,10|10,1:3|1:2,2:2:0:0:
137,327,115698,2,0,P|138:277|167:237,1,100,10|10,2:3|1:3,2:2:0:0:
313,249,115931,6,0,P|307:292|338:347,1,100,14|2,1:3|1:2,2:2:0:0:
404,366,116086,1,10,1:2:0:0:
404,366,116164,2,0,P|444:349|476:295,1,100,10|10,1:3|1:2,2:2:0:0:
459,229,116320,2,0,P|424:202|361:201,1,100,10|10,2:3|1:3,2:2:0:0:
192,211,116553,6,0,P|202:162|184:117,1,100,14|2,1:3|1:2,2:2:0:0:
200,22,116709,1,10,1:2:0:0:
200,22,116787,2,0,P|236:55|285:62,1,100,10|10,1:3|1:2,2:2:0:0:
367,115,116942,2,8,P|319:129|289:168,1,100,10|10,2:3|1:3,1:2:0:0:
336,384,117175,5,14,1:3:0:0:
325,335,117252,1,2,1:2:0:0:
291,297,117330,1,10,1:3:0:0:
242,285,117408,1,2,1:2:0:0:
193,299,117486,1,10,1:3:0:0:
156,332,117563,1,2,1:2:0:0:
107,344,117641,1,10,1:3:0:0:
59,326,117719,1,2,1:2:0:0:
31,284,117796,5,10,1:3:0:0:
84,238,117874,1,10,1:3:0:0:
154,240,117952,1,10,1:3:0:0:
206,285,118030,1,10,1:3:0:0:
267,319,118107,1,10,1:3:0:0:
335,326,118185,1,10,1:3:0:0:
401,308,118263,2,0,P|415:286|424:254,3,50,10|0|10|0,1:3|1:3|1:3|1:3,1:3:0:0:
286,136,119040,6,0,L|301:210,2,75.0000028610231,0|0|0,1:3|2:2|2:2,2:2:0:0:
229,75,119273,1,0,1:0:0:0:
229,75,119351,2,0,P|205:66|180:63,1,50,10|0,0:3|0:2,0:0:0:0:
313,57,119506,2,0,P|330:39|352:26,1,50,10|0,0:3|0:2,0:0:0:0:
301,210,119662,5,0,1:0:0:0:
256,192,119739,12,0,124325,0:0:0:0:
