osu file format v14

[General]
AudioFilename: audio.mp3
AudioLeadIn: 0
PreviewTime: 59901
Countdown: 0
SampleSet: Soft
StackLeniency: 0.7
Mode: 0
LetterboxInBreaks: 0
WidescreenStoryboard: 1

[Editor]
Bookmarks: 290,20186,40082,59979,79875,99771,119668
DistanceSpacing: 1
BeatDivisor: 4
GridSize: 16
TimelineZoom: 2.35

[Metadata]
Title:Heracles
TitleUnicode:Heracles
Artist:Yooh
ArtistUnicode:Yooh
Creator:Twiggykun
Version:Hard
Source:
Tags:IntegerTempest Hercules Witow08 Ryxliee fa featured artist Instrumental Electronic Symphonic Hardcore adofai A Dance of Fire and Ice
BeatmapID:3409752
BeatmapSetID:1659194

[Difficulty]
HPDrainRate:3.2
CircleSize:3
OverallDifficulty:5.5
ApproachRate:8
SliderMultiplier:0.999999999999999
SliderTickRate:1

[Events]
//Background and Video events
0,0,"anime-girl-pixiv-fantasia-katana-blue-flame-11-4k.jpg",0,0
//Break Periods
2,20379,24254
//Storyboard Layer 0 (Background)
//Storyboard Layer 1 (Fail)
//Storyboard Layer 2 (Pass)
//Storyboard Layer 3 (Foreground)
//Storyboard Layer 4 (Overlay)
//Storyboard Sound Samples

[TimingPoints]
284,310.880829015544,4,2,1,15,1,0
10232,-100,4,2,1,60,0,0
10543,-100,4,2,1,20,0,0
10698,-100,4,2,1,60,0,0
11009,-100,4,2,1,20,0,0
11164,-100,4,2,1,60,0,0
11397,-100,4,2,1,20,0,0
11475,-100,4,2,1,45,0,0
12719,-100,4,2,1,60,0,0
13030,-100,4,2,1,20,0,0
13185,-100,4,2,1,60,0,0
13496,-100,4,2,1,20,0,0
13651,-100,4,2,1,60,0,0
13885,-100,4,2,1,20,0,0
13962,-100,4,2,1,35,0,0
14584,-100,4,2,1,60,0,0
14817,-100,4,2,1,35,0,0
14895,-100,4,2,1,40,0,0
14973,-100,4,2,1,35,0,0
15050,-100,4,2,1,30,0,0
15128,-100,4,2,1,25,0,0
15206,-66.6666666666667,4,2,1,60,0,0
15361,-66.6666666666667,4,2,1,20,0,0
15517,-66.6666666666667,4,2,1,60,0,0
15672,-66.6666666666667,4,2,1,20,0,0
15828,-66.6666666666667,4,2,1,60,0,0
15983,-66.6666666666667,4,2,1,45,0,0
16138,-66.6666666666667,4,2,1,60,0,0
16605,-66.6666666666667,4,2,1,20,0,0
16760,-66.6666666666667,4,2,1,60,0,0
16916,-66.6666666666667,4,2,1,20,0,0
17071,-66.6666666666667,4,2,1,60,0,0
17771,-66.6666666666667,4,2,1,40,0,0
18315,-66.6666666666667,4,2,1,60,0,0
18936,-83.3333333333333,4,2,1,45,0,0
20180,-83.3333333333333,4,2,1,35,0,0
25154,-105.263157894737,4,2,1,30,0,0
28885,-105.263157894737,4,2,1,45,0,0
30128,-66.6666666666667,4,2,1,60,0,0
30361,-66.6666666666667,4,2,1,20,0,0
30439,-66.6666666666667,4,2,1,60,0,0
30672,-66.6666666666667,4,2,1,20,0,0
30750,-66.6666666666667,4,2,1,60,0,0
30983,-66.6666666666667,4,2,1,20,0,0
31061,-66.6666666666667,4,2,1,60,0,0
31294,-66.6666666666667,4,2,1,20,0,0
31372,-66.6666666666667,4,2,1,60,0,0
31605,-66.6666666666667,4,2,1,20,0,0
31682,-66.6666666666667,4,2,1,60,0,0
31916,-66.6666666666667,4,2,1,20,0,0
31993,-66.6666666666667,4,2,1,60,0,0
32227,-66.6666666666667,4,2,1,20,0,0
32304,-66.6666666666667,4,2,1,60,0,0
32460,-66.6666666666667,4,2,1,20,0,0
32537,-66.6666666666667,4,2,1,60,0,0
32848,-66.6666666666667,4,2,1,20,0,0
32926,-66.6666666666667,4,2,1,60,0,0
33159,-66.6666666666667,4,2,1,20,0,0
33237,-66.6666666666667,4,2,1,60,0,0
33470,-66.6666666666667,4,2,1,20,0,0
33548,-66.6666666666667,4,2,1,60,0,0
33781,-66.6666666666667,4,2,1,20,0,0
33859,-66.6666666666667,4,2,1,60,0,0
34092,-66.6666666666667,4,2,1,20,0,0
34170,-66.6666666666667,4,2,1,60,0,0
34403,-66.6666666666667,4,2,1,20,0,0
34480,-66.6666666666667,4,2,1,60,0,0
35646,-66.6666666666667,4,2,1,20,0,0
35724,-66.6666666666667,4,2,1,60,0,0
36268,-66.6666666666667,4,2,1,20,0,0
36346,-66.6666666666667,4,2,1,60,0,0
36890,-66.6666666666667,4,2,1,20,0,0
36967,-66.6666666666667,4,2,1,60,0,0
37667,-66.6666666666667,4,2,1,20,0,0
37745,-66.6666666666667,4,2,1,60,0,0
37822,-66.6666666666667,4,2,1,20,0,0
37900,-66.6666666666667,4,2,1,60,0,0
37978,-66.6666666666667,4,2,1,20,0,0
38056,-66.6666666666667,4,2,1,60,0,0
38133,-66.6666666666667,4,2,1,20,0,0
38211,-66.6666666666667,4,2,1,60,0,0
38833,-66.6666666666667,4,2,1,20,0,0
39144,-66.6666666666667,4,2,1,45,0,0
39454,-66.6666666666667,4,2,1,60,0,0
39532,-66.6666666666667,4,2,1,20,0,0
39610,-66.6666666666667,4,2,1,60,0,0
39688,-66.6666666666667,4,2,1,20,0,0
39765,-66.6666666666667,4,2,1,40,0,0
39843,-66.6666666666667,4,2,1,20,0,0
39921,-66.6666666666667,4,2,1,60,0,0
39999,-66.6666666666667,4,2,1,20,0,0
40076,-66.6666666666667,4,2,1,75,0,0
40309,-66.6666666666667,4,2,1,25,0,0
40387,-66.6666666666667,4,2,1,75,0,0
40620,-66.6666666666667,4,2,1,20,0,0
40698,-66.6666666666667,4,2,1,75,0,0
40853,-66.6666666666667,4,2,1,20,0,0
40905,-66.6666666666667,4,2,1,75,0,0
41061,-66.6666666666667,4,2,1,20,0,0
41113,-66.6666666666667,4,2,1,75,0,0
41268,-66.6666666666667,4,2,1,20,0,0
41527,-66.6666666666667,4,2,1,75,0,0
41682,-66.6666666666667,4,2,1,20,0,0
41734,-66.6666666666667,4,2,1,75,0,0
42097,-66.6666666666667,4,2,1,20,0,0
42149,-66.6666666666667,4,2,1,75,0,0
42304,-66.6666666666667,4,2,1,20,0,0
42356,-66.6666666666667,4,2,1,75,0,0
42511,-66.6666666666667,4,2,1,20,0,0
42563,-83.3333333333333,4,2,1,75,0,0
43030,-83.3333333333333,4,2,1,45,0,0
43185,-66.6666666666667,4,2,1,75,0,0
44170,-66.6666666666667,4,2,1,20,0,0
44221,-66.6666666666667,4,2,1,75,0,0
44273,-66.6666666666667,4,2,1,20,0,0
44377,-66.6666666666667,4,2,1,75,0,0
44636,-66.6666666666667,4,2,1,20,0,0
44739,-66.6666666666667,4,2,1,75,0,0
45283,-66.6666666666667,4,2,1,20,0,0
45361,-66.6666666666667,4,2,1,55,0,0
45594,-66.6666666666667,4,2,1,20,0,0
45672,-66.6666666666667,4,2,1,75,0,0
45828,-66.6666666666667,4,2,1,20,0,0
45879,-66.6666666666667,4,2,1,75,0,0
46035,-66.6666666666667,4,2,1,20,0,0
46087,-66.6666666666667,4,2,1,75,0,0
46242,-66.6666666666667,4,2,1,20,0,0
46501,-66.6666666666667,4,2,1,75,0,0
46657,-66.6666666666667,4,2,1,20,0,0
46708,-66.6666666666667,4,2,1,75,0,0
47071,-66.6666666666667,4,2,1,20,0,0
47123,-66.6666666666667,4,2,1,75,0,0
47278,-66.6666666666667,4,2,1,20,0,0
47330,-66.6666666666667,4,2,1,75,0,0
47486,-66.6666666666667,4,2,1,20,0,0
47537,-66.6666666666667,4,2,1,75,0,0
47693,-66.6666666666667,4,2,1,25,0,0
47848,-66.6666666666667,4,2,1,60,0,0
48159,-66.6666666666667,4,2,1,75,0,0
48936,-66.6666666666667,4,2,1,25,0,0
49092,-66.6666666666667,4,2,1,75,0,0
49247,-66.6666666666667,4,2,1,25,0,0
49403,-66.6666666666667,4,2,1,75,0,0
49558,-66.6666666666667,4,2,1,25,0,0
49714,-66.6666666666667,4,2,1,75,0,0
49869,-66.6666666666667,4,2,1,25,0,0
50024,-66.6666666666667,4,2,1,75,0,0
50258,-66.6666666666667,4,2,1,20,0,0
50335,-66.6666666666667,4,2,1,55,0,0
50568,-66.6666666666667,4,2,1,20,0,0
50646,-66.6666666666667,4,2,1,75,0,0
50802,-66.6666666666667,4,2,1,20,0,0
50853,-66.6666666666667,4,2,1,75,0,0
51009,-66.6666666666667,4,2,1,20,0,0
51061,-66.6666666666667,4,2,1,75,0,0
51216,-66.6666666666667,4,2,1,20,0,0
51475,-66.6666666666667,4,2,1,75,0,0
51631,-66.6666666666667,4,2,1,20,0,0
51682,-66.6666666666667,4,2,1,75,0,0
52045,-66.6666666666667,4,2,1,20,0,0
52097,-66.6666666666667,4,2,1,75,0,0
52252,-66.6666666666667,4,2,1,20,0,0
52304,-66.6666666666667,4,2,1,75,0,0
52460,-66.6666666666667,4,2,1,20,0,0
52511,-83.3333333333333,4,2,1,75,0,0
52978,-83.3333333333333,4,2,1,45,0,0
53133,-66.6666666666667,4,2,1,75,0,0
54118,-66.6666666666667,4,2,1,20,0,0
54170,-66.6666666666667,4,2,1,75,0,0
54221,-66.6666666666667,4,2,1,20,0,0
54325,-66.6666666666667,4,2,1,75,0,0
54584,-66.6666666666667,4,2,1,20,0,0
54688,-66.6666666666667,4,2,1,75,0,0
55206,-66.6666666666667,4,2,1,20,0,0
55309,-66.6666666666667,4,2,1,75,0,0
55517,-66.6666666666667,4,2,1,20,0,0
55620,-83.3333333333333,4,2,1,75,0,0
55724,-83.3333333333333,4,2,1,25,0,0
55828,-83.3333333333333,4,2,1,55,0,0
55931,-83.3333333333333,4,2,1,75,0,0
56035,-83.3333333333333,4,2,1,55,0,0
56138,-83.3333333333333,4,2,1,25,0,0
56242,-83.3333333333333,4,2,1,75,0,0
56346,-83.3333333333333,4,2,1,25,0,0
56449,-83.3333333333333,4,2,1,55,0,0
56553,-83.3333333333333,4,2,1,75,0,0
56657,-83.3333333333333,4,2,1,55,0,0
56760,-83.3333333333333,4,2,1,25,0,0
56864,-83.3333333333333,4,2,1,75,0,0
56967,-83.3333333333333,4,2,1,25,0,0
57071,-83.3333333333333,4,2,1,55,0,0
57175,-83.3333333333333,4,2,1,75,0,0
57278,-83.3333333333333,4,2,1,55,0,0
57382,-83.3333333333333,4,2,1,25,0,0
57486,-66.6666666666667,4,2,1,75,0,0
58729,-66.6666666666667,4,2,1,45,0,0
59662,-66.6666666666667,4,2,1,55,0,0
59973,-50,4,2,1,75,0,1
60050,-50,4,2,1,20,0,1
60128,-50,4,2,1,75,0,1
60206,-50,4,2,1,20,0,1
60283,-50,4,2,1,75,0,1
62382,-50,4,2,1,25,0,1
62460,-50,4,2,1,75,0,1
62615,-50,4,2,1,25,0,1
62693,-50,4,2,1,75,0,1
62848,-50,4,2,1,25,0,1
62926,-50,4,2,1,75,0,1
63004,-50,4,2,1,25,0,1
63081,-50,4,2,1,75,0,1
63237,-50,4,2,1,25,0,1
63315,-50,4,2,1,75,0,1
63470,-50,4,2,1,25,0,1
63548,-50,4,2,1,75,0,1
63625,-50,4,2,1,25,0,1
63703,-50,4,2,1,75,0,1
63859,-50,4,2,1,25,0,1
63936,-50,4,2,1,75,0,1
64092,-50,4,2,1,25,0,1
64170,-50,4,2,1,75,0,1
64247,-50,4,2,1,25,0,1
64325,-50,4,2,1,75,0,1
64714,-50,4,2,1,25,0,1
64791,-50,4,2,1,75,0,1
64869,-50,4,2,1,25,0,1
64947,-50,4,2,1,75,0,1
65024,-50,4,2,1,25,0,1
65102,-50,4,2,1,75,0,1
65180,-50,4,2,1,25,0,1
65258,-50,4,2,1,75,0,1
66890,-50,4,2,1,25,0,1
66967,-50,4,2,1,75,0,1
67045,-50,4,2,1,25,0,1
67123,-50,4,2,1,75,0,1
67201,-50,4,2,1,25,0,1
67278,-50,4,2,1,75,0,1
67356,-50,4,2,1,25,0,1
67434,-50,4,2,1,75,0,1
67589,-50,4,2,1,25,0,1
67667,-50,4,2,1,75,0,1
67822,-50,4,2,1,25,0,1
67900,-50,4,2,1,75,0,1
67978,-50,4,2,1,25,0,1
68056,-50,4,2,1,75,0,1
68211,-50,4,2,1,25,0,1
68289,-50,4,2,1,75,0,1
68444,-50,4,2,1,25,0,1
68522,-50,4,2,1,75,0,1
68600,-50,4,2,1,25,0,1
68677,-50,4,2,1,75,0,1
69144,-50,4,2,1,55,0,1
69221,-50,4,2,1,75,0,1
69377,-50,4,2,1,25,0,1
69454,-50,4,2,1,75,0,1
69532,-50,4,2,1,25,0,1
69610,-50,4,2,1,75,0,1
69688,-50,4,2,1,25,0,1
69765,-50,4,2,1,75,0,1
69843,-50,4,2,1,25,0,1
69921,-50,4,2,1,75,0,1
69999,-50,4,2,1,25,0,1
70076,-50,4,2,1,75,0,1
70154,-50,4,2,1,25,0,1
70232,-50,4,2,1,75,0,1
71864,-50,4,2,1,25,0,1
71942,-50,4,2,1,75,0,1
72019,-50,4,2,1,25,0,1
72097,-50,4,2,1,75,0,1
72175,-50,4,2,1,25,0,1
72252,-50,4,2,1,75,0,1
72330,-50,4,2,1,25,0,1
72408,-50,4,2,1,75,0,1
74273,-66.6666666666667,4,2,1,75,0,1
75050,-66.6666666666667,4,2,1,25,0,1
75128,-66.6666666666667,4,2,1,75,0,1
75284,-66.6666666666667,4,2,1,25,0,1
75361,-66.6666666666667,4,2,1,75,0,1
75439,-66.6666666666667,4,2,1,25,0,1
75517,-66.6666666666667,4,2,1,75,0,1
75594,-66.6666666666667,4,2,1,25,0,1
75672,-66.6666666666667,4,2,1,75,0,1
76294,-66.6666666666667,4,2,1,25,0,1
76372,-66.6666666666667,4,2,1,75,0,1
76527,-66.6666666666667,4,2,1,25,0,1
76605,-66.6666666666667,4,2,1,75,0,1
76682,-66.6666666666667,4,2,1,25,0,1
76760,-66.6666666666667,4,2,1,75,0,1
76838,-66.6666666666667,4,2,1,25,0,1
76916,-66.6666666666667,4,2,1,75,0,1
77537,-66.6666666666667,4,2,1,55,0,1
77693,-66.6666666666667,4,2,1,75,0,1
78159,-66.6666666666667,4,2,1,55,0,1
78315,-66.6666666666667,4,2,1,75,0,1
78625,-50,4,2,1,75,0,1
79869,-90.9090909090909,4,2,1,75,0,0
81967,-90.9090909090909,4,2,1,10,0,0
82045,-90.9090909090909,4,2,1,55,0,0
82278,-90.9090909090909,4,2,1,25,0,0
82356,-50,4,2,1,75,0,1
82511,-50,4,2,1,25,0,1
82589,-50,4,2,1,75,0,1
82745,-50,4,2,1,25,0,1
82822,-50,4,2,1,75,0,1
82900,-50,4,2,1,25,0,1
82978,-50,4,2,1,75,0,1
83133,-50,4,2,1,25,0,1
83211,-50,4,2,1,75,0,1
83366,-50,4,2,1,25,0,1
83444,-50,4,2,1,75,0,1
83522,-50,4,2,1,25,0,1
83600,-50,4,2,1,75,0,1
83755,-50,4,2,1,25,0,1
83833,-50,4,2,1,75,0,1
83988,-50,4,2,1,25,0,1
84066,-50,4,2,1,75,0,1
84144,-50,4,2,1,25,0,1
84221,-50,4,2,1,75,0,1
84610,-50,4,2,1,25,0,1
84688,-50,4,2,1,75,0,1
84765,-50,4,2,1,25,0,1
84843,-50,4,2,1,75,0,1
84921,-50,4,2,1,25,0,1
84999,-50,4,2,1,75,0,1
85076,-50,4,2,1,25,0,1
85154,-50,4,2,1,75,0,1
86786,-50,4,2,1,25,0,1
86864,-50,4,2,1,75,0,1
86942,-50,4,2,1,25,0,1
87019,-50,4,2,1,75,0,1
87097,-50,4,2,1,25,0,1
87175,-50,4,2,1,75,0,1
87252,-50,4,2,1,25,0,1
87330,-50,4,2,1,75,0,1
87486,-50,4,2,1,25,0,1
87563,-50,4,2,1,75,0,1
87719,-50,4,2,1,25,0,1
87796,-50,4,2,1,75,0,1
87874,-50,4,2,1,25,0,1
87952,-50,4,2,1,75,0,1
88107,-50,4,2,1,25,0,1
88185,-50,4,2,1,75,0,1
88340,-50,4,2,1,25,0,1
88418,-50,4,2,1,75,0,1
88496,-50,4,2,1,25,0,1
88574,-50,4,2,1,75,0,1
89895,-50,4,2,1,25,0,1
89973,-50,4,2,1,75,0,1
90050,-50,4,2,1,25,0,1
90128,-50,4,2,1,75,0,1
90517,-50,4,2,1,25,0,1
90594,-50,4,2,1,75,0,1
90672,-50,4,2,1,25,0,1
90750,-50,4,2,1,75,0,1
90828,-50,4,2,1,25,0,1
90905,-50,4,2,1,75,0,1
90983,-50,4,2,1,25,0,1
91061,-50,4,2,1,75,0,1
91138,-50,4,2,1,25,0,1
91216,-50,4,2,1,75,0,1
91294,-50,4,2,1,25,0,1
91372,-50,4,2,1,75,0,1
91760,-50,4,2,1,25,0,1
91838,-50,4,2,1,75,0,1
91916,-50,4,2,1,25,0,1
91993,-50,4,2,1,75,0,1
92071,-50,4,2,1,25,0,1
92149,-50,4,2,1,75,0,1
93004,-50,4,2,1,25,0,1
93081,-50,4,2,1,75,0,1
93159,-50,4,2,1,25,0,1
93237,-50,4,2,1,75,0,1
93315,-50,4,2,1,25,0,1
93392,-50,4,2,1,75,0,1
93470,-50,4,2,1,25,0,1
93548,-50,4,2,1,75,0,1
93625,-50,4,2,1,25,0,1
93703,-50,4,2,1,75,0,1
93781,-50,4,2,1,25,0,1
93859,-50,4,2,1,75,0,1
93936,-50,4,2,1,25,0,1
94014,-50,4,2,1,75,0,1
94092,-50,4,2,1,25,0,1
94170,-50,4,2,1,75,0,1
94869,-50,4,2,1,35,0,1
94947,-50,4,2,1,75,0,1
95335,-50,4,2,1,25,0,1
95413,-50,4,2,1,75,0,1
95491,-50,4,2,1,25,0,1
95568,-50,4,2,1,75,0,1
95957,-50,4,2,1,25,0,1
96035,-50,4,2,1,75,0,1
96113,-50,4,2,1,25,0,1
96190,-50,4,2,1,75,0,1
96579,-50,4,2,1,25,0,1
96657,-50,4,2,1,75,0,1
96734,-50,4,2,1,55,0,1
96812,-50,4,2,1,75,0,1
96890,-50,4,2,1,55,0,1
96967,-50,4,2,1,75,0,1
97278,-66.6666666666667,4,2,1,75,0,1
97434,-66.6666666666667,4,2,1,55,0,1
98522,-66.6666666666667,4,2,1,75,0,1
98755,-66.6666666666667,4,2,1,25,0,1
98833,-66.6666666666667,4,2,1,75,0,1
99066,-66.6666666666667,4,2,1,25,0,1
99144,-66.6666666666667,4,2,1,55,0,1
99221,-66.6666666666667,4,2,1,45,0,1
99765,-50,4,2,1,75,0,0
99999,-50,4,2,1,25,0,0
100076,-50,4,2,1,75,0,0
100232,-50,4,2,1,25,0,0
100309,-50,4,2,1,75,0,0
100465,-50,4,2,1,25,0,0
100543,-50,4,2,1,75,0,0
100620,-50,4,2,1,25,0,0
100698,-50,4,2,1,75,0,0
100776,-50,4,2,1,25,0,0
100853,-50,4,2,1,75,0,0
100931,-50,4,2,1,25,0,0
101009,-50,4,2,1,75,0,0
101242,-50,4,2,1,25,0,0
101320,-50,4,2,1,75,0,0
101475,-50,4,2,1,25,0,0
101553,-50,4,2,1,75,0,0
101708,-50,4,2,1,25,0,0
101786,-50,4,2,1,75,0,0
101864,-50,4,2,1,25,0,0
101942,-50,4,2,1,75,0,0
102019,-50,4,2,1,25,0,0
102097,-50,4,2,1,75,0,0
102175,-50,4,2,1,25,0,0
102252,-50,4,2,1,75,0,0
102486,-50,4,2,1,25,0,0
102563,-50,4,2,1,75,0,0
102719,-50,4,2,1,25,0,0
102796,-50,4,2,1,75,0,0
102952,-50,4,2,1,25,0,0
103030,-50,4,2,1,75,0,0
103107,-50,4,2,1,25,0,0
103185,-50,4,2,1,75,0,0
103263,-50,4,2,1,25,0,0
103340,-50,4,2,1,75,0,0
103418,-50,4,2,1,25,0,0
103496,-50,4,2,1,75,0,0
103729,-50,4,2,1,25,0,0
103807,-50,4,2,1,75,0,0
103962,-50,4,2,1,25,0,0
104040,-50,4,2,1,75,0,0
104351,-50,4,2,1,25,0,0
104429,-50,4,2,1,75,0,0
104662,-50,4,2,1,25,0,0
104739,-50,4,2,1,75,0,0
104973,-50,4,2,1,25,0,0
105050,-50,4,2,1,75,0,0
105206,-50,4,2,1,25,0,0
105283,-50,4,2,1,75,0,0
105439,-50,4,2,1,25,0,0
105517,-50,4,2,1,75,0,0
105594,-50,4,2,1,25,0,0
105672,-50,4,2,1,75,0,0
105750,-50,4,2,1,25,0,0
105828,-50,4,2,1,75,0,0
105905,-50,4,2,1,25,0,0
105983,-50,4,2,1,75,0,0
106216,-50,4,2,1,25,0,0
106294,-50,4,2,1,75,0,0
106449,-50,4,2,1,25,0,0
106527,-50,4,2,1,75,0,0
106682,-50,4,2,1,25,0,0
106760,-50,4,2,1,75,0,0
106838,-50,4,2,1,25,0,0
106916,-50,4,2,1,75,0,0
106993,-50,4,2,1,25,0,0
107071,-50,4,2,1,75,0,0
107149,-50,4,2,1,25,0,0
107227,-50,4,2,1,75,0,0
107460,-50,4,2,1,25,0,0
107537,-50,4,2,1,75,0,0
107693,-50,4,2,1,25,0,0
107771,-50,4,2,1,75,0,0
107926,-50,4,2,1,25,0,0
108004,-50,4,2,1,75,0,0
108081,-50,4,2,1,25,0,0
108159,-50,4,2,1,75,0,0
108625,-50,4,2,1,25,0,0
108781,-50,4,2,1,75,0,0
108936,-50,4,2,1,25,0,0
109092,-50,4,2,1,65,0,0
109247,-50,4,2,1,25,0,0
109403,-50,4,2,1,75,0,0
109558,-50,4,2,1,25,0,0
109714,-50,4,2,1,75,0,0
110180,-50,4,2,1,25,0,0
110258,-50,4,2,1,75,0,0
110413,-50,4,2,1,25,0,0
110491,-50,4,2,1,75,0,0
110568,-50,4,2,1,25,0,0
110646,-50,4,2,1,75,0,0
110724,-50,4,2,1,25,0,0
110802,-50,4,2,1,75,0,0
111190,-50,4,2,1,25,0,0
111268,-50,4,2,1,75,0,0
111423,-50,4,2,1,25,0,0
111501,-50,4,2,1,75,0,0
111657,-50,4,2,1,25,0,0
111734,-50,4,2,1,75,0,0
111812,-50,4,2,1,25,0,0
111890,-50,4,2,1,75,0,0
111967,-50,4,2,1,25,0,0
112045,-50,4,2,1,75,0,0
112123,-50,4,2,1,25,0,0
112201,-50,4,2,1,75,0,0
112434,-50,4,2,1,25,0,0
112511,-50,4,2,1,75,0,0
112667,-50,4,2,1,25,0,0
112745,-50,4,2,1,75,0,0
112900,-50,4,2,1,25,0,0
112978,-50,4,2,1,75,0,0
113056,-50,4,2,1,25,0,0
113133,-50,4,2,1,75,0,0
113211,-50,4,2,1,25,0,0
113289,-50,4,2,1,75,0,0
113366,-50,4,2,1,25,0,0
113444,-50,4,2,1,75,0,0
113677,-50,4,2,1,25,0,0
113755,-50,4,2,1,75,0,0
113910,-50,4,2,1,25,0,0
113988,-50,4,2,1,75,0,0
114299,-50,4,2,1,25,0,0
114377,-50,4,2,1,75,0,0
114610,-50,4,2,1,25,0,0
114688,-50,4,2,1,65,0,0
115232,-50,4,2,1,25,0,0
115309,-50,4,2,1,65,0,0
115853,-50,4,2,1,25,0,0
115931,-50,4,2,1,65,0,0
116475,-50,4,2,1,25,0,0
116553,-50,4,2,1,65,0,0
117097,-50,4,2,1,25,0,0
117175,-50,4,2,1,75,0,0
119662,-50,4,2,1,30,0,0

[Colours]
Combo1 : 136,214,247
Combo2 : 249,67,6
Combo3 : 242,180,13
Combo4 : 12,99,243

[HitObjects]
38,168,10232,6,0,L|135:142,1,99.9999999999999,6|0,1:3|2:2,2:2:0:0:
183,129,10698,2,0,L|111:57,1,99.9999999999999,6|0,1:3|2:2,2:2:0:0:
76,23,11164,2,0,L|49:120,1,99.9999999999999,6|2,1:3|2:2,2:2:0:0:
20,215,11786,1,2,2:2:0:0:
58,307,12097,2,0,P|111:301|174:312,1,99.9999999999999,2|2,2:2|2:2,2:2:0:0:
231,239,12719,6,0,L|328:265,1,99.9999999999999,6|0,1:3|2:2,2:2:0:0:
376,278,13185,2,0,L|304:350,1,99.9999999999999,6|0,1:3|2:2,2:2:0:0:
269,384,13651,2,0,L|242:287,1,99.9999999999999,6|2,1:3|2:2,2:2:0:0:
222,192,14273,1,2,2:2:0:0:
228,96,14584,2,0,P|244:63|279:51,1,74.9999999999999,2|0,2:2|2:2,2:2:0:0:
307,55,14895,2,0,L|335:61,3,25,10|10|10|10,2:3|2:3|2:3|2:3,0:0:0:0:
357,66,15206,6,0,L|444:54,1,75.000002861023,14|0,1:3|2:2,2:2:0:0:
502,111,15517,2,0,L|514:198,1,75.000002861023,10|0,1:2|2:2,2:2:0:0:
455,255,15828,2,0,L|368:267,1,75.000002861023,10|0,1:2|2:2,0:0:0:0:
309,210,16138,1,10,1:2:0:0:
219,223,16294,1,2,1:2:0:0:
167,296,16449,6,0,L|174:388,1,75.000002861023,14|0,1:3|2:2,2:2:0:0:
82,378,16760,2,0,L|75:286,1,75.000002861023,10|0,1:2|2:2,2:2:0:0:
15,236,17071,1,10,1:2:0:0:
69,163,17227,1,2,1:2:0:0:
5,100,17382,1,10,1:2:0:0:
60,29,17537,1,2,1:2:0:0:
127,88,17693,6,0,L|184:85,3,37.5000014305115,14|10|10|10,1:3|1:3|1:2|1:2,0:0:0:0:
199,113,18004,6,0,L|254:106,3,37.5000014305115,14|10|10|10,1:3|1:2|1:2|1:2,0:0:0:0:
274,85,18315,2,0,P|324:113|339:162,3,100.000003814697,6|6|6|0,1:3|1:3|1:3|0:0,0:0:0:0:
256,192,19869,6,0,L|242:340,1,119.999996337891,0|0,0:0|1:2,0:0:0:0:
287,12,25154,6,0,P|334:85|435:81,1,189.999994926453,2|10,2:2|2:2,2:2:0:0:
501,146,26087,1,2,2:2:0:0:
447,224,26397,2,0,P|355:221|304:296,1,189.999994926453,2|10,2:2|2:2,0:0:0:0:
237,364,27330,1,2,2:2:0:0:
160,297,27641,6,0,L|53:309,1,94.9999974632263,2|2,1:2|2:2,0:0:0:0:
13,217,28263,2,0,L|120:205,1,94.9999974632263,10|2,2:2|2:2,0:0:0:0:
43,118,28885,2,0,L|2:122,4,23.7499993658066,2|2|2|2|2,2:2|2:2|1:2|2:2|1:2,0:0:0:0:
29,23,29506,2,0,L|-12:27,4,23.7499993658066,10|2|2|2|2,2:2|2:2|1:2|2:2|2:2,0:0:0:0:
178,84,30128,6,0,B|220:87|242:52|242:52|259:90|300:93,3,150.000005722046,14|10|10|10,2:3|2:3|2:3|2:3,2:2:0:0:
391,212,31372,2,0,B|433:209|455:244|455:244|472:206|513:202,3,150.000005722046,10|10|10|10,2:3|2:3|2:3|2:3,2:2:0:0:
391,291,32615,6,0,L|382:373,1,75.000002861023,14|0,2:3|0:0,2:2:0:0:
292,365,32926,2,0,L|283:290,1,75.000002861023,10|0,2:3|0:0,2:2:0:0:
192,286,33237,2,0,L|183:368,1,75.000002861023,10|0,2:3|0:0,2:2:0:0:
93,369,33548,2,0,L|84:294,1,75.000002861023,10|0,2:3|0:0,2:2:0:0:
6,247,33859,6,0,L|19:93,1,150.000005722046,10|10,2:3|2:3,2:2:0:0:
171,1,34480,1,10,2:3:0:0:
187,90,34636,1,10,2:3:0:0:
275,105,34791,1,10,2:3:0:0:
331,36,34947,1,10,2:3:0:0:
331,36,35024,1,10,2:3:0:0:
331,36,35102,6,0,L|464:21,1,112.500004291534,14|8,2:3|2:2,2:2:0:0:
459,20,35413,2,0,L|466:74,2,37.5000014305115,0|10|10,2:2|2:2|2:2,2:2:0:0:
484,147,35724,2,0,P|442:216|463:265,1,112.500004291534,14|10,2:3|2:2,2:2:0:0:
452,258,36035,2,0,L|448:299,2,37.5000014305115,0|10|10,2:2|2:2|2:2,2:2:0:0:
378,358,36346,2,0,L|256:374,1,112.500004291534,14|10,2:3|2:2,2:2:0:0:
246,375,36657,2,0,L|203:378,2,37.5000014305115,0|10|10,2:2|2:2|2:2,2:2:0:0:
109,343,36967,2,0,P|43:308|45:251,1,112.500004291534,14|10,2:3|2:2,2:2:0:0:
33,256,37278,2,0,L|27:218,2,37.5000014305115,0|10|10,2:2|2:2|2:2,2:2:0:0:
13,108,37589,5,14,2:3:0:0:
36,39,37745,1,10,2:3:0:0:
108,21,37900,1,10,2:3:0:0:
167,66,38056,1,10,2:3:0:0:
164,140,38211,2,0,L|159:185,3,37.5000014305115,10|10|10|10,2:2|2:2|2:2|2:2,0:0:0:0:
156,214,38522,2,0,L|151:259,3,37.5000014305115,10|10|10|10,2:2|2:2|2:2|2:2,0:0:0:0:
150,288,38833,6,0,B|145:329|145:329|236:353,1,112.500004291534,0|0,1:2|2:2,2:2:0:0:
250,356,39144,2,0,L|306:371,3,37.5000014305115,10|10|10|10,2:2|2:2|2:2|2:2,0:0:0:0:
322,372,39454,1,2,2:2:0:0:
395,355,39610,1,2,2:2:0:0:
434,291,39765,1,10,1:3:0:0:
417,217,39921,1,2,2:2:0:0:
357,171,40076,6,0,L|343:12,1,150.000005722046,4|8,1:3|2:2,2:2:0:0:
482,81,40698,2,0,B|436:85|436:85|413:77|413:77|371:83,2,100.000003814697,10|2|2,2:3|1:2|1:2,2:2:0:0:
282,92,41527,2,0,L|169:103,1,100.000003814697,2|2,1:2|1:2,2:2:0:0:
109,33,41942,2,0,P|37:53|19:90,2,100.000003814697,10|2|2,2:3|1:2|1:2,2:2:0:0:
95,114,42563,6,0,B|88:173|88:173|47:219|47:219|85:267,1,179.999994506836,2|0,1:2|2:2,2:2:0:0:
134,339,43185,2,0,P|71:353|39:381,2,100.000003814697,10|2|2,2:3|1:2|1:2,2:2:0:0:
305,370,44014,2,0,L|419:359,1,100.000003814697,2|2,1:2|1:2,2:2:0:0:
428,262,44429,2,0,P|471:211|519:214,1,100.000003814697,6|0,1:3|2:2,2:2:0:0:
500,158,44739,2,0,P|434:146|413:103,1,100.000003814697,6|10,1:3|2:2,2:2:0:0:
406,72,45050,6,0,P|373:30|378:92,1,150.000005722046,4|8,1:3|2:2,2:2:0:0:
220,111,45672,2,0,B|216:65|216:65|224:42|224:42|218:0,2,100.000003814697,10|2|2,2:3|1:2|1:2,2:2:0:0:
82,18,46501,2,0,P|33:17|2:54,1,100.000003814697,2|0,1:2|1:2,2:2:0:0:
12,153,46916,2,0,B|8:199|8:199|16:222|16:222|10:264,2,100.000003814697,10|2|2,2:3|1:2|1:2,2:2:0:0:
111,140,47537,6,0,L|101:220,1,75.000002861023,0|0,1:2|2:2,2:2:0:0:
89,305,47848,2,0,L|81:360,3,37.5000014305115,0|8|8|8,2:2|2:2|2:2|2:2,0:0:0:0:
81,368,48159,2,0,P|145:349|188:369,2,100.000003814697,10|2|2,2:3|1:2|1:2,2:2:0:0:
3,304,48781,1,6,1:2:0:0:
39,158,49092,1,2,2:2:0:0:
189,160,49403,1,6,1:2:0:0:
227,304,49714,1,2,2:2:0:0:
367,355,50024,6,0,L|386:199,1,150.000005722046,6|10,1:3|2:2,2:2:0:0:
493,104,50646,2,0,B|497:150|497:150|489:173|489:173|495:215,2,100.000003814697,10|2|2,2:3|1:2|1:2,2:2:0:0:
307,27,51475,2,0,P|365:39|401:16,1,100.000003814697,2|2,1:2|1:2,2:2:0:0:
405,119,51890,2,0,B|409:165|409:165|401:188|401:188|407:230,2,100.000003814697,10|2|2,2:3|1:2|1:2,2:2:0:0:
325,123,52511,6,0,B|271:110|242:162|242:162|212:210|149:200,1,199.999993896484,2|0,1:2|2:2,2:2:0:0:
148,151,53133,2,0,L|134:35,2,100.000003814697,10|2|2,2:3|1:2|1:2,2:2:0:0:
3,12,53962,2,0,L|16:124,1,100.000003814697,2|2,1:2|1:2,2:2:0:0:
66,197,54377,2,0,B|37:238|37:238|46:299,1,100.000003814697,14|0,1:3|2:2,2:2:0:0:
79,324,54688,2,0,B|129:327|129:327|177:289,1,100.000003814697,6|10,1:3|2:2,2:2:0:0:
211,270,54999,6,0,P|272:285|301:370,1,150.000005722046,6|0,1:3|1:2,2:2:0:0:
422,369,55620,2,0,B|480:342|480:342|488:280,1,119.999996337891,10|10,1:3|1:3,2:2:0:0:
440,175,56242,2,0,B|387:138|387:138|329:162,1,119.999996337891,10|10,1:3|1:3,2:2:0:0:
216,174,56864,2,0,P|154:126|158:74,1,119.999996337891,10|10,1:3|1:3,2:2:0:0:
50,0,57486,6,0,L|37:86,1,75.000002861023,10|10,1:3|1:3,0:0:0:0:
24,162,57796,2,0,L|11:248,1,75.000002861023,10|10,1:3|1:3,0:0:0:0:
44,326,58107,2,0,L|36:374,3,37.5000014305115,10|10|10|10,1:3|1:3|1:3|1:3,0:0:0:0:
77,334,58418,2,0,L|70:378,3,37.5000014305115,10|10|10|10,1:3|1:3|1:3|1:3,0:0:0:0:
106,337,58729,6,0,P|159:323|204:333,1,75.000002861023,2|2,2:2|2:2,2:2:0:0:
219,261,59040,2,0,P|271:275|305:306,1,75.000002861023,2|2,2:2|2:2,2:2:0:0:
360,267,59351,2,0,P|398:305|412:349,1,75.000002861023,2|2,1:2|2:2,2:2:0:0:
453,382,59662,2,0,L|520:368,3,37.5000014305115,10|10|10|10,2:3|2:3|2:3|2:3,0:0:0:0:
500,353,59973,6,0,L|511:234,1,99.9999999999999,6|2,1:3|2:2,2:2:0:0:
393,237,60283,2,0,L|383:177,3,50,10|2|2|2,1:3|2:2|2:2|2:2,0:0:0:0:
379,137,60594,2,0,P|392:82|445:62,1,99.9999999999999,2|2,1:2|2:2,2:2:0:0:
509,4,60905,2,0,L|369:17,1,99.9999999999999,10|2,1:3|2:2,0:0:0:0:
309,19,61216,2,0,L|169:32,1,99.9999999999999,2|2,1:2|2:2,2:2:0:0:
115,63,61527,2,0,L|28:47,3,50,10|2|2|2,1:3|2:2|2:2|2:2,0:0:0:0:
16,45,61838,2,0,P|27:103|-10:149,1,99.9999999999999,2|2,1:2|2:2,0:0:0:0:
20,235,62149,2,0,L|34:345,1,99.9999999999999,10|0,1:3|0:0,2:2:0:0:
125,372,62460,6,0,P|139:298|201:253,2,150,2|2|2,1:2|2:2|2:2,2:2:0:0:
222,349,63081,2,0,L|370:384,2,150,2|2|2,1:2|2:2|2:2,2:2:0:0:
286,271,63703,2,0,L|434:306,2,150,2|2|2,1:2|2:2|2:2,2:2:0:0:
258,174,64325,2,0,L|253:109,3,50,2|2|2|2,1:2|2:2|2:2|2:2,0:0:0:0:
250,74,64636,2,0,L|245:9,3,50,10|0|2|0,1:3|2:2|1:2|2:2,2:2:0:0:
291,2,64947,6,0,P|354:11|390:68,1,99.9999999999999,2|2,1:2|2:2,2:2:0:0:
399,133,65258,2,0,L|475:126,3,50,10|2|2|2,1:3|2:2|2:2|2:2,0:0:0:0:
498,123,65568,2,0,L|511:235,1,99.9999999999999,2|2,1:2|2:2,2:2:0:0:
426,278,65879,2,0,L|437:377,1,99.9999999999999,10|2,1:3|2:2,0:0:0:0:
337,380,66190,2,0,P|271:340|222:358,1,99.9999999999999,2|2,1:2|2:2,2:2:0:0:
153,358,66501,2,0,L|10:373,1,99.9999999999999,10|2,1:3|2:2,0:0:0:0:
4,287,66812,5,2,1:2:0:0:
4,287,66967,1,2,2:2:0:0:
88,230,67123,1,10,1:3:0:0:
88,230,67278,1,2,2:2:0:0:
1,179,67434,6,0,L|21:20,2,150,2|2|2,1:2|2:2|2:2,2:2:0:0:
88,230,68056,2,0,L|108:71,2,150,2|2|2,1:2|2:2|2:2,2:2:0:0:
186,186,68677,2,0,L|198:79,1,99.9999999999999,2|2,1:2|2:2,0:0:0:0:
250,6,68988,2,0,P|296:30|356:18,1,99.9999999999999,10|2,1:3|2:2,2:2:0:0:
425,81,69299,1,2,1:2:0:0:
356,153,69454,1,2,1:2:0:0:
349,253,69610,1,2,1:2:0:0:
405,334,69765,1,2,1:2:0:0:
503,354,69921,6,0,L|490:247,1,99.9999999999999,6|2,1:3|2:2,2:2:0:0:
435,171,70232,2,0,L|487:161,3,50,10|2|2|2,1:3|2:2|2:2|2:2,0:0:0:0:
509,118,70543,2,0,P|498:40|461:20,1,99.9999999999999,2|2,1:2|2:2,0:0:0:0:
387,13,70853,2,0,L|265:2,1,99.9999999999999,10|2,1:3|2:2,0:0:0:0:
195,44,71164,6,0,B|139:59|139:59|89:36,1,99.9999999999999,2|2,1:2|2:2,2:2:0:0:
6,6,71475,2,0,L|18:110,1,99.9999999999999,10|2,1:3|2:2,2:2:0:0:
81,189,71786,1,2,1:2:0:0:
81,189,71942,1,2,2:2:0:0:
35,279,72097,1,10,1:3:0:0:
35,279,72252,1,2,2:2:0:0:
90,362,72408,6,0,P|147:358|216:395,1,99.9999999999999,2|2,1:2|2:2,2:2:0:0:
286,368,72719,2,0,L|295:308,3,50,10|2|2|2,1:3|2:2|2:2|2:2,0:0:0:0:
331,285,73030,1,2,1:2:0:0:
331,285,73185,1,2,2:2:0:0:
424,332,73340,1,10,1:3:0:0:
424,332,73496,1,2,2:2:0:0:
498,266,73651,6,0,L|490:197,3,50,2|2|2|2,1:2|2:2|2:2|2:2,0:0:0:0:
485,166,73962,2,0,L|477:97,3,50,10|2|2|2,1:3|2:2|2:2|2:2,0:0:0:0:
471,71,74273,1,2,1:2:0:0:
405,8,74429,1,2,2:2:0:0:
315,8,74584,1,10,1:3:0:0:
253,72,74739,1,10,1:3:0:0:
249,162,74895,6,0,B|204:168|204:168|183:185|183:185|134:190,1,112.500004291534,6|2,1:3|1:2,2:2:0:0:
53,95,75361,1,2,1:2:0:0:
53,95,75517,1,2,1:3:0:0:
0,218,75828,2,0,P|33:260|34:311,1,75.000002861023,10|2,1:3|2:2,0:0:0:0:
41,369,76138,6,0,B|86:363|86:363|107:346|107:346|156:341,1,112.500004291534,6|2,1:3|1:2,2:2:0:0:
224,269,76604,1,2,1:2:0:0:
224,269,76760,1,2,1:2:0:0:
348,384,77071,2,0,P|391:343|430:343,1,75.000002861023,10|2,1:3|2:2,0:0:0:0:
493,327,77382,6,0,L|480:228,1,75.000002861023,4|2,1:3|2:2,2:2:0:0:
470,178,77693,2,0,L|461:111,3,37.5000014305115,10|2|2|2,1:3|2:2|2:2|2:2,0:0:0:0:
462,103,78004,2,0,P|465:52|486:15,1,75.000002861023,6|2,1:3|2:2,2:2:0:0:
404,2,78315,2,0,L|337:11,3,37.5000014305115,10|2|2|2,1:3|2:2|2:2|2:2,0:0:0:0:
317,15,78625,6,0,L|193:29,1,99.9999999999999,2|10,1:2|2:2,0:0:0:0:
118,8,78936,1,10,1:3:0:0:
34,63,79092,1,10,2:2:0:0:
34,162,79247,2,0,L|8:280,1,99.9999999999999,10|10,1:3|2:2,0:0:0:0:
77,335,79558,2,0,L|93:403,4,50,8|8|8|8|8,1:3|1:3|1:3|1:3|1:3,0:0:0:0:
256,192,80024,12,10,82045,2:2:0:0:
125,12,82356,6,0,P|139:86|201:131,2,150,6|2|2,1:3|2:2|2:2,2:2:0:0:
222,35,82977,2,0,L|370:0,2,150,2|2|2,1:2|2:2|2:2,2:2:0:0:
286,113,83599,2,0,L|434:78,2,150,2|2|2,1:2|2:2|2:2,2:2:0:0:
258,210,84221,2,0,L|253:275,3,50,2|2|2|2,1:2|2:2|2:2|2:2,0:0:0:0:
250,310,84532,2,0,L|245:375,3,50,10|0|2|0,1:3|2:2|1:2|2:2,2:2:0:0:
291,382,84843,6,0,P|354:373|390:316,1,99.9999999999999,2|2,1:2|2:2,2:2:0:0:
399,251,85154,2,0,L|475:258,3,50,10|2|2|2,1:3|2:2|2:2|2:2,0:0:0:0:
498,261,85464,2,0,L|511:149,1,99.9999999999999,2|2,1:2|2:2,2:2:0:0:
426,106,85775,2,0,L|437:7,1,99.9999999999999,10|2,1:3|2:2,0:0:0:0:
337,4,86086,2,0,P|271:44|222:26,1,99.9999999999999,2|2,1:2|2:2,2:2:0:0:
153,26,86397,2,0,L|10:11,1,99.9999999999999,10|2,1:3|2:2,0:0:0:0:
4,97,86708,5,2,1:2:0:0:
4,97,86863,1,2,2:2:0:0:
88,154,87019,1,10,1:3:0:0:
88,154,87174,1,2,2:2:0:0:
1,205,87330,6,0,L|21:364,2,150,2|2|2,1:2|2:2|2:2,2:2:0:0:
88,154,87952,2,0,L|108:313,2,150,2|2|2,1:2|2:2|2:2,2:2:0:0:
183,182,88573,2,0,L|190:232,3,50,2|2|2|2,1:2|2:2|2:2|2:2,0:0:0:0:
198,281,88885,2,0,L|205:331,3,50,10|2|2|2,1:3|2:2|2:2|2:2,0:0:0:0:
212,374,89195,1,0,1:2:0:0:
312,384,89350,1,2,1:2:0:0:
384,315,89506,1,2,1:2:0:0:
363,217,89661,1,2,1:2:0:0:
282,156,89817,6,0,L|294:50,1,99.9999999999999,14|2,1:3|2:2,2:2:0:0:
386,20,90128,2,0,L|374:126,1,99.9999999999999,10|2,1:3|2:2,2:2:0:0:
451,183,90439,1,10,1:3:0:0:
451,183,90594,1,2,2:2:0:0:
470,87,90750,1,10,1:3:0:0:
470,87,90905,1,2,2:2:0:0:
374,119,91061,6,0,L|362:225,1,99.9999999999999,10|2,1:3|2:2,2:2:0:0:
270,255,91372,2,0,L|282:149,1,99.9999999999999,10|2,1:3|2:2,2:2:0:0:
207,96,91682,1,10,1:3:0:0:
207,96,91837,1,2,2:2:0:0:
188,192,91993,1,10,1:3:0:0:
188,192,92148,1,10,1:2:0:0:
110,127,92304,6,0,L|122:21,1,99.9999999999999,10|2,1:3|2:2,0:0:0:0:
22,47,92615,2,0,L|10:153,1,99.9999999999999,10|2,1:3|2:2,2:2:0:0:
91,223,92926,1,10,1:3:0:0:
91,223,93081,1,2,2:2:0:0:
110,127,93237,1,10,1:3:0:0:
110,127,93392,1,2,2:2:0:0:
188,192,93548,6,0,L|200:298,1,99.9999999999999,10|2,1:3|2:2,2:2:0:0:
277,228,93859,2,0,L|289:334,1,99.9999999999999,10|2,1:3|2:2,2:2:0:0:
366,263,94170,2,0,L|378:369,1,99.9999999999999,10|10,1:3|1:2,0:0:0:0:
467,321,94480,2,0,L|479:215,1,99.9999999999999,10|10,1:3|1:2,0:0:0:0:
419,140,94791,6,0,P|376:72|392:2,2,150,14|10|10,1:3|2:3|1:2,2:2:0:0:
319,154,95413,2,0,L|216:167,3,99.9999999999999,14|10|10|10,1:3|1:2|1:2|1:2,2:2:0:0:
119,174,96035,2,0,P|130:101|88:41,2,150,14|10|10,1:3|2:3|1:3,2:2:0:0:
21,198,96657,2,0,L|27:287,3,50,14|0|10|10,1:3|2:2|1:2|2:3,0:0:0:0:
29,296,96967,2,0,L|35:385,3,50,10|10|10|10,1:2|1:3|1:3|1:2,0:0:0:0:
36,383,97278,6,0,P|100:348|193:380,1,150.000005722046,14|10,1:3|2:3,2:2:0:0:
309,366,97900,2,0,L|364:376,7,37.5000014305115,10|10|10|10|10|10|10|10,1:3|2:3|2:3|2:3|2:3|2:3|2:3|2:3,0:0:0:0:
382,380,98522,2,0,P|440:347|437:249,1,150.000005722046,2|0,1:2|0:0,2:2:0:0:
433,150,99144,2,0,L|440:104,3,37.5000014305115,10|10|10|10,2:0|2:2|2:2|2:2,0:0:0:0:
446,76,99454,2,0,L|453:30,3,37.5000014305115,10|2|2|2,2:3|2:2|2:2|2:2,0:0:0:0:
413,5,99765,6,0,P|330:17|322:76,1,150,6|0,1:3|2:2,2:2:0:0:
320,71,100076,1,10,1:3:0:0:
181,9,100309,1,2,1:2:0:0:
104,138,100543,2,0,L|120:245,2,99.9999999999999,2|10|2,1:2|1:3|1:2,2:2:0:0:
15,185,101009,6,0,B|5:241|5:241|24:279|24:279|11:361,1,150,2|0,1:2|2:2,2:2:0:0:
16,329,101320,1,10,1:3:0:0:
157,378,101553,1,2,1:2:0:0:
287,305,101786,2,0,L|394:316,2,99.9999999999999,2|10|2,1:2|1:3|1:2,2:2:0:0:
355,232,102252,6,0,B|412:226|412:226|448:247|448:247|531:240,1,150,2|0,1:2|2:2,2:2:0:0:
498,243,102563,1,10,1:3:0:0:
396,133,102796,1,2,1:2:0:0:
504,29,103030,2,0,L|495:132,2,99.9999999999999,2|10|2,1:2|1:3|1:2,2:2:0:0:
407,0,103496,6,0,P|323:23|299:87,1,150,2|0,1:2|2:2,2:2:0:0:
299,75,103807,1,10,1:3:0:0:
303,182,103962,1,0,2:2:0:0:
303,182,104040,1,2,1:2:0:0:
303,182,104118,2,0,B|228:169|228:169|173:224,1,150,2|0,1:2|2:2,2:2:0:0:
143,182,104429,2,0,B|191:123|191:123|171:48,1,150,2|0,1:2|2:2,2:2:0:0:
154,6,104739,6,0,L|0:30,1,150,2|0,1:2|2:2,2:2:0:0:
5,29,105050,1,10,1:3:0:0:
21,178,105283,1,2,1:2:0:0:
38,327,105517,2,0,P|76:275|74:219,2,99.9999999999999,2|10|2,1:2|1:3|1:2,2:2:0:0:
131,363,105983,6,0,B|195:369|195:369|224:352|224:352|301:360,1,150,2|0,1:2|2:2,2:2:0:0:
275,357,106294,1,10,1:3:0:0:
383,253,106527,1,2,1:2:0:0:
486,361,106760,2,0,L|377:362,2,99.9999999999999,2|10|2,1:2|1:3|1:2,2:2:0:0:
493,260,107227,6,0,P|475:188|410:146,1,150,2|0,1:2|2:2,2:2:0:0:
415,147,107537,1,10,1:3:0:0:
469,6,107771,1,2,1:2:0:0:
326,40,108004,1,2,1:2:0:0:
326,40,108159,2,0,L|317:96,3,50,10|2|2|2,1:3|2:2|1:2|2:2,0:0:0:0:
310,138,108470,6,0,P|222:146|162:243,1,200,6|2,1:2|2:2,2:2:0:0:
10,103,109092,2,0,P|97:94|158:-2,1,200,6|2,1:2|2:2,2:2:0:0:
76,190,109714,6,0,L|60:308,1,99.9999999999999,14|2,1:3|2:2,0:0:0:0:
146,343,110024,2,0,L|162:225,1,99.9999999999999,10|2,1:3|2:2,2:2:0:0:
253,207,110335,2,0,P|329:228|350:270,1,99.9999999999999,10|2,1:3|2:2,2:2:0:0:
376,334,110646,2,0,P|413:365|462:368,1,99.9999999999999,10|2,1:3|2:2,2:2:0:0:
509,280,110957,6,0,B|464:209|464:209|501:123,1,150,10|0,1:3|2:2,2:2:0:0:
512,102,111268,2,0,L|498:-4,1,99.9999999999999,10|2,1:3|2:2,2:2:0:0:
400,20,111579,2,0,L|414:126,1,99.9999999999999,10|2,1:3|2:2,2:2:0:0:
313,129,111890,2,0,L|299:23,1,99.9999999999999,10|2,1:3|2:2,2:2:0:0:
202,6,112201,6,0,P|111:54|111:130,1,150,10|0,1:3|2:2,2:2:0:0:
107,141,112511,2,0,L|218:125,1,99.9999999999999,10|2,1:3|2:2,2:2:0:0:
173,221,112822,2,0,L|62:237,1,99.9999999999999,10|2,1:3|2:2,2:2:0:0:
34,327,113133,2,0,L|145:311,1,99.9999999999999,10|2,1:3|2:2,2:2:0:0:
232,301,113444,6,0,B|311:288|311:288|342:390,1,150,10|0,1:3|2:2,2:2:0:0:
375,378,113755,2,0,P|439:354|486:362,1,99.9999999999999,10|2,1:3|2:2,2:2:0:0:
499,261,114066,2,8,L|512:46,1,200,10|8,1:3|1:3,2:3:0:0:
401,0,114688,6,0,P|332:11|314:56,1,99.9999999999999,14|10,1:3|1:3,2:2:0:0:
313,57,114921,2,0,P|357:110|404:103,1,99.9999999999999,10|10,1:3|1:3,2:2:0:0:
400,104,115154,1,10,1:3:0:0:
391,203,115309,6,0,B|381:301,1,99.9999999999999,14|10,1:3|1:3,2:2:0:0:
374,322,115543,2,0,B|283:361,1,99.9999999999999,10|10,1:3|1:3,2:2:0:0:
259,366,115776,1,10,1:3:0:0:
159,371,115931,6,0,P|90:360|72:315,1,99.9999999999999,14|10,1:3|1:3,2:2:0:0:
71,314,116164,2,0,P|115:261|162:268,1,99.9999999999999,10|10,1:3|1:3,2:2:0:0:
158,267,116397,1,10,1:3:0:0:
191,172,116553,6,0,B|181:73,1,99.9999999999999,14|10,1:3|1:3,2:2:0:0:
174,53,116787,2,0,B|83:13,1,99.9999999999999,10|10,1:3|1:3,2:2:0:0:
59,9,117020,1,10,1:3:0:0:
53,108,117175,6,0,L|4:117,7,50,10|10|10|10|10|10|10|10,1:3|1:3|1:3|1:3|1:3|1:3|1:3|1:3,0:0:0:0:
8,166,117796,2,0,L|58:158,7,50,14|2|10|2|10|2|10|2,1:3|1:2|1:3|1:2|1:3|1:2|1:3|1:2,0:0:0:0:
256,192,118418,12,0,119662,1:2:0:0:
