osu file format v14

[General]
AudioFilename: audio.mp3
AudioLeadIn: 0
PreviewTime: 59901
Countdown: 0
SampleSet: Soft
StackLeniency: 0.7
Mode: 0
LetterboxInBreaks: 0
WidescreenStoryboard: 1

[Editor]
Bookmarks: 20186,40082,59979,79875,99771,119668
DistanceSpacing: 2.6
BeatDivisor: 4
GridSize: 16
TimelineZoom: 3.049999

[Metadata]
Title:Heracles
TitleUnicode:Heracles
Artist:Yooh
ArtistUnicode:Yooh
Creator:Twiggykun
Version:Extra
Source:
Tags:IntegerTempest Hercules Witow08 Ryxliee fa featured artist Instrumental Electronic Symphonic Hardcore adofai A Dance of Fire and Ice
BeatmapID:3446821
BeatmapSetID:1659194

[Difficulty]
HPDrainRate:4.5
CircleSize:4
OverallDifficulty:8.5
ApproachRate:9.5
SliderMultiplier:2
SliderTickRate:1

[Events]
//Background and Video events
0,0,"anime-girl-pixiv-fantasia-katana-blue-flame-11-4k.jpg",0,0
//Break Periods
2,20379,24629
//Storyboard Layer 0 (Background)
//Storyboard Layer 1 (Fail)
//Storyboard Layer 2 (Pass)
//Storyboard Layer 3 (Foreground)
//Storyboard Layer 4 (Overlay)
//Storyboard Sound Samples

[TimingPoints]
284,310.880829015544,4,2,1,15,1,0
284,-133.333333333333,4,2,1,30,0,0
439,-133.333333333333,4,2,1,10,0,0
594,-133.333333333333,4,2,1,30,0,0
750,-133.333333333333,4,2,1,10,0,0
905,-133.333333333333,4,2,1,30,0,0
1061,-133.333333333333,4,2,1,10,0,0
1216,-133.333333333333,4,2,1,30,0,0
1372,-133.333333333333,4,2,1,10,0,0
1527,-133.333333333333,4,2,1,30,0,0
1682,-133.333333333333,4,2,1,10,0,0
1838,-133.333333333333,4,2,1,30,0,0
1993,-133.333333333333,4,2,1,10,0,0
2149,-133.333333333333,4,2,1,30,0,0
2304,-133.333333333333,4,2,1,10,0,0
2460,-133.333333333333,4,2,1,30,0,0
2615,-133.333333333333,4,2,1,10,0,0
2771,-133.333333333333,4,2,1,30,0,0
5413,-133.333333333333,4,2,1,10,0,0
5568,-133.333333333333,4,2,1,30,0,0
5724,-133.333333333333,4,2,1,10,0,0
5879,-133.333333333333,4,2,1,30,0,0
6035,-133.333333333333,4,2,1,10,0,0
6190,-133.333333333333,4,2,1,30,0,0
6346,-133.333333333333,4,2,1,10,0,0
6501,-133.333333333333,4,2,1,30,0,0
6657,-133.333333333333,4,2,1,10,0,0
6812,-133.333333333333,4,2,1,30,0,0
6967,-133.333333333333,4,2,1,10,0,0
7123,-133.333333333333,4,2,1,30,0,0
7278,-133.333333333333,4,2,1,10,0,0
7434,-133.333333333333,4,2,1,30,0,0
7589,-133.333333333333,4,2,1,10,0,0
10154,-133.333333333333,4,2,1,30,0,0
10232,-83.3333333333333,4,2,1,60,0,0
10543,-83.3333333333333,4,2,1,20,0,0
10698,-83.3333333333333,4,2,1,60,0,0
11009,-83.3333333333333,4,2,1,20,0,0
11164,-83.3333333333333,4,2,1,60,0,0
11397,-83.3333333333333,4,2,1,20,0,0
11475,-133.333333333333,4,2,1,45,0,0
12719,-83.3333333333333,4,2,1,60,0,0
13030,-83.3333333333333,4,2,1,20,0,0
13185,-83.3333333333333,4,2,1,60,0,0
13496,-83.3333333333333,4,2,1,20,0,0
13651,-83.3333333333333,4,2,1,60,0,0
13885,-83.3333333333333,4,2,1,20,0,0
13962,-133.333333333333,4,2,1,35,0,0
14584,-133.333333333333,4,2,1,60,0,0
14817,-133.333333333333,4,2,1,35,0,0
14895,-133.333333333333,4,2,1,40,0,0
14973,-133.333333333333,4,2,1,35,0,0
15050,-133.333333333333,4,2,1,30,0,0
15128,-133.333333333333,4,2,1,25,0,0
15206,-83.3333333333333,4,2,1,60,0,0
15361,-83.3333333333333,4,2,1,20,0,0
15517,-83.3333333333333,4,2,1,60,0,0
15672,-83.3333333333333,4,2,1,20,0,0
15828,-83.3333333333333,4,2,1,60,0,0
15983,-83.3333333333333,4,2,1,45,0,0
16138,-83.3333333333333,4,2,1,60,0,0
16605,-83.3333333333333,4,2,1,20,0,0
16760,-83.3333333333333,4,2,1,60,0,0
16916,-83.3333333333333,4,2,1,20,0,0
17071,-83.3333333333333,4,2,1,60,0,0
17771,-83.3333333333333,4,2,1,40,0,0
18315,-83.3333333333333,4,2,1,60,0,0
18936,-133.333333333333,4,2,1,45,0,0
19869,-100,4,2,1,45,0,0
20180,-100,4,2,1,35,0,0
25154,-100,4,2,1,30,0,0
28885,-100,4,2,1,30,0,0
29195,-83.3333333333333,4,2,1,30,0,0
29506,-83.3333333333333,4,2,1,45,0,0
29817,-83.3333333333333,4,2,1,45,0,0
30128,-83.3333333333333,4,2,1,60,0,0
30361,-83.3333333333333,4,2,1,20,0,0
30439,-83.3333333333333,4,2,1,60,0,0
30672,-83.3333333333333,4,2,1,20,0,0
30750,-83.3333333333333,4,2,1,60,0,0
30983,-83.3333333333333,4,2,1,20,0,0
31061,-83.3333333333333,4,2,1,60,0,0
31294,-83.3333333333333,4,2,1,20,0,0
31372,-83.3333333333333,4,2,1,60,0,0
31605,-83.3333333333333,4,2,1,20,0,0
31682,-83.3333333333333,4,2,1,60,0,0
31916,-83.3333333333333,4,2,1,20,0,0
31993,-83.3333333333333,4,2,1,60,0,0
32227,-83.3333333333333,4,2,1,20,0,0
32304,-83.3333333333333,4,2,1,60,0,0
32460,-83.3333333333333,4,2,1,20,0,0
32537,-83.3333333333333,4,2,1,60,0,0
32848,-83.3333333333333,4,2,1,20,0,0
32926,-83.3333333333333,4,2,1,60,0,0
33159,-83.3333333333333,4,2,1,20,0,0
33237,-83.3333333333333,4,2,1,60,0,0
33470,-83.3333333333333,4,2,1,20,0,0
33548,-83.3333333333333,4,2,1,60,0,0
33781,-83.3333333333333,4,2,1,20,0,0
33859,-83.3333333333333,4,2,1,60,0,0
34092,-83.3333333333333,4,2,1,20,0,0
34170,-83.3333333333333,4,2,1,60,0,0
34403,-83.3333333333333,4,2,1,20,0,0
34480,-83.3333333333333,4,2,1,60,0,0
35646,-83.3333333333333,4,2,1,20,0,0
35724,-83.3333333333333,4,2,1,60,0,0
36268,-83.3333333333333,4,2,1,20,0,0
36346,-83.3333333333333,4,2,1,60,0,0
36890,-83.3333333333333,4,2,1,20,0,0
36967,-83.3333333333333,4,2,1,60,0,0
37667,-83.3333333333333,4,2,1,20,0,0
37745,-83.3333333333333,4,2,1,60,0,0
37822,-83.3333333333333,4,2,1,20,0,0
37900,-83.3333333333333,4,2,1,60,0,0
37978,-83.3333333333333,4,2,1,20,0,0
38056,-83.3333333333333,4,2,1,60,0,0
38133,-83.3333333333333,4,2,1,20,0,0
38211,-83.3333333333333,4,2,1,60,0,0
38833,-66.6666666666667,4,2,1,20,0,0
39144,-66.6666666666667,4,2,1,45,0,0
39454,-66.6666666666667,4,2,1,60,0,0
39532,-66.6666666666667,4,2,1,20,0,0
39610,-66.6666666666667,4,2,1,60,0,0
39688,-66.6666666666667,4,2,1,20,0,0
39765,-66.6666666666667,4,2,1,40,0,0
39843,-66.6666666666667,4,2,1,20,0,0
39921,-66.6666666666667,4,2,1,60,0,0
39999,-66.6666666666667,4,2,1,20,0,0
40076,-76.9230769230769,4,2,1,75,0,0
40309,-76.9230769230769,4,2,1,25,0,0
40387,-133.333333333333,4,2,1,75,0,0
40620,-133.333333333333,4,2,1,20,0,0
40698,-66.6666666666667,4,2,1,75,0,0
40853,-66.6666666666667,4,2,1,20,0,0
40905,-66.6666666666667,4,2,1,75,0,0
41061,-66.6666666666667,4,2,1,20,0,0
41113,-66.6666666666667,4,2,1,75,0,0
41268,-66.6666666666667,4,2,1,20,0,0
41527,-66.6666666666667,4,2,1,75,0,0
41682,-66.6666666666667,4,2,1,20,0,0
41734,-66.6666666666667,4,2,1,75,0,0
42097,-66.6666666666667,4,2,1,20,0,0
42149,-66.6666666666667,4,2,1,75,0,0
42304,-66.6666666666667,4,2,1,20,0,0
42356,-66.6666666666667,4,2,1,75,0,0
42511,-66.6666666666667,4,2,1,20,0,0
42563,-76.9230769230769,4,2,1,75,0,0
43030,-76.9230769230769,4,2,1,45,0,0
43185,-66.6666666666667,4,2,1,75,0,0
44170,-66.6666666666667,4,2,1,20,0,0
44221,-66.6666666666667,4,2,1,75,0,0
44273,-66.6666666666667,4,2,1,20,0,0
44377,-66.6666666666667,4,2,1,75,0,0
44636,-66.6666666666667,4,2,1,20,0,0
44739,-66.6666666666667,4,2,1,75,0,0
45050,-76.9230769230769,4,2,1,75,0,0
45283,-76.9230769230769,4,2,1,20,0,0
45361,-133.333333333333,4,2,1,55,0,0
45594,-133.333333333333,4,2,1,20,0,0
45672,-66.6666666666667,4,2,1,75,0,0
45828,-66.6666666666667,4,2,1,20,0,0
45879,-66.6666666666667,4,2,1,75,0,0
46035,-66.6666666666667,4,2,1,20,0,0
46087,-66.6666666666667,4,2,1,75,0,0
46242,-66.6666666666667,4,2,1,20,0,0
46501,-66.6666666666667,4,2,1,75,0,0
46657,-66.6666666666667,4,2,1,20,0,0
46708,-66.6666666666667,4,2,1,75,0,0
47071,-66.6666666666667,4,2,1,20,0,0
47123,-66.6666666666667,4,2,1,75,0,0
47278,-66.6666666666667,4,2,1,20,0,0
47330,-66.6666666666667,4,2,1,75,0,0
47486,-66.6666666666667,4,2,1,20,0,0
47537,-66.6666666666667,4,2,1,75,0,0
47693,-66.6666666666667,4,2,1,25,0,0
47848,-66.6666666666667,4,2,1,60,0,0
48159,-66.6666666666667,4,2,1,75,0,0
48936,-66.6666666666667,4,2,1,25,0,0
49092,-66.6666666666667,4,2,1,75,0,0
49247,-66.6666666666667,4,2,1,25,0,0
49403,-66.6666666666667,4,2,1,75,0,0
49558,-66.6666666666667,4,2,1,25,0,0
49714,-66.6666666666667,4,2,1,75,0,0
49869,-66.6666666666667,4,2,1,25,0,0
50024,-76.9230769230769,4,2,1,75,0,0
50258,-76.9230769230769,4,2,1,20,0,0
50335,-133.333333333333,4,2,1,55,0,0
50568,-133.333333333333,4,2,1,20,0,0
50646,-66.6666666666667,4,2,1,75,0,0
50802,-66.6666666666667,4,2,1,20,0,0
50853,-66.6666666666667,4,2,1,75,0,0
51009,-66.6666666666667,4,2,1,20,0,0
51061,-66.6666666666667,4,2,1,75,0,0
51216,-66.6666666666667,4,2,1,20,0,0
51475,-66.6666666666667,4,2,1,75,0,0
51631,-66.6666666666667,4,2,1,20,0,0
51682,-66.6666666666667,4,2,1,75,0,0
52045,-66.6666666666667,4,2,1,20,0,0
52097,-66.6666666666667,4,2,1,75,0,0
52252,-66.6666666666667,4,2,1,20,0,0
52304,-66.6666666666667,4,2,1,75,0,0
52460,-66.6666666666667,4,2,1,20,0,0
52511,-76.9230769230769,4,2,1,75,0,0
52978,-76.9230769230769,4,2,1,45,0,0
53133,-66.6666666666667,4,2,1,75,0,0
54118,-66.6666666666667,4,2,1,20,0,0
54170,-66.6666666666667,4,2,1,75,0,0
54221,-66.6666666666667,4,2,1,20,0,0
54325,-66.6666666666667,4,2,1,75,0,0
54584,-66.6666666666667,4,2,1,20,0,0
54688,-66.6666666666667,4,2,1,75,0,0
54999,-76.9230769230769,4,2,1,75,0,0
55206,-76.9230769230769,4,2,1,20,0,0
55309,-76.9230769230769,4,2,1,75,0,0
55517,-76.9230769230769,4,2,1,20,0,0
55620,-76.9230769230769,4,2,1,75,0,0
55724,-76.9230769230769,4,2,1,25,0,0
55828,-76.9230769230769,4,2,1,55,0,0
55931,-76.9230769230769,4,2,1,75,0,0
56035,-76.9230769230769,4,2,1,55,0,0
56138,-76.9230769230769,4,2,1,25,0,0
56242,-86.9565217391304,4,2,1,75,0,0
56346,-86.9565217391304,4,2,1,25,0,0
56449,-86.9565217391304,4,2,1,55,0,0
56553,-86.9565217391304,4,2,1,75,0,0
56657,-86.9565217391304,4,2,1,55,0,0
56760,-86.9565217391304,4,2,1,25,0,0
56864,-100,4,2,1,75,0,0
56967,-100,4,2,1,25,0,0
57071,-100,4,2,1,55,0,0
57175,-100,4,2,1,75,0,0
57278,-100,4,2,1,55,0,0
57382,-100,4,2,1,25,0,0
57486,-100,4,2,1,75,0,0
58729,-100,4,2,1,45,0,0
59506,-100,4,2,1,45,0,0
59662,-100,4,2,1,55,0,0
59973,-66.6666666666667,4,2,1,75,0,1
60050,-66.6666666666667,4,2,1,20,0,1
60128,-66.6666666666667,4,2,1,75,0,1
60206,-66.6666666666667,4,2,1,20,0,1
60283,-66.6666666666667,4,2,1,75,0,1
62382,-66.6666666666667,4,2,1,25,0,1
62460,-66.6666666666667,4,2,1,75,0,1
62615,-66.6666666666667,4,2,1,25,0,1
62693,-66.6666666666667,4,2,1,75,0,1
62848,-66.6666666666667,4,2,1,25,0,1
62926,-66.6666666666667,4,2,1,75,0,1
63004,-66.6666666666667,4,2,1,25,0,1
63081,-66.6666666666667,4,2,1,75,0,1
63237,-66.6666666666667,4,2,1,25,0,1
63315,-66.6666666666667,4,2,1,75,0,1
63470,-66.6666666666667,4,2,1,25,0,1
63548,-66.6666666666667,4,2,1,75,0,1
63625,-66.6666666666667,4,2,1,25,0,1
63703,-66.6666666666667,4,2,1,75,0,1
63859,-66.6666666666667,4,2,1,25,0,1
63936,-66.6666666666667,4,2,1,75,0,1
64092,-66.6666666666667,4,2,1,25,0,1
64170,-66.6666666666667,4,2,1,75,0,1
64247,-66.6666666666667,4,2,1,25,0,1
64325,-66.6666666666667,4,2,1,75,0,1
64947,-66.6666666666667,4,2,1,75,0,1
65024,-66.6666666666667,4,2,1,25,0,1
65102,-66.6666666666667,4,2,1,75,0,1
65180,-66.6666666666667,4,2,1,25,0,1
65258,-66.6666666666667,4,2,1,75,0,1
66890,-66.6666666666667,4,2,1,25,0,1
66967,-66.6666666666667,4,2,1,75,0,1
67045,-66.6666666666667,4,2,1,25,0,1
67123,-66.6666666666667,4,2,1,75,0,1
67201,-66.6666666666667,4,2,1,25,0,1
67278,-66.6666666666667,4,2,1,75,0,1
67356,-66.6666666666667,4,2,1,25,0,1
67434,-66.6666666666667,4,2,1,75,0,1
67589,-66.6666666666667,4,2,1,25,0,1
67667,-66.6666666666667,4,2,1,75,0,1
67822,-66.6666666666667,4,2,1,25,0,1
67900,-66.6666666666667,4,2,1,75,0,1
67978,-66.6666666666667,4,2,1,25,0,1
68056,-66.6666666666667,4,2,1,75,0,1
68211,-66.6666666666667,4,2,1,25,0,1
68289,-66.6666666666667,4,2,1,75,0,1
68444,-66.6666666666667,4,2,1,25,0,1
68522,-66.6666666666667,4,2,1,75,0,1
68600,-66.6666666666667,4,2,1,25,0,1
68677,-66.6666666666667,4,2,1,75,0,1
69144,-66.6666666666667,4,2,1,55,0,1
69221,-66.6666666666667,4,2,1,75,0,1
69377,-66.6666666666667,4,2,1,25,0,1
69454,-66.6666666666667,4,2,1,75,0,1
69532,-66.6666666666667,4,2,1,25,0,1
69610,-66.6666666666667,4,2,1,75,0,1
69688,-66.6666666666667,4,2,1,25,0,1
69765,-66.6666666666667,4,2,1,75,0,1
69843,-66.6666666666667,4,2,1,25,0,1
69921,-66.6666666666667,4,2,1,75,0,1
69999,-66.6666666666667,4,2,1,25,0,1
70076,-66.6666666666667,4,2,1,75,0,1
70154,-66.6666666666667,4,2,1,25,0,1
70232,-66.6666666666667,4,2,1,75,0,1
71864,-66.6666666666667,4,2,1,25,0,1
71942,-66.6666666666667,4,2,1,75,0,1
72019,-66.6666666666667,4,2,1,25,0,1
72097,-66.6666666666667,4,2,1,75,0,1
72175,-66.6666666666667,4,2,1,25,0,1
72252,-66.6666666666667,4,2,1,75,0,1
72330,-66.6666666666667,4,2,1,25,0,1
72408,-66.6666666666667,4,2,1,75,0,1
75050,-66.6666666666667,4,2,1,25,0,1
75128,-66.6666666666667,4,2,1,75,0,1
75284,-66.6666666666667,4,2,1,25,0,1
75361,-66.6666666666667,4,2,1,75,0,1
75439,-66.6666666666667,4,2,1,25,0,1
75517,-66.6666666666667,4,2,1,75,0,1
75594,-66.6666666666667,4,2,1,25,0,1
75672,-66.6666666666667,4,2,1,75,0,1
76294,-66.6666666666667,4,2,1,25,0,1
76372,-66.6666666666667,4,2,1,75,0,1
76527,-66.6666666666667,4,2,1,25,0,1
76605,-66.6666666666667,4,2,1,75,0,1
76682,-66.6666666666667,4,2,1,25,0,1
76760,-66.6666666666667,4,2,1,75,0,1
76838,-66.6666666666667,4,2,1,25,0,1
76916,-66.6666666666667,4,2,1,75,0,1
77537,-66.6666666666667,4,2,1,55,0,1
77693,-66.6666666666667,4,2,1,75,0,1
78159,-66.6666666666667,4,2,1,55,0,1
78315,-66.6666666666667,4,2,1,75,0,1
79869,-66.6666666666667,4,2,1,75,0,0
81967,-66.6666666666667,4,2,1,10,0,0
82045,-133.333333333333,4,2,1,55,0,0
82278,-133.333333333333,4,2,1,25,0,0
82356,-66.6666666666667,4,2,1,75,0,1
82511,-66.6666666666667,4,2,1,25,0,1
82589,-66.6666666666667,4,2,1,75,0,1
82745,-66.6666666666667,4,2,1,25,0,1
82822,-66.6666666666667,4,2,1,75,0,1
82900,-66.6666666666667,4,2,1,25,0,1
82978,-66.6666666666667,4,2,1,75,0,1
83133,-66.6666666666667,4,2,1,25,0,1
83211,-66.6666666666667,4,2,1,75,0,1
83366,-66.6666666666667,4,2,1,25,0,1
83444,-66.6666666666667,4,2,1,75,0,1
83522,-66.6666666666667,4,2,1,25,0,1
83600,-66.6666666666667,4,2,1,75,0,1
83755,-66.6666666666667,4,2,1,25,0,1
83833,-66.6666666666667,4,2,1,75,0,1
83988,-66.6666666666667,4,2,1,25,0,1
84066,-66.6666666666667,4,2,1,75,0,1
84144,-66.6666666666667,4,2,1,25,0,1
84221,-66.6666666666667,4,2,1,75,0,1
84843,-66.6666666666667,4,2,1,75,0,1
84921,-66.6666666666667,4,2,1,25,0,1
84999,-66.6666666666667,4,2,1,75,0,1
85076,-66.6666666666667,4,2,1,25,0,1
85154,-66.6666666666667,4,2,1,75,0,1
86786,-66.6666666666667,4,2,1,25,0,1
86864,-66.6666666666667,4,2,1,75,0,1
86942,-66.6666666666667,4,2,1,25,0,1
87019,-66.6666666666667,4,2,1,75,0,1
87097,-66.6666666666667,4,2,1,25,0,1
87175,-66.6666666666667,4,2,1,75,0,1
87252,-66.6666666666667,4,2,1,25,0,1
87330,-66.6666666666667,4,2,1,75,0,1
87486,-66.6666666666667,4,2,1,25,0,1
87563,-66.6666666666667,4,2,1,75,0,1
87719,-66.6666666666667,4,2,1,25,0,1
87796,-66.6666666666667,4,2,1,75,0,1
87874,-66.6666666666667,4,2,1,25,0,1
87952,-66.6666666666667,4,2,1,75,0,1
88107,-66.6666666666667,4,2,1,25,0,1
88185,-66.6666666666667,4,2,1,75,0,1
88340,-66.6666666666667,4,2,1,25,0,1
88418,-66.6666666666667,4,2,1,75,0,1
88496,-66.6666666666667,4,2,1,25,0,1
88574,-66.6666666666667,4,2,1,75,0,1
89895,-66.6666666666667,4,2,1,25,0,1
89973,-66.6666666666667,4,2,1,75,0,1
90050,-66.6666666666667,4,2,1,25,0,1
90128,-66.6666666666667,4,2,1,75,0,1
90517,-66.6666666666667,4,2,1,25,0,1
90594,-66.6666666666667,4,2,1,75,0,1
90672,-66.6666666666667,4,2,1,25,0,1
90750,-66.6666666666667,4,2,1,75,0,1
90828,-66.6666666666667,4,2,1,25,0,1
90905,-66.6666666666667,4,2,1,75,0,1
90983,-66.6666666666667,4,2,1,25,0,1
91061,-66.6666666666667,4,2,1,75,0,1
91138,-66.6666666666667,4,2,1,25,0,1
91216,-66.6666666666667,4,2,1,75,0,1
91294,-66.6666666666667,4,2,1,25,0,1
91372,-66.6666666666667,4,2,1,75,0,1
91760,-66.6666666666667,4,2,1,25,0,1
91838,-66.6666666666667,4,2,1,75,0,1
91916,-66.6666666666667,4,2,1,25,0,1
91993,-66.6666666666667,4,2,1,75,0,1
92071,-66.6666666666667,4,2,1,25,0,1
92149,-66.6666666666667,4,2,1,75,0,1
92304,-66.6666666666667,4,2,1,75,0,1
92382,-66.6666666666667,4,2,1,75,0,1
92460,-66.6666666666667,4,2,1,75,0,1
92537,-66.6666666666667,4,2,1,75,0,1
92615,-66.6666666666667,4,2,1,75,0,1
93004,-66.6666666666667,4,2,1,25,0,1
93081,-66.6666666666667,4,2,1,75,0,1
93159,-66.6666666666667,4,2,1,25,0,1
93237,-66.6666666666667,4,2,1,75,0,1
93315,-66.6666666666667,4,2,1,25,0,1
93392,-66.6666666666667,4,2,1,75,0,1
93470,-66.6666666666667,4,2,1,25,0,1
93548,-66.6666666666667,4,2,1,75,0,1
93625,-66.6666666666667,4,2,1,25,0,1
93703,-66.6666666666667,4,2,1,75,0,1
93781,-66.6666666666667,4,2,1,25,0,1
93859,-66.6666666666667,4,2,1,75,0,1
93936,-66.6666666666667,4,2,1,25,0,1
94014,-66.6666666666667,4,2,1,75,0,1
94092,-66.6666666666667,4,2,1,25,0,1
94170,-66.6666666666667,4,2,1,75,0,1
94869,-66.6666666666667,4,2,1,35,0,1
94947,-66.6666666666667,4,2,1,75,0,1
95335,-66.6666666666667,4,2,1,25,0,1
95413,-66.6666666666667,4,2,1,75,0,1
95491,-66.6666666666667,4,2,1,25,0,1
95568,-66.6666666666667,4,2,1,75,0,1
95957,-66.6666666666667,4,2,1,25,0,1
96035,-66.6666666666667,4,2,1,75,0,1
96113,-66.6666666666667,4,2,1,25,0,1
96190,-66.6666666666667,4,2,1,75,0,1
96579,-66.6666666666667,4,2,1,25,0,1
96657,-66.6666666666667,4,2,1,75,0,1
96734,-66.6666666666667,4,2,1,55,0,1
96812,-66.6666666666667,4,2,1,75,0,1
96890,-66.6666666666667,4,2,1,55,0,1
96967,-66.6666666666667,4,2,1,75,0,1
97434,-66.6666666666667,4,2,1,55,0,1
97978,-66.6666666666667,4,2,1,45,0,1
98522,-66.6666666666667,4,2,1,75,0,1
98755,-66.6666666666667,4,2,1,25,0,1
98833,-66.6666666666667,4,2,1,75,0,1
99066,-66.6666666666667,4,2,1,25,0,1
99144,-66.6666666666667,4,2,1,55,0,1
99221,-66.6666666666667,4,2,1,45,0,1
99765,-66.6666666666667,4,2,1,75,0,0
99999,-66.6666666666667,4,2,1,25,0,0
100076,-66.6666666666667,4,2,1,75,0,0
100232,-66.6666666666667,4,2,1,25,0,0
100309,-66.6666666666667,4,2,1,75,0,0
100465,-66.6666666666667,4,2,1,25,0,0
100543,-66.6666666666667,4,2,1,75,0,0
100620,-66.6666666666667,4,2,1,25,0,0
100698,-66.6666666666667,4,2,1,75,0,0
100776,-66.6666666666667,4,2,1,25,0,0
100853,-66.6666666666667,4,2,1,75,0,0
100931,-66.6666666666667,4,2,1,25,0,0
101009,-66.6666666666667,4,2,1,75,0,0
101242,-66.6666666666667,4,2,1,25,0,0
101320,-66.6666666666667,4,2,1,75,0,0
101475,-66.6666666666667,4,2,1,25,0,0
101553,-66.6666666666667,4,2,1,75,0,0
101708,-66.6666666666667,4,2,1,25,0,0
101786,-66.6666666666667,4,2,1,75,0,0
101864,-66.6666666666667,4,2,1,25,0,0
101942,-66.6666666666667,4,2,1,75,0,0
102019,-66.6666666666667,4,2,1,25,0,0
102097,-66.6666666666667,4,2,1,75,0,0
102175,-66.6666666666667,4,2,1,25,0,0
102252,-66.6666666666667,4,2,1,75,0,0
102486,-66.6666666666667,4,2,1,25,0,0
102563,-66.6666666666667,4,2,1,75,0,0
102719,-66.6666666666667,4,2,1,25,0,0
102796,-66.6666666666667,4,2,1,75,0,0
102952,-66.6666666666667,4,2,1,25,0,0
103030,-66.6666666666667,4,2,1,75,0,0
103107,-66.6666666666667,4,2,1,25,0,0
103185,-66.6666666666667,4,2,1,75,0,0
103263,-66.6666666666667,4,2,1,25,0,0
103340,-66.6666666666667,4,2,1,75,0,0
103418,-66.6666666666667,4,2,1,25,0,0
103496,-66.6666666666667,4,2,1,75,0,0
103729,-66.6666666666667,4,2,1,25,0,0
103807,-66.6666666666667,4,2,1,75,0,0
103962,-66.6666666666667,4,2,1,25,0,0
104040,-66.6666666666667,4,2,1,75,0,0
104351,-66.6666666666667,4,2,1,25,0,0
104429,-66.6666666666667,4,2,1,75,0,0
104662,-66.6666666666667,4,2,1,25,0,0
104739,-66.6666666666667,4,2,1,75,0,0
104973,-66.6666666666667,4,2,1,25,0,0
105050,-66.6666666666667,4,2,1,75,0,0
105206,-66.6666666666667,4,2,1,25,0,0
105283,-66.6666666666667,4,2,1,75,0,0
105439,-66.6666666666667,4,2,1,25,0,0
105517,-66.6666666666667,4,2,1,75,0,0
105594,-66.6666666666667,4,2,1,25,0,0
105672,-66.6666666666667,4,2,1,75,0,0
105750,-66.6666666666667,4,2,1,25,0,0
105828,-66.6666666666667,4,2,1,75,0,0
105905,-66.6666666666667,4,2,1,25,0,0
105983,-66.6666666666667,4,2,1,75,0,0
106216,-66.6666666666667,4,2,1,25,0,0
106294,-66.6666666666667,4,2,1,75,0,0
106449,-66.6666666666667,4,2,1,25,0,0
106527,-66.6666666666667,4,2,1,75,0,0
106682,-66.6666666666667,4,2,1,25,0,0
106760,-66.6666666666667,4,2,1,75,0,0
106838,-66.6666666666667,4,2,1,25,0,0
106916,-66.6666666666667,4,2,1,75,0,0
106993,-66.6666666666667,4,2,1,25,0,0
107071,-66.6666666666667,4,2,1,75,0,0
107149,-66.6666666666667,4,2,1,25,0,0
107227,-66.6666666666667,4,2,1,75,0,0
107460,-66.6666666666667,4,2,1,25,0,0
107537,-66.6666666666667,4,2,1,75,0,0
107693,-66.6666666666667,4,2,1,25,0,0
107771,-66.6666666666667,4,2,1,75,0,0
107926,-66.6666666666667,4,2,1,25,0,0
108004,-66.6666666666667,4,2,1,75,0,0
108081,-66.6666666666667,4,2,1,25,0,0
108159,-66.6666666666667,4,2,1,75,0,0
108625,-66.6666666666667,4,2,1,25,0,0
108781,-66.6666666666667,4,2,1,75,0,0
108936,-66.6666666666667,4,2,1,25,0,0
109092,-66.6666666666667,4,2,1,65,0,0
109247,-66.6666666666667,4,2,1,25,0,0
109403,-66.6666666666667,4,2,1,75,0,0
109558,-66.6666666666667,4,2,1,25,0,0
109714,-66.6666666666667,4,2,1,75,0,0
110180,-66.6666666666667,4,2,1,25,0,0
110258,-66.6666666666667,4,2,1,75,0,0
110413,-66.6666666666667,4,2,1,25,0,0
110491,-66.6666666666667,4,2,1,75,0,0
110568,-66.6666666666667,4,2,1,25,0,0
110646,-66.6666666666667,4,2,1,75,0,0
110724,-66.6666666666667,4,2,1,25,0,0
110802,-66.6666666666667,4,2,1,75,0,0
111190,-66.6666666666667,4,2,1,25,0,0
111268,-66.6666666666667,4,2,1,75,0,0
111423,-66.6666666666667,4,2,1,25,0,0
111501,-66.6666666666667,4,2,1,75,0,0
111657,-66.6666666666667,4,2,1,25,0,0
111734,-66.6666666666667,4,2,1,75,0,0
111812,-66.6666666666667,4,2,1,25,0,0
111890,-66.6666666666667,4,2,1,75,0,0
111967,-66.6666666666667,4,2,1,25,0,0
112045,-66.6666666666667,4,2,1,75,0,0
112123,-66.6666666666667,4,2,1,25,0,0
112201,-66.6666666666667,4,2,1,75,0,0
112434,-66.6666666666667,4,2,1,25,0,0
112511,-66.6666666666667,4,2,1,75,0,0
112667,-66.6666666666667,4,2,1,25,0,0
112745,-66.6666666666667,4,2,1,75,0,0
112900,-66.6666666666667,4,2,1,25,0,0
112978,-66.6666666666667,4,2,1,75,0,0
113056,-66.6666666666667,4,2,1,25,0,0
113133,-66.6666666666667,4,2,1,75,0,0
113211,-66.6666666666667,4,2,1,25,0,0
113289,-66.6666666666667,4,2,1,75,0,0
113366,-66.6666666666667,4,2,1,25,0,0
113444,-66.6666666666667,4,2,1,75,0,0
113677,-66.6666666666667,4,2,1,25,0,0
113755,-66.6666666666667,4,2,1,75,0,0
113910,-66.6666666666667,4,2,1,25,0,0
113988,-66.6666666666667,4,2,1,75,0,0
114299,-66.6666666666667,4,2,1,25,0,0
114377,-66.6666666666667,4,2,1,75,0,0
114610,-66.6666666666667,4,2,1,25,0,0
114688,-66.6666666666667,4,2,1,65,0,0
115232,-66.6666666666667,4,2,1,25,0,0
115309,-66.6666666666667,4,2,1,65,0,0
115853,-66.6666666666667,4,2,1,25,0,0
115931,-66.6666666666667,4,2,1,65,0,0
116475,-66.6666666666667,4,2,1,25,0,0
116553,-66.6666666666667,4,2,1,65,0,0
117097,-66.6666666666667,4,2,1,25,0,0
117175,-66.6666666666667,4,2,1,75,0,0
119662,-66.6666666666667,4,2,1,30,0,0

[Colours]
Combo1 : 234,181,182
Combo2 : 249,67,6
Combo3 : 242,180,13
Combo4 : 12,99,243
Combo5 : 136,214,247
Combo6 : 191,223,219

[HitObjects]
189,346,284,6,0,P|146:348|121:373,1,75.0000028610231,2|0,2:2|2:2,2:2:0:0:
42,340,594,2,0,P|39:297|14:272,1,75.0000028610231,2|0,2:2|2:2,2:2:0:0:
47,193,905,2,0,P|89:190|114:165,1,75.0000028610231,2|0,2:2|2:2,2:2:0:0:
194,199,1216,2,0,P|196:241|221:266,1,75.0000028610231,2|0,2:2|2:2,2:2:0:0:
328,330,1527,2,0,B|385:335|385:335|410:357|410:357|472:363|472:363,3,150.000005722046,2|2|2|2,0:2|2:2|2:2|2:2,2:2:0:0:
512,153,2771,6,0,L|502:71,1,75.0000028610231,2|0,2:2|0:0,2:2:0:0:
445,16,3081,2,0,L|363:26,1,75.0000028610231,2|0,2:2|0:0,0:0:0:0:
286,42,3392,2,0,L|276:124,1,75.0000028610231,2|0,2:2|0:0,0:0:0:0:
219,179,3703,2,0,L|137:169,1,75.0000028610231,2|0,2:2|0:0,0:0:0:0:
45,159,4014,2,0,B|1:193|1:193|15:307,3,150.000005722046,2|2|2|2,2:2|2:2|2:2|2:2,2:2:0:0:
93,379,5258,6,0,P|139:356|177:356,1,75.0000028610231,2|0,2:2|2:2,2:2:0:0:
242,300,5568,2,0,P|210:272|170:261,1,75.0000028610231,2|0,2:2|2:2,2:2:0:0:
307,234,5879,2,0,P|329:280|329:318,1,75.0000028610231,2|0,2:2|2:2,2:2:0:0:
383,382,6190,2,0,P|410:350|421:310,1,75.0000028610231,2|0,2:2|2:2,2:2:0:0:
504,218,6501,2,0,B|497:153|497:153|477:133|477:133|472:76,3,150.000005722046,2|2|2|2,2:2|2:2|2:2|2:2,2:2:0:0:
256,192,7745,12,0,10154,2:2:0:0:
134,233,10232,6,0,B|163:196|156:116|156:116|163:196|196:227,1,239.999992675781,6|0,1:3|2:2,2:2:0:0:
121,345,10698,2,0,B|74:337|8:383|8:383|74:338|84:293,1,239.999992675781,6|0,1:3|2:2,2:2:0:0:
229,299,11164,2,0,P|251:355|321:378,1,119.999996337891,6|0,1:3|0:0,2:2:0:0:
398,352,11475,6,0,L|472:362,1,75.0000028610231,2|4,2:2|2:2,2:2:0:0:
415,277,11786,2,0,L|489:287,1,75.0000028610231,2|4,2:2|2:2,2:2:0:0:
353,215,12097,2,0,L|278:225,1,75.0000028610231,2|4,2:2|2:2,2:2:0:0:
335,140,12408,2,0,L|260:150,1,75.0000028610231,2|4,2:2|2:2,2:2:0:0:
197,86,12719,6,0,B|276:-6|276:-6|383:64,1,239.999992675781,6|0,1:3|2:2,2:2:0:0:
477,0,13185,2,0,B|517:114|517:114|403:172,1,239.999992675781,6|0,1:3|2:2,2:2:0:0:
350,265,13651,2,0,L|336:388,1,119.999996337891,6|0,1:3|0:0,2:2:0:0:
218,320,13962,6,0,P|173:336|156:367,1,75.0000028610231,2|6,2:2|2:2,2:2:0:0:
77,350,14195,1,2,2:2:0:0:
69,337,14273,2,0,P|77:290|59:259,1,75.0000028610231,2|6,2:2|2:2,2:2:0:0:
113,200,14506,1,0,0:0:0:0:
128,200,14584,2,0,P|164:230|199:230,1,75.0000028610231,2|0,2:2|0:0,2:2:0:0:
245,162,14895,1,10,2:3:0:0:
240,134,14972,1,10,2:3:0:0:
236,106,15050,1,10,2:3:0:0:
232,78,15128,1,10,2:3:0:0:
228,50,15206,6,0,B|203:11|148:26|148:26|120:60|66:51,1,179.999994506836,14|0,1:3|0:0,2:2:0:0:
38,41,15517,2,0,L|19:161,1,119.999996337891,10|0,1:2|2:2,2:2:0:0:
14,354,15828,5,10,1:2:0:0:
118,194,15983,1,0,2:2:0:0:
129,382,16138,1,10,1:2:0:0:
11,239,16294,1,2,1:2:0:0:
192,284,16449,6,0,B|241:287|259:336|259:336|295:300|345:316,1,179.999994506836,14|0,1:3|0:0,2:2:0:0:
365,329,16760,2,0,L|352:192,1,119.999996337891,10|0,1:2|2:2,2:2:0:0:
488,19,17071,5,10,1:2:0:0:
512,178,17227,1,2,1:2:0:0:
409,16,17382,1,10,1:2:0:0:
433,198,17537,1,2,1:2:0:0:
269,131,17693,5,14,1:3:0:0:
239,127,17770,1,10,1:3:0:0:
211,136,17848,1,10,1:2:0:0:
188,155,17926,1,10,1:2:0:0:
176,182,18003,1,10,1:2:0:0:
153,221,18081,1,10,1:2:0:0:
116,245,18159,1,10,1:2:0:0:
71,250,18237,1,10,1:2:0:0:
30,235,18314,5,6,1:3:0:0:
0,54,18522,5,6,1:3:0:0:
260,219,18729,5,6,1:3:0:0:
0,384,18936,6,0,L|16:307,1,75.0000028610231,2|4,2:2|2:2,2:2:0:0:
120,242,19247,2,0,L|105:316,1,75.0000028610231,2|4,2:2|2:2,2:2:0:0:
183,384,19558,2,0,L|195:322,3,37.5000014305115,2|2|2|2,2:2|2:2|2:2|2:2,0:0:0:0:
200,322,19869,6,0,B|298:309|277:393|404:380,1,200,10|0,2:2|1:2,2:2:0:0:
512,72,25154,6,0,P|488:164|470:309,1,200,2|2,2:2|2:2,2:2:0:0:
384,324,25620,1,2,1:2:0:0:
368,323,25776,2,0,P|349:229|301:91,1,200,10|2,2:2|2:2,2:2:0:0:
274,24,26242,1,2,1:2:0:0:
263,13,26397,6,0,B|214:-3|214:-3|165:18,3,100,2|2|2|2,2:2|1:2|1:2|2:2,0:0:0:0:
206,123,27019,2,0,B|157:139|157:139|108:118,3,100,10|2|2|2,2:2|2:2|2:2|2:2,0:0:0:0:
13,148,27641,5,2,1:2:0:0:
5,177,27796,1,2,2:2:0:0:
8,227,27952,1,2,2:2:0:0:
34,288,28107,1,2,1:2:0:0:
108,302,28263,5,2,1:2:0:0:
186,279,28418,1,2,2:2:0:0:
281,275,28574,1,2,2:2:0:0:
382,303,28729,1,2,1:2:0:0:
489,360,28885,6,0,L|477:292,3,50,2|2|2|2,2:2|2:2|1:2|2:2,0:0:0:0:
465,228,29195,2,0,L|453:160,3,59.9999981689454,2|2|2|2,1:2|2:2|2:2|2:2,2:2:0:0:
496,96,29506,5,10,2:2:0:0:
481,53,29583,1,2,2:2:0:0:
449,23,29661,1,2,1:2:0:0:
406,10,29739,1,2,2:2:0:0:
362,18,29817,2,2,P|328:31|295:31,1,59.9999981689454,2|2,2:2|2:2,2:2:0:0:
236,82,29973,2,0,P|202:69|169:69,1,59.9999981689454,2|2,2:2|2:2,2:2:0:0:
103,18,30128,6,0,B|68:47|68:47|99:181,1,179.999994506836,14|0,2:3|2:2,2:2:0:0:
105,194,30439,2,0,B|140:223|140:223|109:357,1,179.999994506836,10|0,2:3|2:2,2:2:0:0:
99,368,30750,2,0,P|2:334|24:257,1,179.999994506836,10|0,2:3|2:2,2:2:0:0:
25,274,31061,2,0,L|203:312,1,179.999994506836,10|0,2:3|2:2,2:2:0:0:
296,320,31372,6,0,B|369:384|369:384|451:314,1,179.999994506836,10|0,2:3|2:2,2:2:0:0:
447,336,31682,2,0,B|530:286|530:286|489:186,1,179.999994506836,10|0,2:3|2:2,2:2:0:0:
512,202,31993,2,0,B|490:107|490:107|383:115,1,179.999994506836,10|0,2:3|2:2,2:2:0:0:
405,98,32304,2,0,B|274:78|274:78,1,119.999996337891,10|0,2:3|2:2,2:2:0:0:
214,171,32537,1,2,2:2:0:0:
202,173,32615,6,0,P|135:144|136:27,1,179.999994506836,14|0,2:3|2:2,2:2:0:0:
103,37,32926,2,0,P|36:66|37:183,1,179.999994506836,10|0,2:3|2:2,2:2:0:0:
33,180,33237,2,0,L|3:371,1,179.999994506836,10|0,2:3|2:2,2:2:0:0:
18,372,33548,2,0,L|209:342,1,179.999994506836,10|0,2:3|2:2,2:2:0:0:
301,319,33859,6,0,B|281:273|239:252|239:252|283:269|332:252,1,179.999994506836,10|0,2:3|2:2,2:2:0:0:
345,248,34170,2,0,B|394:253|433:227|433:227|396:257|386:308,1,179.999994506836,10|0,2:3|2:2,2:2:0:0:
360,383,34480,5,10,2:3:0:0:
283,169,34636,1,10,2:3:0:0:
360,383,34791,1,10,2:3:0:0:
373,155,34947,1,10,2:3:0:0:
373,138,35024,1,10,2:3:0:0:
374,120,35102,6,0,B|376:55|376:55|435:33,1,119.999996337891,14|10,2:3|2:2,2:2:0:0:
447,38,35335,2,0,L|516:55,1,59.9999981689454,8|0,2:2|2:2,2:2:0:0:
294,72,35491,1,10,2:2:0:0:
277,69,35568,2,0,L|208:52,1,59.9999981689454,10|0,2:2|2:2,2:2:0:0:
81,31,35724,6,0,P|27:70|23:126,1,119.999996337891,14|10,2:3|2:2,2:2:0:0:
25,139,35957,2,0,L|42:208,1,59.9999981689454,10|0,2:2|2:2,2:2:0:0:
87,364,36113,1,10,2:2:0:0:
83,349,36190,2,0,L|66:280,1,59.9999981689454,10|0,2:2|2:2,2:2:0:0:
196,320,36346,6,0,B|246:332|246:332|266:356|266:356|323:366,1,119.999996337891,14|10,2:3|2:2,2:2:0:0:
321,368,36579,2,0,L|390:385,1,59.9999981689454,10|0,2:2|2:2,2:2:0:0:
512,281,36734,1,10,2:2:0:0:
495,278,36812,2,0,L|426:261,1,59.9999981689454,10|0,2:2|2:2,2:2:0:0:
352,176,36967,6,0,P|362:116|424:90,1,119.999996337891,14|10,2:3|2:2,2:2:0:0:
430,88,37201,2,0,L|447:19,1,59.9999981689454,10|0,2:2|2:2,2:2:0:0:
282,0,37356,1,10,2:2:0:0:
277,18,37434,2,0,L|260:87,1,59.9999981689454,10|0,2:2|2:2,2:2:0:0:
225,176,37589,5,14,2:3:0:0:
32,199,37745,1,10,2:3:0:0:
254,250,37900,1,10,2:3:0:0:
16,277,38056,1,10,2:3:0:0:
118,95,38211,5,10,2:2:0:0:
121,124,38288,1,10,2:2:0:0:
124,154,38366,1,10,2:2:0:0:
127,184,38444,1,10,2:2:0:0:
130,214,38521,1,10,2:2:0:0:
133,244,38599,1,10,2:2:0:0:
136,274,38677,1,10,2:2:0:0:
139,303,38755,1,10,2:2:0:0:
142,333,38833,6,0,B|201:330|201:330|244:362|244:362|296:335|296:335|351:349|351:349,1,225.000008583069,0|0,1:2|2:2,2:2:0:0:
416,377,39144,1,10,2:2:0:0:
468,365,39221,1,10,2:2:0:0:
495,318,39299,1,10,2:2:0:0:
478,266,39377,1,10,2:2:0:0:
429,243,39454,6,0,P|380:206|379:165,1,75.0000028610231,2|0,2:2|2:2,2:2:0:0:
292,201,39610,2,0,P|312:142|350:129,1,75.0000028610231,2|0,2:2|2:2,2:2:0:0:
425,9,39766,2,0,P|442:67|419:101,1,75.0000028610231,10|0,1:3|2:2,2:2:0:0:
512,123,39921,2,0,P|461:158|422:146,1,75.0000028610231,2|0,2:2|2:2,2:2:0:0:
290,54,40076,6,0,B|258:6|203:9|203:9|191:67|122:80,1,194.999991073609,4|0,1:3|2:2,2:2:0:0:
66,63,40387,6,0,L|47:179,1,112.500004291535,8|0,2:2|2:2,2:2:0:0:
122,307,40698,6,0,B|134:340|125:382|125:382|134:340|157:313,1,150.000005722046,10|0,2:3|2:2,2:2:0:0:
203,253,40905,2,0,B|225:225|266:211|266:211|225:225|191:218,1,150.000005722046,2|0,1:2|2:2,2:2:0:0:
116,209,41113,2,0,B|80:202|48:174|48:174|80:202|91:236,1,150.000005722046,2|0,1:2|2:2,2:2:0:0:
259,351,41527,6,0,P|312:323|416:328,1,150.000005722046,2|0,1:2|2:2,2:2:0:0:
341,300,41734,2,0,P|400:302|488:358,1,150.000005722046,2|0,1:2|1:2,2:2:0:0:
512,238,41942,6,0,L|491:83,1,150.000005722046,10|0,2:3|2:2,2:2:0:0:
410,63,42149,2,0,L|431:218,1,150.000005722046,2|0,1:2|2:2,2:2:0:0:
347,189,42356,2,0,L|326:34,1,150.000005722046,2|0,1:2|2:2,2:2:0:0:
225,68,42563,6,0,B|188:39|32:46|32:46|188:35|221:7,1,389.999982147218,2|0,1:2|0:0,2:2:0:0:
114,121,43185,6,0,B|107:193|107:193|140:233|140:233|127:341,2,200.000007629395,10|2|2,0:3|1:2|1:2,0:2:0:0:
1,336,44014,6,0,B|46:292|46:292|158:313,1,150.000005722046,2|0,1:2|2:2,2:2:0:0:
184,370,44221,2,0,L|285:385,1,100.000003814697,2|0,1:2|0:0,2:2:0:0:
354,348,44377,1,2,1:2:0:0:
368,352,44429,6,0,P|471:330|497:245,1,200.000007629395,6|0,1:3|2:2,2:2:0:0:
439,197,44739,2,0,P|335:175|309:90,1,200.000007629395,6|10,1:3|2:2,2:2:0:0:
405,18,44999,1,10,2:2:0:0:
418,20,45050,6,0,B|437:59|492:75|492:75|436:72|402:111,1,194.999991073609,4|0,1:3|2:2,2:2:0:0:
308,94,45361,6,0,B|262:58|262:58|196:71,1,112.500004291535,8|0,2:2|2:2,2:2:0:0:
49,139,45672,6,0,B|13:131|-27:144|-27:144|13:131|36:104,1,150.000005722046,10|0,2:3|2:2,2:2:0:0:
92,51,45879,2,0,B|115:25|124:-16|124:-16|115:25|126:59,1,150.000005722046,2|0,1:2|2:2,2:2:0:0:
146,132,46087,2,0,B|155:166|187:195|187:195|155:166|121:159,1,150.000005722046,2|0,1:2|2:2,2:2:0:0:
486,364,46501,6,0,P|454:296|457:222,1,150.000005722046,2|0,1:2|2:2,2:2:0:0:
435,282,46708,2,0,P|441:207|481:145,1,150.000005722046,0|0,1:2|1:2,2:2:0:0:
393,15,46916,6,0,L|372:170,1,150.000005722046,10|0,2:3|2:2,2:2:0:0:
291,190,47123,2,0,L|312:35,1,150.000005722046,2|0,1:2|2:2,2:2:0:0:
228,64,47330,2,0,L|207:219,1,150.000005722046,2|0,1:2|2:2,2:2:0:0:
192,312,47537,6,0,B|245:359|245:359|314:322,1,150.000005722046,0|0,1:2|2:2,2:2:0:0:
132,179,47848,1,0,2:2:0:0:
95,172,47925,1,8,2:2:0:0:
59,182,48003,1,8,2:2:0:0:
30,205,48081,1,8,2:2:0:0:
14,239,48159,2,0,B|40:383|40:383|54:333,2,200.000007629395,10|2|2,2:3|1:2|1:2,2:2:0:0:
117,39,48781,6,0,B|144:72|144:72|131:183,1,150.000005722046,6|0,1:2|2:2,2:2:0:0:
277,58,49092,2,0,B|243:84|243:84|230:195,1,150.000005722046,2|0,2:2|2:2,2:2:0:0:
352,384,49403,2,0,B|379:350|379:350|366:239,1,150.000005722046,6|0,1:2|2:2,2:2:0:0:
512,365,49714,2,0,B|478:338|478:338|465:227,1,150.000005722046,2|0,2:2|2:2,2:2:0:0:
445,118,50024,6,0,B|385:114|361:164|361:164|308:174|271:131,1,194.999991073609,6|0,1:3|2:2,2:2:0:0:
210,92,50335,6,0,L|198:210,1,112.500004291535,10|0,2:2|2:2,2:2:0:0:
92,308,50646,6,0,B|69:335|63:377|63:377|69:335|57:303,1,150.000005722046,10|0,2:3|2:2,2:2:0:0:
24,232,50853,2,0,B|13:201|-19:174|-19:174|13:201|49:206,1,150.000005722046,2|0,1:2|2:2,2:2:0:0:
126,214,51060,2,0,B|157:219|198:203|198:203|157:219|137:247,1,150.000005722046,2|0,1:2|2:2,2:2:0:0:
11,12,51475,6,0,P|64:40|168:35,1,150.000005722046,2|0,1:2|2:2,2:2:0:0:
93,63,51682,2,0,P|152:61|240:5,1,150.000005722046,2|0,1:2|1:2,2:2:0:0:
325,0,51890,6,0,L|346:155,1,150.000005722046,10|0,2:3|2:2,2:2:0:0:
427,175,52097,2,0,L|406:20,1,150.000005722046,2|0,1:2|2:2,2:2:0:0:
490,49,52304,2,0,L|511:204,1,150.000005722046,2|0,1:2|2:2,2:2:0:0:
448,261,52511,6,0,B|360:269|336:313|336:313|360:327|371:372|371:372|371:326|391:307|391:307|360:269|274:277,1,389.999982147218,2|0,1:2|0:0,2:2:0:0:
181,329,53133,6,0,B|108:335|108:335|76:375|76:375|-32:383,2,200.000007629395,10|2|2,2:3|1:2|1:2,2:2:0:0:
1,48,53962,6,0,B|46:92|46:92|158:71,1,150.000005722046,2|0,1:2|2:2,2:2:0:0:
184,14,54169,2,0,L|285:-1,1,100.000003814697,2|0,1:2|0:0,2:2:0:0:
354,36,54325,1,2,1:2:0:0:
368,32,54377,6,0,P|471:54|497:139,1,200.000007629395,14|0,1:3|2:2,2:2:0:0:
439,187,54687,2,0,P|335:209|309:294,1,200.000007629395,6|10,1:3|2:2,2:2:0:0:
405,366,54947,1,10,2:2:0:0:
418,364,54999,6,0,B|437:324|483:308|483:308|436:311|402:272,1,173.333325398763,6|0,1:3|2:2,2:2:0:0:
211,296,55309,2,0,B|191:335|146:352|146:352|192:348|222:382,1,173.333325398763,0|0,1:2|2:2,2:2:0:0:
111,263,55620,6,0,L|3:275,1,86.6666626993817,10|0,1:3|2:2,2:2:0:0:
100,184,55828,2,0,L|-8:196,1,86.6666626993817,2|10,2:2|1:3,2:2:0:0:
89,105,56035,2,0,L|-19:117,1,86.6666626993817,2|0,2:2|2:2,2:2:0:0:
234,51,56242,6,0,L|157:59,1,76.6666681289673,10|0,1:3|2:2,2:2:0:0:
245,130,56449,2,0,L|168:138,1,76.6666681289673,2|10,2:2|1:3,2:2:0:0:
256,209,56657,2,0,L|179:217,1,76.6666681289673,2|0,2:2|2:2,2:2:0:0:
388,158,56864,6,0,L|295:168,1,66.6666666666667,10|0,1:3|2:2,2:2:0:0:
377,79,57072,2,0,L|288:88,1,66.6666666666667,2|10,2:2|1:3,2:2:0:0:
366,0,57279,2,0,L|271:10,1,66.6666666666667,2|0,2:2|2:2,2:2:0:0:
100,184,57486,5,10,1:3:0:0:
0,40,57641,1,10,1:3:0:0:
100,184,57796,1,10,1:3:0:0:
115,18,57952,1,10,1:3:0:0:
28,358,58107,5,10,1:3:0:0:
59,337,58184,1,10,1:3:0:0:
95,328,58262,1,10,1:3:0:0:
132,333,58340,1,10,1:3:0:0:
165,350,58417,1,10,1:3:0:0:
207,377,58495,1,10,1:3:0:0:
256,380,58573,1,10,1:3:0:0:
301,360,58651,1,10,1:3:0:0:
332,321,58729,6,0,P|403:337|436:368,1,100,2|2,2:2|2:2,2:2:0:0:
402,166,59040,2,0,P|353:219|310:232,1,100,2|2,2:2|2:2,2:2:0:0:
502,305,59351,2,0,P|479:236|490:192,1,100,2|2,1:2|2:2,2:2:0:0:
479,125,59662,1,10,2:3:0:0:
494,78,59739,1,10,2:3:0:0:
478,31,59817,1,10,2:3:0:0:
437,5,59895,1,10,2:3:0:0:
388,6,59973,6,0,B|351:33|351:33|234:10,1,150.000005722046,6|2,1:3|2:2,2:2:0:0:
0,109,60283,1,10,1:3:0:0:
9,145,60360,1,2,2:2:0:0:
32,174,60438,1,2,2:2:0:0:
65,191,60516,1,2,2:2:0:0:
105,193,60594,6,0,L|219:172,1,75.0000028610231,2|0,1:2|0:0,2:2:0:0:
199,75,60750,2,0,L|85:96,1,75.0000028610231,2|0,2:2|0:0,0:0:0:0:
81,4,60905,1,10,1:3:0:0:
81,4,61061,1,2,2:2:0:0:
260,162,61216,6,0,B|279:198|311:215|311:215|278:211|239:239,1,150.000005722046,2|2,1:2|2:2,2:2:0:0:
0,384,61527,1,10,1:3:0:0:
9,347,61604,1,2,2:2:0:0:
32,318,61682,1,2,2:2:0:0:
65,301,61760,1,2,2:2:0:0:
105,300,61838,6,0,L|219:321,1,75.0000028610231,2|0,1:2|0:0,0:0:0:0:
281,333,61993,2,0,L|395:354,1,75.0000028610231,2|0,2:2|0:0,0:0:0:0:
458,343,62149,2,0,P|401:201|349:199,1,225.000008583069,10|0,1:3|2:2,2:2:0:0:
329,203,62460,6,0,L|309:38,1,150.000005722046,2|2,1:2|2:2,2:2:0:0:
408,0,62693,1,2,2:2:0:0:
404,16,62771,2,0,L|392:100,1,75.0000028610231,10|0,1:3|2:2,2:2:0:0:
235,96,62926,2,0,L|223:12,1,75.0000028610231,2|0,2:2|2:2,2:2:0:0:
97,2,63081,6,0,B|34:40|34:40|73:125,1,150.000005722046,2|2,1:2|2:2,2:2:0:0:
102,188,63315,1,2,2:2:0:0:
99,204,63393,2,0,L|87:288,1,75.0000028610231,10|0,1:3|2:2,2:2:0:0:
12,378,63548,2,0,L|0:294,1,75.0000028610231,2|0,2:2|2:2,2:2:0:0:
141,351,63703,6,0,B|197:363|197:363|236:346|236:346|325:364,1,150.000005722046,2|2,1:2|2:2,2:2:0:0:
339,292,63936,1,2,2:2:0:0:
355,289,64014,2,0,L|439:277,1,75.0000028610231,10|0,1:3|2:2,2:2:0:0:
512,367,64170,2,0,L|428:355,1,75.0000028610231,2|0,2:2|2:2,2:2:0:0:
500,237,64325,5,2,1:2:0:0:
501,218,64402,1,2,2:2:0:0:
503,199,64480,1,2,2:2:0:0:
504,180,64558,1,2,2:2:0:0:
505,161,64636,5,10,1:3:0:0:
451,171,64714,1,2,2:2:0:0:
403,143,64791,1,2,1:2:0:0:
388,90,64869,1,2,2:2:0:0:
411,40,64947,6,0,B|440:15|440:15|322:6,1,150.000005722046,2|2,1:2|2:2,2:2:0:0:
126,194,65258,1,10,1:3:0:0:
162,186,65335,1,2,2:2:0:0:
192,163,65413,1,2,2:2:0:0:
209,131,65491,1,2,2:2:0:0:
212,94,65568,6,0,L|200:10,1,75.0000028610231,2|0,1:2|0:0,2:2:0:0:
94,2,65724,2,0,L|106:86,1,75.0000028610231,2|0,2:2|0:0,0:0:0:0:
11,113,65879,1,10,1:3:0:0:
11,113,66035,1,2,2:2:0:0:
201,257,66190,6,0,B|244:290|244:290|215:398,1,150.000005722046,2|2,1:2|2:2,2:2:0:0:
413,372,66501,1,10,1:3:0:0:
450,363,66578,1,2,2:2:0:0:
479,340,66656,1,2,2:2:0:0:
496,307,66734,1,2,2:2:0:0:
497,267,66812,6,0,L|476:153,1,75.0000028610231,2|0,1:2|2:2,2:2:0:0:
465,111,66967,2,0,L|444:-3,1,75.0000028610231,2|0,2:2|2:2,2:2:0:0:
375,119,67123,2,0,L|354:233,1,75.0000028610231,10|0,1:3|2:2,2:2:0:0:
343,275,67278,2,0,L|322:389,1,75.0000028610231,2|0,2:2|2:2,2:2:0:0:
162,373,67434,6,0,P|82:319|83:266,1,150.000005722046,2|2,1:2|2:2,2:2:0:0:
97,185,67667,1,2,2:2:0:0:
100,169,67745,2,0,L|112:85,1,75.0000028610231,10|0,1:3|2:2,2:2:0:0:
18,3,67900,2,0,L|30:87,1,75.0000028610231,2|0,2:2|2:2,2:2:0:0:
185,52,68056,6,0,B|240:44|240:44|269:16|269:16|333:5,1,150.000005722046,2|2,1:2|2:2,2:2:0:0:
404,48,68288,1,2,2:2:0:0:
420,51,68366,2,0,L|494:61,1,75.0000028610231,10|0,1:3|2:2,2:2:0:0:
511,183,68522,2,0,L|436:172,1,75.0000028610231,2|0,2:2|2:2,2:2:0:0:
329,230,68677,6,0,L|307:434,1,150.000005722046,2|2,1:2|2:2,0:0:0:0:
210,295,68910,1,0,0:0:0:0:
211,281,68988,2,0,L|189:77,1,150.000005722046,10|2,1:3|2:2,2:2:0:0:
185,52,69221,1,2,1:2:0:0:
185,52,69299,5,2,1:2:0:0:
211,281,69454,1,2,1:2:0:0:
55,111,69610,1,2,1:2:0:0:
281,156,69765,1,2,1:2:0:0:
71,252,69921,6,0,B|28:324|28:324|89:368,1,150.000005722046,6|2,1:3|2:2,2:2:0:0:
296,325,70232,1,10,1:3:0:0:
331,313,70309,1,2,2:2:0:0:
368,319,70387,1,2,2:2:0:0:
398,340,70465,1,2,2:2:0:0:
416,373,70543,6,0,L|494:363,1,75.0000028610231,2|0,1:2|0:0,0:0:0:0:
511,255,70698,2,0,L|432:264,1,75.0000028610231,2|0,2:2|0:0,0:0:0:0:
355,203,70853,1,10,1:3:0:0:
357,105,71009,1,2,2:2:0:0:
438,45,71164,6,0,B|481:66|481:66|467:175,1,150.000005722046,2|2,1:2|2:2,2:2:0:0:
279,155,71397,1,2,2:2:0:0:
263,151,71475,2,0,P|184:164|149:234,1,150.000005722046,10|2,1:3|2:2,2:2:0:0:
116,359,71708,1,2,2:2:0:0:
100,363,71786,2,0,B|28:383|28:383|-14:280,1,150.000005722046,2|2,1:2|2:2,2:2:0:0:
49,234,72097,1,10,1:3:0:0:
0,149,72252,1,2,2:2:0:0:
67,76,72408,6,0,B|96:48|135:50|135:50|95:37|82:-3,1,150.000005722046,2|2,1:2|2:2,2:2:0:0:
300,7,72719,1,10,1:3:0:0:
294,44,72796,1,2,2:2:0:0:
289,81,72874,1,2,2:2:0:0:
284,118,72952,1,2,2:2:0:0:
279,155,73030,6,0,L|266:240,1,75.0000028610231,2|0,1:2|0:0,0:0:0:0:
362,296,73185,2,0,L|375:211,1,75.0000028610231,2|0,2:2|0:0,0:0:0:0:
447,149,73340,1,10,1:3:0:0:
469,246,73496,1,2,2:2:0:0:
491,340,73651,6,0,P|445:362|426:390,3,75.0000028610231,2|2|2|2,1:2|2:2|2:2|2:2,0:0:0:0:
289,241,73962,2,0,P|273:275|275:313,3,75.0000028610231,10|2|2|2,1:3|2:2|2:2|2:2,0:0:0:0:
131,380,74273,5,2,1:2:0:0:
11,352,74429,1,2,2:2:0:0:
0,234,74584,1,10,1:3:0:0:
109,184,74739,1,10,1:3:0:0:
189,273,74895,6,0,B|203:318|203:318|327:340,1,150.000005722046,6|2,1:3|2:2,2:2:0:0:
404,303,75128,2,0,B|390:258|390:258|266:236,1,150.000005722046,2|0,1:2|2:2,2:2:0:0:
227,159,75361,1,2,1:2:0:0:
371,13,75517,2,0,L|384:163,1,150.000005722046,2|2,1:3|2:2,2:2:0:0:
512,284,75828,2,0,L|499:134,1,150.000005722046,10|2,1:3|2:2,0:0:0:0:
248,0,76138,6,0,P|165:43|156:116,1,150.000005722046,6|2,1:3|2:2,2:2:0:0:
130,190,76372,2,0,P|47:147|38:74,1,150.000005722046,2|0,1:2|2:2,2:2:0:0:
61,3,76605,1,2,1:2:0:0:
223,159,76760,2,0,B|226:231|226:231|233:318,1,150.000005722046,2|2,1:2|2:2,2:2:0:0:
11,384,77071,2,0,L|21:225,1,150.000005722046,10|2,1:3|2:2,0:0:0:0:
232,308,77382,6,0,B|361:303|309:384|457:383,1,225.000008583069,4|0,1:3|0:0,2:2:0:0:
462,380,77693,2,0,L|472:295,3,75.0000028610231,10|2|2|2,1:3|2:2|2:2|2:2,0:0:0:0:
487,185,78004,2,0,P|432:107|367:183,1,225.000008583069,6|0,1:3|0:0,2:2:0:0:
368,205,78315,2,0,L|378:290,3,75.0000028610231,10|2|2|2,1:3|2:2|2:2|2:2,0:0:0:0:
289,237,78625,6,0,B|243:205|243:205|151:220,1,150.000005722046,2|10,1:2|2:2,0:0:0:0:
64,354,78936,5,10,1:3:0:0:
179,101,79092,1,10,2:2:0:0:
222,329,79247,5,10,1:3:0:0:
29,124,79403,1,10,2:2:0:0:
314,76,79559,5,8,1:3:0:0:
350,68,79636,1,8,1:3:0:0:
387,61,79714,1,8,1:3:0:0:
424,55,79792,1,8,1:3:0:0:
461,48,79869,1,8,1:3:0:0:
256,192,79947,12,0,81967,2:2:0:0:
487,228,82045,6,0,L|466:338,1,112.500004291535,10|0,2:2|2:2,2:2:0:0:
458,362,82356,6,0,P|393:293|304:333,1,150.000005722046,6|0,1:3|2:2,2:2:0:0:
283,366,82589,1,2,2:2:0:0:
267,369,82667,2,0,L|193:379,1,75.0000028610231,10|0,1:3|2:2,2:2:0:0:
71,308,82822,2,0,L|145:298,1,75.0000028610231,2|0,2:2|2:2,2:2:0:0:
171,161,82978,6,0,L|192:-16,1,150.000005722046,2|0,1:2|2:2,2:2:0:0:
79,2,83211,1,2,2:2:0:0:
82,18,83289,2,0,L|92:92,1,75.0000028610231,10|0,1:3|2:2,2:2:0:0:
265,110,83444,2,0,L|275:36,1,75.0000028610231,2|0,2:2|2:2,2:2:0:0:
403,0,83600,6,0,P|476:16|492:85,1,150.000005722046,2|0,1:2|2:2,2:2:0:0:
480,170,83833,1,2,2:2:0:0:
477,186,83911,2,0,L|467:260,1,75.0000028610231,10|0,1:3|2:2,2:2:0:0:
362,331,84066,2,0,L|372:257,1,75.0000028610231,2|0,2:2|2:2,2:2:0:0:
271,185,84221,5,2,1:2:0:0:
272,204,84298,1,2,2:2:0:0:
274,223,84376,1,2,2:2:0:0:
275,242,84454,1,2,2:2:0:0:
276,261,84532,5,10,1:3:0:0:
222,251,84609,1,2,2:2:0:0:
174,279,84687,1,2,1:2:0:0:
159,332,84765,1,2,2:2:0:0:
182,382,84843,6,0,B|119:368|119:368|92:378|92:378|21:363,1,150.000005722046,2|2,1:2|2:2,2:2:0:0:
14,61,85154,1,10,1:3:0:0:
50,54,85231,1,2,2:2:0:0:
84,68,85309,1,2,2:2:0:0:
106,98,85387,1,2,2:2:0:0:
108,135,85465,6,0,L|97:209,1,75.0000028610231,2|0,1:2|0:0,2:2:0:0:
10,214,85620,2,0,L|0:288,1,75.0000028610231,2|0,2:2|0:0,0:0:0:0:
70,356,85776,1,10,1:3:0:0:
70,356,85931,1,2,2:2:0:0:
295,370,86087,6,0,P|368:343|365:263,1,150.000005722046,2|2,1:2|2:2,2:2:0:0:
413,52,86397,1,10,1:3:0:0:
450,52,86474,1,2,2:2:0:0:
481,72,86552,1,2,2:2:0:0:
496,106,86630,1,2,2:2:0:0:
492,142,86708,6,0,L|480:235,1,75.0000028610231,2|0,1:2|2:2,2:2:0:0:
401,132,86864,2,2,L|391:206,1,75.0000028610231,2|2,2:2|2:2,2:2:0:0:
310,100,87019,2,0,L|298:7,1,75.0000028610231,10|0,1:3|2:2,2:2:0:0:
219,110,87175,2,0,L|209:36,1,75.0000028610231,2|0,2:2|2:2,2:2:0:0:
78,1,87330,6,0,B|19:52|19:52|64:113,1,150.000005722046,2|0,1:2|2:2,2:2:0:0:
134,177,87563,1,2,2:2:0:0:
131,193,87641,2,0,L|121:267,1,75.0000028610231,10|0,1:3|2:2,2:2:0:0:
29,364,87796,2,0,L|39:289,1,75.0000028610231,2|0,2:2|2:2,2:2:0:0:
209,264,87952,6,0,P|270:282|296:368,1,150.000005722046,2|0,1:2|2:2,2:2:0:0:
385,367,88185,1,2,2:2:0:0:
401,370,88263,2,0,L|475:380,1,75.0000028610231,10|0,1:3|2:2,2:2:0:0:
512,259,88418,2,0,L|438:249,1,75.0000028610231,2|0,2:2|2:2,2:2:0:0:
432,124,88574,6,0,P|454:78|482:59,3,75.0000028610231,2|2|2|2,1:2|2:2|2:2|2:2,0:0:0:0:
263,80,88885,2,0,P|246:31|252:-1,3,75.0000028610231,10|2|2|2,1:3|2:2|2:2|2:2,0:0:0:0:
119,198,89195,5,0,1:2:0:0:
2,156,89351,1,2,1:2:0:0:
3,37,89506,1,2,1:2:0:0:
117,0,89661,1,2,1:2:0:0:
187,96,89817,6,0,B|200:174,1,75.0000028610231,14|0,1:3|2:2,2:2:0:0:
217,251,89973,2,0,B|230:329,1,75.0000028610231,2|0,2:2|2:2,2:2:0:0:
315,377,90128,2,0,P|382:351|474:369,1,150.000005722046,10|2,1:3|2:2,2:2:0:0:
496,288,90361,1,2,2:2:0:0:
499,272,90439,2,0,P|442:226|412:138,1,150.000005722046,10|2,1:3|2:2,2:2:0:0:
489,17,90750,1,10,1:3:0:0:
489,17,90905,1,2,2:2:0:0:
336,53,91061,6,0,B|262:65,1,75.0000028610231,10|0,1:3|2:2,2:2:0:0:
182,79,91216,2,0,B|108:91,1,75.0000028610231,2|0,2:2|2:2,2:2:0:0:
33,44,91372,2,0,B|-7:105|-7:105|53:153,1,150.000005722046,10|2,1:3|2:2,2:2:0:0:
33,238,91605,1,2,2:2:0:0:
53,241,91682,2,0,B|126:245|126:245|137:168,1,150.000005722046,10|2,1:3|2:2,2:2:0:0:
156,4,91993,1,10,1:3:0:0:
156,4,92149,1,10,1:2:0:0:
236,149,92304,6,0,B|249:227,1,75.0000028610231,10|0,1:3|0:0,0:0:0:0:
263,305,92460,2,0,B|276:383,1,75.0000028610231,2|0,2:2|0:0,0:0:0:0:
381,377,92615,2,0,B|414:346|451:352|451:352|444:312|472:271,1,150.000005722046,10|2,1:3|2:2,2:2:0:0:
449,197,92848,1,2,2:2:0:0:
442,181,92926,2,0,B|398:167|385:132|385:132|354:158|304:154,1,150.000005722046,10|2,1:3|2:2,1:3:0:0:
157,132,93237,1,10,1:3:0:0:
157,132,93392,1,2,2:2:0:0:
259,0,93548,6,0,L|235:150,1,150.000005722046,10|2,1:3|2:2,2:2:0:0:
143,354,93859,2,0,L|119:204,1,150.000005722046,10|2,1:3|2:2,2:2:0:0:
48,18,94170,5,10,1:3:0:0:
10,204,94325,1,10,1:2:0:0:
53,1,94480,5,10,1:3:0:0:
6,222,94636,1,10,1:2:0:0:
232,149,94791,6,0,P|312:188|316:267,1,150.000005722046,14|10,1:3|1:2,2:2:0:0:
361,365,95024,1,10,2:3:0:0:
379,368,95102,2,0,B|453:380,1,75.0000028610231,10|10,1:2|2:3,0:0:0:0:
511,308,95258,2,0,B|437:296,1,75.0000028610231,10|0,1:2|2:2,2:2:0:0:
439,211,95413,6,0,P|480:170|515:168,1,75.0000028610231,14|0,1:3|2:2,2:2:0:0:
508,93,95568,2,0,P|467:51|465:16,1,75.0000028610231,10|10,1:2|2:3,2:2:0:0:
390,24,95724,2,0,P|348:64|313:66,1,75.0000028610231,10|10,1:2|2:3,2:2:0:0:
321,141,95879,2,0,P|361:182|363:217,1,75.0000028610231,10|0,1:2|2:2,2:2:0:0:
320,273,96035,6,0,B|258:322|258:322|168:289,1,150.000005722046,14|10,1:3|1:2,2:2:0:0:
136,229,96268,1,10,2:3:0:0:
118,232,96346,2,0,B|44:244,1,75.0000028610231,10|10,1:2|2:3,0:0:0:0:
4,329,96502,2,8,B|78:317,1,75.0000028610231,10|8,1:3|1:2,1:2:0:0:
18,168,96657,5,14,1:3:0:0:
14,149,96734,1,0,2:2:0:0:
11,130,96812,1,10,1:2:0:0:
8,112,96890,1,10,2:3:0:0:
7,94,96967,5,10,1:2:0:0:
25,41,97044,1,10,1:3:0:0:
72,12,97122,1,10,1:3:0:0:
127,17,97200,1,10,1:2:0:0:
167,54,97278,6,0,B|176:99|176:99|287:117,1,150.000005722046,14|10,1:3|2:3,2:2:0:0:
344,55,97511,1,10,2:2:0:0:
362,55,97589,2,0,P|429:74|447:173,1,150.000005722046,10|10,2:3|2:3,2:2:0:0:
403,305,97900,5,10,1:3:0:0:
402,332,97977,1,10,2:3:0:0:
419,354,98055,1,10,2:3:0:0:
446,359,98133,1,10,2:3:0:0:
471,346,98210,1,10,2:3:0:0:
481,321,98288,1,10,2:3:0:0:
473,295,98366,1,10,2:3:0:0:
450,279,98444,1,10,2:3:0:0:
423,282,98521,5,2,1:2:0:0:
91,328,98833,5,2,1:2:0:0:
224,50,99144,5,10,2:0:0:0:
228,77,99221,1,10,2:2:0:0:
232,105,99299,1,10,2:2:0:0:
236,133,99377,1,10,2:2:0:0:
240,161,99454,1,10,2:3:0:0:
244,189,99532,1,2,2:2:0:0:
248,217,99610,1,2,2:2:0:0:
252,244,99688,1,2,2:2:0:0:
256,271,99765,6,0,B|252:305|238:324|238:324|257:338|269:370|269:370|273:336|287:317|287:317|268:302|256:271,1,225.000008583069,6|0,1:3|2:2,2:2:0:0:
98,238,100076,2,0,P|41:251|0:336,1,150.000005722046,10|0,1:3|2:2,2:2:0:0:
91,328,100309,1,2,1:2:0:0:
354,366,100543,6,0,B|396:356|396:356|422:315,1,75.0000028610231,2|0,1:2|2:2,2:2:0:0:
363,187,100698,2,0,B|350:228|350:228|372:271,1,75.0000028610231,10|0,1:3|2:2,2:2:0:0:
512,286,100853,2,0,B|482:254|482:254|433:252,1,75.0000028610231,2|0,1:2|2:2,2:2:0:0:
256,270,101009,6,0,B|205:266|205:266|173:31,1,225.000008583069,2|0,1:2|2:2,2:2:0:0:
311,8,101320,2,0,P|368:21|409:106,1,150.000005722046,10|0,1:3|2:2,2:2:0:0:
318,98,101553,1,2,1:2:0:0:
91,28,101786,6,0,L|-12:38,1,75.0000028610231,2|0,1:2|2:2,2:2:0:0:
22,146,101942,2,0,L|96:138,1,75.0000028610231,10|0,1:3|2:2,2:2:0:0:
101,248,102097,2,0,L|27:256,1,75.0000028610231,2|0,1:2|2:2,2:2:0:0:
38,362,102252,6,0,B|102:385|147:338|147:338|203:308|263:368,1,225.000008583069,2|0,1:2|2:2,2:2:0:0:
410,384,102563,2,0,P|467:371|508:286,1,150.000005722046,10|0,1:3|2:2,2:2:0:0:
417,294,102796,1,2,1:2:0:0:
349,51,103030,6,0,P|402:5|439:9,1,75.0000028610231,2|0,1:2|2:2,2:2:0:0:
427,158,103185,2,0,P|360:134|346:100,1,75.0000028610231,10|0,1:3|2:2,2:2:0:0:
481,37,103340,2,0,P|493:106|471:135,1,75.0000028610231,2|0,1:2|2:2,2:2:0:0:
279,103,103496,6,0,B|186:109|186:109|168:134|168:134|63:140,1,225.000008583069,2|0,1:2|2:2,2:2:0:0:
2,79,103807,2,0,P|45:12|109:21,1,150.000005722046,10|0,1:3|2:2,2:2:0:0:
173,208,104040,1,2,1:2:0:0:
175,220,104118,6,0,B|170:260|114:310|114:310|179:281|239:300,1,225.000008583069,2|0,1:2|2:2,2:2:0:0:
315,318,104429,2,0,B|355:322|405:378|405:378|376:313|395:253,1,225.000008583069,2|0,1:2|2:2,2:2:0:0:
410,180,104739,6,0,B|414:139|470:89|470:89|405:118|345:99,1,225.000008583069,2|0,1:2|2:2,2:2:0:0:
205,0,105050,2,0,B|133:4|133:4|118:81,1,150.000005722046,10|0,1:3|2:2,2:2:0:0:
202,84,105283,1,2,1:2:0:0:
173,361,105517,6,0,B|129:361|129:361|94:328,1,75.0000028610231,2|0,1:2|2:2,2:2:0:0:
121,191,105672,2,0,B|143:228|143:228|132:275,1,75.0000028610231,10|0,1:3|2:2,2:2:0:0:
0,322,105828,2,0,B|21:283|21:283|67:270,1,75.0000028610231,2|0,1:2|2:2,2:2:0:0:
254,281,105983,6,0,B|339:289|339:289|357:323|389:339|389:339|418:304|458:303,1,225.000008583069,2|0,1:2|2:2,2:2:0:0:
498,119,106294,2,0,B|426:123|426:123|411:200,1,150.000005722046,10|0,1:3|2:2,2:2:0:0:
495,203,106527,1,2,1:2:0:0:
343,2,106760,6,0,L|351:76,1,75.0000028610231,2|0,1:2|2:2,2:2:0:0:
241,81,106915,2,0,L|233:7,1,75.0000028610231,10|0,1:3|2:2,2:2:0:0:
123,12,107071,2,0,L|133:115,1,75.0000028610231,2|0,1:2|2:2,2:2:0:0:
71,167,107227,6,0,P|7:214|51:148,1,225.000008583069,2|0,1:2|2:2,2:2:0:0:
187,258,107537,2,0,B|259:254|259:254|274:177,1,150.000005722046,10|0,1:3|2:2,2:2:0:0:
190,174,107770,1,2,1:2:0:0:
391,302,108004,6,0,L|413:386,1,75.0000028610231,2|0,1:2|2:2,2:2:0:0:
497,273,108159,1,10,1:3:0:0:
500,235,108236,1,2,2:2:0:0:
504,198,108314,1,2,1:2:0:0:
507,161,108392,1,2,2:2:0:0:
511,123,108470,6,0,B|481:61|498:10|498:10|463:52|399:50,1,225.000008583069,6|0,1:2|2:2,2:2:0:0:
391,302,108781,2,0,B|452:272|503:289|503:289|461:254|463:190,1,225.000008583069,2|0,1:2|2:2,2:2:0:0:
212,182,109092,2,0,B|241:243|224:294|224:294|259:252|323:254,1,225.000008583069,6|0,1:2|2:2,2:2:0:0:
332,3,109403,2,0,B|270:32|219:15|219:15|261:50|259:114,1,225.000008583069,2|0,1:2|2:2,2:2:0:0:
152,231,109714,6,0,B|100:224|65:277|65:277|-12:254|4:156,1,225.000008583069,14|0,1:3|2:2,0:0:0:0:
90,12,110024,2,0,L|77:167,1,150.000005722046,10|2,1:3|2:2,2:2:0:0:
147,315,110258,1,2,2:2:0:0:
154,331,110335,2,0,B|174:379|174:379|311:368,1,150.000005722046,10|2,1:3|2:2,2:2:0:0:
504,341,110646,2,0,L|486:245,1,75.0000028610231,10|0,1:3|2:2,2:2:0:0:
349,208,110802,1,2,2:2:0:0:
351,228,110879,1,2,2:2:0:0:
353,243,110957,6,0,B|318:292|318:292|366:326|366:326|398:278|398:278|358:247,1,225.000008583069,10|0,1:3|2:2,2:2:0:0:
238,148,111268,2,0,P|230:63|286:10,1,150.000005722046,10|2,1:3|2:2,2:2:0:0:
428,78,111501,1,2,2:2:0:0:
438,91,111579,2,0,B|463:118|463:118|313:99,1,150.000005722046,10|2,1:3|2:2,2:2:0:0:
128,72,111890,2,0,L|54:64,1,75.0000028610231,10|0,1:3|2:2,2:2:0:0:
0,152,112045,2,0,L|74:160,1,75.0000028610231,2|0,2:2|2:2,2:2:0:0:
96,262,112201,6,0,B|65:291|56:364|56:364|65:291|45:254,1,225.000008583069,10|0,1:3|2:2,2:2:0:0:
199,342,112511,2,0,B|260:353|260:353|288:376|288:376|363:382,1,150.000005722046,10|2,1:3|2:2,2:2:0:0:
500,300,112745,1,2,2:2:0:0:
496,286,112822,2,0,B|431:245|431:245|374:303,1,150.000005722046,10|2,1:3|2:2,2:2:0:0:
421,142,113133,2,0,L|413:41,1,75.0000028610231,10|0,1:3|2:2,2:2:0:0:
319,13,113289,2,0,L|327:114,1,75.0000028610231,2|0,2:2|2:2,2:2:0:0:
256,148,113444,6,0,B|197:153|163:210|163:210|172:146|113:95,1,225.000008583069,10|0,1:3|2:2,2:2:0:0:
2,15,113755,2,0,L|17:166,1,150.000005722046,10|2,1:3|2:2,2:2:0:0:
32,311,113988,1,2,2:2:0:0:
34,330,114066,6,8,B|135:385|135:385|217:286,1,225.000008583069,10|2,1:3|2:2,2:3:0:0:
285,319,114377,2,0,B|340:218|340:218|241:136,1,225.000008583069,10|0,1:3|2:2,2:2:0:0:
82,109,114688,6,0,L|91:10,1,75.0000028610231,14|2,1:3|1:2,2:2:0:0:
180,41,114843,1,10,1:2:0:0:
180,41,114921,2,0,L|171:150,1,75.0000028610231,10|10,1:3|1:2,2:2:0:0:
127,186,115076,1,10,2:3:0:0:
127,186,115154,1,10,1:3:0:0:
430,109,115309,6,0,L|423:34,1,75.0000028610231,14|2,1:3|1:2,2:2:0:0:
332,41,115464,1,10,1:2:0:0:
332,41,115542,2,0,L|338:115,1,75.0000028610231,10|10,1:3|1:2,2:2:0:0:
385,186,115697,1,10,2:3:0:0:
385,186,115775,1,10,1:3:0:0:
262,353,115931,6,0,P|222:336|198:302,1,75.0000028610231,14|2,1:3|1:2,2:2:0:0:
120,285,116086,1,10,1:2:0:0:
109,268,116164,2,0,P|103:224|121:188,1,75.0000028610231,10|10,1:3|1:2,2:2:0:0:
121,114,116319,1,10,2:3:0:0:
134,99,116397,1,10,1:3:0:0:
249,30,116553,6,0,P|289:47|313:81,1,75.0000028610231,14|2,1:3|1:2,2:2:0:0:
391,98,116708,1,10,1:2:0:0:
402,115,116786,2,0,P|408:159|390:195,1,75.0000028610231,10|10,1:3|1:2,2:2:0:0:
390,269,116941,1,10,2:3:0:0:
377,284,117019,1,10,1:3:0:0:
203,206,117175,5,14,1:3:0:0:
206,169,117252,1,2,1:2:0:0:
232,143,117330,1,10,1:3:0:0:
269,139,117408,1,2,1:2:0:0:
299,160,117485,1,10,1:3:0:0:
309,195,117563,1,2,1:2:0:0:
295,228,117641,1,10,1:3:0:0:
261,245,117719,1,2,1:2:0:0:
224,239,117796,5,10,1:3:0:0:
190,199,117873,1,10,1:3:0:0:
196,147,117951,1,10,1:3:0:0:
239,116,118029,1,10,1:3:0:0:
290,125,118106,1,10,1:3:0:0:
318,169,118184,1,10,1:3:0:0:
307,220,118262,1,10,1:3:0:0:
261,245,118340,1,10,1:3:0:0:
256,192,118418,12,0,119662,1:2:0:0:
