osu file format v14

[General]
AudioFilename: audio.mp3
AudioLeadIn: 0
PreviewTime: 59901
Countdown: 0
SampleSet: Soft
StackLeniency: 0.7
Mode: 0
LetterboxInBreaks: 0
WidescreenStoryboard: 1

[Editor]
Bookmarks: 20186,40082,59979,79875,99771,119668
DistanceSpacing: 5.3
BeatDivisor: 6
GridSize: 16
TimelineZoom: 2.35

[Metadata]
Title:Heracles
TitleUnicode:Heracles
Artist:Yooh
ArtistUnicode:Yooh
Creator:Twiggykun
Version:Another
Source:
Tags:IntegerTempest Hercules Witow08 Ryxliee fa featured artist Instrumental Electronic Symphonic Hardcore adofai A Dance of Fire and Ice
BeatmapID:3399446
BeatmapSetID:1659194

[Difficulty]
HPDrainRate:4
CircleSize:3.5
OverallDifficulty:8
ApproachRate:9
SliderMultiplier:2
SliderTickRate:1

[Events]
//Background and Video events
0,0,"anime-girl-pixiv-fantasia-katana-blue-flame-11-4k.jpg",0,0
//Break Periods
2,20380,24554
//Storyboard Layer 0 (Background)
//Storyboard Layer 1 (Fail)
//Storyboard Layer 2 (Pass)
//Storyboard Layer 3 (Foreground)
//Storyboard Layer 4 (Overlay)
//Storyboard Sound Samples

[TimingPoints]
284,310.880829015544,4,2,1,15,1,0
284,-133.333333333333,4,2,1,30,0,0
439,-133.333333333333,4,2,1,10,0,0
594,-133.333333333333,4,2,1,30,0,0
750,-133.333333333333,4,2,1,10,0,0
905,-133.333333333333,4,2,1,30,0,0
1061,-133.333333333333,4,2,1,10,0,0
1216,-133.333333333333,4,2,1,30,0,0
1372,-133.333333333333,4,2,1,10,0,0
1527,-133.333333333333,4,2,1,30,0,0
1682,-133.333333333333,4,2,1,10,0,0
1838,-133.333333333333,4,2,1,30,0,0
1993,-133.333333333333,4,2,1,10,0,0
2149,-133.333333333333,4,2,1,30,0,0
2304,-133.333333333333,4,2,1,10,0,0
2460,-133.333333333333,4,2,1,30,0,0
2615,-133.333333333333,4,2,1,10,0,0
2771,-133.333333333333,4,2,1,30,0,0
5413,-133.333333333333,4,2,1,10,0,0
5568,-133.333333333333,4,2,1,30,0,0
5724,-133.333333333333,4,2,1,10,0,0
5879,-133.333333333333,4,2,1,30,0,0
6035,-133.333333333333,4,2,1,10,0,0
6190,-133.333333333333,4,2,1,30,0,0
6346,-133.333333333333,4,2,1,10,0,0
6501,-133.333333333333,4,2,1,30,0,0
6657,-133.333333333333,4,2,1,10,0,0
6812,-133.333333333333,4,2,1,30,0,0
6967,-133.333333333333,4,2,1,10,0,0
7123,-133.333333333333,4,2,1,30,0,0
7278,-133.333333333333,4,2,1,10,0,0
7434,-133.333333333333,4,2,1,30,0,0
7589,-133.333333333333,4,2,1,10,0,0
7745,-133.333333333333,4,2,1,30,0,0
10076,-133.333333333333,4,2,1,10,0,0
10232,-100,4,2,1,60,0,0
10543,-100,4,2,1,20,0,0
10698,-100,4,2,1,60,0,0
11009,-100,4,2,1,20,0,0
11164,-100,4,2,1,60,0,0
11397,-100,4,2,1,20,0,0
11475,-200,4,2,1,45,0,0
12719,-100,4,2,1,60,0,0
13030,-100,4,2,1,20,0,0
13185,-100,4,2,1,60,0,0
13496,-100,4,2,1,20,0,0
13651,-100,4,2,1,60,0,0
13885,-100,4,2,1,20,0,0
13962,-200,4,2,1,35,0,0
14584,-200,4,2,1,60,0,0
14817,-200,4,2,1,35,0,0
14895,-100,4,2,1,40,0,0
14973,-100,4,2,1,35,0,0
15050,-100,4,2,1,30,0,0
15128,-100,4,2,1,25,0,0
15206,-100,4,2,1,60,0,0
15361,-100,4,2,1,20,0,0
15517,-100,4,2,1,60,0,0
15672,-100,4,2,1,20,0,0
15828,-100,4,2,1,60,0,0
15983,-100,4,2,1,45,0,0
16138,-100,4,2,1,60,0,0
16605,-100,4,2,1,20,0,0
16760,-100,4,2,1,60,0,0
16916,-100,4,2,1,20,0,0
17071,-100,4,2,1,60,0,0
17771,-100,4,2,1,40,0,0
18315,-100,4,2,1,60,0,0
18936,-200,4,2,1,45,0,0
20180,-200,4,2,1,35,0,0
25154,-133.333333333333,4,2,1,30,0,0
28885,-142.857142857143,4,2,1,30,0,0
29195,-125,4,2,1,30,0,0
29506,-111.111111111111,4,2,1,45,0,0
29817,-100,4,2,1,45,0,0
30128,-100,4,2,1,60,0,0
30361,-100,4,2,1,20,0,0
30439,-100,4,2,1,60,0,0
30672,-100,4,2,1,20,0,0
30750,-100,4,2,1,60,0,0
30983,-100,4,2,1,20,0,0
31061,-100,4,2,1,60,0,0
31294,-100,4,2,1,20,0,0
31372,-100,4,2,1,60,0,0
31605,-100,4,2,1,20,0,0
31682,-100,4,2,1,60,0,0
31916,-100,4,2,1,20,0,0
31993,-100,4,2,1,60,0,0
32227,-100,4,2,1,20,0,0
32304,-100,4,2,1,60,0,0
32460,-100,4,2,1,20,0,0
32537,-100,4,2,1,60,0,0
32848,-100,4,2,1,20,0,0
32926,-100,4,2,1,60,0,0
33159,-100,4,2,1,20,0,0
33237,-100,4,2,1,60,0,0
33470,-100,4,2,1,20,0,0
33548,-100,4,2,1,60,0,0
33781,-100,4,2,1,20,0,0
33859,-100,4,2,1,60,0,0
34092,-100,4,2,1,20,0,0
34170,-100,4,2,1,60,0,0
34403,-100,4,2,1,20,0,0
34480,-100,4,2,1,60,0,0
35102,-66.6666666666667,4,2,1,60,0,0
35335,-100,4,2,1,60,0,0
35646,-100,4,2,1,20,0,0
35724,-66.6666666666667,4,2,1,60,0,0
35957,-100,4,2,1,60,0,0
36268,-100,4,2,1,20,0,0
36346,-66.6666666666667,4,2,1,60,0,0
36579,-100,4,2,1,60,0,0
36890,-100,4,2,1,20,0,0
36967,-66.6666666666667,4,2,1,60,0,0
37201,-100,4,2,1,60,0,0
37667,-100,4,2,1,20,0,0
37745,-100,4,2,1,60,0,0
37822,-100,4,2,1,20,0,0
37900,-100,4,2,1,60,0,0
37978,-100,4,2,1,20,0,0
38056,-100,4,2,1,60,0,0
38133,-100,4,2,1,20,0,0
38211,-100,4,2,1,60,0,0
38833,-100,4,2,1,20,0,0
39144,-66.6666666666667,4,2,1,45,0,0
39454,-66.6666666666667,4,2,1,60,0,0
39532,-66.6666666666667,4,2,1,20,0,0
39610,-66.6666666666667,4,2,1,60,0,0
39688,-66.6666666666667,4,2,1,20,0,0
39765,-66.6666666666667,4,2,1,40,0,0
39843,-66.6666666666667,4,2,1,20,0,0
39921,-66.6666666666667,4,2,1,60,0,0
39999,-66.6666666666667,4,2,1,20,0,0
40076,-100,4,2,1,75,0,0
40309,-100,4,2,1,25,0,0
40387,-200,4,2,1,75,0,0
40620,-200,4,2,1,20,0,0
40698,-66.6666666666667,4,2,1,75,0,0
40802,-66.6666666666667,4,2,1,20,0,0
40905,-66.6666666666667,4,2,1,75,0,0
41009,-66.6666666666667,4,2,1,20,0,0
41113,-66.6666666666667,4,2,1,75,0,0
41216,-66.6666666666667,4,2,1,20,0,0
41527,-66.6666666666667,4,2,1,75,0,0
41631,-66.6666666666667,4,2,1,20,0,0
41734,-66.6666666666667,4,2,1,75,0,0
41838,-66.6666666666667,4,2,1,20,0,0
41942,-66.6666666666667,4,2,1,75,0,0
42045,-66.6666666666667,4,2,1,20,0,0
42149,-66.6666666666667,4,2,1,75,0,0
42252,-66.6666666666667,4,2,1,20,0,0
42356,-66.6666666666667,4,2,1,75,0,0
42460,-66.6666666666667,4,2,1,20,0,0
42563,-200,4,2,1,75,0,0
43030,-200,4,2,1,45,0,0
43185,-66.6666666666667,4,2,1,75,0,0
43289,-66.6666666666667,4,2,1,20,0,0
43392,-66.6666666666667,4,2,1,75,0,0
43496,-66.6666666666667,4,2,1,20,0,0
43600,-66.6666666666667,4,2,1,75,0,0
43703,-66.6666666666667,4,2,1,20,0,0
44014,-66.6666666666667,4,2,1,75,0,0
44118,-66.6666666666667,4,2,1,20,0,0
44221,-66.6666666666667,4,2,1,75,0,0
44325,-66.6666666666667,4,2,1,20,0,0
44377,-66.6666666666667,4,2,1,75,0,0
44636,-66.6666666666667,4,2,1,20,0,0
44739,-66.6666666666667,4,2,1,75,0,0
45050,-100,4,2,1,75,0,0
45283,-100,4,2,1,20,0,0
45361,-200,4,2,1,55,0,0
45594,-200,4,2,1,20,0,0
45672,-66.6666666666667,4,2,1,75,0,0
45776,-66.6666666666667,4,2,1,20,0,0
45879,-66.6666666666667,4,2,1,75,0,0
45983,-66.6666666666667,4,2,1,20,0,0
46087,-66.6666666666667,4,2,1,75,0,0
46190,-66.6666666666667,4,2,1,20,0,0
46501,-66.6666666666667,4,2,1,75,0,0
46605,-66.6666666666667,4,2,1,20,0,0
46708,-66.6666666666667,4,2,1,75,0,0
46812,-66.6666666666667,4,2,1,20,0,0
46916,-66.6666666666667,4,2,1,75,0,0
47019,-66.6666666666667,4,2,1,20,0,0
47123,-66.6666666666667,4,2,1,75,0,0
47227,-66.6666666666667,4,2,1,20,0,0
47330,-66.6666666666667,4,2,1,75,0,0
47434,-66.6666666666667,4,2,1,20,0,0
47537,-100,4,2,1,75,0,0
47693,-100,4,2,1,25,0,0
47848,-100,4,2,1,60,0,0
48159,-66.6666666666667,4,2,1,75,0,0
48263,-66.6666666666667,4,2,1,20,0,0
48366,-66.6666666666667,4,2,1,75,0,0
48470,-66.6666666666667,4,2,1,20,0,0
48574,-66.6666666666667,4,2,1,75,0,0
48677,-66.6666666666667,4,2,1,20,0,0
48781,-100,4,2,1,75,0,0
48936,-100,4,2,1,25,0,0
49092,-100,4,2,1,75,0,0
49247,-100,4,2,1,25,0,0
49403,-100,4,2,1,75,0,0
49558,-100,4,2,1,25,0,0
49714,-100,4,2,1,75,0,0
49869,-100,4,2,1,25,0,0
50024,-100,4,2,1,75,0,0
50258,-100,4,2,1,20,0,0
50335,-200,4,2,1,55,0,0
50568,-200,4,2,1,20,0,0
50646,-66.6666666666667,4,2,1,75,0,0
50750,-66.6666666666667,4,2,1,20,0,0
50853,-66.6666666666667,4,2,1,75,0,0
50957,-66.6666666666667,4,2,1,20,0,0
51061,-66.6666666666667,4,2,1,75,0,0
51164,-66.6666666666667,4,2,1,20,0,0
51475,-66.6666666666667,4,2,1,75,0,0
51579,-66.6666666666667,4,2,1,20,0,0
51682,-66.6666666666667,4,2,1,75,0,0
51786,-66.6666666666667,4,2,1,20,0,0
51890,-66.6666666666667,4,2,1,75,0,0
51993,-66.6666666666667,4,2,1,20,0,0
52097,-66.6666666666667,4,2,1,75,0,0
52201,-66.6666666666667,4,2,1,20,0,0
52304,-66.6666666666667,4,2,1,75,0,0
52408,-66.6666666666667,4,2,1,20,0,0
52511,-200,4,2,1,75,0,0
52978,-200,4,2,1,45,0,0
53133,-66.6666666666667,4,2,1,75,0,0
53237,-66.6666666666667,4,2,1,20,0,0
53340,-66.6666666666667,4,2,1,75,0,0
53444,-66.6666666666667,4,2,1,20,0,0
53548,-66.6666666666667,4,2,1,75,0,0
53651,-66.6666666666667,4,2,1,20,0,0
53962,-66.6666666666667,4,2,1,75,0,0
54066,-66.6666666666667,4,2,1,20,0,0
54170,-66.6666666666667,4,2,1,75,0,0
54273,-66.6666666666667,4,2,1,20,0,0
54325,-66.6666666666667,4,2,1,75,0,0
54584,-66.6666666666667,4,2,1,20,0,0
54688,-66.6666666666667,4,2,1,75,0,0
54999,-100,4,2,1,75,0,0
55206,-100,4,2,1,20,0,0
55309,-200,4,2,1,75,0,0
55517,-200,4,2,1,20,0,0
55620,-200,4,2,1,75,0,0
55724,-200,4,2,1,25,0,0
55828,-200,4,2,1,55,0,0
55931,-200,4,2,1,75,0,0
56035,-200,4,2,1,55,0,0
56138,-200,4,2,1,25,0,0
56242,-133.333333333333,4,2,1,75,0,0
56346,-133.333333333333,4,2,1,25,0,0
56449,-133.333333333333,4,2,1,55,0,0
56553,-133.333333333333,4,2,1,75,0,0
56657,-133.333333333333,4,2,1,55,0,0
56760,-133.333333333333,4,2,1,25,0,0
56864,-100,4,2,1,75,0,0
56967,-100,4,2,1,25,0,0
57071,-100,4,2,1,55,0,0
57175,-100,4,2,1,75,0,0
57278,-100,4,2,1,55,0,0
57382,-100,4,2,1,25,0,0
57486,-100,4,2,1,75,0,0
58418,-100,4,2,1,75,0,0
58729,-100,4,2,1,45,0,0
59662,-100,4,2,1,55,0,0
59973,-83.3333333333333,4,2,1,75,0,1
60050,-83.3333333333333,4,2,1,20,0,1
60128,-83.3333333333333,4,2,1,75,0,1
60206,-83.3333333333333,4,2,1,20,0,1
60283,-83.3333333333333,4,2,1,75,0,1
62149,-133.333333333333,4,2,1,75,0,1
62382,-133.333333333333,4,2,1,25,0,1
62460,-83.3333333333333,4,2,1,75,0,1
62615,-83.3333333333333,4,2,1,25,0,1
62693,-83.3333333333333,4,2,1,75,0,1
62848,-83.3333333333333,4,2,1,25,0,1
62926,-83.3333333333333,4,2,1,75,0,1
63004,-83.3333333333333,4,2,1,25,0,1
63081,-83.3333333333333,4,2,1,75,0,1
63237,-83.3333333333333,4,2,1,25,0,1
63315,-83.3333333333333,4,2,1,75,0,1
63470,-83.3333333333333,4,2,1,25,0,1
63548,-83.3333333333333,4,2,1,75,0,1
63625,-83.3333333333333,4,2,1,25,0,1
63703,-83.3333333333333,4,2,1,75,0,1
63859,-83.3333333333333,4,2,1,25,0,1
63936,-83.3333333333333,4,2,1,75,0,1
64092,-83.3333333333333,4,2,1,25,0,1
64170,-83.3333333333333,4,2,1,75,0,1
64247,-83.3333333333333,4,2,1,25,0,1
64325,-83.3333333333333,4,2,1,75,0,1
64714,-83.3333333333333,4,2,1,25,0,1
64791,-83.3333333333333,4,2,1,75,0,1
64869,-83.3333333333333,4,2,1,25,0,1
64947,-83.3333333333333,4,2,1,75,0,1
65024,-83.3333333333333,4,2,1,25,0,1
65102,-83.3333333333333,4,2,1,75,0,1
65180,-83.3333333333333,4,2,1,25,0,1
65258,-83.3333333333333,4,2,1,75,0,1
66890,-83.3333333333333,4,2,1,25,0,1
66967,-83.3333333333333,4,2,1,75,0,1
67045,-83.3333333333333,4,2,1,25,0,1
67123,-83.3333333333333,4,2,1,75,0,1
67201,-83.3333333333333,4,2,1,25,0,1
67278,-83.3333333333333,4,2,1,75,0,1
67356,-83.3333333333333,4,2,1,25,0,1
67434,-83.3333333333333,4,2,1,75,0,1
67589,-83.3333333333333,4,2,1,25,0,1
67667,-83.3333333333333,4,2,1,75,0,1
67822,-83.3333333333333,4,2,1,25,0,1
67900,-83.3333333333333,4,2,1,75,0,1
67978,-83.3333333333333,4,2,1,25,0,1
68056,-83.3333333333333,4,2,1,75,0,1
68211,-83.3333333333333,4,2,1,25,0,1
68289,-83.3333333333333,4,2,1,75,0,1
68444,-83.3333333333333,4,2,1,25,0,1
68522,-83.3333333333333,4,2,1,75,0,1
68600,-83.3333333333333,4,2,1,25,0,1
68677,-83.3333333333333,4,2,1,75,0,1
69144,-83.3333333333333,4,2,1,55,0,1
69221,-83.3333333333333,4,2,1,75,0,1
69377,-83.3333333333333,4,2,1,25,0,1
69454,-83.3333333333333,4,2,1,75,0,1
69532,-83.3333333333333,4,2,1,25,0,1
69610,-83.3333333333333,4,2,1,75,0,1
69688,-83.3333333333333,4,2,1,25,0,1
69765,-83.3333333333333,4,2,1,75,0,1
69843,-83.3333333333333,4,2,1,25,0,1
69921,-83.3333333333333,4,2,1,75,0,1
69999,-83.3333333333333,4,2,1,25,0,1
70076,-83.3333333333333,4,2,1,75,0,1
70154,-83.3333333333333,4,2,1,25,0,1
70232,-83.3333333333333,4,2,1,75,0,1
71864,-83.3333333333333,4,2,1,25,0,1
71942,-83.3333333333333,4,2,1,75,0,1
72019,-83.3333333333333,4,2,1,25,0,1
72097,-83.3333333333333,4,2,1,75,0,1
72175,-83.3333333333333,4,2,1,25,0,1
72252,-83.3333333333333,4,2,1,75,0,1
72330,-83.3333333333333,4,2,1,25,0,1
72408,-83.3333333333333,4,2,1,75,0,1
75050,-83.3333333333333,4,2,1,25,0,1
75128,-83.3333333333333,4,2,1,75,0,1
75284,-83.3333333333333,4,2,1,25,0,1
75361,-83.3333333333333,4,2,1,75,0,1
75439,-83.3333333333333,4,2,1,25,0,1
75517,-83.3333333333333,4,2,1,75,0,1
75594,-83.3333333333333,4,2,1,25,0,1
75672,-83.3333333333333,4,2,1,75,0,1
76294,-83.3333333333333,4,2,1,25,0,1
76372,-83.3333333333333,4,2,1,75,0,1
76527,-83.3333333333333,4,2,1,25,0,1
76605,-83.3333333333333,4,2,1,75,0,1
76682,-83.3333333333333,4,2,1,25,0,1
76760,-83.3333333333333,4,2,1,75,0,1
76838,-83.3333333333333,4,2,1,25,0,1
76916,-83.3333333333333,4,2,1,75,0,1
77537,-83.3333333333333,4,2,1,55,0,1
77693,-83.3333333333333,4,2,1,75,0,1
78159,-83.3333333333333,4,2,1,55,0,1
78315,-83.3333333333333,4,2,1,75,0,1
79869,-83.3333333333333,4,2,1,75,0,0
81967,-83.3333333333333,4,2,1,10,0,0
82045,-83.3333333333333,4,2,1,55,0,0
82278,-83.3333333333333,4,2,1,25,0,0
82356,-83.3333333333333,4,2,1,75,0,1
82511,-83.3333333333333,4,2,1,25,0,1
82589,-83.3333333333333,4,2,1,75,0,1
82745,-83.3333333333333,4,2,1,25,0,1
82822,-83.3333333333333,4,2,1,75,0,1
82900,-83.3333333333333,4,2,1,25,0,1
82978,-83.3333333333333,4,2,1,75,0,1
83133,-83.3333333333333,4,2,1,25,0,1
83211,-83.3333333333333,4,2,1,75,0,1
83366,-83.3333333333333,4,2,1,25,0,1
83444,-83.3333333333333,4,2,1,75,0,1
83522,-83.3333333333333,4,2,1,25,0,1
83600,-83.3333333333333,4,2,1,75,0,1
83755,-83.3333333333333,4,2,1,25,0,1
83833,-83.3333333333333,4,2,1,75,0,1
83988,-83.3333333333333,4,2,1,25,0,1
84066,-83.3333333333333,4,2,1,75,0,1
84144,-83.3333333333333,4,2,1,25,0,1
84221,-83.3333333333333,4,2,1,75,0,1
84610,-83.3333333333333,4,2,1,25,0,1
84688,-83.3333333333333,4,2,1,75,0,1
84765,-83.3333333333333,4,2,1,25,0,1
84843,-83.3333333333333,4,2,1,75,0,1
84921,-83.3333333333333,4,2,1,25,0,1
84999,-83.3333333333333,4,2,1,75,0,1
85076,-83.3333333333333,4,2,1,25,0,1
85154,-83.3333333333333,4,2,1,75,0,1
86786,-83.3333333333333,4,2,1,25,0,1
86864,-83.3333333333333,4,2,1,75,0,1
86942,-83.3333333333333,4,2,1,25,0,1
87019,-83.3333333333333,4,2,1,75,0,1
87097,-83.3333333333333,4,2,1,25,0,1
87175,-83.3333333333333,4,2,1,75,0,1
87252,-83.3333333333333,4,2,1,25,0,1
87330,-83.3333333333333,4,2,1,75,0,1
87486,-83.3333333333333,4,2,1,25,0,1
87563,-83.3333333333333,4,2,1,75,0,1
87719,-83.3333333333333,4,2,1,25,0,1
87796,-83.3333333333333,4,2,1,75,0,1
87874,-83.3333333333333,4,2,1,25,0,1
87952,-83.3333333333333,4,2,1,75,0,1
88107,-83.3333333333333,4,2,1,25,0,1
88185,-83.3333333333333,4,2,1,75,0,1
88340,-83.3333333333333,4,2,1,25,0,1
88418,-83.3333333333333,4,2,1,75,0,1
88496,-83.3333333333333,4,2,1,25,0,1
88574,-83.3333333333333,4,2,1,75,0,1
89895,-83.3333333333333,4,2,1,25,0,1
89973,-83.3333333333333,4,2,1,75,0,1
90050,-83.3333333333333,4,2,1,25,0,1
90128,-83.3333333333333,4,2,1,75,0,1
90517,-83.3333333333333,4,2,1,25,0,1
90594,-83.3333333333333,4,2,1,75,0,1
90672,-83.3333333333333,4,2,1,25,0,1
90750,-83.3333333333333,4,2,1,75,0,1
90828,-83.3333333333333,4,2,1,25,0,1
90905,-83.3333333333333,4,2,1,75,0,1
90983,-83.3333333333333,4,2,1,25,0,1
91061,-83.3333333333333,4,2,1,75,0,1
91138,-83.3333333333333,4,2,1,25,0,1
91216,-83.3333333333333,4,2,1,75,0,1
91294,-83.3333333333333,4,2,1,25,0,1
91372,-83.3333333333333,4,2,1,75,0,1
91760,-83.3333333333333,4,2,1,25,0,1
91838,-83.3333333333333,4,2,1,75,0,1
91916,-83.3333333333333,4,2,1,25,0,1
91993,-83.3333333333333,4,2,1,75,0,1
92071,-83.3333333333333,4,2,1,25,0,1
92149,-83.3333333333333,4,2,1,75,0,1
93004,-83.3333333333333,4,2,1,25,0,1
93081,-83.3333333333333,4,2,1,75,0,1
93159,-83.3333333333333,4,2,1,25,0,1
93237,-83.3333333333333,4,2,1,75,0,1
93315,-83.3333333333333,4,2,1,25,0,1
93392,-83.3333333333333,4,2,1,75,0,1
93470,-83.3333333333333,4,2,1,25,0,1
93548,-83.3333333333333,4,2,1,75,0,1
93625,-83.3333333333333,4,2,1,25,0,1
93703,-83.3333333333333,4,2,1,75,0,1
93781,-83.3333333333333,4,2,1,25,0,1
93859,-83.3333333333333,4,2,1,75,0,1
93936,-83.3333333333333,4,2,1,25,0,1
94014,-83.3333333333333,4,2,1,75,0,1
94092,-83.3333333333333,4,2,1,25,0,1
94170,-83.3333333333333,4,2,1,75,0,1
94869,-83.3333333333333,4,2,1,35,0,1
94947,-83.3333333333333,4,2,1,75,0,1
95335,-83.3333333333333,4,2,1,25,0,1
95413,-83.3333333333333,4,2,1,75,0,1
95491,-83.3333333333333,4,2,1,25,0,1
95568,-83.3333333333333,4,2,1,75,0,1
95957,-83.3333333333333,4,2,1,25,0,1
96035,-83.3333333333333,4,2,1,75,0,1
96113,-83.3333333333333,4,2,1,25,0,1
96190,-83.3333333333333,4,2,1,75,0,1
96579,-83.3333333333333,4,2,1,25,0,1
96657,-83.3333333333333,4,2,1,75,0,1
96734,-83.3333333333333,4,2,1,55,0,1
96812,-83.3333333333333,4,2,1,75,0,1
96890,-83.3333333333333,4,2,1,55,0,1
96967,-83.3333333333333,4,2,1,75,0,1
97434,-83.3333333333333,4,2,1,55,0,1
98522,-83.3333333333333,4,2,1,75,0,1
98755,-83.3333333333333,4,2,1,25,0,1
98833,-83.3333333333333,4,2,1,75,0,1
99066,-83.3333333333333,4,2,1,25,0,1
99144,-83.3333333333333,4,2,1,55,0,1
99221,-83.3333333333333,4,2,1,45,0,1
99765,-83.3333333333333,4,2,1,75,0,0
99999,-83.3333333333333,4,2,1,25,0,0
100076,-83.3333333333333,4,2,1,75,0,0
100232,-83.3333333333333,4,2,1,25,0,0
100309,-83.3333333333333,4,2,1,75,0,0
100387,-83.3333333333333,4,2,1,75,0,0
100465,-83.3333333333333,4,2,1,25,0,0
100543,-83.3333333333333,4,2,1,75,0,0
100620,-83.3333333333333,4,2,1,25,0,0
100698,-83.3333333333333,4,2,1,75,0,0
100776,-83.3333333333333,4,2,1,25,0,0
100853,-83.3333333333333,4,2,1,75,0,0
100931,-83.3333333333333,4,2,1,25,0,0
101009,-83.3333333333333,4,2,1,75,0,0
101242,-83.3333333333333,4,2,1,25,0,0
101320,-83.3333333333333,4,2,1,75,0,0
101475,-83.3333333333333,4,2,1,25,0,0
101553,-83.3333333333333,4,2,1,75,0,0
101631,-83.3333333333333,4,2,1,75,0,0
101708,-83.3333333333333,4,2,1,25,0,0
101786,-83.3333333333333,4,2,1,75,0,0
101864,-83.3333333333333,4,2,1,25,0,0
101942,-83.3333333333333,4,2,1,75,0,0
102019,-83.3333333333333,4,2,1,25,0,0
102097,-83.3333333333333,4,2,1,75,0,0
102175,-83.3333333333333,4,2,1,25,0,0
102252,-83.3333333333333,4,2,1,75,0,0
102486,-83.3333333333333,4,2,1,25,0,0
102563,-83.3333333333333,4,2,1,75,0,0
102719,-83.3333333333333,4,2,1,25,0,0
102796,-83.3333333333333,4,2,1,75,0,0
102874,-83.3333333333333,4,2,1,75,0,0
102952,-83.3333333333333,4,2,1,25,0,0
103030,-83.3333333333333,4,2,1,75,0,0
103107,-83.3333333333333,4,2,1,25,0,0
103185,-83.3333333333333,4,2,1,75,0,0
103263,-83.3333333333333,4,2,1,25,0,0
103340,-83.3333333333333,4,2,1,75,0,0
103418,-83.3333333333333,4,2,1,25,0,0
103496,-83.3333333333333,4,2,1,75,0,0
103729,-83.3333333333333,4,2,1,25,0,0
103807,-83.3333333333333,4,2,1,75,0,0
103962,-83.3333333333333,4,2,1,25,0,0
104040,-83.3333333333333,4,2,1,75,0,0
104351,-83.3333333333333,4,2,1,25,0,0
104429,-83.3333333333333,4,2,1,75,0,0
104662,-83.3333333333333,4,2,1,25,0,0
104739,-83.3333333333333,4,2,1,75,0,0
104973,-83.3333333333333,4,2,1,25,0,0
105050,-83.3333333333333,4,2,1,75,0,0
105206,-83.3333333333333,4,2,1,25,0,0
105283,-83.3333333333333,4,2,1,75,0,0
105361,-83.3333333333333,4,2,1,75,0,0
105439,-83.3333333333333,4,2,1,25,0,0
105517,-83.3333333333333,4,2,1,75,0,0
105594,-83.3333333333333,4,2,1,25,0,0
105672,-83.3333333333333,4,2,1,75,0,0
105750,-83.3333333333333,4,2,1,25,0,0
105828,-83.3333333333333,4,2,1,75,0,0
105905,-83.3333333333333,4,2,1,25,0,0
105983,-83.3333333333333,4,2,1,75,0,0
106216,-83.3333333333333,4,2,1,25,0,0
106294,-83.3333333333333,4,2,1,75,0,0
106449,-83.3333333333333,4,2,1,25,0,0
106527,-83.3333333333333,4,2,1,75,0,0
106605,-83.3333333333333,4,2,1,75,0,0
106682,-83.3333333333333,4,2,1,25,0,0
106760,-83.3333333333333,4,2,1,75,0,0
106838,-83.3333333333333,4,2,1,25,0,0
106916,-83.3333333333333,4,2,1,75,0,0
106993,-83.3333333333333,4,2,1,25,0,0
107071,-83.3333333333333,4,2,1,75,0,0
107149,-83.3333333333333,4,2,1,25,0,0
107227,-83.3333333333333,4,2,1,75,0,0
107460,-83.3333333333333,4,2,1,25,0,0
107537,-83.3333333333333,4,2,1,75,0,0
107693,-83.3333333333333,4,2,1,25,0,0
107771,-83.3333333333333,4,2,1,75,0,0
107848,-83.3333333333333,4,2,1,75,0,0
107926,-83.3333333333333,4,2,1,25,0,0
108004,-83.3333333333333,4,2,1,75,0,0
108081,-83.3333333333333,4,2,1,25,0,0
108159,-83.3333333333333,4,2,1,75,0,0
108625,-83.3333333333333,4,2,1,25,0,0
108781,-83.3333333333333,4,2,1,75,0,0
108936,-83.3333333333333,4,2,1,25,0,0
109092,-83.3333333333333,4,2,1,65,0,0
109247,-83.3333333333333,4,2,1,25,0,0
109403,-83.3333333333333,4,2,1,75,0,0
109558,-83.3333333333333,4,2,1,25,0,0
109714,-83.3333333333333,4,2,1,75,0,0
109947,-83.3333333333333,4,2,1,25,0,0
110024,-83.3333333333333,4,2,1,75,0,0
110102,-83.3333333333333,4,2,1,25,0,0
110180,-83.3333333333333,4,2,1,75,0,0
110413,-83.3333333333333,4,2,1,25,0,0
110491,-83.3333333333333,4,2,1,75,0,0
110568,-83.3333333333333,4,2,1,25,0,0
110646,-83.3333333333333,4,2,1,75,0,0
110724,-83.3333333333333,4,2,1,25,0,0
110802,-83.3333333333333,4,2,1,75,0,0
111190,-83.3333333333333,4,2,1,25,0,0
111268,-83.3333333333333,4,2,1,75,0,0
111346,-83.3333333333333,4,2,1,25,0,0
111423,-83.3333333333333,4,2,1,75,0,0
111657,-83.3333333333333,4,2,1,25,0,0
111734,-83.3333333333333,4,2,1,75,0,0
111812,-83.3333333333333,4,2,1,25,0,0
111890,-83.3333333333333,4,2,1,75,0,0
111967,-83.3333333333333,4,2,1,25,0,0
112045,-83.3333333333333,4,2,1,75,0,0
112123,-83.3333333333333,4,2,1,25,0,0
112201,-83.3333333333333,4,2,1,75,0,0
112434,-83.3333333333333,4,2,1,25,0,0
112511,-83.3333333333333,4,2,1,75,0,0
112589,-83.3333333333333,4,2,1,25,0,0
112667,-83.3333333333333,4,2,1,75,0,0
112900,-83.3333333333333,4,2,1,25,0,0
112978,-83.3333333333333,4,2,1,75,0,0
113056,-83.3333333333333,4,2,1,25,0,0
113133,-83.3333333333333,4,2,1,75,0,0
113211,-83.3333333333333,4,2,1,25,0,0
113289,-83.3333333333333,4,2,1,75,0,0
113366,-83.3333333333333,4,2,1,25,0,0
113444,-83.3333333333333,4,2,1,75,0,0
113677,-83.3333333333333,4,2,1,25,0,0
113755,-83.3333333333333,4,2,1,75,0,0
113833,-83.3333333333333,4,2,1,25,0,0
113910,-83.3333333333333,4,2,1,75,0,0
114299,-83.3333333333333,4,2,1,25,0,0
114377,-83.3333333333333,4,2,1,75,0,0
114610,-83.3333333333333,4,2,1,25,0,0
114688,-83.3333333333333,4,2,1,65,0,0
115232,-83.3333333333333,4,2,1,25,0,0
115309,-83.3333333333333,4,2,1,65,0,0
115853,-83.3333333333333,4,2,1,25,0,0
115931,-83.3333333333333,4,2,1,65,0,0
116475,-83.3333333333333,4,2,1,25,0,0
116553,-83.3333333333333,4,2,1,65,0,0
117097,-83.3333333333333,4,2,1,25,0,0
117175,-83.3333333333333,4,2,1,75,0,0
119662,-83.3333333333333,4,2,1,30,0,0

[Colours]
Combo1 : 136,214,247
Combo2 : 249,67,6
Combo3 : 242,180,13
Combo4 : 12,99,243

[HitObjects]
475,36,284,6,0,B|492:72|492:72|484:107,1,75.0000028610231,2|0,2:2|2:2,2:2:0:0:
474,109,594,2,0,B|483:75|483:75|466:39,1,75.0000028610231,2|0,2:2|2:2,2:2:0:0:
328,52,905,2,0,B|320:87|320:87|337:123,1,75.0000028610231,2|0,2:2|2:2,2:2:0:0:
326,124,1216,2,0,B|309:88|309:88|318:54,1,75.0000028610231,2|0,2:2|2:2,2:2:0:0:
194,54,1527,6,0,B|202:88|202:88|185:124,1,75.0000028610231,2|0,0:2|2:2,2:2:0:0:
175,123,1838,2,0,B|192:87|192:87|182:45,1,75.0000028610231,2|0,2:2|2:2,2:2:0:0:
46,39,2150,2,0,B|29:75|29:75|39:117,1,75.0000028610231,2|0,2:2|2:2,2:2:0:0:
28,107,2460,2,0,B|19:72|19:72|36:36,1,75.0000028610231,2|0,2:2|2:2,2:2:0:0:
88,217,2771,6,0,B|75:293|75:293|111:376,3,150.000005722046,2|2|2|2,2:2|2:2|2:2|2:2,2:2:0:0:
407,359,4014,2,0,B|437:293|437:293|424:217,3,150.000005722046,2|2|2|2,2:2|2:2|2:2|2:2,2:2:0:0:
30,193,5258,6,0,P|14:232|20:267,1,75.0000028610231,2|0,2:2|2:2,2:2:0:0:
13,278,5569,2,0,P|39:310|73:324,1,75.0000028610231,2|0,2:2|2:2,2:2:0:0:
146,348,5879,6,0,P|187:342|215:319,1,75.0000028610231,2|0,2:2|2:2,2:2:0:0:
228,320,6190,2,0,P|242:281|237:245,1,75.0000028610231,2|0,2:2|2:2,2:2:0:0:
288,160,6501,6,0,P|272:121|278:86,1,75.0000028610231,2|0,2:2|2:2,2:2:0:0:
271,75,6812,2,0,P|297:43|331:29,1,75.0000028610231,2|0,2:2|2:2,2:2:0:0:
404,5,7122,6,0,P|445:10|473:33,1,75.0000028610231,2|0,2:2|2:2,2:2:0:0:
486,33,7433,2,0,P|500:71|495:107,1,75.0000028610231,2|0,2:2|2:2,2:2:0:0:
256,192,7745,12,10,10076,1:2:0:0:
417,30,10232,6,0,B|460:73|509:42|509:42|477:90|512:136,1,200,6|0,1:3|2:2,2:2:0:0:
374,162,10698,2,0,B|389:102|338:75|338:75|396:79|418:25,1,200,6|0,1:3|2:2,2:2:0:0:
455,200,11164,2,0,L|471:304,1,100,6|0,1:3|0:0,2:2:0:0:
382,376,11475,6,0,L|390:323,1,50,2|4,2:2|2:2,2:2:0:0:
304,378,11786,2,0,L|312:325,1,50,2|4,2:2|2:2,2:2:0:0:
226,380,12097,2,0,L|234:327,1,50,2|4,2:2|2:2,2:2:0:0:
148,382,12408,2,0,L|156:329,1,50,2|4,2:2|2:2,2:2:0:0:
78,285,12719,6,0,P|0:220|37:112,1,200,6|0,1:3|2:2,2:2:0:0:
179,155,13185,2,0,P|161:254|49:275,1,200,6|0,1:3|2:2,2:2:0:0:
103,100,13651,2,0,L|117:-8,1,100,6|0,1:3|0:0,2:2:0:0:
203,19,13962,6,0,L|195:71,1,50,2|6,2:2|2:2,2:2:0:0:
271,93,14195,1,2,2:2:0:0:
273,77,14273,2,0,L|279:27,1,50,2|6,2:2|2:2,2:2:0:0:
360,25,14506,1,0,0:0:0:0:
356,42,14584,2,0,L|349:91,1,50,2|0,2:2|0:0,2:2:0:0:
426,111,14817,1,0,2:2:0:0:
429,94,14895,2,0,L|436:43,3,50,10|10|10|10,2:3|2:3|2:3|2:3,0:0:0:0:
442,16,15206,6,0,P|503:62|490:175,1,200,14|10,1:3|1:2,2:2:0:0:
414,365,15828,5,10,1:2:0:0:
385,235,15983,1,0,2:2:0:0:
419,382,16138,1,10,1:2:0:0:
382,219,16294,1,2,1:2:0:0:
261,333,16449,6,0,B|191:339|191:339|157:379|157:379|77:385,1,200,14|10,1:3|1:2,2:2:0:0:
3,156,17071,5,10,1:2:0:0:
100,282,17226,1,2,1:2:0:0:
169,132,17382,1,10,1:2:0:0:
105,303,17537,1,2,1:2:0:0:
86,122,17693,5,14,1:3:0:0:
84,109,17770,1,10,1:3:0:0:
83,97,17848,1,10,1:2:0:0:
81,84,17926,1,10,1:2:0:0:
80,72,18003,1,10,1:2:0:0:
78,59,18081,1,10,1:2:0:0:
77,47,18159,1,10,1:2:0:0:
75,35,18237,1,10,1:2:0:0:
74,22,18315,5,6,1:3:0:0:
181,51,18522,1,6,1:3:0:0:
277,3,18729,1,6,1:3:0:0:
369,50,18936,6,0,L|377:108,1,50,2|4,2:2|2:2,2:2:0:0:
447,40,19247,2,0,L|455:98,1,50,2|4,2:2|2:2,2:2:0:0:
427,173,19558,2,0,P|385:204|382:264,1,100,2|10,2:2|2:2,0:0:0:0:
399,367,20180,1,0,1:2:0:0:
486,19,25154,6,0,L|463:168,1,150.000005722046,2|2,2:2|2:2,2:2:0:0:
370,198,25620,1,2,1:2:0:0:
372,214,25776,2,0,L|394:363,1,150.000005722046,10|2,2:2|2:2,2:2:0:0:
306,365,26242,1,2,1:2:0:0:
301,350,26397,6,0,B|263:337|263:337|209:367,3,75.0000028610231,2|2|2|2,2:2|1:2|1:2|2:2,0:0:0:0:
147,350,27019,2,0,B|116:366|116:366|78:353,3,75.0000028610231,10|2|2|2,2:2|2:2|2:2|2:2,0:0:0:0:
17,286,27641,5,2,1:2:0:0:
29,212,27796,1,2,2:2:0:0:
42,138,27952,1,2,2:2:0:0:
55,64,28107,1,2,1:2:0:0:
154,6,28263,5,10,2:2:0:0:
166,79,28418,1,2,2:2:0:0:
179,153,28574,1,2,2:2:0:0:
192,227,28729,1,2,1:2:0:0:
298,283,28885,6,0,P|323:287|348:276,3,34.9999989318848,2|2|2|2,2:2|2:2|1:2|2:2,0:0:0:0:
379,345,29195,2,0,P|397:325|406:298,3,40,2|2|2|2,1:2|2:2|2:2|2:2,2:2:0:0:
479,305,29506,2,0,P|471:279|451:258,3,44.999998626709,10|2|2|2,2:2|2:2|1:2|2:2,0:0:0:0:
487,195,29817,2,2,P|461:188|432:194,3,50,2|2|2|2,2:2|2:2|2:2|2:2,2:2:0:0:
411,118,30128,6,0,B|392:82|392:82|403:11,1,100,14|0,2:3|0:0,2:2:0:0:
283,97,30439,2,0,B|312:68|312:68|323:-2,1,100,10|0,2:3|0:0,2:2:0:0:
411,118,30750,6,0,B|392:82|392:82|403:11,1,100,10|0,2:3|0:0,2:2:0:0:
283,97,31061,2,0,B|312:68|312:68|323:-2,1,100,10|0,2:3|0:0,2:2:0:0:
157,73,31372,6,0,B|138:109|138:109|149:180,1,100,10|0,2:3|0:0,2:2:0:0:
29,94,31683,2,0,B|58:122|58:122|69:193,1,100,10|0,2:3|0:0,2:2:0:0:
157,73,31994,6,0,B|138:109|138:109|149:180,1,100,10|0,2:3|0:0,2:2:0:0:
29,94,32305,2,0,B|58:122|58:122|69:193,1,100,10|0,2:3|2:2,2:2:0:0:
121,244,32537,1,2,2:2:0:0:
124,260,32615,6,0,B|130:304|130:304|137:314|137:314|144:367,1,100,14|0,2:3|0:0,2:2:0:0:
227,352,32926,2,0,B|268:368|268:368|280:367|280:367|329:388,1,100,10|0,2:3|0:0,2:2:0:0:
358,308,33237,2,0,B|393:280|393:280|398:269|398:269|440:237,1,100,10|0,2:3|0:0,2:2:0:0:
385,172,33548,2,0,B|378:128|378:128|372:118|372:118|364:65,1,100,10|0,2:3|0:0,2:2:0:0:
510,0,33859,6,0,P|481:57|425:69,1,100,10|0,2:3|0:0,2:2:0:0:
366,74,34170,2,0,P|309:45|297:-10,1,100,10|0,2:3|0:0,2:2:0:0:
200,1,34480,1,10,2:3:0:0:
103,19,34636,1,10,2:3:0:0:
33,89,34791,1,10,2:3:0:0:
15,185,34947,1,10,2:3:0:0:
16,204,35024,1,10,2:3:0:0:
17,223,35102,6,0,B|20:278|20:278|36:304|36:304|39:371,1,150.000005722046,14|10,2:3|2:2,2:2:0:0:
164,362,35335,2,0,P|186:341|216:332,1,50,8|0,2:2|2:2,2:2:0:0:
220,331,35490,1,10,2:2:0:0:
236,333,35568,2,0,P|265:342|287:363,1,50,10|0,2:2|2:2,2:2:0:0:
376,315,35724,6,0,B|431:370|431:370|493:333,1,150,14|10,2:3|2:2,2:2:0:0:
448,236,35957,2,0,L|455:177,1,50,10|0,2:2|2:2,2:2:0:0:
456,168,36113,1,10,2:2:0:0:
458,152,36190,2,0,L|465:93,1,50,10|0,2:2|2:2,2:2:0:0:
410,11,36346,6,0,P|323:20|290:98,1,150,14|10,2:3|2:2,2:2:0:0:
183,53,36579,2,0,L|124:46,1,50,10|0,2:2|2:2,2:2:0:0:
115,44,36735,1,10,2:2:0:0:
99,42,36812,2,0,L|40:35,1,50,10|0,2:2|2:2,2:2:0:0:
17,122,36967,6,0,B|3:230|3:230|35:201,1,150,14|10,2:3|2:2,2:2:0:0:
133,199,37201,2,0,P|176:206|200:238,1,50,10|0,2:2|2:2,2:2:0:0:
196,221,37356,1,10,2:2:0:0:
206,234,37434,2,0,P|221:275|205:312,1,50,10|0,2:2|2:2,2:2:0:0:
238,374,37589,5,14,2:3:0:0:
125,355,37745,1,10,2:3:0:0:
260,378,37900,5,10,2:3:0:0:
108,351,38056,1,10,2:3:0:0:
280,382,38211,5,10,2:2:0:0:
297,387,38288,1,10,2:2:0:0:
316,389,38366,1,10,2:2:0:0:
334,386,38444,1,10,2:2:0:0:
352,379,38521,1,10,2:2:0:0:
366,368,38599,1,10,2:2:0:0:
378,353,38677,1,10,2:2:0:0:
386,336,38755,1,10,2:2:0:0:
390,316,38833,6,0,P|411:250|503:232,1,150,0|0,1:2|2:2,2:2:0:0:
512,234,39144,2,0,P|512:260|502:235,3,75.0000028610231,10|10|10|10,2:2|2:2|2:2|2:2,0:0:0:0:
415,154,39454,6,0,L|402:64,1,75.0000028610231,2|0,2:2|2:2,2:2:0:0:
336,163,39610,2,0,L|323:73,1,75.0000028610231,2|0,2:2|2:2,2:2:0:0:
243,38,39765,2,0,L|230:128,1,75.0000028610231,10|0,1:3|2:2,2:2:0:0:
164,29,39921,2,0,L|151:119,1,75.0000028610231,2|0,2:2|2:2,2:2:0:0:
76,156,40076,6,0,P|5:202|32:310,1,150.000005722046,4|0,1:3|2:2,2:2:0:0:
3,282,40387,2,0,L|17:365,1,75,8|0,2:2|2:2,2:2:0:0:
106,302,40698,6,0,B|97:248|97:248|146:199,1,100,10|0,2:3|0:0,2:2:0:0:
208,193,40905,2,0,B|258:212|258:212|270:256,1,100,2|0,1:2|0:0,2:2:0:0:
251,334,41113,2,0,B|209:367|209:367|163:355,1,100,2|0,1:2|0:0,2:2:0:0:
484,280,41527,6,0,B|479:316|479:316|473:323|473:323|466:377,1,100.000003814697,2|0,1:2|0:0,2:2:0:0:
378,363,41734,2,0,B|385:309|385:309|391:302|391:302|398:252,1,100.000003814697,2|0,1:2|0:0,2:2:0:0:
498,121,41942,6,0,B|458:142|458:142|450:196,1,100,10|0,2:3|0:0,2:2:0:0:
364,180,42149,2,0,B|367:133|367:133|326:100,1,100,2|0,1:2|0:0,2:2:0:0:
381,36,42356,2,0,B|420:61|420:61|471:42,1,100,2|0,1:2|0:0,2:2:0:0:
299,19,42563,6,0,B|250:25|250:25|237:31|237:31|224:28|224:28|210:35|210:35|196:32|196:32|184:38|184:38|167:37|167:37|134:41,1,150,2|0,1:2|0:0,2:2:0:0:
58,10,43185,6,0,B|44:62|44:62|73:98,1,100.000003814697,10|0,2:3|0:0,1:2:0:0:
148,148,43392,2,0,B|161:200|161:200|132:236,1,100.000003814697,2|0,1:2|0:0,0:0:0:0:
62,289,43600,2,0,B|48:341|48:341|77:377,1,100.000003814697,2|0,1:2|0:0,0:0:0:0:
315,376,44014,6,0,B|279:371|279:371|272:365|272:365|218:358,1,100.000003814697,2|0,1:2|0:0,2:2:0:0:
234,270,44221,2,0,B|288:277|288:277|295:283|295:283|345:290,1,100.000003814697,2|0,1:2|0:0,2:2:0:0:
405,341,44377,1,2,1:2:0:0:
405,341,44429,6,0,B|506:323|506:323|491:215,1,200.000007629395,6|0,1:3|2:2,2:2:0:0:
486,209,44739,2,0,B|383:198|383:198|391:89,1,200.000007629395,6|10,1:3|2:2,2:2:0:0:
405,13,44999,1,10,2:2:0:0:
405,13,45050,6,0,P|459:37|471:128,1,150,4|0,1:3|2:2,2:2:0:0:
463,123,45361,2,0,L|375:113,1,75,8|0,2:2|2:2,2:2:0:0:
287,98,45672,6,0,P|284:49|247:16,1,100.000003814697,10|0,2:3|0:0,2:2:0:0:
168,12,45879,2,0,P|127:38|116:85,1,100.000003814697,2|0,1:2|0:0,2:2:0:0:
152,156,46087,2,0,P|197:178|243:163,1,100.000003814697,2|0,1:2|0:0,2:2:0:0:
123,240,46501,6,0,B|69:247|69:247|62:253|62:253|26:258,1,100.000003814697,2|0,1:2|0:0,2:2:0:0:
40,346,46708,2,0,B|76:341|76:341|83:335|83:335|137:328,1,100.000003814697,0|0,1:2|0:0,2:2:0:0:
307,384,46916,6,0,P|271:351|223:353,1,100.000003814697,10|0,2:3|0:0,2:2:0:0:
208,265,47123,2,0,P|255:250|279:208,1,100.000003814697,2|0,1:2|0:0,2:2:0:0:
363,242,47330,2,0,P|352:289|379:331,1,100.000003814697,2|0,1:2|0:0,2:2:0:0:
479,262,47537,6,0,P|447:277|480:268,1,100,0|0,1:2|2:2,2:2:0:0:
503,172,47848,1,0,2:2:0:0:
499,147,47925,1,8,2:2:0:0:
495,122,48003,1,8,2:2:0:0:
492,97,48081,1,8,2:2:0:0:
488,72,48159,6,0,P|441:47|393:60,1,100.000003814697,10|0,2:3|0:0,2:2:0:0:
334,124,48366,2,0,P|285:133|243:109,1,100.000003814697,2|0,1:2|0:0,0:0:0:0:
208,25,48574,2,0,P|161:0|113:13,1,100.000003814697,2|0,1:2|0:0,0:0:0:0:
43,54,48781,6,0,B|21:81|21:81|50:169,1,100,6|0,1:2|2:2,2:2:0:0:
130,175,49092,2,0,B|151:202|151:202|130:264,1,100,6|0,1:2|2:2,2:2:0:0:
33,55,49403,6,0,B|11:82|11:82|40:170,1,100,6|0,1:2|2:2,2:2:0:0:
139,175,49714,2,0,B|160:202|160:202|139:264,1,100,6|0,1:2|2:2,2:2:0:0:
56,318,50024,6,0,P|128:362|192:345,1,150,6|0,1:3|2:2,2:2:0:0:
202,339,50335,2,0,L|277:357,1,75,10|0,2:2|2:2,2:2:0:0:
386,309,50646,6,0,B|364:289|338:295|338:295|364:289|369:261,1,100.000003814697,10|0,2:3|0:0,2:2:0:0:
422,195,50853,2,0,B|448:186|456:160|456:160|448:186|470:204,1,100.000003814697,2|0,1:2|0:0,2:2:0:0:
499,285,51060,2,0,B|492:312|510:332|510:332|492:312|465:322,1,100.000003814697,2|0,1:2|0:0,2:2:0:0:
362,123,51475,6,0,B|386:81|386:81|377:30,1,100.000003814697,2|0,1:2|0:0,2:2:0:0:
291,17,51682,2,0,B|265:55|265:55|276:108,1,100.000003814697,2|0,1:2|0:0,2:2:0:0:
166,127,51890,6,0,B|209:152|209:152|160:144,1,100.000003814697,10|0,2:3|0:0,2:2:0:0:
73,150,52097,2,0,B|29:174|29:174|60:136,1,100.000003814697,2|0,1:2|0:0,2:2:0:0:
98,58,52304,2,0,B|98:7|98:7|115:53,1,100.000003814697,2|0,1:2|0:0,2:2:0:0:
122,213,52511,6,0,B|127:258|127:258|133:270|133:270|126:281|126:281|139:293|139:293|130:307|130:307|139:319|139:319|138:334|138:334|143:360,1,150,2|0,1:2|0:0,2:2:0:0:
217,278,53133,6,0,B|244:263|244:263|324:293,1,100.000003814697,10|0,2:3|0:0,2:2:0:0:
324,370,53340,2,0,B|351:385|351:385|431:355,1,100.000003814697,2|0,1:2|0:0,0:0:0:0:
421,281,53548,2,0,B|448:266|448:266|528:296,1,100.000003814697,2|0,1:2|0:0,0:0:0:0:
463,73,53962,6,0,B|487:115|487:115|478:166,1,100.000003814697,2|0,1:2|0:0,2:2:0:0:
392,179,54169,2,0,B|366:141|366:141|377:88,1,100.000003814697,2|0,1:2|0:0,2:2:0:0:
318,21,54325,1,2,1:2:0:0:
318,21,54377,6,0,P|235:35|193:152,1,200.000007629395,14|0,1:3|2:2,2:2:0:0:
172,136,54688,2,0,P|107:66|12:79,1,200.000007629395,6|10,1:3|2:2,2:2:0:0:
74,158,54947,1,10,2:2:0:0:
72,172,54999,6,0,B|64:226|64:226|43:247|43:247|31:331,1,150,6|0,1:3|0:0,2:2:0:0:
30,334,55309,2,0,L|103:346,1,75,0|0,1:2|0:0,2:2:0:0:
174,307,55620,6,0,B|190:309|190:309|204:300,1,33.3333333333333,10|0,1:3|2:2,2:2:0:0:
228,319,55828,6,0,B|218:331|218:331|218:349,1,33.3333333333333,2|10,2:2|1:3,2:2:0:0:
202,355,56035,6,0,B|196:339|196:339|180:332,1,33.3333333333333,2|0,2:2|2:2,2:2:0:0:
298,198,56242,6,0,B|313:214|313:214|339:217,1,50.0000019073487,10|0,1:3|2:2,2:2:0:0:
342,235,56449,6,0,B|319:240|319:240|305:263,1,50.0000019073487,2|10,2:2|1:3,2:2:0:0:
284,258,56657,6,0,B|289:234|289:234|278:211,1,50.0000019073487,2|0,2:2|2:2,2:2:0:0:
468,171,56864,6,0,B|484:202|484:202|513:214,1,66.6666666666667,10|0,1:3|2:2,2:2:0:0:
505,246,57071,6,0,B|469:244|469:244|445:264,1,66.6666666666667,2|10,2:2|1:3,2:2:0:0:
425,241,57278,6,0,B|444:211|444:211|439:180,1,66.6666666666667,2|0,2:2|2:2,2:2:0:0:
351,361,57486,5,10,1:3:0:0:
472,349,57641,1,10,1:3:0:0:
334,363,57796,5,10,1:3:0:0:
488,348,57951,1,10,1:3:0:0:
317,364,58107,5,10,1:3:0:0:
295,352,58184,1,10,1:3:0:0:
279,333,58262,1,10,1:3:0:0:
270,310,58340,1,10,1:3:0:0:
268,283,58418,2,0,L|275:231,3,50,10|10|10|10,1:3|1:3|1:3|1:3,0:0:0:0:
268,134,58729,5,2,2:2:0:0:
196,68,58885,1,2,2:2:0:0:
99,73,59040,1,2,2:2:0:0:
35,146,59195,1,2,2:2:0:0:
43,243,59351,6,0,B|85:277|85:277|89:329,1,100,2|2,1:2|2:2,2:2:0:0:
181,375,59662,1,10,2:3:0:0:
178,350,59739,1,10,2:3:0:0:
176,325,59817,1,10,2:3:0:0:
173,300,59895,1,10,2:3:0:0:
171,275,59973,6,0,B|166:226|166:226|152:210|152:210|146:149,1,119.999996337891,6|2,1:3|2:2,2:2:0:0:
191,8,60283,2,0,L|197:75,3,59.9999981689454,10|2|2|2,1:3|2:2|2:2|2:2,0:0:0:0:
281,51,60594,2,0,P|322:107|369:116,1,119.999996337891,2|2,1:2|2:2,2:2:0:0:
499,17,60905,1,10,1:3:0:0:
363,34,61061,1,2,2:2:0:0:
449,148,61216,6,0,L|470:290,1,119.999996337891,2|2,1:2|2:2,2:2:0:0:
398,384,61527,2,0,L|407:317,3,59.9999981689454,10|2|2|2,1:3|2:2|2:2|2:2,0:0:0:0:
347,269,61838,2,0,P|290:284|259:334,1,119.999996337891,2|2,1:2|2:2,0:0:0:0:
138,380,62149,2,0,L|23:367,1,112.500004291535,10|0,1:3|2:2,2:2:0:0:
19,350,62460,6,0,B|23:309|23:309|2:281|2:281|7:235,1,119.999996337891,2|2,1:2|2:2,2:2:0:0:
11,217,62693,1,2,2:2:0:0:
14,197,62771,2,0,L|21:132,1,59.9999981689454,10|0,1:3|2:2,2:2:0:0:
96,113,62926,2,0,L|102:53,1,59.9999981689454,2|0,2:2|2:2,2:2:0:0:
43,1,63081,6,0,L|171:14,1,119.999996337891,2|2,1:2|2:2,2:2:0:0:
187,17,63315,1,2,2:2:0:0:
207,20,63393,2,0,L|272:27,1,59.9999981689454,10|0,1:3|2:2,2:2:0:0:
310,94,63548,2,0,L|375:101,1,59.9999981689454,2|0,2:2|2:2,2:2:0:0:
427,44,63703,6,0,P|494:79|487:168,1,119.999996337891,2|2,1:2|2:2,2:2:0:0:
504,142,63936,1,2,2:2:0:0:
501,162,64014,2,0,L|494:227,1,59.9999981689454,10|0,1:3|2:2,2:2:0:0:
483,302,64170,2,0,L|476:367,1,59.9999981689454,2|0,2:2|2:2,2:2:0:0:
397,384,64325,1,2,1:2:0:0:
370,371,64402,1,2,2:2:0:0:
349,349,64480,1,2,2:2:0:0:
338,321,64558,1,2,2:2:0:0:
339,291,64636,2,0,L|346:223,3,59.9999981689454,10|0|2|0,1:3|2:2|1:2|2:2,2:2:0:0:
308,158,64947,6,0,B|313:109|313:109|327:93|327:93|333:32,1,119.999996337891,2|2,1:2|2:2,2:2:0:0:
218,0,65258,2,0,L|233:87,3,59.9999981689454,10|2|2|2,1:3|2:2|2:2|2:2,0:0:0:0:
178,143,65568,2,0,P|121:172|39:126,1,119.999996337891,2|2,1:2|2:2,2:2:0:0:
0,7,65879,1,10,1:3:0:0:
115,91,66035,1,2,2:2:0:0:
0,193,66190,6,0,L|12:335,1,119.999996337891,2|2,1:2|2:2,2:2:0:0:
108,363,66501,2,0,L|99:283,3,59.9999981689454,10|2|2|2,1:3|2:2|2:2|2:2,0:0:0:0:
164,233,66812,1,2,1:2:0:0:
244,197,66967,1,2,2:2:0:0:
330,216,67123,1,10,1:3:0:0:
387,284,67278,1,2,2:2:0:0:
392,372,67434,6,0,P|456:350|477:275,1,119.999996337891,2|2,1:2|2:2,2:2:0:0:
478,283,67667,1,2,2:2:0:0:
475,263,67745,2,0,L|468:198,1,59.9999981689454,10|0,1:3|2:2,2:2:0:0:
509,135,67900,2,0,L|502:70,1,59.9999981689454,2|0,2:2|2:2,2:2:0:0:
454,11,68056,6,0,B|407:16|407:16|386:32|386:32|330:39,1,119.999996337891,2|2,1:2|2:2,2:2:0:0:
318,40,68289,1,2,2:2:0:0:
298,43,68367,2,0,L|233:50,1,59.9999981689454,10|0,1:3|2:2,2:2:0:0:
170,7,68522,2,0,L|105:14,1,59.9999981689454,2|0,2:2|2:2,2:2:0:0:
56,78,68677,6,0,P|15:111|4:176,1,119.999996337891,2|2,1:2|2:2,0:0:0:0:
185,237,68988,2,0,P|164:189|104:163,1,119.999996337891,10|2,1:3|2:2,2:2:0:0:
105,164,69221,1,2,1:2:0:0:
105,164,69299,5,0,1:2:0:0:
77,284,69454,1,0,1:2:0:0:
169,375,69610,1,2,1:2:0:0:
194,249,69765,1,2,1:2:0:0:
58,384,69921,6,0,P|113:360|177:381,1,119.999996337891,6|2,1:3|2:2,2:2:0:0:
264,343,70232,2,0,L|332:355,3,59.9999981689454,10|2|2|2,1:3|2:2|2:2|2:2,0:0:0:0:
419,370,70543,2,0,P|474:343|476:279,1,119.999996337891,2|2,1:2|2:2,0:0:0:0:
455,140,70853,1,10,1:3:0:0:
478,273,71009,1,2,2:2:0:0:
452,119,71164,6,0,B|496:80|496:80|443:50,1,119.999996337891,2|2,1:2|2:2,2:2:0:0:
348,62,71397,1,2,2:2:0:0:
336,75,71475,2,0,B|292:114|292:114|345:144,1,119.999996337891,10|2,1:3|2:2,2:2:0:0:
330,234,71708,1,2,2:2:0:0:
327,250,71786,2,0,L|309:381,1,119.999996337891,2|2,1:2|2:2,2:2:0:0:
171,312,72097,1,10,1:3:0:0:
292,363,72252,1,2,2:2:0:0:
150,315,72408,6,0,P|93:334|64:387,1,119.999996337891,2|2,1:2|2:2,2:2:0:0:
26,242,72719,2,0,L|39:169,3,59.9999981689454,10|2|2|2,1:3|2:2|2:2|2:2,0:0:0:0:
51,100,73030,2,0,B|99:95|99:95|115:75|115:75|166:68,1,119.999996337891,2|2,1:2|2:2,0:0:0:0:
318,50,73341,1,10,1:3:0:0:
180,65,73496,1,2,2:2:0:0:
338,50,73651,6,0,L|326:114,3,59.9999981689454,2|2|2|2,1:2|2:2|2:2|2:2,0:0:0:0:
421,47,73962,2,0,L|409:105,3,59.9999981689454,10|2|2|2,1:3|2:2|2:2|2:2,0:0:0:0:
501,45,74273,1,2,1:2:0:0:
487,119,74429,1,2,2:2:0:0:
473,193,74584,1,10,1:3:0:0:
460,267,74739,1,10,1:3:0:0:
446,341,74895,6,0,P|369:340|337:398,1,119.999996337891,6|2,1:3|2:2,2:2:0:0:
327,366,75128,2,0,P|314:309|263:282,1,119.999996337891,2|0,1:2|2:2,2:2:0:0:
174,292,75361,1,2,1:2:0:0:
174,292,75517,1,2,1:3:0:0:
111,358,75672,1,2,2:2:0:0:
111,358,75828,2,0,B|49:381|49:381|9:315,1,119.999996337891,10|2,1:3|2:2,0:0:0:0:
85,276,76138,6,0,L|106:136,1,119.999996337891,6|2,1:3|2:2,2:2:0:0:
107,138,76372,2,0,L|128:-2,1,119.999996337891,2|0,1:2|2:2,2:2:0:0:
208,0,76605,1,2,1:2:0:0:
208,0,76760,1,2,1:2:0:0:
288,42,76916,1,2,2:2:0:0:
288,42,77071,2,0,B|338:35|338:35|357:13|357:13|421:5,1,119.999996337891,10|2,1:3|2:2,0:0:0:0:
474,48,77382,6,0,L|452:217,1,119.999996337891,4|2,1:3|2:2,2:2:0:0:
447,247,77693,2,0,L|435:319,3,59.9999981689454,10|2|2|2,1:3|2:2|2:2|2:2,0:0:0:0:
370,370,78004,2,0,L|348:201,1,119.999996337891,6|2,1:3|2:2,2:2:0:0:
343,171,78315,2,0,L|331:99,3,59.9999981689454,10|2|2|2,1:3|2:2|2:2|2:2,0:0:0:0:
265,45,78625,5,2,1:2:0:0:
245,129,78781,1,10,2:2:0:0:
178,30,78936,5,10,1:3:0:0:
159,114,79092,1,10,2:2:0:0:
91,18,79247,6,0,B|83:69|83:69|57:88|57:88|43:154,1,119.999996337891,10|10,1:3|2:2,0:0:0:0:
34,207,79558,2,0,L|22:268,3,59.9999981689454,8|8|8|8,1:3|1:3|1:3|1:3,0:0:0:0:
7,350,79869,1,8,1:3:0:0:
256,192,79947,12,10,82045,2:2:0:0:
493,34,82356,6,0,B|489:75|489:75|510:103|510:103|505:146,1,119.999996337891,6|0,1:3|2:2,2:2:0:0:
501,167,82589,1,2,2:2:0:0:
498,187,82667,2,0,L|491:246,1,59.9999981689454,10|0,1:3|2:2,2:2:0:0:
416,271,82822,2,0,L|410:331,1,59.9999981689454,2|0,2:2|2:2,2:2:0:0:
469,383,82977,6,0,L|349:370,1,119.999996337891,2|0,1:2|2:2,2:2:0:0:
325,367,83211,1,2,2:2:0:0:
305,364,83289,2,0,L|245:357,1,59.9999981689454,10|0,1:3|2:2,2:2:0:0:
202,290,83444,2,0,L|142:283,1,59.9999981689454,2|0,2:2|2:2,2:2:0:0:
84,340,83599,6,0,P|30:319|6:266,1,119.999996337891,2|0,1:2|2:2,2:2:0:0:
8,242,83832,1,2,2:2:0:0:
11,222,83910,2,0,L|17:162,1,59.9999981689454,10|0,1:3|2:2,2:2:0:0:
29,82,84066,2,0,L|35:22,1,59.9999981689454,2|0,2:2|2:2,2:2:0:0:
115,0,84221,1,2,1:2:0:0:
142,13,84298,1,2,2:2:0:0:
163,35,84376,1,2,2:2:0:0:
174,63,84454,1,2,2:2:0:0:
173,93,84532,2,0,L|166:152,3,59.9999981689454,10|0|2|0,1:3|2:2|1:2|2:2,2:2:0:0:
204,226,84843,6,0,B|199:275|199:275|185:291|185:291|180:340,1,119.999996337891,2|2,1:2|2:2,2:2:0:0:
294,384,85154,2,0,L|283:324,3,59.9999981689454,10|2|2|2,1:3|2:2|2:2|2:2,0:0:0:0:
334,240,85464,2,0,P|385:212|442:224,1,119.999996337891,2|2,1:2|2:2,2:2:0:0:
512,364,85775,1,10,1:3:0:0:
397,293,85931,1,2,2:2:0:0:
512,189,86086,6,0,L|501:69,1,119.999996337891,2|2,1:2|2:2,2:2:0:0:
404,21,86397,2,0,L|410:80,3,59.9999981689454,10|2|2|2,1:3|2:2|2:2|2:2,0:0:0:0:
348,151,86708,1,2,1:2:0:0:
268,187,86863,1,2,2:2:0:0:
182,168,87019,1,10,1:3:0:0:
125,100,87174,1,2,2:2:0:0:
119,11,87330,6,0,P|63:27|33:77,1,119.999996337891,2|0,1:2|2:2,2:2:0:0:
34,101,87563,1,2,2:2:0:0:
37,121,87641,2,0,L|43:180,1,59.9999981689454,10|0,1:3|2:2,2:2:0:0:
3,249,87796,2,0,L|9:308,1,59.9999981689454,2|0,2:2|2:2,2:2:0:0:
58,373,87952,6,0,B|105:368|105:368|126:352|126:352|171:346,1,119.999996337891,2|0,1:2|2:2,2:2:0:0:
194,344,88185,1,2,2:2:0:0:
214,341,88263,2,0,L|273:334,1,59.9999981689454,10|0,1:3|2:2,2:2:0:0:
342,377,88418,2,0,L|401:370,1,59.9999981689454,2|0,2:2|2:2,2:2:0:0:
476,336,88574,6,0,L|487:260,3,59.9999981689454,2|2|2|2,1:2|2:2|2:2|2:2,0:0:0:0:
432,215,88885,2,0,L|443:139,3,59.9999981689454,10|2|2|2,1:3|2:2|2:2|2:2,0:0:0:0:
492,26,89195,5,0,1:2:0:0:
380,99,89351,1,2,1:2:0:0:
508,107,89506,1,2,1:2:0:0:
408,22,89662,1,2,1:2:0:0:
440,155,89817,6,0,L|432:215,1,59.9999981689454,14|0,1:3|2:2,2:2:0:0:
350,237,89973,2,0,L|358:177,1,59.9999981689454,2|0,2:2|2:2,2:2:0:0:
409,293,90128,2,0,P|337:319|276:271,1,119.999996337891,10|2,1:3|2:2,2:2:0:0:
285,287,90361,1,2,2:2:0:0:
267,275,90439,2,0,P|195:249|134:297,1,119.999996337891,10|2,1:3|2:2,2:2:0:0:
74,384,90750,1,10,1:3:0:0:
207,329,90905,1,2,2:2:0:0:
85,224,91061,6,0,L|-1:215,1,59.9999981689454,10|0,1:3|2:2,2:2:0:0:
11,136,91216,2,0,L|81:142,1,59.9999981689454,2|0,2:2|2:2,2:2:0:0:
174,129,91372,2,0,B|158:68|158:68|196:25,1,119.999996337891,10|2,1:3|2:2,2:2:0:0:
220,15,91605,1,2,2:2:0:0:
241,10,91682,2,0,B|301:26|301:26|320:81,1,119.999996337891,10|2,1:3|2:2,2:2:0:0:
353,201,91993,1,10,1:3:0:0:
244,93,92149,1,10,1:2:0:0:
394,51,92304,6,0,L|468:59,1,59.9999981689454,10|0,1:3|0:0,0:0:0:0:
479,140,92460,2,0,L|405:132,1,59.9999981689454,2|0,2:2|0:0,0:0:0:0:
353,201,92615,2,0,P|400:253|395:303,1,119.999996337891,10|2,1:3|2:2,2:2:0:0:
410,315,92848,1,2,2:2:0:0:
428,309,92926,2,0,P|456:257|512:242,1,119.999996337891,10|0,1:3|2:2,0:0:0:0:
321,273,93237,2,0,L|198:279,1,119.999996337891,10|2,1:3|2:2,2:2:0:0:
118,284,93548,6,0,B|70:326|70:326|72:390,1,119.999996337891,10|2,1:3|2:2,2:2:0:0:
0,290,93859,2,0,B|51:328|51:328|54:392,1,119.999996337891,10|2,1:3|2:2,2:2:0:0:
56,226,94170,5,10,1:3:0:0:
50,136,94325,1,10,1:2:0:0:
94,59,94480,1,10,1:3:0:0:
172,17,94636,1,10,1:2:0:0:
261,22,94791,6,0,B|296:46|296:46|426:28,1,119.999996337891,14|10,1:3|1:2,2:2:0:0:
390,33,95024,1,10,2:3:0:0:
409,29,95102,2,0,L|476:20,1,59.9999981689454,10|10,1:2|2:3,0:0:0:0:
512,96,95258,2,0,L|445:105,1,59.9999981689454,10|0,1:2|2:2,2:2:0:0:
480,184,95413,2,0,L|463:321,3,119.999996337891,14|10|10|10,1:3|1:2|1:2|1:2,2:2:0:0:
421,375,96035,6,0,B|386:351|386:351|256:369,1,119.999996337891,14|10,1:3|1:2,2:2:0:0:
292,364,96268,1,10,2:3:0:0:
273,368,96346,2,0,L|206:377,1,59.9999981689454,10|10,1:2|2:3,0:0:0:0:
139,340,96501,2,8,L|72:349,1,59.9999981689454,10|8,1:3|1:2,1:2:0:0:
0,363,96657,1,14,1:3:0:0:
3,333,96734,1,0,2:2:0:0:
6,303,96812,1,10,1:2:0:0:
9,273,96890,1,10,2:3:0:0:
12,246,96967,2,0,L|20:168,3,59.9999981689454,10|10|10|10,1:2|1:3|1:3|1:2,0:0:0:0:
29,102,97278,6,0,P|93:93|172:179,1,179.999994506836,14|10,1:3|2:2,2:2:0:0:
186,163,97589,2,0,P|193:76|266:29,1,179.999994506836,10|0,2:3|0:0,2:2:0:0:
350,28,97900,2,0,L|361:101,3,59.9999981689454,10|10|10|10,1:3|2:3|2:3|2:3,0:0:0:0:
432,18,98211,2,0,L|443:91,3,59.9999981689454,10|10|10|10,2:3|2:3|2:3|2:3,0:0:0:0:
512,3,98522,5,2,1:2:0:0:
350,28,98833,1,2,1:2:0:0:
459,152,99144,1,10,2:0:0:0:
463,181,99221,1,10,2:2:0:0:
468,211,99299,1,10,2:2:0:0:
473,240,99377,1,10,2:2:0:0:
476,265,99454,2,0,P|461:346|350:369,1,179.999994506836,10|2,2:3|2:2,0:0:0:0:
367,363,99765,6,0,B|297:298|297:298|199:335,1,179.999994506836,6|0,1:3|2:2,2:2:0:0:
143,313,100076,2,0,B|128:372|128:372|94:320,1,119.999996337891,10|0,1:3|2:2,2:2:0:0:
110,245,100309,2,0,L|99:179,1,59.9999981689454,2|0,1:2|0:0,2:2:0:0:
70,34,100543,5,2,1:2:0:0:
8,164,100698,1,10,1:3:0:0:
67,14,100853,1,2,1:2:0:0:
174,129,101009,6,0,P|261:121|300:29,1,179.999994506836,2|0,1:2|2:2,2:2:0:0:
390,51,101320,2,0,B|405:-8|405:-8|439:44,1,119.999996337891,10|0,1:3|2:2,2:2:0:0:
420,121,101553,2,0,L|430:202,1,59.9999981689454,2|0,1:2|0:0,2:2:0:0:
446,382,101786,5,2,1:2:0:0:
334,268,101942,1,10,1:3:0:0:
489,289,102097,1,2,1:2:0:0:
343,365,102252,6,0,B|271:352|271:352|239:372|239:372|167:358,1,179.999994506836,2|0,1:2|2:2,2:2:0:0:
86,327,102563,2,0,B|71:386|71:386|37:334,1,119.999996337891,10|0,1:3|2:2,2:2:0:0:
45,255,102796,2,0,L|34:191,1,59.9999981689454,2|0,1:2|0:0,2:2:0:0:
140,18,103030,5,2,1:2:0:0:
2,7,103185,1,10,1:3:0:0:
58,124,103340,1,2,1:2:0:0:
158,19,103496,6,0,B|234:26|234:26|263:49|263:49|362:57,1,179.999994506836,2|0,1:2|2:2,2:2:0:0:
405,20,103807,2,0,P|469:19|509:68,1,119.999996337891,10|0,1:3|2:2,2:2:0:0:
485,131,104040,1,2,1:2:0:0:
488,148,104118,6,0,L|514:345,1,179.999994506836,2|0,1:2|2:2,2:2:0:0:
442,359,104429,2,0,P|360:305|280:374,1,179.999994506836,2|0,1:2|2:2,2:2:0:0:
213,348,104739,6,0,P|133:381|66:327,1,179.999994506836,2|0,1:2|2:2,2:2:0:0:
141,253,105050,2,0,B|203:265|203:265|147:293,1,119.999996337891,10|0,1:3|2:2,2:2:0:0:
66,327,105283,2,0,L|3:338,1,59.9999981689454,2|0,1:2|0:0,2:2:0:0:
121,124,105517,5,2,1:2:0:0:
277,107,105672,1,10,1:3:0:0:
123,141,105827,1,2,1:2:0:0:
280,122,105983,2,0,B|375:114|375:114|351:27,1,179.999994506836,2|0,1:2|2:2,2:2:0:0:
279,0,106294,2,0,B|217:5|217:5|274:40,1,119.999996337891,10|0,1:3|2:2,2:2:0:0:
352,32,106527,2,0,L|414:43,1,59.9999981689454,2|0,1:2|0:0,2:2:0:0:
503,206,106760,5,2,1:2:0:0:
347,189,106915,1,10,1:3:0:0:
501,223,107070,1,2,1:2:0:0:
344,204,107226,6,0,B|294:237|294:237|309:367,1,179.999994506836,2|0,1:2|2:2,2:2:0:0:
389,368,107537,2,0,B|445:348|445:348|385:333,1,119.999996337891,10|0,1:3|2:2,2:2:0:0:
307,356,107771,2,0,L|236:368,1,59.9999981689454,2|0,1:2|0:0,2:2:0:0:
69,384,108004,1,2,1:2:0:0:
142,244,108159,1,10,1:3:0:0:
138,213,108236,1,2,2:2:0:0:
135,183,108314,1,2,1:2:0:0:
131,153,108392,1,2,2:2:0:0:
128,124,108470,6,0,B|119:60|119:60|66:36,1,119.999996337891,6|0,1:2|2:2,2:2:0:0:
254,15,108781,2,0,B|208:50|208:50|217:113,1,119.999996337891,2|0,2:2|2:2,2:2:0:0:
326,147,109092,2,0,B|371:111|371:111|363:49,1,119.999996337891,6|0,1:2|2:2,2:2:0:0:
452,38,109403,2,0,B|461:102|461:102|514:126,1,119.999996337891,2|0,2:2|2:2,2:2:0:0:
429,185,109714,6,0,B|438:250|438:250|468:277|468:277|477:351,1,179.999994506836,14|0,1:3|0:0,0:0:0:0:
480,369,110024,2,0,L|404:376,1,59.9999981689454,10|0,1:3|0:0,2:2:0:0:
354,333,110180,1,2,2:2:0:0:
333,335,110258,1,2,2:2:0:0:
315,337,110335,2,0,L|239:344,1,59.9999981689454,10|0,1:3|2:2,2:2:0:0:
172,352,110491,6,0,L|183:268,1,59.9999981689454,2|0,2:2|2:2,2:2:0:0:
98,286,110646,2,0,L|87:370,1,59.9999981689454,10|0,1:3|2:2,2:2:0:0:
9,349,110802,1,2,2:2:0:0:
7,328,110880,1,2,2:2:0:0:
5,310,110957,6,0,B|4:247|4:247|33:213|33:213|27:124,1,179.999994506836,10|0,1:3|2:2,2:2:0:0:
26,120,111268,2,0,L|21:46,1,59.9999981689454,10|0,1:3|0:0,2:2:0:0:
101,50,111423,1,2,2:2:0:0:
103,71,111501,1,2,2:2:0:0:
105,89,111579,2,0,L|112:165,1,59.9999981689454,10|0,1:3|2:2,2:2:0:0:
183,197,111734,6,0,L|267:208,1,59.9999981689454,2|0,2:2|2:2,2:2:0:0:
249,123,111889,2,0,L|165:112,1,59.9999981689454,10|0,1:3|2:2,2:2:0:0:
200,35,112045,2,0,L|284:46,1,59.9999981689454,2|0,2:2|2:2,2:2:0:0:
340,8,112201,6,0,P|363:87|463:106,1,179.999994506836,10|0,1:3|2:2,2:2:0:0:
467,106,112511,2,0,L|453:199,1,59.9999981689454,10|0,1:3|0:0,2:2:0:0:
493,237,112667,1,2,2:2:0:0:
491,258,112745,1,2,2:2:0:0:
489,276,112823,2,0,L|482:352,1,59.9999981689454,10|0,1:3|2:2,2:2:0:0:
404,365,112978,6,0,L|344:372,1,59.9999981689454,2|0,2:2|2:2,2:2:0:0:
338,291,113133,2,0,L|397:283,1,59.9999981689454,10|0,1:3|2:2,2:2:0:0:
387,203,113289,2,0,L|327:210,1,59.9999981689454,2|0,2:2|2:2,2:2:0:0:
259,258,113444,6,0,B|181:306|181:306|127:230,1,179.999994506836,10|0,1:3|2:2,2:2:0:0:
112,221,113755,2,0,L|38:215,1,59.9999981689454,10|0,1:3|0:0,2:2:0:0:
0,129,113910,1,2,2:2:0:0:
21,131,113988,1,2,2:2:0:0:
39,133,114066,6,8,B|86:136|86:136|110:119|110:119|160:122,1,119.999996337891,10|2,1:3|0:0,0:3:0:0:
45,14,114377,2,0,B|92:16|92:16|113:36|113:36|163:39,1,119.999996337891,10|0,1:3|0:0,2:2:0:0:
229,82,114688,6,0,L|309:88,1,59.9999981689454,14|2,1:3|1:2,2:2:0:0:
306,90,114843,1,10,1:2:0:0:
322,90,114921,2,0,L|402:96,1,59.9999981689454,10|10,1:3|1:2,2:2:0:0:
401,98,115076,1,10,2:3:0:0:
417,98,115154,2,0,L|497:104,1,59.9999981689454,10|0,1:2|2:2,2:2:0:0:
506,203,115309,6,0,L|426:209,1,59.9999981689454,14|2,1:3|1:2,2:2:0:0:
429,211,115464,1,10,1:2:0:0:
413,211,115542,2,0,L|333:217,1,59.9999981689454,10|10,1:3|1:2,2:2:0:0:
334,219,115697,1,10,2:3:0:0:
318,219,115775,2,0,L|238:225,1,59.9999981689454,10|0,1:2|2:2,2:2:0:0:
142,182,115931,6,0,P|111:151|110:120,1,59.9999981689454,14|2,1:3|1:2,2:2:0:0:
112,114,116087,1,10,1:2:0:0:
124,97,116165,2,0,P|165:85|193:100,1,59.9999981689454,10|10,1:3|1:2,2:2:0:0:
196,104,116319,1,10,2:3:0:0:
204,123,116397,2,0,P|192:164|166:181,1,59.9999981689454,10|0,1:3|2:2,2:2:0:0:
150,263,116553,6,0,P|131:285|128:315,1,59.9999981689454,14|2,1:3|1:2,2:2:0:0:
136,334,116708,1,10,1:2:0:0:
151,347,116786,2,0,P|180:352|208:341,1,59.9999981689454,10|10,1:3|1:2,2:2:0:0:
220,324,116942,1,10,2:3:0:0:
223,301,117019,2,8,P|213:273|190:256,1,59.9999981689454,10|0,1:3|2:2,1:2:0:0:
65,223,117175,6,0,L|-1:230,3,59.9999981689454,14|2|10|2,1:3|1:2|1:3|1:2,0:0:0:0:
59,140,117486,2,0,L|-7:147,3,59.9999981689454,10|2|10|2,1:3|1:2|1:3|1:2,0:0:0:0:
122,83,117796,2,0,L|188:90,3,59.9999981689454,10|10|10|10,1:3|1:3|1:3|1:3,0:0:0:0:
128,0,118107,2,0,L|194:7,3,59.9999981689454,10|10|10|10,1:3|1:3|1:3|1:3,0:0:0:0:
256,192,118418,12,0,119662,1:2:0:0:
