osu file format v14

[General]
AudioFilename: audio.ogg
AudioLeadIn: 0
PreviewTime: 78211
Countdown: 0
SampleSet: Soft
StackLeniency: 0.7
Mode: 3
LetterboxInBreaks: 0
SpecialStyle: 0
WidescreenStoryboard: 1

[Editor]
DistanceSpacing: 1.6
BeatDivisor: 4
GridSize: 8
TimelineZoom: 2.799999

[Metadata]
Title:Good bye, Merry-Go-Round.
TitleUnicode:Good bye, Merry-Go-Round.
Artist:Yooh
ArtistUnicode:Yooh
Creator:Shima Rin
Version:Virtue's EXPERT
Source:オンゲキ SUMMER
Tags:Tofu1222 Critical_Star CS Virtue- Dellvangel Goodbye Amusement Hardcore Ongeki CHUNITHM PARADISE LOST maimai でらっくす DX Deluxe UNiVERSE PLUS 日向 千夏 Hinata Chinatsu Video Game Electronic Instrumental
BeatmapID:3605861
BeatmapSetID:1759784

[Difficulty]
HPDrainRate:7.5
CircleSize:4
OverallDifficulty:7.5
ApproachRate:5
SliderMultiplier:1.4
SliderTickRate:1

[Events]
//Background and Video events
0,0,"BG.jpg",0,0
//Break Periods
//Storyboard Layer 0 (Background)
//Storyboard Layer 1 (Fail)
//Storyboard Layer 2 (Pass)
//Storyboard Layer 3 (Foreground)
//Storyboard Layer 4 (Overlay)
//Storyboard Sound Samples

[TimingPoints]
374,324.324324324324,4,2,1,75,1,0
21130,-40,4,2,1,75,0,0
21171,-333.333333333333,4,2,1,75,0,0
21333,-76.9230769230769,4,2,1,75,0,0
21455,-40,4,2,1,75,0,0
21495,-333.333333333333,4,2,1,75,0,0
21657,-76.9230769230769,4,2,1,75,0,0
21779,-40,4,2,1,75,0,0
21819,-333.333333333333,4,2,1,75,0,0
21982,-76.9230769230769,4,2,1,75,0,0
22103,-20,4,2,1,75,0,0
22123,-1000,4,2,1,75,0,0
22265,-500,4,2,1,75,0,0
22279.2,-303.030303030303,4,2,1,75,0,0
22293.4,-217.391304347826,4,2,1,75,0,0
22307.6,-169.491525423729,4,2,1,75,0,0
22321.8,-138.888888888889,4,2,1,75,0,0
22336,-117.647058823529,4,2,1,75,0,0
22350.2,-102.040816326531,4,2,1,75,0,0
22364.4,-90.0900900900901,4,2,1,75,0,0
22378.6,-80.6451612903226,4,2,1,75,0,0
22392.8,-72.992700729927,4,2,1,75,0,0
22407,-66.6666666666667,4,2,1,75,0,0
22428,-100,4,2,1,75,0,1
40590,-100,4,2,1,75,0,0
52265,-66.6666666666667,4,2,1,75,0,0
52346,-200,4,2,1,75,0,0
52428,-66.6666666666667,4,2,1,75,0,0
52509,-200,4,2,1,75,0,0
52590,-66.6666666666667,4,2,1,75,0,0
52644,-200,4,2,1,75,0,0
52698,-66.6666666666667,4,2,1,75,0,0
52752,-200,4,2,1,75,0,0
52806,-66.6666666666667,4,2,1,75,0,0
52860,-200,4,2,1,75,0,0
52914,-66.6666666666667,4,2,1,75,0,0
52968,-200,4,2,1,75,0,0
53022,-66.6666666666667,4,2,1,75,0,0
53076,-200,4,2,1,75,0,0
53130,-66.6666666666667,4,2,1,75,0,0
53184,-200,4,2,1,75,0,0
53238,-20,4,2,1,75,0,0
53259,-1000,4,2,1,75,0,0
53401,-500,4,2,1,75,0,0
53415.1,-303.030303030303,4,2,1,75,0,0
53429.2,-217.391304347826,4,2,1,75,0,0
53443.3,-169.491525423729,4,2,1,75,0,0
53457.4,-138.888888888889,4,2,1,75,0,0
53471.5,-117.647058823529,4,2,1,75,0,0
53485.6,-102.040816326531,4,2,1,75,0,0
53499.7,-90.0900900900901,4,2,1,75,0,0
53513.8,-80.6451612903226,4,2,1,75,0,0
53527.9,-72.992700729927,4,2,1,75,0,0
53542,-66.6666666666667,4,2,1,75,0,0
53563,-99.009900990099,4,2,1,75,0,0
53613.1052631579,-98.0392156862745,4,2,1,75,0,0
53663.2105263158,-97.0873786407767,4,2,1,75,0,0
53713.3157894737,-96.1538461538461,4,2,1,75,0,0
53763.4210526316,-95.2380952380952,4,2,1,75,0,0
53813.5263157895,-94.3396226415094,4,2,1,75,0,0
53863.6315789474,-93.4579439252336,4,2,1,75,0,0
53913.7368421053,-92.5925925925926,4,2,1,75,0,0
53963.8421052632,-91.743119266055,4,2,1,75,0,0
54013.9473684211,-90.9090909090909,4,2,1,75,0,0
54064.0526315789,-90.0900900900901,4,2,1,75,0,0
54114.1578947368,-89.2857142857143,4,2,1,75,0,0
54164.2631578947,-88.495575221239,4,2,1,75,0,0
54214.3684210526,-87.719298245614,4,2,1,75,0,0
54264.4736842105,-86.9565217391304,4,2,1,75,0,0
54314.5789473684,-86.2068965517241,4,2,1,75,0,0
54364.6842105263,-85.4700854700855,4,2,1,75,0,0
54414.7894736842,-84.7457627118644,4,2,1,75,0,0
54464.8947368421,-84.0336134453782,4,2,1,75,0,0
54515,-83.3333333333333,4,2,1,75,0,0
54536,-66.6666666666667,4,2,1,75,0,0
54617,-200,4,2,1,75,0,0
54698,-66.6666666666667,4,2,1,75,0,0
54779,-200,4,2,1,75,0,0
54860,-33.3333333333333,4,2,1,75,0,0
54870,-1000,4,2,1,75,0,0
54901,-33.3333333333333,4,2,1,75,0,0
54911,-1000,4,2,1,75,0,0
54941,-33.3333333333333,4,2,1,75,0,0
54951,-1000,4,2,1,75,0,0
54982,-33.3333333333333,4,2,1,75,0,0
54992,-1000,4,2,1,75,0,0
55022,-33.3333333333333,4,2,1,75,0,0
55032,-1000,4,2,1,75,0,0
55063,-33.3333333333333,4,2,1,75,0,0
55073,-1000,4,2,1,75,0,0
55103,-66.6666666666667,4,2,1,75,0,0
55144,-100,4,2,1,75,0,0
55184,-66.6666666666667,4,2,1,75,0,0
55265,-200,4,2,1,75,0,0
55346,-66.6666666666667,4,2,1,75,0,0
55428,-200,4,2,1,75,0,0
55509,-66.6666666666667,4,2,1,75,0,0
55590,-200,4,2,1,75,0,0
55671,-66.6666666666667,4,2,1,75,0,0
55752,-200,4,2,1,75,0,0
55833,-66.6666666666667,4,2,1,75,0,0
55914,-200,4,2,1,75,0,0
55995,-66.6666666666667,4,2,1,75,0,0
56036,-200,4,2,1,75,0,0
56076,-66.6666666666667,4,2,1,75,0,0
56117,-200,4,2,1,75,0,0
56157,-66.6666666666667,4,2,1,75,0,0
56238,-200,4,2,1,75,0,0
56319,-66.6666666666667,4,2,1,75,0,0
56401,-200,4,2,1,75,0,0
56482,-66.6666666666667,4,2,1,75,0,0
56563,-200,4,2,1,75,0,0
56644,-66.6666666666667,4,2,1,75,0,0
56725,-200,4,2,1,75,0,0
56806,-66.6666666666667,4,2,1,75,0,0
56887,-200,4,2,1,75,0,0
56968,-66.6666666666667,4,2,1,75,0,0
57049,-200,4,2,1,75,0,0
57130,-66.6666666666667,4,2,1,75,0,0
57211,-200,4,2,1,75,0,0
57292,-66.6666666666667,4,2,1,75,0,0
57373,-200,4,2,1,75,0,0
57455,-66.6666666666667,4,2,1,75,0,0
57536,-200,4,2,1,75,0,0
57617,-66.6666666666667,4,2,1,75,0,0
57698,-200,4,2,1,75,0,0
57779,-66.6666666666667,4,2,1,75,0,0
57860,-200,4,2,1,75,0,0
57941,-66.6666666666667,4,2,1,75,0,0
58022,-200,4,2,1,75,0,0
58103,-66.6666666666667,4,2,1,75,0,0
58184,-200,4,2,1,75,0,0
58265,-66.6666666666667,4,2,1,75,0,0
58346,-200,4,2,1,75,0,0
58428,-66.6666666666667,4,2,1,75,0,0
58509,-200,4,2,1,75,0,0
58590,-66.6666666666667,4,2,1,75,0,0
58671,-200,4,2,1,75,0,0
58752,-117.647058823529,4,2,1,75,0,0
58914,-58.8235294117647,4,2,1,75,0,0
58995,-333.333333333333,4,2,1,75,0,0
59076,-58.8235294117647,4,2,1,75,0,0
59157,-333.333333333333,4,2,1,75,0,0
59238,-58.8235294117647,4,2,1,75,0,0
59319,-333.333333333333,4,2,1,75,0,0
59401,-50,4,2,1,75,0,0
59421,-1000,4,2,1,75,0,0
59441,-50,4,2,1,75,0,0
59461,-1000,4,2,1,75,0,0
59482,-50,4,2,1,75,0,0
59502,-1000,4,2,1,75,0,0
59522,-50,4,2,1,75,0,0
59542,-1000,4,2,1,75,0,0
59563,-50,4,2,1,75,0,0
59583,-1000,4,2,1,75,0,0
59603,-50,4,2,1,75,0,0
59623,-1000,4,2,1,75,0,0
59644,-50,4,2,1,75,0,0
59664,-1000,4,2,1,75,0,0
59684,-50,4,2,1,75,0,0
59705,-1000,4,2,1,75,0,0
59725,-66.6666666666667,4,2,1,75,0,0
59806,-200,4,2,1,75,0,0
59887,-66.6666666666667,4,2,1,75,0,0
59968,-200,4,2,1,75,0,0
60049,-33.3333333333333,4,2,1,75,0,0
60059,-1000,4,2,1,75,0,0
60090,-33.3333333333333,4,2,1,75,0,0
60100,-1000,4,2,1,75,0,0
60130,-33.3333333333333,4,2,1,75,0,0
60140,-1000,4,2,1,75,0,0
60171,-33.3333333333333,4,2,1,75,0,0
60181,-1000,4,2,1,75,0,0
60211,-33.3333333333333,4,2,1,75,0,0
60221,-1000,4,2,1,75,0,0
60252,-33.3333333333333,4,2,1,75,0,0
60262,-1000,4,2,1,75,0,0
60292,-66.6666666666667,4,2,1,75,0,0
60333,-100,4,2,1,75,0,0
60373,-66.6666666666667,4,2,1,75,0,0
60455,-200,4,2,1,75,0,0
60536,-66.6666666666667,4,2,1,75,0,0
60617,-200,4,2,1,75,0,0
60698,-66.6666666666667,4,2,1,75,0,0
60779,-200,4,2,1,75,0,0
60860,-66.6666666666667,4,2,1,75,0,0
60941,-200,4,2,1,75,0,0
61022,-66.6666666666667,4,2,1,75,0,0
61103,-200,4,2,1,75,0,0
61184,-66.6666666666667,4,2,1,75,0,0
61225,-200,4,2,1,75,0,0
61265,-66.6666666666667,4,2,1,75,0,0
61306,-200,4,2,1,75,0,0
61346,-66.6666666666667,4,2,1,75,0,0
61428,-83.3333333333333,4,2,1,75,0,0
61509,-125,4,2,1,75,0,0
61590,-200,4,2,1,75,0,0
61671,-66.6666666666667,4,2,1,75,0,0
61752,-200,4,2,1,75,0,0
61833,-66.6666666666667,4,2,1,75,0,0
61873,-200,4,2,1,75,0,0
61914,-66.6666666666667,4,2,1,75,0,0
61955,-200,4,2,1,75,0,0
61995,-66.6666666666667,4,2,1,75,0,0
62076,-200,4,2,1,75,0,0
62157,-66.6666666666667,4,2,1,75,0,0
62198,-200,4,2,1,75,0,0
62238,-100,4,2,1,75,0,0
62319,-66.6666666666667,4,2,1,75,0,0
62401,-200,4,2,1,75,0,0
62482,-66.6666666666667,4,2,1,75,0,0
62563,-200,4,2,1,75,0,0
62644,-58.8235294117647,4,2,1,75,0,0
62725,-76.9230769230769,4,2,1,75,0,0
62806,-142.857142857143,4,2,1,75,0,0
62887,-333.333333333333,4,2,1,75,0,0
62968,-40,4,2,1,75,0,0
63009,-333.333333333333,4,2,1,75,0,0
63171,-76.9230769230769,4,2,1,75,0,0
63292,-40,4,2,1,75,0,0
63333,-333.333333333333,4,2,1,75,0,0
63495,-76.9230769230769,4,2,1,75,0,0
63617,-40,4,2,1,75,0,0
63657,-333.333333333333,4,2,1,75,0,0
63819,-76.9230769230769,4,2,1,75,0,0
63941,-66.6666666666667,4,2,1,75,0,0
64022,-111.111111111111,4,2,1,75,0,0
64103,-166.666666666667,4,2,1,75,0,0
64184,-100,4,2,1,75,0,0
64265,-66.6666666666667,4,2,1,75,0,0
64346,-111.111111111111,4,2,1,75,0,0
64428,-166.666666666667,4,2,1,75,0,0
64509,-100,4,2,1,75,0,0
64590,-66.6666666666667,4,2,1,75,0,0
64671,-83.3333333333333,4,2,1,75,0,0
64752,-125,4,2,1,75,0,0
64833,-200,4,2,1,75,0,0
64914,-66.6666666666667,4,2,1,75,0,0
64995,-200,4,2,1,75,0,0
65076,-66.6666666666667,4,2,1,75,0,0
65157,-200,4,2,1,75,0,0
65238,-33.3333333333333,4,2,1,75,0,0
65248,-1000,4,2,1,75,0,0
65279,-33.3333333333333,4,2,1,75,0,0
65289,-1000,4,2,1,75,0,0
65319,-33.3333333333333,4,2,1,75,0,0
65329,-1000,4,2,1,75,0,0
65360,-33.3333333333333,4,2,1,75,0,0
65370,-1000,4,2,1,75,0,0
65400,-33.3333333333333,4,2,1,75,0,0
65410,-1000,4,2,1,75,0,0
65441,-33.3333333333333,4,2,1,75,0,0
65451,-1000,4,2,1,75,0,0
65481,-66.6666666666667,4,2,1,75,0,0
65522,-100,4,2,1,75,0,0
65562,-66.6666666666667,4,2,1,75,0,0
65643,-200,4,2,1,75,0,0
65724,-66.6666666666667,4,2,1,75,0,0
65806,-200,4,2,1,75,0,0
65887,-66.6666666666667,4,2,1,75,0,0
65968,-200,4,2,1,75,0,0
66049,-66.6666666666667,4,2,1,75,0,0
66130,-200,4,2,1,75,0,0
66211,-66.6666666666667,4,2,1,75,0,0
66292,-200,4,2,1,75,0,0
66373,-66.6666666666667,4,2,1,75,0,0
66454,-200,4,2,1,75,0,0
66535,-66.6666666666667,4,2,1,75,0,0
66616,-200,4,2,1,75,0,0
66697,-66.6666666666667,4,2,1,75,0,0
66779,-200,4,2,1,75,0,0
66860,-66.6666666666667,4,2,1,75,0,0
66941,-200,4,2,1,75,0,0
67022,-66.6666666666667,4,2,1,75,0,0
67103,-200,4,2,1,75,0,0
67184,-66.6666666666667,4,2,1,75,0,0
67265,-200,4,2,1,75,0,0
67346,-66.6666666666667,4,2,1,75,0,0
67427,-200,4,2,1,75,0,0
67508,-66.6666666666667,4,2,1,75,0,0
67590,-200,4,2,1,75,0,0
67671,-66.6666666666667,4,2,1,75,0,0
67711,-200,4,2,1,75,0,0
67752,-66.6666666666667,4,2,1,75,0,0
67792,-200,4,2,1,75,0,0
67833,-66.6666666666667,4,2,1,75,0,0
67914,-200,4,2,1,75,0,0
67995,-66.6666666666667,4,2,1,75,0,0
68076,-200,4,2,1,75,0,0
68157,-66.6666666666667,4,2,1,75,0,0
68238,-200,4,2,1,75,0,0
68319,-66.6666666666667,4,2,1,75,0,0
68360,-200,4,2,1,75,0,0
68401,-66.6666666666667,4,2,1,75,0,0
68441,-200,4,2,1,75,0,0
68482,-33.3333333333333,4,2,1,75,0,0
68509,-1000,4,2,1,75,0,0
68617,-83.3333333333333,4,2,1,75,0,0
68698,-33.3333333333333,4,2,1,75,0,0
68725,-1000,4,2,1,75,0,0
68833,-83.3333333333333,4,2,1,75,0,0
68914,-33.3333333333333,4,2,1,75,0,0
68941,-1000,4,2,1,75,0,0
69049,-83.3333333333333,4,2,1,75,0,0
69130,-33.3333333333333,4,2,1,75,0,0
69140,-1000,4,2,1,75,0,0
69171,-33.3333333333333,4,2,1,75,0,0
69181,-1000,4,2,1,75,0,0
69211,-33.3333333333333,4,2,1,75,0,0
69221,-1000,4,2,1,75,0,0
69252,-33.3333333333333,4,2,1,75,0,0
69262,-1000,4,2,1,75,0,0
69292,-33.3333333333333,4,2,1,75,0,0
69302,-1000,4,2,1,75,0,0
69333,-33.3333333333333,4,2,1,75,0,0
69343,-1000,4,2,1,75,0,0
69373,-58.8235294117647,4,2,1,75,0,0
69414,-100,4,2,1,75,0,0
69455,-20,4,2,1,75,0,0
69475,-1000,4,2,1,75,0,0
69617,-500,4,2,1,75,0,0
69631.2,-303.030303030303,4,2,1,75,0,0
69645.4,-217.391304347826,4,2,1,75,0,0
69659.6,-169.491525423729,4,2,1,75,0,0
69673.8,-138.888888888889,4,2,1,75,0,0
69688,-117.647058823529,4,2,1,75,0,0
69702.2,-102.040816326531,4,2,1,75,0,0
69716.4,-90.0900900900901,4,2,1,75,0,0
69730.6,-80.6451612903226,4,2,1,75,0,0
69744.8,-72.992700729927,4,2,1,75,0,0
69759,-66.6666666666667,4,2,1,75,0,0
69779,-50,4,2,1,75,0,0
69799,-1000,4,2,1,75,0,0
69819,-50,4,2,1,75,0,0
69839,-1000,4,2,1,75,0,0
69860,-50,4,2,1,75,0,0
69880,-1000,4,2,1,75,0,0
69900,-50,4,2,1,75,0,0
69920,-1000,4,2,1,75,0,0
69941,-50,4,2,1,75,0,0
69961,-1000,4,2,1,75,0,0
69981,-50,4,2,1,75,0,0
70001,-1000,4,2,1,75,0,0
70022,-50,4,2,1,75,0,0
70042,-1000,4,2,1,75,0,0
70062,-50,4,2,1,75,0,0
70083,-1000,4,2,1,75,0,0
70103,-66.6666666666667,4,2,1,75,0,0
70184,-200,4,2,1,75,0,0
70265,-66.6666666666667,4,2,1,75,0,0
70346,-200,4,2,1,75,0,0
70427,-33.3333333333333,4,2,1,75,0,0
70437,-1000,4,2,1,75,0,0
70468,-33.3333333333333,4,2,1,75,0,0
70478,-1000,4,2,1,75,0,0
70508,-33.3333333333333,4,2,1,75,0,0
70518,-1000,4,2,1,75,0,0
70549,-33.3333333333333,4,2,1,75,0,0
70559,-1000,4,2,1,75,0,0
70589,-33.3333333333333,4,2,1,75,0,0
70599,-1000,4,2,1,75,0,0
70630,-33.3333333333333,4,2,1,75,0,0
70640,-1000,4,2,1,75,0,0
70670,-66.6666666666667,4,2,1,75,0,0
70711,-100,4,2,1,75,0,0
70751,-66.6666666666667,4,2,1,75,0,0
70833,-200,4,2,1,75,0,0
70914,-66.6666666666667,4,2,1,75,0,0
70995,-200,4,2,1,75,0,0
71076,-66.6666666666667,4,2,1,75,0,0
71157,-200,4,2,1,75,0,0
71238,-66.6666666666667,4,2,1,75,0,0
71319,-200,4,2,1,75,0,0
71400,-66.6666666666667,4,2,1,75,0,0
71481,-200,4,2,1,75,0,0
71562,-66.6666666666667,4,2,1,75,0,0
71603,-200,4,2,1,75,0,0
71643,-66.6666666666667,4,2,1,75,0,0
71684,-200,4,2,1,75,0,0
71724,-66.6666666666667,4,2,1,75,0,0
71806,-83.3333333333333,4,2,1,75,0,0
71887,-125,4,2,1,75,0,0
71968,-200,4,2,1,75,0,0
72049,-66.6666666666667,4,2,1,75,0,0
72130,-200,4,2,1,75,0,0
72211,-66.6666666666667,4,2,1,75,0,0
72251,-200,4,2,1,75,0,0
72292,-66.6666666666667,4,2,1,75,0,0
72333,-200,4,2,1,75,0,0
72373,-66.6666666666667,4,2,1,75,0,0
72454,-200,4,2,1,75,0,0
72535,-66.6666666666667,4,2,1,75,0,0
72576,-200,4,2,1,75,0,0
72616,-66.6666666666667,4,2,1,75,0,0
72657,-200,4,2,1,75,0,0
72698,-66.6666666666667,4,2,1,75,0,0
72738,-200,4,2,1,75,0,0
72779,-66.6666666666667,4,2,1,75,0,0
72819,-200,4,2,1,75,0,0
72860,-66.6666666666667,4,2,1,75,0,0
72901,-200,4,2,1,75,0,0
72941,-66.6666666666667,4,2,1,75,0,0
72982,-200,4,2,1,75,0,0
73022,-100,4,2,1,75,0,0
74319,-28.5714285714286,4,2,1,75,0,0
74360,-125,4,2,1,75,0,0
74644,-40,4,2,1,75,0,0
74684,-125,4,2,1,75,0,0
74968,-40,4,2,1,75,0,0
75009,-125,4,2,1,75,0,0
75292,-40,4,2,1,75,0,0
75333,-125,4,2,1,75,0,0
75617,-28.5714285714286,4,2,1,75,0,0
75657,-125,4,2,1,75,0,0
75941,-40,4,2,1,75,0,0
75982,-125,4,2,1,75,0,0
76265,-40,4,2,1,75,0,0
76306,-125,4,2,1,75,0,0
76590,-40,4,2,1,75,0,0
76630,-125,4,2,1,75,0,0
76914,-100,4,2,1,75,0,0
79509,-100,4,2,1,75,0,1
99292,-66.6666666666667,4,2,1,75,0,1
99333,-200,4,2,1,75,0,1
99373,-66.6666666666667,4,2,1,75,0,1
99414,-200,4,2,1,75,0,1
99455,-66.6666666666667,4,2,1,75,0,1
99495,-200,4,2,1,75,0,1
99536,-66.6666666666667,4,2,1,75,0,1
99576,-200,4,2,1,75,0,1
99617,-58.8235294117647,4,2,1,75,0,1
99657,-333.333333333333,4,2,1,75,0,1
99698,-100,4,2,1,75,0,1
99779,-58.8235294117647,4,2,1,75,0,1
99860,-333.333333333333,4,2,1,75,0,1
99941,-20,4,2,1,75,0,0
99961,-1000,4,2,1,75,0,0
100103,-500,4,2,1,75,0,0
100117.2,-303.030303030303,4,2,1,75,0,0
100131.4,-217.391304347826,4,2,1,75,0,0
100145.6,-169.491525423729,4,2,1,75,0,0
100159.8,-138.888888888889,4,2,1,75,0,0
100174,-117.647058823529,4,2,1,75,0,0
100188.2,-102.040816326531,4,2,1,75,0,0
100202.4,-90.0900900900901,4,2,1,75,0,0
100216.6,-80.6451612903226,4,2,1,75,0,0
100230.8,-72.992700729927,4,2,1,75,0,0
100245,-66.6666666666667,4,2,1,75,0,0
100265,-100,4,2,1,75,0,0
110644,-100,4,2,1,75,0,1
121022,-100,4,2,1,75,0,0

[HitObjects]
64,192,374,5,0,0:0:0:0:
64,192,536,1,0,0:0:0:0:
448,192,698,1,0,0:0:0:0:
320,192,698,1,0,0:0:0:0:
192,192,860,1,0,0:0:0:0:
320,192,941,1,0,0:0:0:0:
64,192,1022,1,0,0:0:0:0:
448,192,1103,1,0,0:0:0:0:
192,192,1184,1,0,0:0:0:0:
64,192,1184,1,0,0:0:0:0:
448,192,1346,1,0,0:0:0:0:
64,192,1428,1,0,0:0:0:0:
192,192,1509,1,0,0:0:0:0:
320,192,1590,1,0,0:0:0:0:
448,192,1671,1,0,0:0:0:0:
64,192,1671,128,0,1833:0:0:0:0:
192,192,1833,128,0,1995:0:0:0:0:
320,192,1995,128,0,2319:0:0:0:0:
64,192,2319,128,0,2482:0:0:0:0:
192,192,2482,128,0,2644:0:0:0:0:
320,192,2644,128,0,2806:0:0:0:0:
448,192,2806,128,0,2968:0:0:0:0:
64,192,2968,128,0,3292:0:0:0:0:
192,192,2968,1,0,0:0:0:0:
448,192,3292,128,0,3455:0:0:0:0:
320,192,3455,128,0,3617:0:0:0:0:
192,192,3617,128,0,3779:0:0:0:0:
320,192,3779,128,0,3941:0:0:0:0:
192,192,3941,128,0,4103:0:0:0:0:
448,192,4103,128,0,4265:0:0:0:0:
64,192,4265,128,0,4428:0:0:0:0:
320,192,4265,1,0,0:0:0:0:
192,192,4428,128,0,4590:0:0:0:0:
320,192,4590,128,0,4914:0:0:0:0:
64,192,4914,128,0,5076:0:0:0:0:
192,192,5076,128,0,5238:0:0:0:0:
320,192,5238,128,0,5401:0:0:0:0:
448,192,5401,128,0,5563:0:0:0:0:
192,192,5563,128,0,5725:0:0:0:0:
64,192,5563,1,0,0:0:0:0:
320,192,5725,128,0,5887:0:0:0:0:
64,192,5887,128,0,6049:0:0:0:0:
192,192,6049,128,0,6211:0:0:0:0:
448,192,6211,128,0,6373:0:0:0:0:
320,192,6373,128,0,6536:0:0:0:0:
192,192,6536,128,0,6698:0:0:0:0:
64,192,6698,128,0,6860:0:0:0:0:
448,192,6860,128,0,7022:0:0:0:0:
192,192,6860,1,0,0:0:0:0:
320,192,7022,128,0,7184:0:0:0:0:
192,192,7184,128,0,7509:0:0:0:0:
448,192,7509,128,0,7671:0:0:0:0:
320,192,7671,128,0,7833:0:0:0:0:
192,192,7833,128,0,7995:0:0:0:0:
64,192,7995,128,0,8157:0:0:0:0:
448,192,8157,128,0,8482:0:0:0:0:
320,192,8157,1,0,0:0:0:0:
64,192,8482,128,0,8644:0:0:0:0:
192,192,8644,128,0,8806:0:0:0:0:
320,192,8806,128,0,8968:0:0:0:0:
192,192,8968,128,0,9130:0:0:0:0:
320,192,9130,128,0,9292:0:0:0:0:
64,192,9292,128,0,9455:0:0:0:0:
448,192,9455,128,0,9617:0:0:0:0:
192,192,9455,1,0,0:0:0:0:
320,192,9617,128,0,9779:0:0:0:0:
192,192,9779,128,0,10103:0:0:0:0:
448,192,10103,128,0,10265:0:0:0:0:
320,192,10265,128,0,10428:0:0:0:0:
192,192,10428,128,0,10590:0:0:0:0:
64,192,10590,128,0,10752:0:0:0:0:
320,192,10752,128,0,10914:0:0:0:0:
448,192,10752,1,0,0:0:0:0:
192,192,10914,128,0,11076:0:0:0:0:
448,192,11076,128,0,11238:0:0:0:0:
320,192,11238,128,0,11401:0:0:0:0:
64,192,11401,128,0,11563:0:0:0:0:
192,192,11563,128,0,11725:0:0:0:0:
320,192,11725,128,0,11887:0:0:0:0:
448,192,11887,128,0,12049:0:0:0:0:
192,192,12049,1,0,0:0:0:0:
64,192,12049,128,0,12373:0:0:0:0:
448,192,12373,1,0,0:0:0:0:
64,192,12536,128,0,12617:0:0:0:0:
192,192,12536,1,0,0:0:0:0:
448,192,12698,1,0,0:0:0:0:
64,192,12860,128,0,12941:0:0:0:0:
192,192,12860,1,0,0:0:0:0:
448,192,13022,128,0,13346:0:0:0:0:
64,192,13184,1,0,0:0:0:0:
320,192,13184,128,0,13346:0:0:0:0:
64,192,13346,1,0,0:0:0:0:
192,192,13346,128,0,13671:0:0:0:0:
320,192,13671,128,0,13995:0:0:0:0:
64,192,13833,1,0,0:0:0:0:
192,192,13833,1,0,0:0:0:0:
448,192,13995,128,0,14319:0:0:0:0:
64,192,14157,1,0,0:0:0:0:
192,192,14157,1,0,0:0:0:0:
320,192,14319,128,0,14644:0:0:0:0:
64,192,14482,1,0,0:0:0:0:
192,192,14482,1,0,0:0:0:0:
64,192,14644,1,0,0:0:0:0:
192,192,14644,128,0,14968:0:0:0:0:
64,192,14968,1,0,0:0:0:0:
448,192,15130,1,0,0:0:0:0:
320,192,15130,128,0,15211:0:0:0:0:
192,192,15211,128,0,15292:0:0:0:0:
64,192,15292,1,0,0:0:0:0:
320,192,15455,1,0,0:0:0:0:
448,192,15455,128,0,15536:0:0:0:0:
64,192,15617,128,0,15941:0:0:0:0:
448,192,15779,1,0,0:0:0:0:
192,192,15779,128,0,15941:0:0:0:0:
448,192,15941,1,0,0:0:0:0:
320,192,15941,128,0,16265:0:0:0:0:
64,192,16265,1,0,0:0:0:0:
192,192,16265,128,0,16590:0:0:0:0:
320,192,16428,1,0,0:0:0:0:
448,192,16428,1,0,0:0:0:0:
64,192,16590,128,0,16914:0:0:0:0:
320,192,16752,1,0,0:0:0:0:
448,192,16752,1,0,0:0:0:0:
192,192,16914,128,0,17076:0:0:0:0:
320,192,17076,128,0,17238:0:0:0:0:
64,192,17238,1,0,0:0:0:0:
448,192,17238,1,0,0:0:0:0:
192,192,17319,1,0,0:0:0:0:
320,192,17401,128,0,17563:0:0:0:0:
192,192,17563,128,0,17725:0:0:0:0:
448,192,17725,128,0,17887:0:0:0:0:
64,192,17887,128,0,18211:0:0:0:0:
192,192,17968,1,0,0:0:0:0:
320,192,18049,1,0,0:0:0:0:
448,192,18211,128,0,18373:0:0:0:0:
192,192,18373,128,0,18536:0:0:0:0:
448,192,18536,1,0,0:0:0:0:
64,192,18536,1,0,0:0:0:0:
320,192,18617,1,0,0:0:0:0:
192,192,18698,128,0,18860:0:0:0:0:
320,192,18860,128,0,19022:0:0:0:0:
64,192,19022,128,0,19184:0:0:0:0:
448,192,19184,128,0,19509:0:0:0:0:
320,192,19265,1,0,0:0:0:0:
192,192,19346,1,0,0:0:0:0:
320,192,19509,128,0,19671:0:0:0:0:
192,192,19671,128,0,19833:0:0:0:0:
448,192,19833,1,0,0:0:0:0:
64,192,19833,1,0,0:0:0:0:
192,192,19914,1,0,0:0:0:0:
320,192,19995,128,0,20157:0:0:0:0:
192,192,20157,128,0,20319:0:0:0:0:
64,192,20319,128,0,20482:0:0:0:0:
448,192,20482,128,0,20806:0:0:0:0:
320,192,20563,1,0,0:0:0:0:
192,192,20644,1,0,0:0:0:0:
64,192,20806,128,0,21130:0:0:0:0:
320,192,20806,128,0,20968:0:0:0:0:
192,192,20968,128,0,21130:0:0:0:0:
448,192,21130,1,0,0:0:0:0:
320,192,21455,1,0,0:0:0:0:
192,192,21779,1,0,0:0:0:0:
64,192,22103,1,0,0:0:0:0:
448,192,22103,1,0,0:0:0:0:
320,192,22103,1,0,0:0:0:0:
64,192,22428,1,0,0:0:0:0:
192,192,22428,128,0,22590:0:0:0:0:
448,192,22590,128,0,22752:0:0:0:0:
64,192,22752,1,0,0:0:0:0:
320,192,22752,128,0,22914:0:0:0:0:
192,192,22914,128,0,23076:0:0:0:0:
448,192,23076,1,0,0:0:0:0:
64,192,23076,128,0,23401:0:0:0:0:
448,192,23401,1,0,0:0:0:0:
192,192,23401,128,0,23563:0:0:0:0:
320,192,23563,128,0,23725:0:0:0:0:
64,192,23725,1,0,0:0:0:0:
448,192,23725,128,0,24049:0:0:0:0:
64,192,24049,1,0,0:0:0:0:
320,192,24049,128,0,24373:0:0:0:0:
192,192,24373,128,0,24536:0:0:0:0:
448,192,24373,1,0,0:0:0:0:
64,192,24536,128,0,24698:0:0:0:0:
448,192,24698,128,0,25022:0:0:0:0:
320,192,24698,1,0,0:0:0:0:
192,192,25022,1,0,0:0:0:0:
320,192,25022,1,0,0:0:0:0:
64,192,25184,128,0,25346:0:0:0:0:
448,192,25346,128,0,25509:0:0:0:0:
192,192,25346,1,0,0:0:0:0:
320,192,25509,128,0,25671:0:0:0:0:
192,192,25671,128,0,25995:0:0:0:0:
448,192,25671,1,0,0:0:0:0:
64,192,25995,128,0,26157:0:0:0:0:
448,192,25995,1,0,0:0:0:0:
192,192,26157,128,0,26319:0:0:0:0:
320,192,26319,128,0,26644:0:0:0:0:
64,192,26319,1,0,0:0:0:0:
64,192,26644,128,0,26968:0:0:0:0:
448,192,26644,1,0,0:0:0:0:
192,192,26968,128,0,27130:0:0:0:0:
448,192,26968,1,0,0:0:0:0:
320,192,27130,128,0,27292:0:0:0:0:
448,192,27292,128,0,27617:0:0:0:0:
64,192,27292,1,0,0:0:0:0:
192,192,27617,1,0,0:0:0:0:
64,192,27617,1,0,0:0:0:0:
320,192,27779,128,0,27941:0:0:0:0:
192,192,27941,128,0,28103:0:0:0:0:
448,192,27941,1,0,0:0:0:0:
64,192,28103,128,0,28265:0:0:0:0:
448,192,28265,128,0,28590:0:0:0:0:
192,192,28265,1,0,0:0:0:0:
320,192,28590,128,0,28752:0:0:0:0:
64,192,28590,1,0,0:0:0:0:
192,192,28752,128,0,28914:0:0:0:0:
64,192,28914,128,0,29238:0:0:0:0:
448,192,28914,1,0,0:0:0:0:
192,192,29238,128,0,29563:0:0:0:0:
320,192,29238,1,0,0:0:0:0:
320,192,29563,128,0,29725:0:0:0:0:
64,192,29563,1,0,0:0:0:0:
448,192,29725,128,0,29887:0:0:0:0:
64,192,29887,128,0,30211:0:0:0:0:
192,192,29887,1,0,0:0:0:0:
320,192,30211,1,0,0:0:0:0:
448,192,30211,1,0,0:0:0:0:
192,192,30373,128,0,30536:0:0:0:0:
320,192,30536,128,0,30698:0:0:0:0:
64,192,30536,1,0,0:0:0:0:
448,192,30698,128,0,30860:0:0:0:0:
64,192,30860,128,0,31184:0:0:0:0:
192,192,30860,1,0,0:0:0:0:
192,192,31184,128,0,31346:0:0:0:0:
448,192,31184,1,0,0:0:0:0:
320,192,31346,128,0,31509:0:0:0:0:
448,192,31509,128,0,31833:0:0:0:0:
192,192,31509,128,0,31671:0:0:0:0:
64,192,31671,128,0,31833:0:0:0:0:
320,192,31833,128,0,32157:0:0:0:0:
192,192,31833,128,0,31995:0:0:0:0:
448,192,31995,128,0,32157:0:0:0:0:
192,192,32157,128,0,32482:0:0:0:0:
64,192,32157,128,0,32319:0:0:0:0:
320,192,32319,128,0,32482:0:0:0:0:
64,192,32482,128,0,32806:0:0:0:0:
448,192,32482,1,0,0:0:0:0:
192,192,32563,1,0,0:0:0:0:
320,192,32644,1,0,0:0:0:0:
192,192,32725,1,0,0:0:0:0:
320,192,32806,128,0,32968:0:0:0:0:
448,192,32806,1,0,0:0:0:0:
64,192,32968,128,0,33130:0:0:0:0:
192,192,33130,128,0,33292:0:0:0:0:
448,192,33130,1,0,0:0:0:0:
320,192,33292,128,0,33455:0:0:0:0:
448,192,33455,128,0,33779:0:0:0:0:
64,192,33455,1,0,0:0:0:0:
320,192,33779,128,0,33941:0:0:0:0:
64,192,33779,1,0,0:0:0:0:
192,192,33941,128,0,34103:0:0:0:0:
64,192,34103,128,0,34428:0:0:0:0:
448,192,34103,1,0,0:0:0:0:
192,192,34428,128,0,34752:0:0:0:0:
448,192,34428,1,0,0:0:0:0:
64,192,34752,1,0,0:0:0:0:
320,192,34752,128,0,34914:0:0:0:0:
448,192,34914,128,0,35076:0:0:0:0:
192,192,35076,1,0,0:0:0:0:
64,192,35076,128,0,35401:0:0:0:0:
192,192,35401,1,0,0:0:0:0:
320,192,35401,1,0,0:0:0:0:
448,192,35563,128,0,35725:0:0:0:0:
320,192,35725,1,0,0:0:0:0:
64,192,35725,128,0,35887:0:0:0:0:
192,192,35887,128,0,36049:0:0:0:0:
64,192,36049,1,0,0:0:0:0:
320,192,36049,128,0,36373:0:0:0:0:
64,192,36373,1,0,0:0:0:0:
448,192,36373,128,0,36536:0:0:0:0:
320,192,36536,128,0,36698:0:0:0:0:
448,192,36698,1,0,0:0:0:0:
192,192,36698,128,0,37022:0:0:0:0:
64,192,37022,1,0,0:0:0:0:
448,192,37022,128,0,37346:0:0:0:0:
64,192,37346,1,0,0:0:0:0:
320,192,37346,128,0,37509:0:0:0:0:
192,192,37509,128,0,37671:0:0:0:0:
448,192,37671,1,0,0:0:0:0:
64,192,37671,128,0,37995:0:0:0:0:
192,192,37833,1,0,0:0:0:0:
448,192,37995,1,0,0:0:0:0:
320,192,37995,1,0,0:0:0:0:
192,192,38157,128,0,38319:0:0:0:0:
64,192,38319,1,0,0:0:0:0:
320,192,38319,128,0,38482:0:0:0:0:
448,192,38482,128,0,38644:0:0:0:0:
320,192,38644,1,0,0:0:0:0:
64,192,38644,128,0,38968:0:0:0:0:
448,192,38968,1,0,0:0:0:0:
192,192,38968,128,0,39130:0:0:0:0:
320,192,39130,128,0,39292:0:0:0:0:
64,192,39292,1,0,0:0:0:0:
448,192,39292,128,0,39617:0:0:0:0:
192,192,39617,1,0,0:0:0:0:
320,192,39617,128,0,39941:0:0:0:0:
448,192,39941,1,0,0:0:0:0:
192,192,39941,128,0,40103:0:0:0:0:
64,192,40103,128,0,40265:0:0:0:0:
448,192,40265,1,0,0:0:0:0:
192,192,40265,128,0,40428:0:0:0:0:
320,192,40428,128,0,40590:0:0:0:0:
64,192,40590,1,0,0:0:0:0:
448,192,40590,128,0,40914:0:0:0:0:
64,192,41076,128,0,41157:0:0:0:0:
192,192,41157,128,0,41238:0:0:0:0:
448,192,41238,1,0,0:0:0:0:
320,192,41238,1,0,0:0:0:0:
320,192,41401,128,0,41482:0:0:0:0:
192,192,41563,128,0,41887:0:0:0:0:
64,192,41725,128,0,41887:0:0:0:0:
320,192,41887,128,0,42211:0:0:0:0:
192,192,42049,1,0,0:0:0:0:
448,192,42211,128,0,42536:0:0:0:0:
64,192,42211,1,0,0:0:0:0:
320,192,42373,1,0,0:0:0:0:
64,192,42536,128,0,42860:0:0:0:0:
192,192,42536,1,0,0:0:0:0:
320,192,42698,1,0,0:0:0:0:
192,192,42860,128,0,43022:0:0:0:0:
448,192,42860,1,0,0:0:0:0:
320,192,43022,128,0,43184:0:0:0:0:
448,192,43184,128,0,43509:0:0:0:0:
64,192,43184,1,0,0:0:0:0:
64,192,43509,128,0,43833:0:0:0:0:
192,192,43509,1,0,0:0:0:0:
320,192,43833,128,0,44076:0:0:0:0:
448,192,43833,1,0,0:0:0:0:
64,192,44076,1,0,0:0:0:0:
192,192,44157,128,0,44482:0:0:0:0:
320,192,44157,1,0,0:0:0:0:
64,192,44319,128,0,44482:0:0:0:0:
448,192,44319,1,0,0:0:0:0:
320,192,44482,1,0,0:0:0:0:
448,192,44482,128,0,44806:0:0:0:0:
192,192,44806,128,0,45130:0:0:0:0:
320,192,44806,1,0,0:0:0:0:
448,192,45130,128,0,45373:0:0:0:0:
64,192,45130,1,0,0:0:0:0:
64,192,45373,1,0,0:0:0:0:
320,192,45455,128,0,45779:0:0:0:0:
448,192,45455,1,0,0:0:0:0:
192,192,45617,128,0,45779:0:0:0:0:
64,192,45617,1,0,0:0:0:0:
64,192,45779,128,0,46103:0:0:0:0:
448,192,45779,1,0,0:0:0:0:
320,192,46103,128,0,46428:0:0:0:0:
192,192,46103,1,0,0:0:0:0:
64,192,46428,128,0,46671:0:0:0:0:
448,192,46428,1,0,0:0:0:0:
448,192,46671,1,0,0:0:0:0:
192,192,46752,128,0,47076:0:0:0:0:
64,192,46752,1,0,0:0:0:0:
320,192,46914,128,0,47076:0:0:0:0:
448,192,46914,1,0,0:0:0:0:
64,192,47076,128,0,47401:0:0:0:0:
448,192,47076,1,0,0:0:0:0:
320,192,47401,5,0,0:0:0:0:
448,192,47401,128,0,47725:0:0:0:0:
64,192,47725,1,0,0:0:0:0:
192,192,47725,128,0,47968:0:0:0:0:
448,192,47968,1,0,0:0:0:0:
192,192,48049,1,0,0:0:0:0:
320,192,48049,128,0,48373:0:0:0:0:
64,192,48211,1,0,0:0:0:0:
448,192,48211,128,0,48373:0:0:0:0:
64,192,48373,5,0,0:0:0:0:
192,192,48373,1,0,0:0:0:0:
320,192,48455,1,0,0:0:0:0:
448,192,48536,1,0,0:0:0:0:
192,192,48698,1,0,0:0:0:0:
64,192,48698,128,0,49022:0:0:0:0:
320,192,49022,1,0,0:0:0:0:
448,192,49022,1,0,0:0:0:0:
192,192,49103,1,0,0:0:0:0:
64,192,49184,1,0,0:0:0:0:
192,192,49346,128,0,49671:0:0:0:0:
448,192,49346,1,0,0:0:0:0:
64,192,49671,1,0,0:0:0:0:
448,192,49671,1,0,0:0:0:0:
320,192,49752,1,0,0:0:0:0:
192,192,49833,1,0,0:0:0:0:
320,192,49995,128,0,50319:0:0:0:0:
64,192,49995,1,0,0:0:0:0:
448,192,50319,1,0,0:0:0:0:
64,192,50319,1,0,0:0:0:0:
192,192,50401,1,0,0:0:0:0:
320,192,50482,1,0,0:0:0:0:
448,192,50644,128,0,50968:0:0:0:0:
192,192,50644,1,0,0:0:0:0:
64,192,50968,1,0,0:0:0:0:
320,192,50968,1,0,0:0:0:0:
192,192,51049,1,0,0:0:0:0:
448,192,51130,1,0,0:0:0:0:
320,192,51211,1,0,0:0:0:0:
192,192,51292,1,0,0:0:0:0:
64,192,51292,1,0,0:0:0:0:
448,192,51373,1,0,0:0:0:0:
320,192,51455,1,0,0:0:0:0:
192,192,51536,1,0,0:0:0:0:
64,192,51617,1,0,0:0:0:0:
448,192,51617,1,0,0:0:0:0:
320,192,51698,1,0,0:0:0:0:
192,192,51779,1,0,0:0:0:0:
448,192,51860,1,0,0:0:0:0:
320,192,51941,1,0,0:0:0:0:
64,192,51941,128,0,52103:0:0:0:0:
192,192,52022,1,0,0:0:0:0:
448,192,52103,128,0,52265:0:0:0:0:
320,192,52184,1,0,0:0:0:0:
192,192,52265,1,0,0:0:0:0:
64,192,52265,128,0,52590:0:0:0:0:
448,192,52428,128,0,52590:0:0:0:0:
320,192,52590,1,0,0:0:0:0:
192,192,52698,1,0,0:0:0:0:
448,192,52806,1,0,0:0:0:0:
64,192,52914,128,0,53022:0:0:0:0:
192,192,53022,128,0,53130:0:0:0:0:
320,192,53130,128,0,53238:0:0:0:0:
64,192,53238,1,0,0:0:0:0:
448,192,53238,1,0,0:0:0:0:
64,192,53563,1,0,0:0:0:0:
192,192,53563,128,0,53725:0:0:0:0:
320,192,53725,128,0,53887:0:0:0:0:
448,192,53887,128,0,54211:0:0:0:0:
64,192,54211,128,0,54536:0:0:0:0:
320,192,54211,1,0,0:0:0:0:
192,192,54211,1,0,0:0:0:0:
192,192,54536,1,0,0:0:0:0:
448,192,54536,1,0,0:0:0:0:
320,192,54698,1,0,0:0:0:0:
192,192,54860,128,0,55184:0:0:0:0:
448,192,55184,1,0,0:0:0:0:
64,192,55346,1,0,0:0:0:0:
320,192,55346,1,0,0:0:0:0:
192,192,55509,1,0,0:0:0:0:
448,192,55509,1,0,0:0:0:0:
320,192,55509,1,0,0:0:0:0:
64,192,55671,1,0,0:0:0:0:
64,192,55833,1,0,0:0:0:0:
192,192,55995,1,0,0:0:0:0:
320,192,56076,1,0,0:0:0:0:
448,192,56157,1,0,0:0:0:0:
64,192,56157,1,0,0:0:0:0:
192,192,56319,1,0,0:0:0:0:
192,192,56482,1,0,0:0:0:0:
192,192,56644,1,0,0:0:0:0:
192,192,56806,1,0,0:0:0:0:
448,192,56806,1,0,0:0:0:0:
320,192,56806,1,0,0:0:0:0:
192,192,56968,1,0,0:0:0:0:
64,192,57130,1,0,0:0:0:0:
448,192,57130,1,0,0:0:0:0:
320,192,57292,1,0,0:0:0:0:
320,192,57455,1,0,0:0:0:0:
320,192,57617,1,0,0:0:0:0:
320,192,57779,1,0,0:0:0:0:
320,192,57941,1,0,0:0:0:0:
64,192,57941,1,0,0:0:0:0:
448,192,58103,1,0,0:0:0:0:
192,192,58103,1,0,0:0:0:0:
64,192,58103,1,0,0:0:0:0:
320,192,58265,1,0,0:0:0:0:
192,192,58265,1,0,0:0:0:0:
192,192,58428,1,0,0:0:0:0:
192,192,58590,1,0,0:0:0:0:
64,192,58752,1,0,0:0:0:0:
448,192,58752,1,0,0:0:0:0:
320,192,58914,128,0,59076:0:0:0:0:
192,192,59076,128,0,59238:0:0:0:0:
64,192,59238,128,0,59401:0:0:0:0:
448,192,59401,128,0,59725:0:0:0:0:
320,192,59401,1,0,0:0:0:0:
192,192,59401,1,0,0:0:0:0:
64,192,59725,1,0,0:0:0:0:
192,192,59725,1,0,0:0:0:0:
448,192,59887,1,0,0:0:0:0:
320,192,60049,128,0,60373:0:0:0:0:
64,192,60373,1,0,0:0:0:0:
64,192,60536,1,0,0:0:0:0:
448,192,60536,1,0,0:0:0:0:
64,192,60698,1,0,0:0:0:0:
192,192,60698,1,0,0:0:0:0:
320,192,60698,1,0,0:0:0:0:
64,192,60860,1,0,0:0:0:0:
64,192,61022,1,0,0:0:0:0:
192,192,61184,1,0,0:0:0:0:
320,192,61265,1,0,0:0:0:0:
64,192,61346,1,0,0:0:0:0:
448,192,61346,128,0,61671:0:0:0:0:
320,192,61671,1,0,0:0:0:0:
64,192,61833,128,0,61914:0:0:0:0:
192,192,61914,128,0,61995:0:0:0:0:
448,192,61995,1,0,0:0:0:0:
320,192,61995,1,0,0:0:0:0:
64,192,61995,1,0,0:0:0:0:
320,192,62157,128,0,62238:0:0:0:0:
64,192,62157,1,0,0:0:0:0:
192,192,62319,128,0,62644:0:0:0:0:
448,192,62319,1,0,0:0:0:0:
64,192,62482,128,0,62644:0:0:0:0:
320,192,62644,128,0,62968:0:0:0:0:
64,192,62968,1,0,0:0:0:0:
448,192,62968,1,0,0:0:0:0:
192,192,63292,1,0,0:0:0:0:
64,192,63292,1,0,0:0:0:0:
192,192,63617,1,0,0:0:0:0:
320,192,63617,1,0,0:0:0:0:
448,192,63941,1,0,0:0:0:0:
320,192,63941,128,0,64184:0:0:0:0:
192,192,64265,128,0,64509:0:0:0:0:
192,192,64590,1,0,0:0:0:0:
64,192,64590,128,0,64914:0:0:0:0:
448,192,64590,1,0,0:0:0:0:
320,192,64914,1,0,0:0:0:0:
448,192,64914,1,0,0:0:0:0:
64,192,65076,1,0,0:0:0:0:
448,192,65238,128,0,65563:0:0:0:0:
64,192,65563,1,0,0:0:0:0:
192,192,65725,1,0,0:0:0:0:
448,192,65725,1,0,0:0:0:0:
320,192,65887,1,0,0:0:0:0:
64,192,65887,1,0,0:0:0:0:
192,192,65887,1,0,0:0:0:0:
448,192,66049,1,0,0:0:0:0:
448,192,66211,1,0,0:0:0:0:
448,192,66373,1,0,0:0:0:0:
64,192,66536,1,0,0:0:0:0:
192,192,66536,1,0,0:0:0:0:
320,192,66698,1,0,0:0:0:0:
320,192,66860,1,0,0:0:0:0:
320,192,67022,1,0,0:0:0:0:
320,192,67184,1,0,0:0:0:0:
64,192,67184,1,0,0:0:0:0:
192,192,67184,1,0,0:0:0:0:
320,192,67346,1,0,0:0:0:0:
192,192,67509,1,0,0:0:0:0:
448,192,67509,1,0,0:0:0:0:
320,192,67671,1,0,0:0:0:0:
192,192,67752,1,0,0:0:0:0:
64,192,67833,1,0,0:0:0:0:
64,192,67995,1,0,0:0:0:0:
64,192,68157,1,0,0:0:0:0:
64,192,68319,1,0,0:0:0:0:
192,192,68319,1,0,0:0:0:0:
320,192,68401,1,0,0:0:0:0:
448,192,68482,1,0,0:0:0:0:
64,192,68482,1,0,0:0:0:0:
192,192,68482,1,0,0:0:0:0:
320,192,68698,1,0,0:0:0:0:
448,192,68698,1,0,0:0:0:0:
320,192,68914,1,0,0:0:0:0:
192,192,68914,1,0,0:0:0:0:
192,192,69130,1,0,0:0:0:0:
64,192,69130,128,0,69455:0:0:0:0:
320,192,69455,1,0,0:0:0:0:
64,192,69779,1,0,0:0:0:0:
448,192,69779,128,0,70103:0:0:0:0:
192,192,69779,1,0,0:0:0:0:
320,192,70103,1,0,0:0:0:0:
64,192,70103,1,0,0:0:0:0:
192,192,70265,1,0,0:0:0:0:
64,192,70428,128,0,70752:0:0:0:0:
448,192,70752,1,0,0:0:0:0:
320,192,70914,1,0,0:0:0:0:
64,192,70914,1,0,0:0:0:0:
192,192,71076,1,0,0:0:0:0:
448,192,71076,1,0,0:0:0:0:
320,192,71076,1,0,0:0:0:0:
64,192,71238,1,0,0:0:0:0:
64,192,71401,1,0,0:0:0:0:
64,192,71563,1,0,0:0:0:0:
448,192,71644,1,0,0:0:0:0:
64,192,71725,128,0,72049:0:0:0:0:
192,192,71725,1,0,0:0:0:0:
320,192,72049,1,0,0:0:0:0:
448,192,72049,1,0,0:0:0:0:
448,192,72211,128,0,72292:0:0:0:0:
320,192,72292,128,0,72373:0:0:0:0:
64,192,72373,1,0,0:0:0:0:
192,192,72373,1,0,0:0:0:0:
192,192,72536,128,0,72617:0:0:0:0:
320,192,72617,1,0,0:0:0:0:
64,192,72617,1,0,0:0:0:0:
448,192,72698,128,0,72941:0:0:0:0:
320,192,72779,1,0,0:0:0:0:
64,192,72860,128,0,72941:0:0:0:0:
192,192,72860,1,0,0:0:0:0:
320,192,72941,1,0,0:0:0:0:
192,192,73022,128,0,73671:0:0:0:0:
64,192,73022,1,0,0:0:0:0:
320,192,73346,128,0,73995:0:0:0:0:
448,192,73671,128,0,73995:0:0:0:0:
64,192,73995,128,0,74319:0:0:0:0:
192,192,74157,128,0,74319:0:0:0:0:
448,192,74319,1,0,0:0:0:0:
320,192,74319,1,0,0:0:0:0:
320,192,74644,1,0,0:0:0:0:
448,192,74644,1,0,0:0:0:0:
320,192,74968,1,0,0:0:0:0:
448,192,74968,1,0,0:0:0:0:
320,192,75292,1,0,0:0:0:0:
448,192,75292,1,0,0:0:0:0:
448,192,75617,1,0,0:0:0:0:
64,192,75617,1,0,0:0:0:0:
192,192,75941,1,0,0:0:0:0:
64,192,75941,1,0,0:0:0:0:
192,192,76265,1,0,0:0:0:0:
64,192,76265,1,0,0:0:0:0:
192,192,76590,1,0,0:0:0:0:
64,192,76590,1,0,0:0:0:0:
64,192,76914,1,0,0:0:0:0:
192,192,76914,1,0,0:0:0:0:
320,192,76995,1,0,0:0:0:0:
448,192,77076,1,0,0:0:0:0:
64,192,77157,1,0,0:0:0:0:
192,192,77238,1,0,0:0:0:0:
320,192,77238,1,0,0:0:0:0:
448,192,77319,1,0,0:0:0:0:
64,192,77401,1,0,0:0:0:0:
192,192,77482,1,0,0:0:0:0:
320,192,77563,1,0,0:0:0:0:
448,192,77563,1,0,0:0:0:0:
64,192,77644,1,0,0:0:0:0:
192,192,77725,1,0,0:0:0:0:
320,192,77806,1,0,0:0:0:0:
448,192,77887,1,0,0:0:0:0:
64,192,77887,128,0,78211:0:0:0:0:
192,192,77968,1,0,0:0:0:0:
320,192,78049,1,0,0:0:0:0:
448,192,78130,1,0,0:0:0:0:
192,192,78211,128,0,78373:0:0:0:0:
320,192,78373,128,0,78536:0:0:0:0:
448,192,78536,128,0,78698:0:0:0:0:
64,192,78698,128,0,78860:0:0:0:0:
448,192,78860,128,0,79184:0:0:0:0:
320,192,79184,128,0,79346:0:0:0:0:
64,192,79184,1,0,0:0:0:0:
192,192,79346,128,0,79509:0:0:0:0:
64,192,79509,128,0,79752:0:0:0:0:
448,192,79509,1,0,0:0:0:0:
448,192,79752,128,0,80076:0:0:0:0:
320,192,79833,128,0,80076:0:0:0:0:
64,192,79833,1,0,0:0:0:0:
192,192,79995,128,0,80076:0:0:0:0:
448,192,80157,1,0,0:0:0:0:
64,192,80157,128,0,80238:0:0:0:0:
320,192,80238,128,0,80319:0:0:0:0:
192,192,80319,128,0,80401:0:0:0:0:
448,192,80401,128,0,80482:0:0:0:0:
64,192,80482,1,0,0:0:0:0:
192,192,80482,128,0,80563:0:0:0:0:
320,192,80563,128,0,80644:0:0:0:0:
64,192,80644,128,0,80725:0:0:0:0:
192,192,80725,128,0,80806:0:0:0:0:
320,192,80806,1,0,0:0:0:0:
448,192,80806,128,0,81049:0:0:0:0:
64,192,81049,128,0,81373:0:0:0:0:
192,192,81130,128,0,81373:0:0:0:0:
448,192,81130,1,0,0:0:0:0:
320,192,81292,128,0,81373:0:0:0:0:
64,192,81455,128,0,81536:0:0:0:0:
448,192,81455,1,0,0:0:0:0:
192,192,81617,128,0,81698:0:0:0:0:
320,192,81779,128,0,81860:0:0:0:0:
64,192,81779,1,0,0:0:0:0:
448,192,81941,128,0,82022:0:0:0:0:
64,192,82103,128,0,82265:0:0:0:0:
320,192,82103,1,0,0:0:0:0:
192,192,82265,128,0,82428:0:0:0:0:
320,192,82428,128,0,82752:0:0:0:0:
64,192,82428,1,0,0:0:0:0:
448,192,82752,128,0,83076:0:0:0:0:
192,192,82752,1,0,0:0:0:0:
320,192,83076,128,0,83401:0:0:0:0:
64,192,83076,1,0,0:0:0:0:
192,192,83401,128,0,83725:0:0:0:0:
448,192,83401,1,0,0:0:0:0:
64,192,83725,128,0,83887:0:0:0:0:
320,192,83725,1,0,0:0:0:0:
192,192,83887,128,0,84049:0:0:0:0:
320,192,84049,128,0,84211:0:0:0:0:
448,192,84049,1,0,0:0:0:0:
192,192,84211,128,0,84373:0:0:0:0:
320,192,84373,128,0,84536:0:0:0:0:
64,192,84373,1,0,0:0:0:0:
448,192,84536,128,0,84698:0:0:0:0:
64,192,84698,1,0,0:0:0:0:
192,192,84698,128,0,84941:0:0:0:0:
448,192,84941,128,0,85265:0:0:0:0:
64,192,85022,128,0,85265:0:0:0:0:
320,192,85022,1,0,0:0:0:0:
192,192,85184,128,0,85265:0:0:0:0:
448,192,85346,1,0,0:0:0:0:
320,192,85346,128,0,85428:0:0:0:0:
64,192,85428,128,0,85509:0:0:0:0:
192,192,85509,128,0,85590:0:0:0:0:
320,192,85590,128,0,85671:0:0:0:0:
64,192,85671,1,0,0:0:0:0:
448,192,85671,128,0,85752:0:0:0:0:
192,192,85752,128,0,85833:0:0:0:0:
320,192,85833,128,0,85914:0:0:0:0:
64,192,85914,128,0,85995:0:0:0:0:
448,192,85995,1,0,0:0:0:0:
320,192,85995,128,0,86238:0:0:0:0:
64,192,86238,128,0,86563:0:0:0:0:
448,192,86319,128,0,86563:0:0:0:0:
192,192,86319,1,0,0:0:0:0:
320,192,86482,128,0,86563:0:0:0:0:
192,192,86644,128,0,86725:0:0:0:0:
64,192,86644,1,0,0:0:0:0:
320,192,86806,128,0,86887:0:0:0:0:
448,192,86968,128,0,87049:0:0:0:0:
192,192,86968,1,0,0:0:0:0:
64,192,87130,128,0,87211:0:0:0:0:
192,192,87292,1,0,0:0:0:0:
448,192,87292,128,0,87373:0:0:0:0:
320,192,87373,128,0,87455:0:0:0:0:
64,192,87455,128,0,87536:0:0:0:0:
192,192,87536,128,0,87617:0:0:0:0:
320,192,87617,128,0,87779:0:0:0:0:
64,192,87617,1,0,0:0:0:0:
448,192,87779,128,0,87941:0:0:0:0:
64,192,87941,128,0,88265:0:0:0:0:
320,192,87941,1,0,0:0:0:0:
192,192,88265,128,0,88590:0:0:0:0:
448,192,88265,1,0,0:0:0:0:
64,192,88428,1,0,0:0:0:0:
320,192,88590,128,0,88914:0:0:0:0:
448,192,88590,1,0,0:0:0:0:
448,192,88914,128,0,89076:0:0:0:0:
192,192,88914,1,0,0:0:0:0:
320,192,89076,128,0,89238:0:0:0:0:
192,192,89238,128,0,89401:0:0:0:0:
64,192,89238,1,0,0:0:0:0:
320,192,89401,128,0,89563:0:0:0:0:
192,192,89563,128,0,89725:0:0:0:0:
320,192,89644,1,0,0:0:0:0:
64,192,89725,128,0,89887:0:0:0:0:
192,192,89806,1,0,0:0:0:0:
448,192,89887,128,0,90130:0:0:0:0:
320,192,89887,1,0,0:0:0:0:
64,192,90130,128,0,90455:0:0:0:0:
192,192,90211,128,0,90455:0:0:0:0:
448,192,90211,1,0,0:0:0:0:
320,192,90373,128,0,90455:0:0:0:0:
448,192,90536,1,0,0:0:0:0:
64,192,90536,128,0,90617:0:0:0:0:
192,192,90617,128,0,90698:0:0:0:0:
320,192,90698,128,0,90779:0:0:0:0:
64,192,90779,128,0,90860:0:0:0:0:
192,192,90860,1,0,0:0:0:0:
448,192,90860,128,0,90941:0:0:0:0:
320,192,90941,128,0,91022:0:0:0:0:
192,192,91022,128,0,91103:0:0:0:0:
448,192,91103,128,0,91184:0:0:0:0:
320,192,91184,1,0,0:0:0:0:
64,192,91184,128,0,91428:0:0:0:0:
448,192,91428,128,0,91752:0:0:0:0:
320,192,91509,128,0,91752:0:0:0:0:
64,192,91509,1,0,0:0:0:0:
192,192,91671,128,0,91752:0:0:0:0:
448,192,91833,128,0,91914:0:0:0:0:
64,192,91833,1,0,0:0:0:0:
320,192,91995,128,0,92076:0:0:0:0:
192,192,92157,128,0,92238:0:0:0:0:
448,192,92157,1,0,0:0:0:0:
64,192,92319,128,0,92401:0:0:0:0:
448,192,92482,128,0,92644:0:0:0:0:
192,192,92482,1,0,0:0:0:0:
320,192,92644,128,0,92806:0:0:0:0:
192,192,92806,128,0,93130:0:0:0:0:
64,192,92806,1,0,0:0:0:0:
64,192,93130,128,0,93455:0:0:0:0:
320,192,93130,1,0,0:0:0:0:
192,192,93455,128,0,93779:0:0:0:0:
448,192,93455,1,0,0:0:0:0:
320,192,93779,128,0,94103:0:0:0:0:
64,192,93779,1,0,0:0:0:0:
448,192,94103,128,0,94265:0:0:0:0:
64,192,94103,1,0,0:0:0:0:
320,192,94265,128,0,94428:0:0:0:0:
192,192,94428,128,0,94590:0:0:0:0:
448,192,94428,1,0,0:0:0:0:
320,192,94590,128,0,94752:0:0:0:0:
192,192,94752,128,0,94914:0:0:0:0:
64,192,94752,1,0,0:0:0:0:
64,192,94914,128,0,95076:0:0:0:0:
448,192,94914,1,0,0:0:0:0:
192,192,95076,1,0,0:0:0:0:
320,192,95076,128,0,95319:0:0:0:0:
64,192,95319,128,0,95644:0:0:0:0:
448,192,95401,128,0,95644:0:0:0:0:
192,192,95401,1,0,0:0:0:0:
320,192,95563,128,0,95644:0:0:0:0:
448,192,95725,1,0,0:0:0:0:
192,192,95725,128,0,95806:0:0:0:0:
64,192,95806,128,0,95887:0:0:0:0:
320,192,95887,128,0,95968:0:0:0:0:
192,192,95968,128,0,96049:0:0:0:0:
64,192,96049,1,0,0:0:0:0:
448,192,96049,128,0,96130:0:0:0:0:
320,192,96130,128,0,96211:0:0:0:0:
192,192,96211,128,0,96292:0:0:0:0:
448,192,96292,128,0,96373:0:0:0:0:
64,192,96373,1,0,0:0:0:0:
192,192,96373,128,0,96617:0:0:0:0:
448,192,96617,128,0,96941:0:0:0:0:
64,192,96698,128,0,96941:0:0:0:0:
320,192,96698,1,0,0:0:0:0:
192,192,96860,128,0,96941:0:0:0:0:
320,192,97022,128,0,97103:0:0:0:0:
64,192,97022,1,0,0:0:0:0:
192,192,97184,128,0,97265:0:0:0:0:
448,192,97184,1,0,0:0:0:0:
64,192,97346,128,0,97428:0:0:0:0:
320,192,97346,1,0,0:0:0:0:
448,192,97509,128,0,97590:0:0:0:0:
192,192,97509,1,0,0:0:0:0:
64,192,97671,1,0,0:0:0:0:
320,192,97671,128,0,97752:0:0:0:0:
448,192,97752,128,0,97833:0:0:0:0:
64,192,97833,1,0,0:0:0:0:
192,192,97833,128,0,97914:0:0:0:0:
320,192,97914,128,0,97995:0:0:0:0:
448,192,97995,1,0,0:0:0:0:
64,192,97995,128,0,98157:0:0:0:0:
192,192,98157,128,0,98319:0:0:0:0:
320,192,98319,128,0,98644:0:0:0:0:
64,192,98319,1,0,0:0:0:0:
448,192,98644,128,0,98968:0:0:0:0:
192,192,98644,1,0,0:0:0:0:
64,192,98725,1,0,0:0:0:0:
320,192,98806,1,0,0:0:0:0:
192,192,98887,1,0,0:0:0:0:
64,192,98968,128,0,99292:0:0:0:0:
320,192,98968,1,0,0:0:0:0:
320,192,99292,128,0,99373:0:0:0:0:
192,192,99373,128,0,99455:0:0:0:0:
320,192,99455,128,0,99536:0:0:0:0:
192,192,99536,128,0,99617:0:0:0:0:
448,192,99617,128,0,99698:0:0:0:0:
448,192,99779,128,0,99941:0:0:0:0:
192,192,99941,1,0,0:0:0:0:
64,192,99941,1,0,0:0:0:0:
64,192,100265,1,0,0:0:0:0:
448,192,100265,128,0,100590:0:0:0:0:
320,192,100590,128,0,100914:0:0:0:0:
64,192,100590,1,0,0:0:0:0:
192,192,100914,128,0,101076:0:0:0:0:
448,192,100914,1,0,0:0:0:0:
320,192,101076,128,0,101238:0:0:0:0:
192,192,101238,128,0,101401:0:0:0:0:
64,192,101238,1,0,0:0:0:0:
320,192,101401,128,0,101563:0:0:0:0:
448,192,101563,128,0,101725:0:0:0:0:
192,192,101563,1,0,0:0:0:0:
64,192,101725,128,0,101887:0:0:0:0:
448,192,101887,128,0,102049:0:0:0:0:
320,192,101887,1,0,0:0:0:0:
64,192,102049,128,0,102211:0:0:0:0:
448,192,102211,128,0,102536:0:0:0:0:
192,192,102211,1,0,0:0:0:0:
320,192,102536,128,0,102698:0:0:0:0:
64,192,102536,1,0,0:0:0:0:
192,192,102698,128,0,102860:0:0:0:0:
320,192,102779,1,0,0:0:0:0:
64,192,102860,128,0,103184:0:0:0:0:
448,192,102860,1,0,0:0:0:0:
192,192,103184,128,0,103346:0:0:0:0:
448,192,103184,1,0,0:0:0:0:
320,192,103346,128,0,103509:0:0:0:0:
192,192,103509,128,0,103671:0:0:0:0:
64,192,103509,1,0,0:0:0:0:
320,192,103671,128,0,103833:0:0:0:0:
448,192,103833,128,0,103995:0:0:0:0:
64,192,103833,1,0,0:0:0:0:
320,192,103995,128,0,104157:0:0:0:0:
192,192,104157,128,0,104482:0:0:0:0:
448,192,104157,1,0,0:0:0:0:
320,192,104482,128,0,104644:0:0:0:0:
64,192,104482,1,0,0:0:0:0:
448,192,104644,128,0,104806:0:0:0:0:
64,192,104806,128,0,105130:0:0:0:0:
192,192,104806,1,0,0:0:0:0:
320,192,104968,1,0,0:0:0:0:
192,192,105130,128,0,105292:0:0:0:0:
448,192,105130,1,0,0:0:0:0:
320,192,105292,128,0,105455:0:0:0:0:
192,192,105373,1,0,0:0:0:0:
448,192,105455,128,0,105779:0:0:0:0:
64,192,105455,1,0,0:0:0:0:
64,192,105779,128,0,106103:0:0:0:0:
192,192,105779,1,0,0:0:0:0:
448,192,106103,128,0,106265:0:0:0:0:
320,192,106103,1,0,0:0:0:0:
64,192,106265,128,0,106428:0:0:0:0:
448,192,106428,128,0,106590:0:0:0:0:
192,192,106428,1,0,0:0:0:0:
64,192,106590,128,0,106752:0:0:0:0:
320,192,106752,128,0,106914:0:0:0:0:
448,192,106752,1,0,0:0:0:0:
192,192,106914,128,0,107076:0:0:0:0:
320,192,107076,128,0,107238:0:0:0:0:
64,192,107076,1,0,0:0:0:0:
192,192,107238,128,0,107401:0:0:0:0:
64,192,107401,128,0,107725:0:0:0:0:
448,192,107401,1,0,0:0:0:0:
192,192,107725,128,0,107887:0:0:0:0:
448,192,107725,1,0,0:0:0:0:
320,192,107887,128,0,108049:0:0:0:0:
192,192,107968,1,0,0:0:0:0:
448,192,108049,128,0,108373:0:0:0:0:
64,192,108049,1,0,0:0:0:0:
320,192,108373,128,0,108536:0:0:0:0:
64,192,108373,1,0,0:0:0:0:
192,192,108536,128,0,108698:0:0:0:0:
320,192,108698,128,0,108860:0:0:0:0:
448,192,108698,1,0,0:0:0:0:
192,192,108860,128,0,109022:0:0:0:0:
64,192,109022,128,0,109184:0:0:0:0:
320,192,109022,1,0,0:0:0:0:
192,192,109184,128,0,109346:0:0:0:0:
320,192,109346,128,0,109671:0:0:0:0:
448,192,109346,1,0,0:0:0:0:
64,192,109671,1,0,0:0:0:0:
448,192,109752,1,0,0:0:0:0:
192,192,109833,1,0,0:0:0:0:
320,192,109914,1,0,0:0:0:0:
64,192,109995,1,0,0:0:0:0:
192,192,110157,1,0,0:0:0:0:
320,192,110319,1,0,0:0:0:0:
448,192,110319,1,0,0:0:0:0:
192,192,110482,1,0,0:0:0:0:
448,192,110644,1,0,0:0:0:0:
64,192,110644,128,0,110887:0:0:0:0:
448,192,110887,128,0,111211:0:0:0:0:
64,192,110968,1,0,0:0:0:0:
320,192,110968,128,0,111211:0:0:0:0:
192,192,111130,128,0,111211:0:0:0:0:
448,192,111292,1,0,0:0:0:0:
64,192,111292,128,0,111373:0:0:0:0:
320,192,111373,128,0,111455:0:0:0:0:
192,192,111455,128,0,111536:0:0:0:0:
448,192,111536,128,0,111617:0:0:0:0:
64,192,111617,1,0,0:0:0:0:
320,192,111617,128,0,111698:0:0:0:0:
192,192,111698,128,0,111779:0:0:0:0:
320,192,111779,128,0,111860:0:0:0:0:
64,192,111860,128,0,111941:0:0:0:0:
448,192,111941,128,0,112184:0:0:0:0:
192,192,111941,1,0,0:0:0:0:
64,192,112184,128,0,112509:0:0:0:0:
448,192,112265,1,0,0:0:0:0:
192,192,112265,128,0,112509:0:0:0:0:
320,192,112428,128,0,112509:0:0:0:0:
448,192,112590,1,0,0:0:0:0:
64,192,112590,128,0,112671:0:0:0:0:
192,192,112752,128,0,112833:0:0:0:0:
64,192,112914,1,0,0:0:0:0:
320,192,112914,128,0,112995:0:0:0:0:
448,192,113076,128,0,113157:0:0:0:0:
192,192,113238,128,0,113482:0:0:0:0:
64,192,113238,1,0,0:0:0:0:
448,192,113482,128,0,113806:0:0:0:0:
64,192,113563,128,0,113806:0:0:0:0:
320,192,113563,1,0,0:0:0:0:
192,192,113725,128,0,113806:0:0:0:0:
448,192,113887,1,0,0:0:0:0:
320,192,113887,128,0,113968:0:0:0:0:
64,192,113968,128,0,114049:0:0:0:0:
192,192,114049,128,0,114130:0:0:0:0:
320,192,114130,128,0,114211:0:0:0:0:
64,192,114211,1,0,0:0:0:0:
448,192,114211,128,0,114292:0:0:0:0:
192,192,114292,128,0,114373:0:0:0:0:
320,192,114373,128,0,114455:0:0:0:0:
64,192,114455,128,0,114536:0:0:0:0:
448,192,114536,1,0,0:0:0:0:
320,192,114536,128,0,114698:0:0:0:0:
192,192,114698,128,0,114860:0:0:0:0:
320,192,114860,128,0,115022:0:0:0:0:
64,192,114860,1,0,0:0:0:0:
448,192,115022,128,0,115184:0:0:0:0:
64,192,115184,128,0,115265:0:0:0:0:
320,192,115184,1,0,0:0:0:0:
192,192,115265,128,0,115346:0:0:0:0:
320,192,115346,128,0,115509:0:0:0:0:
192,192,115509,128,0,115671:0:0:0:0:
448,192,115509,1,0,0:0:0:0:
64,192,115671,128,0,115833:0:0:0:0:
320,192,115671,1,0,0:0:0:0:
192,192,115833,1,0,0:0:0:0:
448,192,115833,128,0,116157:0:0:0:0:
192,192,115995,1,0,0:0:0:0:
64,192,116157,128,0,116482:0:0:0:0:
320,192,116157,1,0,0:0:0:0:
320,192,116319,1,0,0:0:0:0:
192,192,116482,128,0,116644:0:0:0:0:
448,192,116482,1,0,0:0:0:0:
320,192,116644,128,0,116806:0:0:0:0:
448,192,116644,1,0,0:0:0:0:
64,192,116806,128,0,116968:0:0:0:0:
192,192,116806,1,0,0:0:0:0:
192,192,116968,1,0,0:0:0:0:
448,192,116968,128,0,117130:0:0:0:0:
320,192,117130,128,0,117292:0:0:0:0:
64,192,117130,1,0,0:0:0:0:
64,192,117292,1,0,0:0:0:0:
192,192,117292,128,0,117455:0:0:0:0:
448,192,117455,128,0,117617:0:0:0:0:
320,192,117455,1,0,0:0:0:0:
320,192,117617,1,0,0:0:0:0:
64,192,117617,128,0,117779:0:0:0:0:
192,192,117779,1,0,0:0:0:0:
448,192,117779,128,0,118103:0:0:0:0:
192,192,117941,1,0,0:0:0:0:
64,192,118103,128,0,118265:0:0:0:0:
320,192,118103,1,0,0:0:0:0:
320,192,118265,1,0,0:0:0:0:
192,192,118265,128,0,118428:0:0:0:0:
320,192,118428,128,0,118752:0:0:0:0:
448,192,118428,1,0,0:0:0:0:
64,192,118509,1,0,0:0:0:0:
192,192,118590,1,0,0:0:0:0:
448,192,118671,1,0,0:0:0:0:
192,192,118752,128,0,119076:0:0:0:0:
64,192,118833,1,0,0:0:0:0:
320,192,118914,1,0,0:0:0:0:
448,192,118995,1,0,0:0:0:0:
64,192,119076,128,0,119238:0:0:0:0:
320,192,119157,1,0,0:0:0:0:
192,192,119238,128,0,119401:0:0:0:0:
448,192,119319,1,0,0:0:0:0:
320,192,119401,128,0,119563:0:0:0:0:
64,192,119482,1,0,0:0:0:0:
448,192,119563,128,0,119725:0:0:0:0:
192,192,119644,1,0,0:0:0:0:
320,192,119725,1,0,0:0:0:0:
64,192,119725,128,0,120049:0:0:0:0:
192,192,120049,1,0,0:0:0:0:
448,192,120049,1,0,0:0:0:0:
320,192,120130,1,0,0:0:0:0:
192,192,120211,1,0,0:0:0:0:
448,192,120292,1,0,0:0:0:0:
64,192,120373,1,0,0:0:0:0:
320,192,120373,128,0,120698:0:0:0:0:
64,192,120698,128,0,121022:0:0:0:0:
448,192,120698,1,0,0:0:0:0:
192,192,120860,128,0,121022:0:0:0:0:
320,192,121022,1,0,0:0:0:0:
448,192,121022,1,0,0:0:0:0:
