osu file format v14

[General]
AudioFilename: audio.ogg
AudioLeadIn: 0
PreviewTime: 78211
Countdown: 0
SampleSet: Soft
StackLeniency: 0.7
Mode: 3
LetterboxInBreaks: 0
SpecialStyle: 0
WidescreenStoryboard: 0

[Editor]
DistanceSpacing: 1.6
BeatDivisor: 4
GridSize: 8
TimelineZoom: 2.4

[Metadata]
Title:Good bye, Merry-Go-Round.
TitleUnicode:Good bye, Merry-Go-Round.
Artist:Yooh
ArtistUnicode:Yooh
Creator:Shima Rin
Version:FAREWELL
Source:オンゲキ SUMMER
Tags:Tofu1222 Critical_Star CS Virtue- Dellvangel Goodbye Amusement Hardcore Ongeki CHUNITHM PARADISE LOST maimai でらっくす DX Deluxe UNiVERSE PLUS 日向 千夏 Hinata Chinatsu Video Game Electronic Instrumental
BeatmapID:3601720
BeatmapSetID:1759784

[Difficulty]
HPDrainRate:8.5
CircleSize:4
OverallDifficulty:7.8
ApproachRate:5
SliderMultiplier:1.4
SliderTickRate:1

[Events]
//Background and Video events
0,0,"BG.jpg",0,0
//Break Periods
//Storyboard Layer 0 (Background)
//Storyboard Layer 1 (Fail)
//Storyboard Layer 2 (Pass)
//Storyboard Layer 3 (Foreground)
//Storyboard Layer 4 (Overlay)
//Storyboard Sound Samples

[TimingPoints]
374,324.324324324324,4,2,1,75,1,0
22103,-14.2857142857143,4,2,1,75,0,0
22123,-1000,4,2,1,75,0,0
22265,-500,4,2,1,75,0,0
22279.2,-277.777777777778,4,2,1,75,0,0
22293.4,-192.307692307692,4,2,1,75,0,0
22307.6,-147.058823529412,4,2,1,75,0,0
22321.8,-119.047619047619,4,2,1,75,0,0
22336,-100,4,2,1,75,0,0
22350.2,-86.2068965517241,4,2,1,75,0,0
22364.4,-75.7575757575758,4,2,1,75,0,0
22378.6,-67.5675675675676,4,2,1,75,0,0
22392.8,-60.9756097560976,4,2,1,75,0,0
22407,-55.5555555555556,4,2,1,75,0,0
22428,-100,4,2,1,75,0,1
40590,-100,4,2,1,75,0,0
53238,-14.2857142857143,4,2,1,75,0,0
53259,-1000,4,2,1,75,0,0
53400,-500,4,2,1,75,0,0
53414.2,-277.777777777778,4,2,1,75,0,0
53428.4,-192.307692307692,4,2,1,75,0,0
53442.6,-147.058823529412,4,2,1,75,0,0
53456.8,-119.047619047619,4,2,1,75,0,0
53471,-100,4,2,1,75,0,0
53485.2,-86.2068965517241,4,2,1,75,0,0
53499.4,-75.7575757575758,4,2,1,75,0,0
53513.6,-67.5675675675676,4,2,1,75,0,0
53527.8,-60.9756097560976,4,2,1,75,0,0
53542,-55.5555555555556,4,2,1,75,0,0
53563,-100,4,2,1,75,0,0
62968,-14.2857142857143,4,2,1,75,0,0
62988,-1000,4,2,1,75,0,0
63211,-66.6666666666667,4,2,1,75,0,0
63292,-16.6666666666667,4,2,1,75,0,0
63313,-1000,4,2,1,75,0,0
63536,-66.6666666666667,4,2,1,75,0,0
63617,-20,4,2,1,75,0,0
63637,-1000,4,2,1,75,0,0
63779,-500,4,2,1,75,0,0
63793.2,-277.777777777778,4,2,1,75,0,0
63807.4,-192.307692307692,4,2,1,75,0,0
63821.6,-147.058823529412,4,2,1,75,0,0
63835.8,-119.047619047619,4,2,1,75,0,0
63850,-100,4,2,1,75,0,0
63864.2,-86.2068965517241,4,2,1,75,0,0
63878.4,-75.7575757575758,4,2,1,75,0,0
63892.6,-67.5675675675676,4,2,1,75,0,0
63906.8,-60.9756097560976,4,2,1,75,0,0
63921,-55.5555555555556,4,2,1,75,0,0
63941,-100,4,2,1,75,0,0
68482,-18.1818181818182,4,2,1,75,0,0
68509,-1000,4,2,1,75,0,0
68617,-83.3333333333333,4,2,1,75,0,0
68698,-20,4,2,1,75,0,0
68725,-1000,4,2,1,75,0,0
68833,-83.3333333333333,4,2,1,75,0,0
68914,-22.2222222222222,4,2,1,75,0,0
68941,-1000,4,2,1,75,0,0
69049,-83.3333333333333,4,2,1,75,0,0
69130,-100,4,2,1,75,0,0
79509,-100,4,2,1,75,0,1
99941,-14.2857142857143,4,2,1,75,0,0
99961,-1000,4,2,1,75,0,0
100103,-500,4,2,1,75,0,0
100117.2,-303.030303030303,4,2,1,75,0,0
100131.4,-217.391304347826,4,2,1,75,0,0
100145.6,-169.491525423729,4,2,1,75,0,0
100159.8,-138.888888888889,4,2,1,75,0,0
100174,-117.647058823529,4,2,1,75,0,0
100188.2,-102.040816326531,4,2,1,75,0,0
100202.4,-90.0900900900901,4,2,1,75,0,0
100216.6,-80.6451612903226,4,2,1,75,0,0
100230.8,-72.992700729927,4,2,1,75,0,0
100245,-66.6666666666667,4,2,1,75,0,0
100265,-100,4,2,1,75,0,0
110644,-100,4,2,1,75,0,1
121022,-100,4,2,1,75,0,0

[HitObjects]
192,192,374,5,0,0:0:0:0:
64,192,374,1,0,0:0:0:0:
192,192,536,1,0,0:0:0:0:
64,192,536,1,0,0:0:0:0:
448,192,698,1,0,0:0:0:0:
320,192,698,1,0,0:0:0:0:
192,192,860,1,0,0:0:0:0:
64,192,860,1,0,0:0:0:0:
320,192,941,1,0,0:0:0:0:
448,192,941,1,0,0:0:0:0:
192,192,1022,1,0,0:0:0:0:
64,192,1022,1,0,0:0:0:0:
320,192,1103,1,0,0:0:0:0:
448,192,1184,1,0,0:0:0:0:
64,192,1184,1,0,0:0:0:0:
192,192,1184,1,0,0:0:0:0:
448,192,1346,1,0,0:0:0:0:
320,192,1346,1,0,0:0:0:0:
192,192,1428,1,0,0:0:0:0:
64,192,1509,1,0,0:0:0:0:
448,192,1509,1,0,0:0:0:0:
320,192,1590,1,0,0:0:0:0:
192,192,1671,1,0,0:0:0:0:
448,192,1671,128,0,1833:0:0:0:0:
64,192,1671,128,0,2319:0:0:0:0:
320,192,1833,128,0,1995:0:0:0:0:
192,192,1995,128,0,2157:0:0:0:0:
448,192,2157,1,0,0:0:0:0:
192,192,2319,128,0,2482:0:0:0:0:
320,192,2319,128,0,2968:0:0:0:0:
64,192,2482,128,0,2644:0:0:0:0:
448,192,2644,128,0,2806:0:0:0:0:
192,192,2806,128,0,2968:0:0:0:0:
64,192,2968,128,0,3130:0:0:0:0:
448,192,2968,128,0,4265:0:0:0:0:
320,192,3130,128,0,3292:0:0:0:0:
64,192,3292,128,0,3455:0:0:0:0:
192,192,3455,128,0,3617:0:0:0:0:
320,192,3617,128,0,3779:0:0:0:0:
192,192,3779,128,0,3941:0:0:0:0:
64,192,3941,128,0,4103:0:0:0:0:
320,192,4103,128,0,4265:0:0:0:0:
64,192,4265,128,0,4914:0:0:0:0:
192,192,4265,128,0,4428:0:0:0:0:
448,192,4428,128,0,4590:0:0:0:0:
320,192,4590,128,0,4752:0:0:0:0:
192,192,4752,1,0,0:0:0:0:
448,192,4914,128,0,5563:0:0:0:0:
320,192,4914,128,0,5076:0:0:0:0:
192,192,5076,128,0,5238:0:0:0:0:
64,192,5238,128,0,5401:0:0:0:0:
320,192,5401,128,0,5563:0:0:0:0:
192,192,5563,128,0,6211:0:0:0:0:
64,192,5563,128,0,5725:0:0:0:0:
320,192,5725,128,0,5887:0:0:0:0:
448,192,5887,128,0,6049:0:0:0:0:
64,192,6049,128,0,6211:0:0:0:0:
448,192,6211,128,0,6373:0:0:0:0:
320,192,6211,128,0,6860:0:0:0:0:
64,192,6373,128,0,6536:0:0:0:0:
448,192,6536,128,0,6698:0:0:0:0:
192,192,6698,128,0,6860:0:0:0:0:
64,192,6860,128,0,7509:0:0:0:0:
448,192,6860,128,0,7022:0:0:0:0:
320,192,7022,128,0,7184:0:0:0:0:
192,192,7184,128,0,7346:0:0:0:0:
448,192,7346,1,0,0:0:0:0:
320,192,7509,128,0,8157:0:0:0:0:
192,192,7509,128,0,7671:0:0:0:0:
64,192,7671,128,0,7833:0:0:0:0:
448,192,7833,128,0,7995:0:0:0:0:
192,192,7995,128,0,8157:0:0:0:0:
64,192,8157,128,0,8319:0:0:0:0:
448,192,8157,128,0,9455:0:0:0:0:
320,192,8319,128,0,8482:0:0:0:0:
64,192,8482,128,0,8644:0:0:0:0:
192,192,8644,128,0,8806:0:0:0:0:
320,192,8806,128,0,8968:0:0:0:0:
192,192,8968,128,0,9130:0:0:0:0:
64,192,9130,128,0,9292:0:0:0:0:
320,192,9292,128,0,9455:0:0:0:0:
192,192,9455,128,0,9617:0:0:0:0:
64,192,9455,128,0,10103:0:0:0:0:
448,192,9617,128,0,9779:0:0:0:0:
320,192,9779,128,0,9941:0:0:0:0:
192,192,9941,1,0,0:0:0:0:
320,192,10103,128,0,10265:0:0:0:0:
448,192,10103,128,0,10752:0:0:0:0:
192,192,10265,128,0,10428:0:0:0:0:
64,192,10428,128,0,10590:0:0:0:0:
320,192,10590,128,0,10752:0:0:0:0:
64,192,10752,128,0,10914:0:0:0:0:
192,192,10752,128,0,11725:0:0:0:0:
320,192,10914,128,0,11076:0:0:0:0:
448,192,11076,128,0,11238:0:0:0:0:
64,192,11238,128,0,11401:0:0:0:0:
320,192,11401,128,0,11563:0:0:0:0:
64,192,11563,128,0,11725:0:0:0:0:
448,192,11725,128,0,11887:0:0:0:0:
320,192,11887,128,0,12049:0:0:0:0:
448,192,12049,1,0,0:0:0:0:
64,192,12049,128,0,12292:0:0:0:0:
192,192,12049,1,0,0:0:0:0:
320,192,12211,1,0,0:0:0:0:
64,192,12373,1,0,0:0:0:0:
192,192,12373,1,0,0:0:0:0:
64,192,12536,128,0,12617:0:0:0:0:
320,192,12536,1,0,0:0:0:0:
448,192,12536,1,0,0:0:0:0:
192,192,12698,1,0,0:0:0:0:
64,192,12860,128,0,12941:0:0:0:0:
320,192,12860,1,0,0:0:0:0:
448,192,12860,1,0,0:0:0:0:
320,192,13022,128,0,13184:0:0:0:0:
192,192,13022,1,0,0:0:0:0:
64,192,13184,1,0,0:0:0:0:
192,192,13184,128,0,13346:0:0:0:0:
448,192,13184,1,0,0:0:0:0:
448,192,13346,128,0,13590:0:0:0:0:
320,192,13346,1,0,0:0:0:0:
64,192,13346,1,0,0:0:0:0:
192,192,13509,1,0,0:0:0:0:
192,192,13671,128,0,13914:0:0:0:0:
448,192,13671,1,0,0:0:0:0:
320,192,13833,1,0,0:0:0:0:
448,192,13833,1,0,0:0:0:0:
64,192,13833,1,0,0:0:0:0:
64,192,13995,128,0,14238:0:0:0:0:
192,192,13995,1,0,0:0:0:0:
448,192,14157,1,0,0:0:0:0:
320,192,14157,1,0,0:0:0:0:
192,192,14157,1,0,0:0:0:0:
320,192,14319,128,0,14563:0:0:0:0:
64,192,14319,1,0,0:0:0:0:
192,192,14482,1,0,0:0:0:0:
64,192,14482,1,0,0:0:0:0:
448,192,14482,1,0,0:0:0:0:
320,192,14644,1,0,0:0:0:0:
448,192,14644,128,0,14887:0:0:0:0:
64,192,14644,1,0,0:0:0:0:
192,192,14806,1,0,0:0:0:0:
448,192,14968,1,0,0:0:0:0:
320,192,14968,1,0,0:0:0:0:
448,192,15130,128,0,15211:0:0:0:0:
192,192,15130,1,0,0:0:0:0:
64,192,15130,1,0,0:0:0:0:
320,192,15211,128,0,15292:0:0:0:0:
192,192,15292,1,0,0:0:0:0:
448,192,15455,128,0,15536:0:0:0:0:
320,192,15455,1,0,0:0:0:0:
64,192,15455,1,0,0:0:0:0:
192,192,15617,128,0,15779:0:0:0:0:
320,192,15617,1,0,0:0:0:0:
320,192,15779,128,0,15941:0:0:0:0:
64,192,15779,1,0,0:0:0:0:
448,192,15779,1,0,0:0:0:0:
192,192,15941,1,0,0:0:0:0:
64,192,15941,128,0,16184:0:0:0:0:
448,192,15941,1,0,0:0:0:0:
320,192,16103,1,0,0:0:0:0:
64,192,16265,1,0,0:0:0:0:
320,192,16265,128,0,16509:0:0:0:0:
64,192,16428,1,0,0:0:0:0:
192,192,16428,1,0,0:0:0:0:
448,192,16428,1,0,0:0:0:0:
320,192,16590,1,0,0:0:0:0:
448,192,16590,128,0,16833:0:0:0:0:
192,192,16752,1,0,0:0:0:0:
64,192,16752,1,0,0:0:0:0:
320,192,16752,1,0,0:0:0:0:
192,192,16914,128,0,17157:0:0:0:0:
448,192,16914,1,0,0:0:0:0:
64,192,16995,1,0,0:0:0:0:
448,192,17076,1,0,0:0:0:0:
64,192,17157,1,0,0:0:0:0:
192,192,17238,1,0,0:0:0:0:
320,192,17238,1,0,0:0:0:0:
448,192,17238,128,0,17482:0:0:0:0:
64,192,17319,1,0,0:0:0:0:
320,192,17401,1,0,0:0:0:0:
192,192,17401,1,0,0:0:0:0:
448,192,17563,1,0,0:0:0:0:
64,192,17563,1,0,0:0:0:0:
64,192,17725,128,0,17806:0:0:0:0:
320,192,17725,1,0,0:0:0:0:
192,192,17887,1,0,0:0:0:0:
448,192,17887,1,0,0:0:0:0:
320,192,17968,1,0,0:0:0:0:
64,192,18049,128,0,18130:0:0:0:0:
448,192,18049,1,0,0:0:0:0:
192,192,18211,128,0,18373:0:0:0:0:
320,192,18211,1,0,0:0:0:0:
448,192,18373,128,0,18536:0:0:0:0:
64,192,18373,1,0,0:0:0:0:
192,192,18536,1,0,0:0:0:0:
320,192,18536,1,0,0:0:0:0:
64,192,18536,128,0,18779:0:0:0:0:
448,192,18617,1,0,0:0:0:0:
320,192,18698,1,0,0:0:0:0:
192,192,18698,1,0,0:0:0:0:
64,192,18860,1,0,0:0:0:0:
448,192,18860,1,0,0:0:0:0:
448,192,19022,128,0,19103:0:0:0:0:
192,192,19022,1,0,0:0:0:0:
320,192,19184,1,0,0:0:0:0:
64,192,19184,1,0,0:0:0:0:
192,192,19265,1,0,0:0:0:0:
448,192,19346,128,0,19428:0:0:0:0:
64,192,19346,1,0,0:0:0:0:
320,192,19509,128,0,19671:0:0:0:0:
192,192,19509,1,0,0:0:0:0:
64,192,19671,128,0,19833:0:0:0:0:
448,192,19671,1,0,0:0:0:0:
448,192,19833,1,0,0:0:0:0:
192,192,19833,1,0,0:0:0:0:
320,192,19833,1,0,0:0:0:0:
64,192,19914,1,0,0:0:0:0:
320,192,19995,1,0,0:0:0:0:
448,192,19995,1,0,0:0:0:0:
192,192,20076,1,0,0:0:0:0:
448,192,20157,1,0,0:0:0:0:
64,192,20157,1,0,0:0:0:0:
320,192,20238,1,0,0:0:0:0:
192,192,20319,1,0,0:0:0:0:
64,192,20319,1,0,0:0:0:0:
448,192,20401,1,0,0:0:0:0:
320,192,20482,1,0,0:0:0:0:
192,192,20482,1,0,0:0:0:0:
64,192,20482,1,0,0:0:0:0:
448,192,20563,1,0,0:0:0:0:
64,192,20644,1,0,0:0:0:0:
192,192,20644,1,0,0:0:0:0:
320,192,20725,1,0,0:0:0:0:
64,192,20806,1,0,0:0:0:0:
448,192,20806,1,0,0:0:0:0:
192,192,20846,1,0,0:0:0:0:
320,192,20887,1,0,0:0:0:0:
448,192,20928,1,0,0:0:0:0:
64,192,20968,1,0,0:0:0:0:
192,192,21009,1,0,0:0:0:0:
320,192,21049,1,0,0:0:0:0:
448,192,21090,1,0,0:0:0:0:
192,192,21130,1,0,0:0:0:0:
64,192,21130,1,0,0:0:0:0:
320,192,21211,1,0,0:0:0:0:
448,192,21292,1,0,0:0:0:0:
64,192,21373,1,0,0:0:0:0:
320,192,21455,1,0,0:0:0:0:
192,192,21455,1,0,0:0:0:0:
448,192,21536,1,0,0:0:0:0:
64,192,21617,1,0,0:0:0:0:
192,192,21698,1,0,0:0:0:0:
320,192,21779,1,0,0:0:0:0:
448,192,21779,1,0,0:0:0:0:
64,192,21860,1,0,0:0:0:0:
320,192,21941,1,0,0:0:0:0:
64,192,22022,1,0,0:0:0:0:
448,192,22103,1,0,0:0:0:0:
192,192,22103,1,0,0:0:0:0:
320,192,22103,1,0,0:0:0:0:
64,192,22428,1,0,0:0:0:0:
192,192,22428,1,0,0:0:0:0:
320,192,22428,1,0,0:0:0:0:
448,192,22428,1,0,0:0:0:0:
64,192,22590,1,0,0:0:0:0:
192,192,22590,1,0,0:0:0:0:
320,192,22752,1,0,0:0:0:0:
192,192,22752,1,0,0:0:0:0:
448,192,22752,1,0,0:0:0:0:
448,192,22914,1,0,0:0:0:0:
320,192,22914,1,0,0:0:0:0:
64,192,23076,128,0,23319:0:0:0:0:
192,192,23076,1,0,0:0:0:0:
320,192,23076,1,0,0:0:0:0:
448,192,23238,1,0,0:0:0:0:
320,192,23401,1,0,0:0:0:0:
64,192,23401,1,0,0:0:0:0:
448,192,23401,1,0,0:0:0:0:
192,192,23563,1,0,0:0:0:0:
320,192,23563,1,0,0:0:0:0:
64,192,23725,1,0,0:0:0:0:
192,192,23725,128,0,23968:0:0:0:0:
448,192,23725,1,0,0:0:0:0:
320,192,23887,1,0,0:0:0:0:
192,192,24049,1,0,0:0:0:0:
64,192,24049,1,0,0:0:0:0:
448,192,24049,128,0,24292:0:0:0:0:
320,192,24211,1,0,0:0:0:0:
192,192,24373,1,0,0:0:0:0:
320,192,24373,1,0,0:0:0:0:
448,192,24373,1,0,0:0:0:0:
64,192,24536,1,0,0:0:0:0:
448,192,24536,1,0,0:0:0:0:
192,192,24698,1,0,0:0:0:0:
64,192,24698,128,0,24941:0:0:0:0:
320,192,24698,1,0,0:0:0:0:
448,192,24860,1,0,0:0:0:0:
64,192,25022,1,0,0:0:0:0:
320,192,25022,1,0,0:0:0:0:
448,192,25022,1,0,0:0:0:0:
64,192,25184,1,0,0:0:0:0:
320,192,25184,1,0,0:0:0:0:
64,192,25346,1,0,0:0:0:0:
448,192,25346,1,0,0:0:0:0:
192,192,25346,1,0,0:0:0:0:
448,192,25509,1,0,0:0:0:0:
192,192,25509,1,0,0:0:0:0:
64,192,25671,1,0,0:0:0:0:
448,192,25671,1,0,0:0:0:0:
320,192,25671,128,0,25914:0:0:0:0:
192,192,25833,1,0,0:0:0:0:
192,192,25995,1,0,0:0:0:0:
448,192,25995,1,0,0:0:0:0:
320,192,25995,1,0,0:0:0:0:
64,192,26157,1,0,0:0:0:0:
448,192,26157,1,0,0:0:0:0:
320,192,26319,1,0,0:0:0:0:
192,192,26319,1,0,0:0:0:0:
64,192,26319,128,0,26563:0:0:0:0:
448,192,26482,1,0,0:0:0:0:
320,192,26644,1,0,0:0:0:0:
64,192,26644,1,0,0:0:0:0:
192,192,26644,128,0,26887:0:0:0:0:
448,192,26806,1,0,0:0:0:0:
192,192,26968,1,0,0:0:0:0:
448,192,26968,1,0,0:0:0:0:
64,192,26968,1,0,0:0:0:0:
192,192,27130,1,0,0:0:0:0:
320,192,27130,1,0,0:0:0:0:
64,192,27292,1,0,0:0:0:0:
448,192,27292,1,0,0:0:0:0:
320,192,27292,128,0,27536:0:0:0:0:
192,192,27455,1,0,0:0:0:0:
448,192,27617,1,0,0:0:0:0:
320,192,27617,1,0,0:0:0:0:
192,192,27617,1,0,0:0:0:0:
448,192,27779,1,0,0:0:0:0:
320,192,27779,1,0,0:0:0:0:
192,192,27941,1,0,0:0:0:0:
64,192,27941,1,0,0:0:0:0:
320,192,27941,1,0,0:0:0:0:
192,192,28103,1,0,0:0:0:0:
64,192,28103,1,0,0:0:0:0:
320,192,28265,1,0,0:0:0:0:
192,192,28265,1,0,0:0:0:0:
448,192,28265,128,0,28509:0:0:0:0:
64,192,28428,1,0,0:0:0:0:
64,192,28590,1,0,0:0:0:0:
448,192,28590,1,0,0:0:0:0:
192,192,28590,1,0,0:0:0:0:
192,192,28752,1,0,0:0:0:0:
320,192,28752,1,0,0:0:0:0:
64,192,28914,1,0,0:0:0:0:
320,192,28914,128,0,29157:0:0:0:0:
448,192,28914,1,0,0:0:0:0:
192,192,29076,1,0,0:0:0:0:
64,192,29238,128,0,29482:0:0:0:0:
320,192,29238,1,0,0:0:0:0:
448,192,29238,1,0,0:0:0:0:
192,192,29401,1,0,0:0:0:0:
64,192,29563,1,0,0:0:0:0:
192,192,29563,1,0,0:0:0:0:
320,192,29563,1,0,0:0:0:0:
64,192,29725,1,0,0:0:0:0:
448,192,29725,1,0,0:0:0:0:
192,192,29887,1,0,0:0:0:0:
448,192,29887,128,0,30130:0:0:0:0:
320,192,29887,1,0,0:0:0:0:
64,192,30049,1,0,0:0:0:0:
64,192,30211,1,0,0:0:0:0:
192,192,30211,1,0,0:0:0:0:
448,192,30211,1,0,0:0:0:0:
192,192,30373,1,0,0:0:0:0:
448,192,30373,1,0,0:0:0:0:
320,192,30536,1,0,0:0:0:0:
64,192,30536,1,0,0:0:0:0:
448,192,30536,1,0,0:0:0:0:
320,192,30698,1,0,0:0:0:0:
64,192,30698,1,0,0:0:0:0:
192,192,30860,128,0,31103:0:0:0:0:
64,192,30860,1,0,0:0:0:0:
448,192,30860,1,0,0:0:0:0:
320,192,31022,1,0,0:0:0:0:
192,192,31184,1,0,0:0:0:0:
64,192,31184,1,0,0:0:0:0:
320,192,31184,1,0,0:0:0:0:
64,192,31346,1,0,0:0:0:0:
192,192,31346,1,0,0:0:0:0:
448,192,31346,1,0,0:0:0:0:
320,192,31509,1,0,0:0:0:0:
192,192,31509,1,0,0:0:0:0:
448,192,31509,1,0,0:0:0:0:
320,192,31671,1,0,0:0:0:0:
64,192,31671,1,0,0:0:0:0:
448,192,31833,1,0,0:0:0:0:
64,192,31833,1,0,0:0:0:0:
192,192,31833,1,0,0:0:0:0:
192,192,31995,1,0,0:0:0:0:
320,192,31995,1,0,0:0:0:0:
448,192,32157,1,0,0:0:0:0:
192,192,32157,1,0,0:0:0:0:
64,192,32157,1,0,0:0:0:0:
320,192,32157,1,0,0:0:0:0:
64,192,32319,1,0,0:0:0:0:
320,192,32319,1,0,0:0:0:0:
192,192,32482,1,0,0:0:0:0:
64,192,32482,128,0,32725:0:0:0:0:
448,192,32482,1,0,0:0:0:0:
320,192,32563,1,0,0:0:0:0:
192,192,32644,1,0,0:0:0:0:
320,192,32725,1,0,0:0:0:0:
192,192,32806,1,0,0:0:0:0:
64,192,32806,1,0,0:0:0:0:
448,192,32806,1,0,0:0:0:0:
192,192,32968,128,0,33049:0:0:0:0:
64,192,32968,1,0,0:0:0:0:
64,192,33130,1,0,0:0:0:0:
448,192,33130,1,0,0:0:0:0:
320,192,33130,128,0,33211:0:0:0:0:
448,192,33292,128,0,33373:0:0:0:0:
320,192,33292,1,0,0:0:0:0:
448,192,33455,1,0,0:0:0:0:
64,192,33455,128,0,33698:0:0:0:0:
192,192,33455,1,0,0:0:0:0:
320,192,33617,1,0,0:0:0:0:
64,192,33779,1,0,0:0:0:0:
320,192,33779,1,0,0:0:0:0:
192,192,33779,128,0,33860:0:0:0:0:
448,192,33941,1,0,0:0:0:0:
64,192,33941,128,0,34022:0:0:0:0:
192,192,34103,1,0,0:0:0:0:
320,192,34103,1,0,0:0:0:0:
448,192,34103,128,0,34346:0:0:0:0:
64,192,34265,1,0,0:0:0:0:
320,192,34428,1,0,0:0:0:0:
448,192,34428,1,0,0:0:0:0:
64,192,34428,128,0,34671:0:0:0:0:
192,192,34590,1,0,0:0:0:0:
192,192,34752,1,0,0:0:0:0:
64,192,34752,1,0,0:0:0:0:
320,192,34752,128,0,34833:0:0:0:0:
448,192,34914,128,0,34995:0:0:0:0:
320,192,34914,1,0,0:0:0:0:
192,192,35076,1,0,0:0:0:0:
448,192,35076,1,0,0:0:0:0:
64,192,35076,128,0,35319:0:0:0:0:
320,192,35238,1,0,0:0:0:0:
64,192,35401,1,0,0:0:0:0:
192,192,35401,1,0,0:0:0:0:
320,192,35401,1,0,0:0:0:0:
448,192,35401,1,0,0:0:0:0:
320,192,35563,1,0,0:0:0:0:
64,192,35563,128,0,35644:0:0:0:0:
320,192,35725,1,0,0:0:0:0:
448,192,35725,1,0,0:0:0:0:
192,192,35725,128,0,35806:0:0:0:0:
192,192,35887,1,0,0:0:0:0:
448,192,35887,128,0,35968:0:0:0:0:
64,192,36049,1,0,0:0:0:0:
192,192,36049,1,0,0:0:0:0:
320,192,36049,128,0,36292:0:0:0:0:
448,192,36211,1,0,0:0:0:0:
64,192,36373,1,0,0:0:0:0:
320,192,36373,1,0,0:0:0:0:
448,192,36373,128,0,36455:0:0:0:0:
192,192,36536,1,0,0:0:0:0:
320,192,36536,128,0,36617:0:0:0:0:
448,192,36698,1,0,0:0:0:0:
64,192,36698,1,0,0:0:0:0:
192,192,36698,128,0,36941:0:0:0:0:
320,192,36860,1,0,0:0:0:0:
64,192,37022,1,0,0:0:0:0:
192,192,37022,1,0,0:0:0:0:
320,192,37022,128,0,37265:0:0:0:0:
448,192,37184,1,0,0:0:0:0:
448,192,37346,1,0,0:0:0:0:
320,192,37346,1,0,0:0:0:0:
64,192,37346,128,0,37428:0:0:0:0:
192,192,37509,128,0,37590:0:0:0:0:
64,192,37509,1,0,0:0:0:0:
192,192,37671,1,0,0:0:0:0:
448,192,37671,1,0,0:0:0:0:
320,192,37671,128,0,37914:0:0:0:0:
192,192,37833,1,0,0:0:0:0:
64,192,37833,1,0,0:0:0:0:
448,192,37833,1,0,0:0:0:0:
448,192,37995,1,0,0:0:0:0:
320,192,37995,1,0,0:0:0:0:
64,192,37995,1,0,0:0:0:0:
192,192,37995,1,0,0:0:0:0:
64,192,38157,1,0,0:0:0:0:
320,192,38157,128,0,38238:0:0:0:0:
64,192,38319,1,0,0:0:0:0:
192,192,38319,1,0,0:0:0:0:
448,192,38319,128,0,38401:0:0:0:0:
448,192,38482,1,0,0:0:0:0:
192,192,38482,128,0,38563:0:0:0:0:
448,192,38644,1,0,0:0:0:0:
320,192,38644,1,0,0:0:0:0:
64,192,38644,128,0,38887:0:0:0:0:
192,192,38806,1,0,0:0:0:0:
192,192,38968,128,0,39049:0:0:0:0:
448,192,38968,1,0,0:0:0:0:
64,192,38968,1,0,0:0:0:0:
320,192,39130,128,0,39211:0:0:0:0:
448,192,39130,1,0,0:0:0:0:
192,192,39130,1,0,0:0:0:0:
320,192,39292,1,0,0:0:0:0:
448,192,39292,128,0,39536:0:0:0:0:
64,192,39292,1,0,0:0:0:0:
192,192,39292,1,0,0:0:0:0:
192,192,39455,1,0,0:0:0:0:
192,192,39617,1,0,0:0:0:0:
64,192,39617,128,0,39860:0:0:0:0:
320,192,39617,1,0,0:0:0:0:
448,192,39779,1,0,0:0:0:0:
64,192,39941,1,0,0:0:0:0:
448,192,39941,1,0,0:0:0:0:
192,192,39941,128,0,40022:0:0:0:0:
320,192,40022,1,0,0:0:0:0:
448,192,40103,1,0,0:0:0:0:
64,192,40103,128,0,40184:0:0:0:0:
192,192,40184,1,0,0:0:0:0:
320,192,40265,1,0,0:0:0:0:
448,192,40265,128,0,40346:0:0:0:0:
64,192,40265,1,0,0:0:0:0:
192,192,40346,1,0,0:0:0:0:
448,192,40428,1,0,0:0:0:0:
320,192,40428,128,0,40509:0:0:0:0:
64,192,40428,1,0,0:0:0:0:
192,192,40509,1,0,0:0:0:0:
448,192,40590,1,0,0:0:0:0:
320,192,40590,1,0,0:0:0:0:
64,192,40590,128,0,40833:0:0:0:0:
64,192,41076,128,0,41157:0:0:0:0:
320,192,41157,128,0,41238:0:0:0:0:
192,192,41238,1,0,0:0:0:0:
64,192,41238,1,0,0:0:0:0:
448,192,41238,1,0,0:0:0:0:
64,192,41401,128,0,41482:0:0:0:0:
192,192,41563,128,0,41725:0:0:0:0:
320,192,41725,128,0,41887:0:0:0:0:
448,192,41887,128,0,42130:0:0:0:0:
192,192,41887,1,0,0:0:0:0:
320,192,42049,1,0,0:0:0:0:
64,192,42049,1,0,0:0:0:0:
192,192,42211,128,0,42455:0:0:0:0:
64,192,42211,1,0,0:0:0:0:
320,192,42373,1,0,0:0:0:0:
448,192,42373,1,0,0:0:0:0:
320,192,42536,128,0,42779:0:0:0:0:
192,192,42536,1,0,0:0:0:0:
64,192,42617,1,0,0:0:0:0:
448,192,42698,1,0,0:0:0:0:
192,192,42698,1,0,0:0:0:0:
320,192,42860,1,0,0:0:0:0:
448,192,42860,1,0,0:0:0:0:
64,192,42860,128,0,43103:0:0:0:0:
192,192,43022,1,0,0:0:0:0:
192,192,43184,1,0,0:0:0:0:
64,192,43184,1,0,0:0:0:0:
448,192,43184,1,0,0:0:0:0:
320,192,43184,128,0,43428:0:0:0:0:
448,192,43346,1,0,0:0:0:0:
192,192,43509,128,0,43752:0:0:0:0:
320,192,43509,1,0,0:0:0:0:
64,192,43509,1,0,0:0:0:0:
320,192,43671,1,0,0:0:0:0:
64,192,43833,1,0,0:0:0:0:
192,192,43833,1,0,0:0:0:0:
448,192,43833,128,0,44076:0:0:0:0:
320,192,43914,128,0,44076:0:0:0:0:
192,192,44076,1,0,0:0:0:0:
64,192,44076,1,0,0:0:0:0:
192,192,44157,1,0,0:0:0:0:
448,192,44157,1,0,0:0:0:0:
320,192,44157,128,0,44238:0:0:0:0:
192,192,44319,128,0,44401:0:0:0:0:
64,192,44319,1,0,0:0:0:0:
448,192,44319,1,0,0:0:0:0:
64,192,44482,1,0,0:0:0:0:
448,192,44482,1,0,0:0:0:0:
320,192,44482,128,0,44725:0:0:0:0:
64,192,44644,128,0,44725:0:0:0:0:
192,192,44806,128,0,45049:0:0:0:0:
64,192,44806,1,0,0:0:0:0:
320,192,44806,1,0,0:0:0:0:
320,192,44968,128,0,45049:0:0:0:0:
64,192,45130,1,0,0:0:0:0:
448,192,45130,128,0,45373:0:0:0:0:
192,192,45130,1,0,0:0:0:0:
192,192,45292,128,0,45373:0:0:0:0:
320,192,45373,1,0,0:0:0:0:
64,192,45373,1,0,0:0:0:0:
320,192,45455,1,0,0:0:0:0:
448,192,45455,1,0,0:0:0:0:
192,192,45455,128,0,45536:0:0:0:0:
448,192,45617,1,0,0:0:0:0:
64,192,45617,128,0,45698:0:0:0:0:
320,192,45617,1,0,0:0:0:0:
64,192,45779,1,0,0:0:0:0:
448,192,45779,1,0,0:0:0:0:
192,192,45779,128,0,46022:0:0:0:0:
320,192,45779,1,0,0:0:0:0:
64,192,45941,1,0,0:0:0:0:
320,192,46103,128,0,46346:0:0:0:0:
192,192,46103,1,0,0:0:0:0:
448,192,46103,1,0,0:0:0:0:
192,192,46265,1,0,0:0:0:0:
320,192,46428,1,0,0:0:0:0:
448,192,46428,1,0,0:0:0:0:
64,192,46428,128,0,46671:0:0:0:0:
192,192,46509,128,0,46671:0:0:0:0:
320,192,46671,1,0,0:0:0:0:
448,192,46671,1,0,0:0:0:0:
64,192,46752,1,0,0:0:0:0:
320,192,46752,1,0,0:0:0:0:
192,192,46752,128,0,46833:0:0:0:0:
64,192,46914,1,0,0:0:0:0:
448,192,46914,1,0,0:0:0:0:
320,192,46914,128,0,46995:0:0:0:0:
448,192,47076,1,0,0:0:0:0:
64,192,47076,1,0,0:0:0:0:
192,192,47076,128,0,47319:0:0:0:0:
448,192,47238,128,0,47319:0:0:0:0:
192,192,47401,1,0,0:0:0:0:
448,192,47401,1,0,0:0:0:0:
320,192,47401,128,0,47644:0:0:0:0:
192,192,47563,128,0,47644:0:0:0:0:
448,192,47725,1,0,0:0:0:0:
320,192,47725,1,0,0:0:0:0:
64,192,47725,128,0,47968:0:0:0:0:
320,192,47887,128,0,47968:0:0:0:0:
192,192,47968,1,0,0:0:0:0:
448,192,47968,1,0,0:0:0:0:
192,192,48049,1,0,0:0:0:0:
64,192,48049,1,0,0:0:0:0:
320,192,48049,128,0,48130:0:0:0:0:
64,192,48211,1,0,0:0:0:0:
448,192,48211,1,0,0:0:0:0:
192,192,48211,128,0,48292:0:0:0:0:
64,192,48373,1,0,0:0:0:0:
320,192,48373,1,0,0:0:0:0:
448,192,48373,1,0,0:0:0:0:
192,192,48373,1,0,0:0:0:0:
320,192,48455,1,0,0:0:0:0:
448,192,48455,1,0,0:0:0:0:
64,192,48536,1,0,0:0:0:0:
192,192,48536,1,0,0:0:0:0:
64,192,48698,1,0,0:0:0:0:
192,192,48698,1,0,0:0:0:0:
448,192,48698,1,0,0:0:0:0:
320,192,48860,1,0,0:0:0:0:
64,192,49022,1,0,0:0:0:0:
192,192,49022,1,0,0:0:0:0:
320,192,49022,1,0,0:0:0:0:
448,192,49022,1,0,0:0:0:0:
64,192,49103,1,0,0:0:0:0:
192,192,49103,1,0,0:0:0:0:
320,192,49184,1,0,0:0:0:0:
448,192,49184,1,0,0:0:0:0:
64,192,49346,1,0,0:0:0:0:
320,192,49346,1,0,0:0:0:0:
448,192,49346,1,0,0:0:0:0:
192,192,49509,1,0,0:0:0:0:
64,192,49671,1,0,0:0:0:0:
320,192,49671,1,0,0:0:0:0:
448,192,49671,1,0,0:0:0:0:
192,192,49671,1,0,0:0:0:0:
64,192,49752,1,0,0:0:0:0:
320,192,49752,1,0,0:0:0:0:
192,192,49833,1,0,0:0:0:0:
448,192,49833,1,0,0:0:0:0:
64,192,49995,1,0,0:0:0:0:
448,192,49995,1,0,0:0:0:0:
192,192,49995,1,0,0:0:0:0:
320,192,50157,1,0,0:0:0:0:
64,192,50319,1,0,0:0:0:0:
192,192,50319,1,0,0:0:0:0:
320,192,50319,1,0,0:0:0:0:
448,192,50319,1,0,0:0:0:0:
192,192,50401,1,0,0:0:0:0:
448,192,50401,1,0,0:0:0:0:
320,192,50482,1,0,0:0:0:0:
64,192,50482,1,0,0:0:0:0:
64,192,50644,1,0,0:0:0:0:
320,192,50644,1,0,0:0:0:0:
448,192,50644,1,0,0:0:0:0:
192,192,50806,1,0,0:0:0:0:
64,192,50968,1,0,0:0:0:0:
320,192,50968,1,0,0:0:0:0:
448,192,50968,1,0,0:0:0:0:
192,192,51049,1,0,0:0:0:0:
448,192,51130,1,0,0:0:0:0:
64,192,51130,1,0,0:0:0:0:
320,192,51211,1,0,0:0:0:0:
448,192,51292,1,0,0:0:0:0:
192,192,51292,1,0,0:0:0:0:
64,192,51292,1,0,0:0:0:0:
320,192,51373,1,0,0:0:0:0:
64,192,51455,1,0,0:0:0:0:
448,192,51455,1,0,0:0:0:0:
192,192,51536,1,0,0:0:0:0:
64,192,51617,1,0,0:0:0:0:
320,192,51617,1,0,0:0:0:0:
448,192,51617,1,0,0:0:0:0:
192,192,51698,1,0,0:0:0:0:
64,192,51779,1,0,0:0:0:0:
320,192,51779,1,0,0:0:0:0:
448,192,51779,1,0,0:0:0:0:
192,192,51860,1,0,0:0:0:0:
64,192,51941,1,0,0:0:0:0:
448,192,51941,1,0,0:0:0:0:
320,192,51982,1,0,0:0:0:0:
192,192,52022,1,0,0:0:0:0:
64,192,52063,1,0,0:0:0:0:
448,192,52103,1,0,0:0:0:0:
320,192,52144,1,0,0:0:0:0:
192,192,52184,1,0,0:0:0:0:
64,192,52225,1,0,0:0:0:0:
448,192,52265,1,0,0:0:0:0:
320,192,52306,1,0,0:0:0:0:
192,192,52428,1,0,0:0:0:0:
64,192,52468,1,0,0:0:0:0:
320,192,52590,1,0,0:0:0:0:
192,192,52698,1,0,0:0:0:0:
320,192,52806,1,0,0:0:0:0:
64,192,52914,1,0,0:0:0:0:
192,192,52941,1,0,0:0:0:0:
448,192,53022,1,0,0:0:0:0:
320,192,53049,1,0,0:0:0:0:
64,192,53130,1,0,0:0:0:0:
192,192,53157,1,0,0:0:0:0:
64,192,53238,1,0,0:0:0:0:
448,192,53238,1,0,0:0:0:0:
320,192,53238,1,0,0:0:0:0:
320,192,53563,1,0,0:0:0:0:
64,192,53563,128,0,54130:0:0:0:0:
448,192,53563,1,0,0:0:0:0:
192,192,53563,128,0,53887:0:0:0:0:
448,192,53887,128,0,54130:0:0:0:0:
320,192,53928,128,0,54130:0:0:0:0:
192,192,53968,128,0,54130:0:0:0:0:
320,192,54211,128,0,54455:0:0:0:0:
192,192,54211,128,0,54455:0:0:0:0:
64,192,54211,128,0,54455:0:0:0:0:
448,192,54211,128,0,54455:0:0:0:0:
448,192,54536,128,0,54617:0:0:0:0:
320,192,54536,1,0,0:0:0:0:
64,192,54536,128,0,54779:0:0:0:0:
448,192,54698,128,0,54779:0:0:0:0:
192,192,54698,128,0,55184:0:0:0:0:
448,192,54860,128,0,55184:0:0:0:0:
64,192,54860,128,0,55103:0:0:0:0:
64,192,55184,128,0,55428:0:0:0:0:
320,192,55184,128,0,55265:0:0:0:0:
192,192,55346,128,0,55428:0:0:0:0:
320,192,55346,128,0,55428:0:0:0:0:
448,192,55346,1,0,0:0:0:0:
64,192,55509,128,0,55752:0:0:0:0:
192,192,55509,1,0,0:0:0:0:
448,192,55509,1,0,0:0:0:0:
320,192,55509,128,0,55590:0:0:0:0:
192,192,55671,128,0,55914:0:0:0:0:
320,192,55671,128,0,55752:0:0:0:0:
64,192,55833,128,0,56076:0:0:0:0:
320,192,55833,128,0,55914:0:0:0:0:
192,192,55995,128,0,56076:0:0:0:0:
320,192,55995,128,0,56076:0:0:0:0:
448,192,56076,128,0,56157:0:0:0:0:
320,192,56157,128,0,56401:0:0:0:0:
192,192,56157,1,0,0:0:0:0:
64,192,56157,128,0,56238:0:0:0:0:
448,192,56319,128,0,56563:0:0:0:0:
64,192,56319,128,0,56401:0:0:0:0:
320,192,56482,128,0,56725:0:0:0:0:
64,192,56482,128,0,56563:0:0:0:0:
64,192,56644,128,0,56725:0:0:0:0:
448,192,56644,128,0,56725:0:0:0:0:
64,192,56806,1,0,0:0:0:0:
448,192,56806,1,0,0:0:0:0:
320,192,56806,128,0,57049:0:0:0:0:
192,192,56806,128,0,56887:0:0:0:0:
448,192,56968,128,0,57211:0:0:0:0:
192,192,56968,128,0,57049:0:0:0:0:
192,192,57130,128,0,57211:0:0:0:0:
64,192,57130,1,0,0:0:0:0:
320,192,57130,128,0,57373:0:0:0:0:
192,192,57292,128,0,57455:0:0:0:0:
448,192,57292,128,0,57455:0:0:0:0:
64,192,57455,128,0,57698:0:0:0:0:
320,192,57455,128,0,57536:0:0:0:0:
192,192,57617,128,0,57860:0:0:0:0:
320,192,57617,128,0,57698:0:0:0:0:
64,192,57779,128,0,58022:0:0:0:0:
320,192,57779,128,0,57860:0:0:0:0:
448,192,57941,1,0,0:0:0:0:
192,192,57941,128,0,58022:0:0:0:0:
320,192,57941,128,0,58022:0:0:0:0:
64,192,58103,128,0,58346:0:0:0:0:
448,192,58103,128,0,58184:0:0:0:0:
192,192,58103,1,0,0:0:0:0:
320,192,58103,1,0,0:0:0:0:
192,192,58265,128,0,58509:0:0:0:0:
448,192,58265,128,0,58346:0:0:0:0:
320,192,58265,1,0,0:0:0:0:
64,192,58428,128,0,58671:0:0:0:0:
448,192,58428,128,0,58509:0:0:0:0:
192,192,58590,128,0,58671:0:0:0:0:
448,192,58590,128,0,58752:0:0:0:0:
320,192,58752,1,0,0:0:0:0:
192,192,58752,1,0,0:0:0:0:
64,192,58752,1,0,0:0:0:0:
64,192,58914,128,0,59157:0:0:0:0:
320,192,58914,128,0,59157:0:0:0:0:
448,192,59076,128,0,59319:0:0:0:0:
192,192,59076,128,0,59319:0:0:0:0:
64,192,59238,128,0,59319:0:0:0:0:
320,192,59238,128,0,59319:0:0:0:0:
320,192,59401,1,0,0:0:0:0:
448,192,59401,1,0,0:0:0:0:
192,192,59401,128,0,59644:0:0:0:0:
64,192,59401,128,0,59644:0:0:0:0:
448,192,59725,128,0,59968:0:0:0:0:
64,192,59725,1,0,0:0:0:0:
192,192,59725,128,0,59806:0:0:0:0:
192,192,59887,128,0,59968:0:0:0:0:
320,192,59887,128,0,60373:0:0:0:0:
192,192,60049,128,0,60373:0:0:0:0:
448,192,60049,128,0,60292:0:0:0:0:
64,192,60373,128,0,60455:0:0:0:0:
448,192,60373,128,0,60617:0:0:0:0:
64,192,60536,128,0,60617:0:0:0:0:
192,192,60536,1,0,0:0:0:0:
320,192,60536,128,0,60617:0:0:0:0:
192,192,60698,1,0,0:0:0:0:
320,192,60698,1,0,0:0:0:0:
448,192,60698,128,0,60941:0:0:0:0:
64,192,60698,128,0,60779:0:0:0:0:
320,192,60860,128,0,61103:0:0:0:0:
64,192,60860,128,0,60941:0:0:0:0:
64,192,61022,128,0,61103:0:0:0:0:
448,192,61022,128,0,61265:0:0:0:0:
64,192,61184,128,0,61265:0:0:0:0:
320,192,61184,128,0,61265:0:0:0:0:
192,192,61265,128,0,61346:0:0:0:0:
64,192,61346,1,0,0:0:0:0:
320,192,61346,1,0,0:0:0:0:
448,192,61346,128,0,61590:0:0:0:0:
320,192,61509,128,0,61590:0:0:0:0:
192,192,61671,128,0,61752:0:0:0:0:
64,192,61833,128,0,61914:0:0:0:0:
448,192,61833,128,0,61914:0:0:0:0:
192,192,61833,1,0,0:0:0:0:
320,192,61914,128,0,61995:0:0:0:0:
64,192,61995,1,0,0:0:0:0:
192,192,61995,1,0,0:0:0:0:
448,192,61995,1,0,0:0:0:0:
64,192,62157,1,0,0:0:0:0:
448,192,62157,128,0,62238:0:0:0:0:
320,192,62157,1,0,0:0:0:0:
448,192,62319,1,0,0:0:0:0:
320,192,62319,1,0,0:0:0:0:
192,192,62319,128,0,62482:0:0:0:0:
64,192,62482,128,0,62644:0:0:0:0:
448,192,62644,128,0,62968:0:0:0:0:
320,192,62644,128,0,62887:0:0:0:0:
320,192,62968,1,0,0:0:0:0:
192,192,62968,1,0,0:0:0:0:
64,192,62968,1,0,0:0:0:0:
192,192,63292,1,0,0:0:0:0:
320,192,63292,1,0,0:0:0:0:
448,192,63292,1,0,0:0:0:0:
320,192,63617,1,0,0:0:0:0:
192,192,63617,1,0,0:0:0:0:
64,192,63617,1,0,0:0:0:0:
64,192,63941,1,0,0:0:0:0:
192,192,63941,1,0,0:0:0:0:
320,192,63941,128,0,64265:0:0:0:0:
448,192,63941,128,0,64509:0:0:0:0:
64,192,64265,128,0,64509:0:0:0:0:
192,192,64306,128,0,64509:0:0:0:0:
320,192,64346,128,0,64509:0:0:0:0:
64,192,64590,128,0,64833:0:0:0:0:
192,192,64590,128,0,64833:0:0:0:0:
320,192,64590,128,0,64833:0:0:0:0:
448,192,64590,128,0,64833:0:0:0:0:
64,192,64914,128,0,65157:0:0:0:0:
320,192,64914,1,0,0:0:0:0:
448,192,64914,128,0,64995:0:0:0:0:
192,192,65076,128,0,65563:0:0:0:0:
448,192,65076,128,0,65157:0:0:0:0:
64,192,65238,128,0,65482:0:0:0:0:
448,192,65238,128,0,65563:0:0:0:0:
64,192,65563,128,0,65806:0:0:0:0:
320,192,65563,128,0,65644:0:0:0:0:
320,192,65725,128,0,65806:0:0:0:0:
192,192,65725,128,0,65806:0:0:0:0:
448,192,65725,1,0,0:0:0:0:
64,192,65887,128,0,66130:0:0:0:0:
192,192,65887,1,0,0:0:0:0:
448,192,65887,1,0,0:0:0:0:
320,192,65887,128,0,65968:0:0:0:0:
320,192,66049,128,0,66130:0:0:0:0:
192,192,66049,128,0,66292:0:0:0:0:
64,192,66211,128,0,66455:0:0:0:0:
320,192,66211,128,0,66292:0:0:0:0:
320,192,66373,128,0,66455:0:0:0:0:
192,192,66373,128,0,66455:0:0:0:0:
320,192,66536,128,0,66779:0:0:0:0:
448,192,66536,1,0,0:0:0:0:
192,192,66536,128,0,66617:0:0:0:0:
448,192,66698,128,0,66941:0:0:0:0:
192,192,66698,128,0,66779:0:0:0:0:
320,192,66860,128,0,67103:0:0:0:0:
192,192,66860,128,0,66941:0:0:0:0:
448,192,67022,128,0,67103:0:0:0:0:
192,192,67022,128,0,67103:0:0:0:0:
192,192,67184,1,0,0:0:0:0:
320,192,67184,128,0,67428:0:0:0:0:
448,192,67184,1,0,0:0:0:0:
64,192,67184,128,0,67265:0:0:0:0:
448,192,67346,128,0,67590:0:0:0:0:
64,192,67346,128,0,67428:0:0:0:0:
320,192,67509,128,0,67671:0:0:0:0:
192,192,67509,1,0,0:0:0:0:
64,192,67509,128,0,67590:0:0:0:0:
448,192,67671,128,0,67833:0:0:0:0:
64,192,67671,128,0,67752:0:0:0:0:
192,192,67752,128,0,67833:0:0:0:0:
64,192,67833,128,0,68076:0:0:0:0:
320,192,67833,128,0,67914:0:0:0:0:
320,192,67995,128,0,68076:0:0:0:0:
192,192,67995,128,0,68319:0:0:0:0:
320,192,68157,128,0,68238:0:0:0:0:
64,192,68157,128,0,68319:0:0:0:0:
320,192,68319,128,0,68401:0:0:0:0:
448,192,68319,1,0,0:0:0:0:
192,192,68401,1,0,0:0:0:0:
64,192,68401,1,0,0:0:0:0:
64,192,68482,1,0,0:0:0:0:
192,192,68482,1,0,0:0:0:0:
448,192,68482,1,0,0:0:0:0:
192,192,68698,1,0,0:0:0:0:
320,192,68698,1,0,0:0:0:0:
448,192,68698,1,0,0:0:0:0:
64,192,68914,1,0,0:0:0:0:
192,192,68914,1,0,0:0:0:0:
320,192,68914,1,0,0:0:0:0:
64,192,69130,1,0,0:0:0:0:
320,192,69130,128,0,69455:0:0:0:0:
448,192,69130,128,0,69455:0:0:0:0:
64,192,69455,128,0,69617:0:0:0:0:
192,192,69455,128,0,69617:0:0:0:0:
64,192,69779,128,0,70022:0:0:0:0:
192,192,69779,128,0,70022:0:0:0:0:
320,192,69779,128,0,70022:0:0:0:0:
448,192,69779,128,0,70022:0:0:0:0:
448,192,70103,128,0,70346:0:0:0:0:
192,192,70103,128,0,70184:0:0:0:0:
64,192,70103,1,0,0:0:0:0:
192,192,70265,128,0,70346:0:0:0:0:
320,192,70265,128,0,70752:0:0:0:0:
448,192,70428,128,0,70671:0:0:0:0:
192,192,70428,128,0,70752:0:0:0:0:
64,192,70752,128,0,70833:0:0:0:0:
448,192,70752,128,0,70995:0:0:0:0:
64,192,70914,128,0,70995:0:0:0:0:
320,192,70914,128,0,70995:0:0:0:0:
192,192,70914,1,0,0:0:0:0:
192,192,71076,1,0,0:0:0:0:
320,192,71076,1,0,0:0:0:0:
448,192,71076,128,0,71319:0:0:0:0:
64,192,71076,128,0,71157:0:0:0:0:
320,192,71238,128,0,71482:0:0:0:0:
64,192,71238,128,0,71319:0:0:0:0:
64,192,71401,128,0,71482:0:0:0:0:
448,192,71401,128,0,71644:0:0:0:0:
320,192,71563,128,0,71644:0:0:0:0:
64,192,71563,128,0,71644:0:0:0:0:
192,192,71644,128,0,71725:0:0:0:0:
64,192,71725,1,0,0:0:0:0:
320,192,71725,1,0,0:0:0:0:
448,192,71725,128,0,71968:0:0:0:0:
320,192,72049,1,0,0:0:0:0:
448,192,72049,1,0,0:0:0:0:
64,192,72049,1,0,0:0:0:0:
448,192,72211,128,0,72292:0:0:0:0:
320,192,72292,128,0,72373:0:0:0:0:
192,192,72373,1,0,0:0:0:0:
64,192,72373,1,0,0:0:0:0:
448,192,72373,1,0,0:0:0:0:
448,192,72536,128,0,72617:0:0:0:0:
320,192,72617,1,0,0:0:0:0:
192,192,72617,1,0,0:0:0:0:
64,192,72617,1,0,0:0:0:0:
448,192,72698,1,0,0:0:0:0:
64,192,72779,1,0,0:0:0:0:
448,192,72860,1,0,0:0:0:0:
320,192,72860,1,0,0:0:0:0:
64,192,72941,1,0,0:0:0:0:
192,192,73022,128,0,73590:0:0:0:0:
320,192,73022,128,0,73914:0:0:0:0:
448,192,73022,128,0,74319:0:0:0:0:
64,192,73346,128,0,73590:0:0:0:0:
192,192,73671,128,0,74238:0:0:0:0:
64,192,73671,128,0,74238:0:0:0:0:
320,192,73995,128,0,74238:0:0:0:0:
192,192,74319,1,0,0:0:0:0:
320,192,74319,1,0,0:0:0:0:
64,192,74319,1,0,0:0:0:0:
320,192,74644,1,0,0:0:0:0:
64,192,74644,1,0,0:0:0:0:
192,192,74644,1,0,0:0:0:0:
192,192,74968,1,0,0:0:0:0:
448,192,74968,1,0,0:0:0:0:
320,192,74968,1,0,0:0:0:0:
192,192,75130,1,0,0:0:0:0:
320,192,75292,1,0,0:0:0:0:
192,192,75292,1,0,0:0:0:0:
448,192,75292,1,0,0:0:0:0:
192,192,75455,1,0,0:0:0:0:
448,192,75617,1,0,0:0:0:0:
192,192,75617,1,0,0:0:0:0:
320,192,75617,1,0,0:0:0:0:
192,192,75941,1,0,0:0:0:0:
320,192,75941,1,0,0:0:0:0:
448,192,75941,1,0,0:0:0:0:
192,192,76265,1,0,0:0:0:0:
320,192,76265,1,0,0:0:0:0:
64,192,76265,1,0,0:0:0:0:
320,192,76428,1,0,0:0:0:0:
192,192,76590,1,0,0:0:0:0:
320,192,76590,1,0,0:0:0:0:
64,192,76590,1,0,0:0:0:0:
320,192,76752,1,0,0:0:0:0:
192,192,76914,1,0,0:0:0:0:
64,192,76914,1,0,0:0:0:0:
320,192,76914,1,0,0:0:0:0:
448,192,76995,1,0,0:0:0:0:
192,192,77076,1,0,0:0:0:0:
64,192,77076,1,0,0:0:0:0:
320,192,77157,1,0,0:0:0:0:
448,192,77157,1,0,0:0:0:0:
192,192,77238,1,0,0:0:0:0:
64,192,77238,1,0,0:0:0:0:
320,192,77319,1,0,0:0:0:0:
448,192,77319,1,0,0:0:0:0:
192,192,77401,1,0,0:0:0:0:
64,192,77401,1,0,0:0:0:0:
320,192,77482,1,0,0:0:0:0:
192,192,77563,1,0,0:0:0:0:
64,192,77563,1,0,0:0:0:0:
448,192,77563,1,0,0:0:0:0:
320,192,77644,1,0,0:0:0:0:
192,192,77725,1,0,0:0:0:0:
64,192,77725,1,0,0:0:0:0:
320,192,77806,1,0,0:0:0:0:
448,192,77806,1,0,0:0:0:0:
64,192,77887,1,0,0:0:0:0:
192,192,77887,1,0,0:0:0:0:
448,192,77928,1,0,0:0:0:0:
320,192,77968,1,0,0:0:0:0:
192,192,78009,1,0,0:0:0:0:
64,192,78049,1,0,0:0:0:0:
448,192,78090,1,0,0:0:0:0:
320,192,78130,1,0,0:0:0:0:
192,192,78171,1,0,0:0:0:0:
64,192,78211,128,0,78536:0:0:0:0:
448,192,78373,128,0,78698:0:0:0:0:
192,192,78536,128,0,78860:0:0:0:0:
320,192,78698,128,0,78860:0:0:0:0:
64,192,78860,128,0,79103:0:0:0:0:
448,192,78860,128,0,79103:0:0:0:0:
64,192,79184,1,0,0:0:0:0:
448,192,79184,1,0,0:0:0:0:
320,192,79184,128,0,79428:0:0:0:0:
192,192,79346,128,0,79428:0:0:0:0:
64,192,79509,1,0,0:0:0:0:
192,192,79509,1,0,0:0:0:0:
448,192,79509,1,0,0:0:0:0:
320,192,79509,1,0,0:0:0:0:
448,192,79671,1,0,0:0:0:0:
320,192,79752,1,0,0:0:0:0:
64,192,79752,1,0,0:0:0:0:
192,192,79833,1,0,0:0:0:0:
448,192,79833,1,0,0:0:0:0:
320,192,79995,1,0,0:0:0:0:
192,192,79995,1,0,0:0:0:0:
64,192,80157,1,0,0:0:0:0:
320,192,80157,1,0,0:0:0:0:
448,192,80157,1,0,0:0:0:0:
192,192,80238,1,0,0:0:0:0:
320,192,80319,1,0,0:0:0:0:
448,192,80319,1,0,0:0:0:0:
64,192,80401,1,0,0:0:0:0:
192,192,80482,1,0,0:0:0:0:
448,192,80482,1,0,0:0:0:0:
320,192,80482,1,0,0:0:0:0:
64,192,80563,1,0,0:0:0:0:
192,192,80644,1,0,0:0:0:0:
448,192,80644,1,0,0:0:0:0:
320,192,80725,1,0,0:0:0:0:
64,192,80806,1,0,0:0:0:0:
192,192,80806,1,0,0:0:0:0:
448,192,80806,1,0,0:0:0:0:
320,192,80968,1,0,0:0:0:0:
192,192,81049,1,0,0:0:0:0:
64,192,81049,1,0,0:0:0:0:
320,192,81130,1,0,0:0:0:0:
448,192,81130,1,0,0:0:0:0:
448,192,81292,1,0,0:0:0:0:
64,192,81292,1,0,0:0:0:0:
192,192,81455,1,0,0:0:0:0:
64,192,81455,1,0,0:0:0:0:
320,192,81455,1,0,0:0:0:0:
448,192,81536,1,0,0:0:0:0:
192,192,81617,1,0,0:0:0:0:
64,192,81617,1,0,0:0:0:0:
320,192,81698,1,0,0:0:0:0:
192,192,81779,1,0,0:0:0:0:
448,192,81779,1,0,0:0:0:0:
64,192,81779,1,0,0:0:0:0:
320,192,81860,1,0,0:0:0:0:
192,192,81941,1,0,0:0:0:0:
448,192,81941,1,0,0:0:0:0:
64,192,82022,1,0,0:0:0:0:
192,192,82103,1,0,0:0:0:0:
320,192,82103,1,0,0:0:0:0:
448,192,82103,128,0,82265:0:0:0:0:
64,192,82265,128,0,82428:0:0:0:0:
320,192,82265,1,0,0:0:0:0:
192,192,82428,1,0,0:0:0:0:
320,192,82428,1,0,0:0:0:0:
448,192,82428,128,0,82671:0:0:0:0:
64,192,82590,1,0,0:0:0:0:
64,192,82752,1,0,0:0:0:0:
448,192,82752,1,0,0:0:0:0:
320,192,82752,128,0,82995:0:0:0:0:
192,192,82914,1,0,0:0:0:0:
192,192,83076,1,0,0:0:0:0:
320,192,83076,1,0,0:0:0:0:
64,192,83076,128,0,83319:0:0:0:0:
448,192,83238,1,0,0:0:0:0:
64,192,83401,1,0,0:0:0:0:
448,192,83401,1,0,0:0:0:0:
192,192,83401,128,0,83644:0:0:0:0:
320,192,83563,1,0,0:0:0:0:
192,192,83725,1,0,0:0:0:0:
448,192,83725,1,0,0:0:0:0:
320,192,83725,128,0,83806:0:0:0:0:
64,192,83887,1,0,0:0:0:0:
448,192,83887,128,0,83968:0:0:0:0:
64,192,84049,128,0,84130:0:0:0:0:
192,192,84049,1,0,0:0:0:0:
320,192,84049,1,0,0:0:0:0:
192,192,84211,128,0,84292:0:0:0:0:
448,192,84211,1,0,0:0:0:0:
64,192,84373,1,0,0:0:0:0:
320,192,84373,1,0,0:0:0:0:
448,192,84373,128,0,84455:0:0:0:0:
192,192,84536,1,0,0:0:0:0:
320,192,84536,128,0,84617:0:0:0:0:
448,192,84698,1,0,0:0:0:0:
192,192,84698,1,0,0:0:0:0:
64,192,84698,1,0,0:0:0:0:
320,192,84860,1,0,0:0:0:0:
448,192,84941,1,0,0:0:0:0:
192,192,84941,1,0,0:0:0:0:
320,192,85022,1,0,0:0:0:0:
64,192,85022,1,0,0:0:0:0:
64,192,85184,1,0,0:0:0:0:
448,192,85184,1,0,0:0:0:0:
448,192,85346,1,0,0:0:0:0:
320,192,85346,1,0,0:0:0:0:
192,192,85346,1,0,0:0:0:0:
64,192,85428,1,0,0:0:0:0:
448,192,85509,1,0,0:0:0:0:
320,192,85509,1,0,0:0:0:0:
192,192,85590,1,0,0:0:0:0:
64,192,85671,1,0,0:0:0:0:
448,192,85671,1,0,0:0:0:0:
320,192,85671,1,0,0:0:0:0:
192,192,85752,1,0,0:0:0:0:
320,192,85833,1,0,0:0:0:0:
64,192,85833,1,0,0:0:0:0:
448,192,85914,1,0,0:0:0:0:
192,192,85995,1,0,0:0:0:0:
320,192,85995,1,0,0:0:0:0:
64,192,85995,1,0,0:0:0:0:
448,192,86157,1,0,0:0:0:0:
192,192,86238,1,0,0:0:0:0:
64,192,86238,1,0,0:0:0:0:
448,192,86319,1,0,0:0:0:0:
320,192,86319,1,0,0:0:0:0:
320,192,86482,1,0,0:0:0:0:
192,192,86482,1,0,0:0:0:0:
64,192,86644,1,0,0:0:0:0:
192,192,86644,1,0,0:0:0:0:
448,192,86644,1,0,0:0:0:0:
320,192,86725,1,0,0:0:0:0:
64,192,86806,1,0,0:0:0:0:
192,192,86806,1,0,0:0:0:0:
448,192,86887,1,0,0:0:0:0:
320,192,86968,1,0,0:0:0:0:
192,192,86968,1,0,0:0:0:0:
64,192,86968,1,0,0:0:0:0:
448,192,87049,1,0,0:0:0:0:
64,192,87130,1,0,0:0:0:0:
320,192,87130,1,0,0:0:0:0:
192,192,87211,1,0,0:0:0:0:
320,192,87292,1,0,0:0:0:0:
448,192,87292,1,0,0:0:0:0:
64,192,87292,128,0,87373:0:0:0:0:
192,192,87373,128,0,87455:0:0:0:0:
320,192,87455,128,0,87536:0:0:0:0:
448,192,87455,1,0,0:0:0:0:
192,192,87536,128,0,87617:0:0:0:0:
448,192,87617,1,0,0:0:0:0:
64,192,87617,128,0,87779:0:0:0:0:
320,192,87617,1,0,0:0:0:0:
192,192,87779,1,0,0:0:0:0:
320,192,87779,128,0,87941:0:0:0:0:
64,192,87941,1,0,0:0:0:0:
448,192,87941,1,0,0:0:0:0:
192,192,87941,128,0,88184:0:0:0:0:
320,192,88103,1,0,0:0:0:0:
448,192,88265,1,0,0:0:0:0:
64,192,88265,128,0,88509:0:0:0:0:
192,192,88265,1,0,0:0:0:0:
320,192,88428,1,0,0:0:0:0:
448,192,88428,1,0,0:0:0:0:
192,192,88428,1,0,0:0:0:0:
448,192,88590,1,0,0:0:0:0:
320,192,88590,128,0,88833:0:0:0:0:
64,192,88590,1,0,0:0:0:0:
192,192,88752,1,0,0:0:0:0:
320,192,88914,1,0,0:0:0:0:
448,192,88914,1,0,0:0:0:0:
192,192,88914,128,0,89076:0:0:0:0:
64,192,89076,1,0,0:0:0:0:
320,192,89076,128,0,89157:0:0:0:0:
64,192,89238,1,0,0:0:0:0:
448,192,89238,1,0,0:0:0:0:
192,192,89238,128,0,89401:0:0:0:0:
320,192,89238,1,0,0:0:0:0:
64,192,89401,128,0,89482:0:0:0:0:
448,192,89401,1,0,0:0:0:0:
64,192,89563,1,0,0:0:0:0:
320,192,89563,1,0,0:0:0:0:
448,192,89563,128,0,89725:0:0:0:0:
192,192,89644,1,0,0:0:0:0:
320,192,89725,128,0,89806:0:0:0:0:
192,192,89806,1,0,0:0:0:0:
320,192,89887,1,0,0:0:0:0:
448,192,89887,1,0,0:0:0:0:
64,192,89887,128,0,90049:0:0:0:0:
192,192,90049,1,0,0:0:0:0:
320,192,90130,1,0,0:0:0:0:
448,192,90130,128,0,90292:0:0:0:0:
192,192,90211,1,0,0:0:0:0:
64,192,90211,1,0,0:0:0:0:
448,192,90373,1,0,0:0:0:0:
64,192,90373,128,0,90536:0:0:0:0:
320,192,90536,1,0,0:0:0:0:
448,192,90536,1,0,0:0:0:0:
192,192,90536,1,0,0:0:0:0:
64,192,90617,1,0,0:0:0:0:
448,192,90698,1,0,0:0:0:0:
192,192,90698,1,0,0:0:0:0:
320,192,90779,1,0,0:0:0:0:
64,192,90860,1,0,0:0:0:0:
448,192,90860,1,0,0:0:0:0:
192,192,90860,1,0,0:0:0:0:
320,192,90941,1,0,0:0:0:0:
64,192,91022,1,0,0:0:0:0:
192,192,91022,1,0,0:0:0:0:
448,192,91103,1,0,0:0:0:0:
320,192,91184,1,0,0:0:0:0:
64,192,91184,1,0,0:0:0:0:
192,192,91184,128,0,91346:0:0:0:0:
448,192,91346,1,0,0:0:0:0:
64,192,91428,1,0,0:0:0:0:
320,192,91428,128,0,91590:0:0:0:0:
192,192,91509,1,0,0:0:0:0:
448,192,91509,1,0,0:0:0:0:
320,192,91671,1,0,0:0:0:0:
192,192,91671,128,0,91833:0:0:0:0:
64,192,91833,1,0,0:0:0:0:
320,192,91833,1,0,0:0:0:0:
448,192,91833,1,0,0:0:0:0:
192,192,91914,1,0,0:0:0:0:
64,192,91995,1,0,0:0:0:0:
320,192,91995,1,0,0:0:0:0:
448,192,92076,1,0,0:0:0:0:
192,192,92157,1,0,0:0:0:0:
64,192,92157,1,0,0:0:0:0:
320,192,92157,1,0,0:0:0:0:
448,192,92238,1,0,0:0:0:0:
64,192,92319,1,0,0:0:0:0:
192,192,92319,1,0,0:0:0:0:
320,192,92401,1,0,0:0:0:0:
64,192,92482,1,0,0:0:0:0:
448,192,92482,1,0,0:0:0:0:
192,192,92482,128,0,92644:0:0:0:0:
64,192,92644,128,0,92806:0:0:0:0:
320,192,92644,1,0,0:0:0:0:
448,192,92806,128,0,93049:0:0:0:0:
192,192,92806,1,0,0:0:0:0:
320,192,92806,1,0,0:0:0:0:
64,192,92968,1,0,0:0:0:0:
448,192,93130,1,0,0:0:0:0:
192,192,93130,1,0,0:0:0:0:
64,192,93130,128,0,93373:0:0:0:0:
320,192,93292,1,0,0:0:0:0:
320,192,93455,128,0,93698:0:0:0:0:
64,192,93455,1,0,0:0:0:0:
448,192,93455,1,0,0:0:0:0:
192,192,93617,1,0,0:0:0:0:
320,192,93779,1,0,0:0:0:0:
192,192,93779,128,0,94022:0:0:0:0:
64,192,93779,1,0,0:0:0:0:
448,192,93941,1,0,0:0:0:0:
192,192,94103,1,0,0:0:0:0:
448,192,94103,1,0,0:0:0:0:
64,192,94103,128,0,94184:0:0:0:0:
320,192,94265,1,0,0:0:0:0:
192,192,94265,128,0,94346:0:0:0:0:
64,192,94428,1,0,0:0:0:0:
448,192,94428,1,0,0:0:0:0:
320,192,94428,128,0,94509:0:0:0:0:
192,192,94590,1,0,0:0:0:0:
448,192,94590,128,0,94671:0:0:0:0:
320,192,94752,1,0,0:0:0:0:
64,192,94752,1,0,0:0:0:0:
192,192,94752,128,0,94833:0:0:0:0:
448,192,94914,1,0,0:0:0:0:
64,192,94914,128,0,94995:0:0:0:0:
320,192,94914,1,0,0:0:0:0:
448,192,95076,1,0,0:0:0:0:
192,192,95076,1,0,0:0:0:0:
320,192,95076,128,0,95238:0:0:0:0:
64,192,95238,1,0,0:0:0:0:
448,192,95319,1,0,0:0:0:0:
192,192,95319,128,0,95482:0:0:0:0:
64,192,95401,1,0,0:0:0:0:
320,192,95401,1,0,0:0:0:0:
192,192,95563,1,0,0:0:0:0:
320,192,95563,128,0,95725:0:0:0:0:
448,192,95725,1,0,0:0:0:0:
64,192,95725,1,0,0:0:0:0:
192,192,95725,1,0,0:0:0:0:
320,192,95806,1,0,0:0:0:0:
192,192,95887,1,0,0:0:0:0:
448,192,95887,1,0,0:0:0:0:
64,192,95968,1,0,0:0:0:0:
192,192,96049,1,0,0:0:0:0:
320,192,96049,1,0,0:0:0:0:
448,192,96049,1,0,0:0:0:0:
64,192,96130,1,0,0:0:0:0:
448,192,96211,1,0,0:0:0:0:
320,192,96211,1,0,0:0:0:0:
192,192,96292,1,0,0:0:0:0:
320,192,96373,1,0,0:0:0:0:
64,192,96373,1,0,0:0:0:0:
448,192,96373,128,0,96536:0:0:0:0:
192,192,96536,1,0,0:0:0:0:
320,192,96617,1,0,0:0:0:0:
64,192,96617,128,0,96779:0:0:0:0:
448,192,96698,1,0,0:0:0:0:
192,192,96698,1,0,0:0:0:0:
64,192,96860,1,0,0:0:0:0:
448,192,96860,128,0,97022:0:0:0:0:
192,192,97022,1,0,0:0:0:0:
320,192,97022,1,0,0:0:0:0:
64,192,97022,1,0,0:0:0:0:
448,192,97103,1,0,0:0:0:0:
320,192,97184,1,0,0:0:0:0:
64,192,97184,1,0,0:0:0:0:
192,192,97265,1,0,0:0:0:0:
64,192,97346,1,0,0:0:0:0:
320,192,97346,1,0,0:0:0:0:
448,192,97346,1,0,0:0:0:0:
192,192,97428,1,0,0:0:0:0:
320,192,97509,1,0,0:0:0:0:
448,192,97509,1,0,0:0:0:0:
64,192,97590,1,0,0:0:0:0:
320,192,97671,1,0,0:0:0:0:
448,192,97671,1,0,0:0:0:0:
192,192,97671,128,0,97752:0:0:0:0:
64,192,97752,128,0,97833:0:0:0:0:
192,192,97833,1,0,0:0:0:0:
448,192,97833,128,0,97914:0:0:0:0:
64,192,97914,1,0,0:0:0:0:
320,192,97914,128,0,97995:0:0:0:0:
448,192,97995,1,0,0:0:0:0:
192,192,97995,128,0,98076:0:0:0:0:
320,192,98076,1,0,0:0:0:0:
192,192,98157,1,0,0:0:0:0:
64,192,98157,128,0,98238:0:0:0:0:
448,192,98238,1,0,0:0:0:0:
192,192,98319,1,0,0:0:0:0:
64,192,98319,1,0,0:0:0:0:
320,192,98319,128,0,98482:0:0:0:0:
448,192,98401,1,0,0:0:0:0:
64,192,98482,1,0,0:0:0:0:
192,192,98563,1,0,0:0:0:0:
320,192,98644,1,0,0:0:0:0:
448,192,98644,1,0,0:0:0:0:
64,192,98684,1,0,0:0:0:0:
192,192,98725,1,0,0:0:0:0:
320,192,98765,1,0,0:0:0:0:
448,192,98806,1,0,0:0:0:0:
64,192,98846,1,0,0:0:0:0:
192,192,98887,1,0,0:0:0:0:
320,192,98928,1,0,0:0:0:0:
448,192,98968,1,0,0:0:0:0:
64,192,98968,1,0,0:0:0:0:
192,192,99292,128,0,99373:0:0:0:0:
320,192,99373,128,0,99455:0:0:0:0:
192,192,99455,128,0,99536:0:0:0:0:
320,192,99536,128,0,99617:0:0:0:0:
64,192,99617,128,0,99698:0:0:0:0:
448,192,99698,1,0,0:0:0:0:
64,192,99779,128,0,99860:0:0:0:0:
448,192,99860,1,0,0:0:0:0:
64,192,99941,1,0,0:0:0:0:
320,192,99941,1,0,0:0:0:0:
192,192,99941,1,0,0:0:0:0:
448,192,100265,1,0,0:0:0:0:
64,192,100265,1,0,0:0:0:0:
192,192,100265,128,0,100509:0:0:0:0:
320,192,100428,1,0,0:0:0:0:
192,192,100590,1,0,0:0:0:0:
448,192,100590,128,0,100833:0:0:0:0:
64,192,100752,1,0,0:0:0:0:
448,192,100914,1,0,0:0:0:0:
192,192,100914,128,0,100995:0:0:0:0:
320,192,101076,128,0,101157:0:0:0:0:
192,192,101238,128,0,101319:0:0:0:0:
448,192,101238,1,0,0:0:0:0:
64,192,101401,128,0,101482:0:0:0:0:
64,192,101563,1,0,0:0:0:0:
320,192,101563,128,0,101644:0:0:0:0:
448,192,101725,128,0,101806:0:0:0:0:
64,192,101887,1,0,0:0:0:0:
320,192,101887,128,0,101968:0:0:0:0:
192,192,102049,128,0,102130:0:0:0:0:
320,192,102211,1,0,0:0:0:0:
64,192,102211,128,0,102455:0:0:0:0:
448,192,102373,1,0,0:0:0:0:
64,192,102536,1,0,0:0:0:0:
192,192,102536,128,0,102617:0:0:0:0:
448,192,102698,1,0,0:0:0:0:
320,192,102698,128,0,102779:0:0:0:0:
192,192,102779,1,0,0:0:0:0:
64,192,102779,1,0,0:0:0:0:
320,192,102860,1,0,0:0:0:0:
448,192,102860,128,0,103103:0:0:0:0:
192,192,103022,1,0,0:0:0:0:
448,192,103184,1,0,0:0:0:0:
320,192,103184,128,0,103265:0:0:0:0:
64,192,103346,128,0,103428:0:0:0:0:
448,192,103509,1,0,0:0:0:0:
320,192,103509,128,0,103590:0:0:0:0:
192,192,103671,128,0,103752:0:0:0:0:
320,192,103833,1,0,0:0:0:0:
448,192,103833,128,0,103914:0:0:0:0:
64,192,103995,128,0,104076:0:0:0:0:
192,192,104157,1,0,0:0:0:0:
64,192,104157,128,0,104401:0:0:0:0:
448,192,104319,1,0,0:0:0:0:
64,192,104482,1,0,0:0:0:0:
192,192,104482,128,0,104563:0:0:0:0:
320,192,104644,128,0,104725:0:0:0:0:
448,192,104806,128,0,105049:0:0:0:0:
64,192,104806,1,0,0:0:0:0:
64,192,104968,1,0,0:0:0:0:
192,192,104968,1,0,0:0:0:0:
448,192,105130,1,0,0:0:0:0:
320,192,105130,128,0,105211:0:0:0:0:
64,192,105292,1,0,0:0:0:0:
192,192,105292,128,0,105373:0:0:0:0:
320,192,105373,1,0,0:0:0:0:
448,192,105373,1,0,0:0:0:0:
192,192,105455,1,0,0:0:0:0:
64,192,105455,128,0,105698:0:0:0:0:
448,192,105617,1,0,0:0:0:0:
64,192,105779,1,0,0:0:0:0:
192,192,105779,128,0,106022:0:0:0:0:
320,192,105941,1,0,0:0:0:0:
64,192,106103,1,0,0:0:0:0:
192,192,106103,128,0,106184:0:0:0:0:
448,192,106265,128,0,106346:0:0:0:0:
64,192,106428,1,0,0:0:0:0:
192,192,106428,128,0,106509:0:0:0:0:
64,192,106590,128,0,106671:0:0:0:0:
448,192,106752,1,0,0:0:0:0:
320,192,106752,128,0,106833:0:0:0:0:
192,192,106914,128,0,106995:0:0:0:0:
320,192,107076,128,0,107157:0:0:0:0:
448,192,107076,1,0,0:0:0:0:
64,192,107238,128,0,107319:0:0:0:0:
320,192,107401,1,0,0:0:0:0:
448,192,107401,128,0,107644:0:0:0:0:
192,192,107563,1,0,0:0:0:0:
448,192,107725,1,0,0:0:0:0:
320,192,107725,128,0,107806:0:0:0:0:
320,192,107887,1,0,0:0:0:0:
64,192,107887,128,0,107968:0:0:0:0:
448,192,107968,1,0,0:0:0:0:
192,192,107968,128,0,108049:0:0:0:0:
320,192,108049,128,0,108292:0:0:0:0:
64,192,108049,1,0,0:0:0:0:
320,192,108373,1,0,0:0:0:0:
64,192,108373,128,0,108455:0:0:0:0:
192,192,108536,128,0,108617:0:0:0:0:
320,192,108698,1,0,0:0:0:0:
64,192,108698,128,0,108779:0:0:0:0:
448,192,108860,128,0,108941:0:0:0:0:
64,192,109022,1,0,0:0:0:0:
320,192,109022,128,0,109103:0:0:0:0:
192,192,109184,128,0,109265:0:0:0:0:
320,192,109346,1,0,0:0:0:0:
448,192,109346,1,0,0:0:0:0:
64,192,109346,128,0,109590:0:0:0:0:
448,192,109509,1,0,0:0:0:0:
64,192,109671,128,0,109833:0:0:0:0:
192,192,109752,1,0,0:0:0:0:
448,192,109833,128,0,109995:0:0:0:0:
320,192,109914,1,0,0:0:0:0:
192,192,109995,128,0,110157:0:0:0:0:
320,192,110157,128,0,110319:0:0:0:0:
64,192,110319,1,0,0:0:0:0:
448,192,110319,1,0,0:0:0:0:
192,192,110319,128,0,110563:0:0:0:0:
64,192,110482,128,0,110563:0:0:0:0:
192,192,110644,1,0,0:0:0:0:
64,192,110644,1,0,0:0:0:0:
320,192,110644,1,0,0:0:0:0:
448,192,110644,128,0,110806:0:0:0:0:
320,192,110806,1,0,0:0:0:0:
448,192,110887,1,0,0:0:0:0:
64,192,110887,128,0,111049:0:0:0:0:
192,192,110968,1,0,0:0:0:0:
320,192,110968,1,0,0:0:0:0:
64,192,111130,1,0,0:0:0:0:
320,192,111130,128,0,111292:0:0:0:0:
64,192,111292,1,0,0:0:0:0:
448,192,111292,128,0,111373:0:0:0:0:
192,192,111292,1,0,0:0:0:0:
320,192,111373,128,0,111455:0:0:0:0:
448,192,111455,1,0,0:0:0:0:
64,192,111455,128,0,111536:0:0:0:0:
192,192,111536,128,0,111617:0:0:0:0:
320,192,111617,1,0,0:0:0:0:
64,192,111617,1,0,0:0:0:0:
448,192,111617,128,0,111698:0:0:0:0:
192,192,111698,128,0,111779:0:0:0:0:
448,192,111779,1,0,0:0:0:0:
320,192,111779,128,0,111860:0:0:0:0:
64,192,111860,128,0,111941:0:0:0:0:
320,192,111941,1,0,0:0:0:0:
448,192,111941,1,0,0:0:0:0:
192,192,111941,128,0,112103:0:0:0:0:
64,192,112103,1,0,0:0:0:0:
192,192,112184,1,0,0:0:0:0:
320,192,112184,128,0,112346:0:0:0:0:
64,192,112265,1,0,0:0:0:0:
448,192,112265,1,0,0:0:0:0:
320,192,112428,1,0,0:0:0:0:
448,192,112428,128,0,112590:0:0:0:0:
192,192,112590,1,0,0:0:0:0:
64,192,112590,1,0,0:0:0:0:
320,192,112590,128,0,112671:0:0:0:0:
448,192,112671,128,0,112752:0:0:0:0:
192,192,112752,128,0,112833:0:0:0:0:
320,192,112752,1,0,0:0:0:0:
64,192,112833,128,0,112914:0:0:0:0:
192,192,112914,1,0,0:0:0:0:
448,192,112914,1,0,0:0:0:0:
320,192,112914,128,0,112995:0:0:0:0:
64,192,112995,128,0,113076:0:0:0:0:
320,192,113076,1,0,0:0:0:0:
448,192,113076,128,0,113157:0:0:0:0:
192,192,113157,128,0,113238:0:0:0:0:
64,192,113238,1,0,0:0:0:0:
320,192,113238,128,0,113401:0:0:0:0:
448,192,113238,1,0,0:0:0:0:
192,192,113401,1,0,0:0:0:0:
64,192,113482,128,0,113644:0:0:0:0:
320,192,113482,1,0,0:0:0:0:
192,192,113563,1,0,0:0:0:0:
448,192,113563,1,0,0:0:0:0:
64,192,113725,1,0,0:0:0:0:
448,192,113725,128,0,113887:0:0:0:0:
192,192,113887,1,0,0:0:0:0:
320,192,113887,1,0,0:0:0:0:
64,192,113887,128,0,113968:0:0:0:0:
448,192,113968,128,0,114049:0:0:0:0:
64,192,114049,1,0,0:0:0:0:
192,192,114049,128,0,114130:0:0:0:0:
320,192,114130,128,0,114211:0:0:0:0:
192,192,114211,1,0,0:0:0:0:
64,192,114211,1,0,0:0:0:0:
448,192,114211,128,0,114292:0:0:0:0:
320,192,114292,128,0,114373:0:0:0:0:
448,192,114373,1,0,0:0:0:0:
64,192,114373,128,0,114455:0:0:0:0:
192,192,114455,128,0,114536:0:0:0:0:
448,192,114536,1,0,0:0:0:0:
64,192,114536,1,0,0:0:0:0:
320,192,114536,128,0,114698:0:0:0:0:
192,192,114698,1,0,0:0:0:0:
448,192,114698,128,0,114860:0:0:0:0:
64,192,114860,1,0,0:0:0:0:
192,192,114860,1,0,0:0:0:0:
320,192,114860,128,0,115022:0:0:0:0:
192,192,115022,128,0,115184:0:0:0:0:
64,192,115022,1,0,0:0:0:0:
320,192,115184,1,0,0:0:0:0:
448,192,115184,1,0,0:0:0:0:
64,192,115184,128,0,115265:0:0:0:0:
192,192,115265,128,0,115346:0:0:0:0:
448,192,115346,1,0,0:0:0:0:
320,192,115346,128,0,115509:0:0:0:0:
64,192,115509,1,0,0:0:0:0:
192,192,115509,1,0,0:0:0:0:
448,192,115509,128,0,115590:0:0:0:0:
320,192,115590,128,0,115671:0:0:0:0:
64,192,115671,1,0,0:0:0:0:
448,192,115671,1,0,0:0:0:0:
192,192,115671,128,0,115833:0:0:0:0:
320,192,115833,1,0,0:0:0:0:
448,192,115833,1,0,0:0:0:0:
64,192,115833,128,0,116076:0:0:0:0:
192,192,115914,1,0,0:0:0:0:
320,192,115995,1,0,0:0:0:0:
448,192,115995,1,0,0:0:0:0:
192,192,116157,1,0,0:0:0:0:
64,192,116157,1,0,0:0:0:0:
448,192,116157,128,0,116401:0:0:0:0:
192,192,116319,1,0,0:0:0:0:
64,192,116319,1,0,0:0:0:0:
320,192,116319,1,0,0:0:0:0:
320,192,116482,1,0,0:0:0:0:
448,192,116482,1,0,0:0:0:0:
64,192,116482,128,0,116563:0:0:0:0:
192,192,116563,1,0,0:0:0:0:
448,192,116644,1,0,0:0:0:0:
320,192,116644,128,0,116725:0:0:0:0:
64,192,116644,1,0,0:0:0:0:
64,192,116806,1,0,0:0:0:0:
192,192,116806,128,0,116887:0:0:0:0:
320,192,116806,1,0,0:0:0:0:
320,192,116968,1,0,0:0:0:0:
448,192,116968,128,0,117049:0:0:0:0:
192,192,116968,1,0,0:0:0:0:
192,192,117130,1,0,0:0:0:0:
448,192,117130,1,0,0:0:0:0:
64,192,117130,128,0,117211:0:0:0:0:
320,192,117211,1,0,0:0:0:0:
64,192,117292,1,0,0:0:0:0:
192,192,117292,128,0,117373:0:0:0:0:
448,192,117292,1,0,0:0:0:0:
320,192,117455,1,0,0:0:0:0:
448,192,117455,128,0,117536:0:0:0:0:
64,192,117455,1,0,0:0:0:0:
320,192,117617,128,0,117698:0:0:0:0:
192,192,117617,1,0,0:0:0:0:
448,192,117617,1,0,0:0:0:0:
192,192,117779,1,0,0:0:0:0:
64,192,117779,1,0,0:0:0:0:
448,192,117779,128,0,118022:0:0:0:0:
320,192,117860,1,0,0:0:0:0:
192,192,117941,1,0,0:0:0:0:
64,192,117941,1,0,0:0:0:0:
448,192,118103,1,0,0:0:0:0:
320,192,118103,1,0,0:0:0:0:
192,192,118103,128,0,118184:0:0:0:0:
64,192,118265,1,0,0:0:0:0:
192,192,118265,1,0,0:0:0:0:
320,192,118265,128,0,118346:0:0:0:0:
448,192,118428,1,0,0:0:0:0:
64,192,118428,1,0,0:0:0:0:
192,192,118428,1,0,0:0:0:0:
320,192,118509,1,0,0:0:0:0:
64,192,118590,1,0,0:0:0:0:
192,192,118590,1,0,0:0:0:0:
448,192,118671,1,0,0:0:0:0:
192,192,118752,1,0,0:0:0:0:
320,192,118752,1,0,0:0:0:0:
64,192,118752,1,0,0:0:0:0:
448,192,118833,1,0,0:0:0:0:
320,192,118914,1,0,0:0:0:0:
64,192,118914,1,0,0:0:0:0:
192,192,118995,1,0,0:0:0:0:
320,192,119076,1,0,0:0:0:0:
448,192,119076,1,0,0:0:0:0:
64,192,119076,1,0,0:0:0:0:
192,192,119157,1,0,0:0:0:0:
448,192,119238,1,0,0:0:0:0:
320,192,119238,1,0,0:0:0:0:
64,192,119319,1,0,0:0:0:0:
320,192,119401,1,0,0:0:0:0:
448,192,119401,1,0,0:0:0:0:
192,192,119441,1,0,0:0:0:0:
64,192,119482,1,0,0:0:0:0:
448,192,119522,1,0,0:0:0:0:
320,192,119563,1,0,0:0:0:0:
192,192,119603,1,0,0:0:0:0:
64,192,119644,1,0,0:0:0:0:
448,192,119684,1,0,0:0:0:0:
192,192,119725,1,0,0:0:0:0:
320,192,119725,128,0,119968:0:0:0:0:
64,192,119887,1,0,0:0:0:0:
320,192,120049,1,0,0:0:0:0:
64,192,120049,128,0,120292:0:0:0:0:
448,192,120049,1,0,0:0:0:0:
192,192,120130,1,0,0:0:0:0:
320,192,120211,1,0,0:0:0:0:
192,192,120292,1,0,0:0:0:0:
64,192,120373,1,0,0:0:0:0:
448,192,120373,128,0,120617:0:0:0:0:
320,192,120536,1,0,0:0:0:0:
448,192,120698,1,0,0:0:0:0:
192,192,120698,128,0,120941:0:0:0:0:
320,192,120698,1,0,0:0:0:0:
64,192,120860,128,0,120941:0:0:0:0:
64,192,121022,1,0,0:0:0:0:
192,192,121022,1,0,0:0:0:0:
320,192,121022,1,0,0:0:0:0:
448,192,121022,1,0,0:0:0:0:
