osu file format v14

[General]
AudioFilename: audio.ogg
AudioLeadIn: 0
PreviewTime: 78211
Countdown: 0
SampleSet: Soft
StackLeniency: 0.7
Mode: 3
LetterboxInBreaks: 0
SpecialStyle: 0
WidescreenStoryboard: 0

[Editor]
DistanceSpacing: 1.6
BeatDivisor: 4
GridSize: 8
TimelineZoom: 1.7

[Metadata]
Title:Good bye, Merry-Go-Round.
TitleUnicode:Good bye, Merry-Go-Round.
Artist:Yooh
ArtistUnicode:Yooh
Creator:Shima Rin
Version:Dell's ADVANCED
Source:オンゲキ SUMMER
Tags:Tofu1222 Critical_Star CS Virtue- Dellvangel Goodbye Amusement Hardcore Ongeki CHUNITHM PARADISE LOST maimai でらっくす DX Deluxe UNiVERSE PLUS 日向 千夏 Hinata Chinatsu Video Game Electronic Instrumental
BeatmapID:3605860
BeatmapSetID:1759784

[Difficulty]
HPDrainRate:7
CircleSize:4
OverallDifficulty:7
ApproachRate:5
SliderMultiplier:1.4
SliderTickRate:1

[Events]
//Background and Video events
0,0,"BG.jpg",0,0
//Break Periods
//Storyboard Layer 0 (Background)
//Storyboard Layer 1 (Fail)
//Storyboard Layer 2 (Pass)
//Storyboard Layer 3 (Foreground)
//Storyboard Layer 4 (Overlay)
//Storyboard Sound Samples

[TimingPoints]
374,324.324324324324,4,2,1,75,1,0
22428,-100,4,2,1,75,0,1
40590,-100,4,2,1,75,0,0
79509,-100,4,2,1,75,0,1
99941,-100,4,2,1,75,0,0
110644,-100,4,2,1,75,0,1
121022,-100,4,2,1,75,0,0

[HitObjects]
320,192,374,5,0,0:0:0:0:
64,192,536,1,0,0:0:0:0:
448,192,698,1,0,0:0:0:0:
192,192,860,1,0,0:0:0:0:
320,192,1022,1,0,0:0:0:0:
64,192,1184,1,0,0:0:0:0:
320,192,1346,128,0,1509:0:0:0:0:
192,192,1509,128,0,1671:0:0:0:0:
64,192,1671,1,0,0:0:0:0:
448,192,1671,1,0,0:0:0:0:
320,192,1995,128,0,2319:0:0:0:0:
64,192,2319,1,0,0:0:0:0:
192,192,2644,1,0,0:0:0:0:
448,192,2968,128,0,3292:0:0:0:0:
64,192,3292,1,0,0:0:0:0:
320,192,3617,1,0,0:0:0:0:
192,192,3941,1,0,0:0:0:0:
448,192,4265,1,0,0:0:0:0:
64,192,4590,128,0,4914:0:0:0:0:
448,192,4914,1,0,0:0:0:0:
192,192,5238,1,0,0:0:0:0:
320,192,5563,1,0,0:0:0:0:
64,192,5887,1,0,0:0:0:0:
448,192,6211,1,0,0:0:0:0:
320,192,6536,1,0,0:0:0:0:
192,192,6860,1,0,0:0:0:0:
64,192,7184,128,0,7509:0:0:0:0:
448,192,7509,1,0,0:0:0:0:
192,192,7833,1,0,0:0:0:0:
320,192,8157,128,0,8482:0:0:0:0:
64,192,8482,1,0,0:0:0:0:
448,192,8806,1,0,0:0:0:0:
320,192,9130,1,0,0:0:0:0:
64,192,9455,1,0,0:0:0:0:
192,192,9779,128,0,10103:0:0:0:0:
448,192,10103,1,0,0:0:0:0:
64,192,10428,1,0,0:0:0:0:
320,192,10752,1,0,0:0:0:0:
192,192,11076,1,0,0:0:0:0:
448,192,11401,1,0,0:0:0:0:
320,192,11725,1,0,0:0:0:0:
192,192,12049,1,0,0:0:0:0:
64,192,12049,1,0,0:0:0:0:
64,192,12373,1,0,0:0:0:0:
320,192,12536,1,0,0:0:0:0:
448,192,12536,1,0,0:0:0:0:
64,192,12860,1,0,0:0:0:0:
192,192,12860,1,0,0:0:0:0:
448,192,13022,1,0,0:0:0:0:
64,192,13184,1,0,0:0:0:0:
192,192,13184,1,0,0:0:0:0:
448,192,13346,1,0,0:0:0:0:
320,192,13346,1,0,0:0:0:0:
64,192,13671,1,0,0:0:0:0:
448,192,13833,1,0,0:0:0:0:
192,192,13833,1,0,0:0:0:0:
64,192,14157,1,0,0:0:0:0:
320,192,14157,1,0,0:0:0:0:
448,192,14319,1,0,0:0:0:0:
192,192,14482,1,0,0:0:0:0:
64,192,14482,1,0,0:0:0:0:
448,192,14644,1,0,0:0:0:0:
320,192,14644,1,0,0:0:0:0:
448,192,14968,1,0,0:0:0:0:
192,192,15130,1,0,0:0:0:0:
64,192,15130,1,0,0:0:0:0:
448,192,15455,1,0,0:0:0:0:
320,192,15455,1,0,0:0:0:0:
64,192,15617,1,0,0:0:0:0:
320,192,15779,1,0,0:0:0:0:
448,192,15779,1,0,0:0:0:0:
64,192,15941,1,0,0:0:0:0:
192,192,15941,1,0,0:0:0:0:
448,192,16265,1,0,0:0:0:0:
64,192,16428,1,0,0:0:0:0:
320,192,16428,1,0,0:0:0:0:
192,192,16752,1,0,0:0:0:0:
448,192,16752,1,0,0:0:0:0:
64,192,16914,1,0,0:0:0:0:
448,192,17076,1,0,0:0:0:0:
192,192,17238,1,0,0:0:0:0:
64,192,17238,128,0,17401:0:0:0:0:
448,192,17563,128,0,17725:0:0:0:0:
64,192,17887,128,0,18211:0:0:0:0:
192,192,18211,128,0,18373:0:0:0:0:
320,192,18373,128,0,18536:0:0:0:0:
64,192,18536,1,0,0:0:0:0:
448,192,18536,128,0,18698:0:0:0:0:
192,192,18698,128,0,18860:0:0:0:0:
320,192,18860,128,0,19022:0:0:0:0:
64,192,19022,128,0,19184:0:0:0:0:
448,192,19184,128,0,19509:0:0:0:0:
320,192,19509,128,0,19671:0:0:0:0:
192,192,19671,128,0,19833:0:0:0:0:
448,192,19833,1,0,0:0:0:0:
64,192,19833,128,0,20482:0:0:0:0:
192,192,20157,128,0,20319:0:0:0:0:
320,192,20319,128,0,20482:0:0:0:0:
448,192,20482,128,0,21130:0:0:0:0:
192,192,20482,128,0,20806:0:0:0:0:
320,192,20806,128,0,20968:0:0:0:0:
64,192,20968,128,0,21130:0:0:0:0:
192,192,21130,1,0,0:0:0:0:
320,192,21292,1,0,0:0:0:0:
192,192,21455,1,0,0:0:0:0:
448,192,21617,1,0,0:0:0:0:
64,192,21779,1,0,0:0:0:0:
448,192,21941,1,0,0:0:0:0:
192,192,22103,1,0,0:0:0:0:
320,192,22103,1,0,0:0:0:0:
448,192,22428,5,0,0:0:0:0:
64,192,22428,1,0,0:0:0:0:
320,192,22590,1,0,0:0:0:0:
192,192,22752,1,0,0:0:0:0:
64,192,22752,1,0,0:0:0:0:
448,192,22914,1,0,0:0:0:0:
64,192,23076,128,0,23401:0:0:0:0:
320,192,23401,1,0,0:0:0:0:
192,192,23401,1,0,0:0:0:0:
448,192,23563,1,0,0:0:0:0:
192,192,23725,128,0,24049:0:0:0:0:
448,192,24049,128,0,24373:0:0:0:0:
64,192,24049,1,0,0:0:0:0:
320,192,24373,1,0,0:0:0:0:
192,192,24536,1,0,0:0:0:0:
64,192,24698,128,0,25022:0:0:0:0:
448,192,24698,1,0,0:0:0:0:
192,192,25022,1,0,0:0:0:0:
320,192,25184,1,0,0:0:0:0:
64,192,25346,1,0,0:0:0:0:
192,192,25346,1,0,0:0:0:0:
448,192,25509,1,0,0:0:0:0:
192,192,25671,128,0,25995:0:0:0:0:
448,192,25995,1,0,0:0:0:0:
64,192,25995,1,0,0:0:0:0:
320,192,26157,1,0,0:0:0:0:
64,192,26319,128,0,26644:0:0:0:0:
320,192,26644,128,0,26968:0:0:0:0:
448,192,26644,1,0,0:0:0:0:
64,192,26968,1,0,0:0:0:0:
192,192,27130,1,0,0:0:0:0:
448,192,27292,128,0,27617:0:0:0:0:
320,192,27292,1,0,0:0:0:0:
64,192,27617,1,0,0:0:0:0:
320,192,27779,1,0,0:0:0:0:
64,192,27941,1,0,0:0:0:0:
192,192,27941,1,0,0:0:0:0:
448,192,28103,1,0,0:0:0:0:
64,192,28265,128,0,28590:0:0:0:0:
192,192,28590,1,0,0:0:0:0:
320,192,28590,1,0,0:0:0:0:
448,192,28752,1,0,0:0:0:0:
192,192,28914,128,0,29238:0:0:0:0:
320,192,29238,128,0,29563:0:0:0:0:
64,192,29238,1,0,0:0:0:0:
192,192,29563,1,0,0:0:0:0:
448,192,29725,1,0,0:0:0:0:
64,192,29887,128,0,30211:0:0:0:0:
320,192,29887,1,0,0:0:0:0:
192,192,30211,1,0,0:0:0:0:
320,192,30373,1,0,0:0:0:0:
192,192,30536,1,0,0:0:0:0:
64,192,30536,1,0,0:0:0:0:
448,192,30698,1,0,0:0:0:0:
192,192,30860,128,0,31184:0:0:0:0:
64,192,31184,1,0,0:0:0:0:
448,192,31184,1,0,0:0:0:0:
320,192,31346,1,0,0:0:0:0:
192,192,31509,128,0,31671:0:0:0:0:
320,192,31671,128,0,31833:0:0:0:0:
64,192,31833,128,0,31995:0:0:0:0:
448,192,31833,1,0,0:0:0:0:
192,192,31995,128,0,32157:0:0:0:0:
448,192,32157,1,0,0:0:0:0:
320,192,32157,128,0,32319:0:0:0:0:
64,192,32319,128,0,32482:0:0:0:0:
448,192,32482,128,0,32806:0:0:0:0:
64,192,32806,5,0,0:0:0:0:
192,192,32806,1,0,0:0:0:0:
320,192,32968,128,0,33130:0:0:0:0:
192,192,33130,128,0,33292:0:0:0:0:
64,192,33130,1,0,0:0:0:0:
448,192,33292,128,0,33455:0:0:0:0:
64,192,33455,128,0,33779:0:0:0:0:
448,192,33779,128,0,33941:0:0:0:0:
192,192,33779,1,0,0:0:0:0:
320,192,33941,128,0,34103:0:0:0:0:
192,192,34103,128,0,34428:0:0:0:0:
448,192,34428,128,0,34752:0:0:0:0:
64,192,34428,1,0,0:0:0:0:
320,192,34752,128,0,34914:0:0:0:0:
192,192,34914,128,0,35076:0:0:0:0:
64,192,35076,128,0,35401:0:0:0:0:
448,192,35076,1,0,0:0:0:0:
448,192,35401,1,0,0:0:0:0:
320,192,35401,1,0,0:0:0:0:
192,192,35563,128,0,35725:0:0:0:0:
448,192,35725,128,0,35887:0:0:0:0:
320,192,35725,1,0,0:0:0:0:
64,192,35887,128,0,36049:0:0:0:0:
192,192,36049,128,0,36373:0:0:0:0:
448,192,36373,128,0,36536:0:0:0:0:
64,192,36373,1,0,0:0:0:0:
320,192,36536,128,0,36698:0:0:0:0:
64,192,36698,128,0,37022:0:0:0:0:
320,192,37022,128,0,37346:0:0:0:0:
448,192,37022,1,0,0:0:0:0:
64,192,37346,128,0,37509:0:0:0:0:
192,192,37509,128,0,37671:0:0:0:0:
448,192,37671,128,0,37995:0:0:0:0:
320,192,37671,1,0,0:0:0:0:
192,192,37833,1,0,0:0:0:0:
320,192,37995,1,0,0:0:0:0:
64,192,37995,128,0,38644:0:0:0:0:
448,192,38157,1,0,0:0:0:0:
192,192,38319,1,0,0:0:0:0:
320,192,38482,1,0,0:0:0:0:
448,192,38644,128,0,39292:0:0:0:0:
192,192,38644,128,0,38968:0:0:0:0:
320,192,38968,1,0,0:0:0:0:
192,192,39130,1,0,0:0:0:0:
64,192,39292,128,0,39941:0:0:0:0:
320,192,39292,128,0,39617:0:0:0:0:
192,192,39617,128,0,39941:0:0:0:0:
448,192,39941,128,0,40590:0:0:0:0:
320,192,39941,1,0,0:0:0:0:
64,192,40103,1,0,0:0:0:0:
320,192,40265,1,0,0:0:0:0:
192,192,40428,1,0,0:0:0:0:
64,192,40590,1,0,0:0:0:0:
320,192,40590,1,0,0:0:0:0:
192,192,40752,128,0,40914:0:0:0:0:
192,192,41076,128,0,41238:0:0:0:0:
448,192,41238,1,0,0:0:0:0:
320,192,41238,1,0,0:0:0:0:
64,192,41401,128,0,41563:0:0:0:0:
64,192,41725,128,0,41887:0:0:0:0:
448,192,41887,1,0,0:0:0:0:
320,192,42049,128,0,42211:0:0:0:0:
64,192,42211,1,0,0:0:0:0:
320,192,42373,128,0,42536:0:0:0:0:
448,192,42536,128,0,42860:0:0:0:0:
64,192,42860,1,0,0:0:0:0:
192,192,42860,1,0,0:0:0:0:
320,192,43022,1,0,0:0:0:0:
448,192,43184,1,0,0:0:0:0:
64,192,43184,1,0,0:0:0:0:
192,192,43509,1,0,0:0:0:0:
448,192,43509,1,0,0:0:0:0:
320,192,43833,1,0,0:0:0:0:
64,192,43833,1,0,0:0:0:0:
192,192,44076,1,0,0:0:0:0:
448,192,44157,1,0,0:0:0:0:
320,192,44319,1,0,0:0:0:0:
192,192,44482,1,0,0:0:0:0:
64,192,44482,1,0,0:0:0:0:
64,192,44806,1,0,0:0:0:0:
448,192,44806,1,0,0:0:0:0:
192,192,45130,1,0,0:0:0:0:
320,192,45130,1,0,0:0:0:0:
64,192,45373,1,0,0:0:0:0:
448,192,45455,1,0,0:0:0:0:
320,192,45617,1,0,0:0:0:0:
64,192,45779,1,0,0:0:0:0:
192,192,45779,1,0,0:0:0:0:
64,192,46103,1,0,0:0:0:0:
320,192,46103,1,0,0:0:0:0:
448,192,46428,1,0,0:0:0:0:
192,192,46428,1,0,0:0:0:0:
64,192,46671,1,0,0:0:0:0:
320,192,46752,1,0,0:0:0:0:
192,192,46914,1,0,0:0:0:0:
448,192,47076,1,0,0:0:0:0:
64,192,47076,1,0,0:0:0:0:
64,192,47401,1,0,0:0:0:0:
192,192,47401,1,0,0:0:0:0:
448,192,47725,1,0,0:0:0:0:
320,192,47725,1,0,0:0:0:0:
192,192,47968,1,0,0:0:0:0:
320,192,48049,1,0,0:0:0:0:
64,192,48211,1,0,0:0:0:0:
320,192,48373,1,0,0:0:0:0:
448,192,48373,1,0,0:0:0:0:
192,192,48536,1,0,0:0:0:0:
320,192,48698,128,0,49022:0:0:0:0:
192,192,49022,1,0,0:0:0:0:
64,192,49022,1,0,0:0:0:0:
448,192,49184,1,0,0:0:0:0:
192,192,49346,128,0,49671:0:0:0:0:
320,192,49671,1,0,0:0:0:0:
448,192,49671,1,0,0:0:0:0:
64,192,49833,1,0,0:0:0:0:
448,192,49995,128,0,50319:0:0:0:0:
64,192,50319,1,0,0:0:0:0:
192,192,50319,1,0,0:0:0:0:
320,192,50482,1,0,0:0:0:0:
64,192,50644,128,0,50968:0:0:0:0:
192,192,50968,1,0,0:0:0:0:
448,192,50968,1,0,0:0:0:0:
320,192,51292,1,0,0:0:0:0:
64,192,51292,1,0,0:0:0:0:
448,192,51617,1,0,0:0:0:0:
320,192,51617,1,0,0:0:0:0:
64,192,51779,1,0,0:0:0:0:
192,192,51779,1,0,0:0:0:0:
320,192,51941,1,0,0:0:0:0:
448,192,51941,1,0,0:0:0:0:
192,192,52103,1,0,0:0:0:0:
64,192,52103,1,0,0:0:0:0:
320,192,52265,128,0,52590:0:0:0:0:
192,192,52590,128,0,52914:0:0:0:0:
448,192,52914,128,0,53238:0:0:0:0:
64,192,53238,1,0,0:0:0:0:
320,192,53238,128,0,53401:0:0:0:0:
192,192,53401,128,0,53563:0:0:0:0:
320,192,53563,1,0,0:0:0:0:
448,192,53563,1,0,0:0:0:0:
64,192,53725,128,0,53887:0:0:0:0:
448,192,53887,1,0,0:0:0:0:
192,192,54049,128,0,54211:0:0:0:0:
320,192,54211,1,0,0:0:0:0:
448,192,54211,1,0,0:0:0:0:
64,192,54373,128,0,54536:0:0:0:0:
448,192,54536,1,0,0:0:0:0:
192,192,54698,128,0,54860:0:0:0:0:
320,192,54860,1,0,0:0:0:0:
448,192,55022,128,0,55184:0:0:0:0:
64,192,55184,1,0,0:0:0:0:
320,192,55346,128,0,55509:0:0:0:0:
192,192,55509,1,0,0:0:0:0:
64,192,55509,1,0,0:0:0:0:
448,192,55671,128,0,55833:0:0:0:0:
64,192,55833,1,0,0:0:0:0:
320,192,55995,128,0,56157:0:0:0:0:
192,192,56157,128,0,56319:0:0:0:0:
448,192,56319,128,0,56482:0:0:0:0:
64,192,56482,128,0,56644:0:0:0:0:
320,192,56644,128,0,56806:0:0:0:0:
64,192,56806,128,0,56968:0:0:0:0:
192,192,56806,1,0,0:0:0:0:
448,192,56968,128,0,57130:0:0:0:0:
192,192,57130,128,0,57292:0:0:0:0:
320,192,57292,128,0,57455:0:0:0:0:
64,192,57455,128,0,57617:0:0:0:0:
448,192,57617,128,0,57779:0:0:0:0:
64,192,57779,128,0,57941:0:0:0:0:
448,192,57941,128,0,58103:0:0:0:0:
192,192,58103,128,0,58265:0:0:0:0:
64,192,58103,1,0,0:0:0:0:
320,192,58265,128,0,58428:0:0:0:0:
192,192,58428,128,0,58590:0:0:0:0:
320,192,58590,128,0,58752:0:0:0:0:
64,192,58752,1,0,0:0:0:0:
448,192,58752,1,0,0:0:0:0:
192,192,58914,1,0,0:0:0:0:
320,192,59076,1,0,0:0:0:0:
192,192,59238,1,0,0:0:0:0:
448,192,59401,128,0,59725:0:0:0:0:
64,192,59401,1,0,0:0:0:0:
64,192,59725,1,0,0:0:0:0:
192,192,59887,1,0,0:0:0:0:
320,192,60049,128,0,60373:0:0:0:0:
192,192,60373,1,0,0:0:0:0:
64,192,60536,1,0,0:0:0:0:
448,192,60698,1,0,0:0:0:0:
320,192,60698,1,0,0:0:0:0:
192,192,60860,1,0,0:0:0:0:
320,192,61022,1,0,0:0:0:0:
64,192,61184,1,0,0:0:0:0:
448,192,61346,1,0,0:0:0:0:
192,192,61346,128,0,61671:0:0:0:0:
320,192,61671,1,0,0:0:0:0:
448,192,61833,1,0,0:0:0:0:
64,192,61995,1,0,0:0:0:0:
192,192,61995,1,0,0:0:0:0:
448,192,62157,1,0,0:0:0:0:
320,192,62319,1,0,0:0:0:0:
192,192,62482,1,0,0:0:0:0:
64,192,62644,128,0,62968:0:0:0:0:
320,192,62968,1,0,0:0:0:0:
448,192,62968,1,0,0:0:0:0:
192,192,63292,1,0,0:0:0:0:
320,192,63292,1,0,0:0:0:0:
192,192,63617,1,0,0:0:0:0:
64,192,63617,1,0,0:0:0:0:
448,192,63941,128,0,64265:0:0:0:0:
320,192,63941,1,0,0:0:0:0:
192,192,64265,1,0,0:0:0:0:
64,192,64428,1,0,0:0:0:0:
320,192,64590,128,0,64914:0:0:0:0:
448,192,64590,1,0,0:0:0:0:
64,192,64914,1,0,0:0:0:0:
192,192,65076,1,0,0:0:0:0:
448,192,65238,128,0,65563:0:0:0:0:
192,192,65563,1,0,0:0:0:0:
64,192,65725,1,0,0:0:0:0:
320,192,65887,128,0,66211:0:0:0:0:
448,192,65887,1,0,0:0:0:0:
192,192,66211,1,0,0:0:0:0:
448,192,66373,1,0,0:0:0:0:
192,192,66536,128,0,66860:0:0:0:0:
448,192,66860,1,0,0:0:0:0:
320,192,67022,1,0,0:0:0:0:
64,192,67184,128,0,67509:0:0:0:0:
192,192,67184,1,0,0:0:0:0:
320,192,67509,1,0,0:0:0:0:
448,192,67671,1,0,0:0:0:0:
192,192,67833,128,0,68157:0:0:0:0:
320,192,68157,1,0,0:0:0:0:
64,192,68319,1,0,0:0:0:0:
448,192,68482,1,0,0:0:0:0:
320,192,68482,1,0,0:0:0:0:
192,192,68698,1,0,0:0:0:0:
64,192,68698,1,0,0:0:0:0:
320,192,68914,1,0,0:0:0:0:
448,192,68914,1,0,0:0:0:0:
64,192,69130,128,0,69455:0:0:0:0:
192,192,69130,1,0,0:0:0:0:
448,192,69455,1,0,0:0:0:0:
192,192,69779,128,0,70103:0:0:0:0:
320,192,69779,1,0,0:0:0:0:
448,192,70103,1,0,0:0:0:0:
64,192,70265,1,0,0:0:0:0:
320,192,70428,128,0,70752:0:0:0:0:
64,192,70752,1,0,0:0:0:0:
448,192,70914,1,0,0:0:0:0:
192,192,71076,1,0,0:0:0:0:
64,192,71076,1,0,0:0:0:0:
320,192,71238,1,0,0:0:0:0:
448,192,71401,1,0,0:0:0:0:
64,192,71563,1,0,0:0:0:0:
448,192,71725,128,0,72049:0:0:0:0:
320,192,71725,1,0,0:0:0:0:
192,192,72049,1,0,0:0:0:0:
320,192,72211,1,0,0:0:0:0:
64,192,72373,1,0,0:0:0:0:
448,192,72373,1,0,0:0:0:0:
192,192,72617,1,0,0:0:0:0:
448,192,72698,1,0,0:0:0:0:
320,192,72860,1,0,0:0:0:0:
64,192,73022,128,0,73671:0:0:0:0:
192,192,73346,128,0,73671:0:0:0:0:
448,192,73671,128,0,74319:0:0:0:0:
320,192,73995,128,0,74319:0:0:0:0:
192,192,74319,1,0,0:0:0:0:
64,192,74319,1,0,0:0:0:0:
64,192,74644,1,0,0:0:0:0:
64,192,74968,1,0,0:0:0:0:
64,192,75292,1,0,0:0:0:0:
320,192,75617,1,0,0:0:0:0:
448,192,75617,1,0,0:0:0:0:
448,192,75941,1,0,0:0:0:0:
448,192,76265,1,0,0:0:0:0:
448,192,76590,1,0,0:0:0:0:
64,192,76914,1,0,0:0:0:0:
192,192,76914,1,0,0:0:0:0:
448,192,77076,1,0,0:0:0:0:
64,192,77238,1,0,0:0:0:0:
448,192,77401,1,0,0:0:0:0:
64,192,77563,1,0,0:0:0:0:
192,192,77563,1,0,0:0:0:0:
320,192,77725,1,0,0:0:0:0:
192,192,77887,128,0,78211:0:0:0:0:
320,192,78049,128,0,78211:0:0:0:0:
448,192,78211,1,0,0:0:0:0:
64,192,78373,5,0,0:0:0:0:
192,192,78536,1,0,0:0:0:0:
320,192,78698,1,0,0:0:0:0:
448,192,78860,128,0,79184:0:0:0:0:
320,192,79184,128,0,79346:0:0:0:0:
64,192,79184,1,0,0:0:0:0:
192,192,79346,128,0,79509:0:0:0:0:
448,192,79509,1,0,0:0:0:0:
64,192,79509,1,0,0:0:0:0:
320,192,79833,1,0,0:0:0:0:
192,192,79833,1,0,0:0:0:0:
64,192,79995,1,0,0:0:0:0:
448,192,80157,1,0,0:0:0:0:
320,192,80319,1,0,0:0:0:0:
64,192,80482,1,0,0:0:0:0:
192,192,80482,1,0,0:0:0:0:
448,192,80644,1,0,0:0:0:0:
320,192,80806,1,0,0:0:0:0:
64,192,80968,1,0,0:0:0:0:
448,192,81130,1,0,0:0:0:0:
192,192,81130,1,0,0:0:0:0:
320,192,81292,1,0,0:0:0:0:
64,192,81455,1,0,0:0:0:0:
192,192,81617,1,0,0:0:0:0:
448,192,81779,1,0,0:0:0:0:
320,192,81779,1,0,0:0:0:0:
192,192,81941,1,0,0:0:0:0:
64,192,82103,128,0,82265:0:0:0:0:
320,192,82265,128,0,82428:0:0:0:0:
448,192,82428,128,0,82752:0:0:0:0:
192,192,82428,1,0,0:0:0:0:
64,192,82752,128,0,83076:0:0:0:0:
192,192,83076,128,0,83401:0:0:0:0:
448,192,83076,1,0,0:0:0:0:
320,192,83401,128,0,83725:0:0:0:0:
64,192,83725,128,0,83887:0:0:0:0:
448,192,83725,1,0,0:0:0:0:
320,192,83887,128,0,84049:0:0:0:0:
192,192,84049,128,0,84211:0:0:0:0:
448,192,84211,128,0,84373:0:0:0:0:
320,192,84373,128,0,84536:0:0:0:0:
64,192,84373,1,0,0:0:0:0:
192,192,84536,128,0,84698:0:0:0:0:
320,192,84698,1,0,0:0:0:0:
448,192,84698,1,0,0:0:0:0:
192,192,85022,1,0,0:0:0:0:
64,192,85022,1,0,0:0:0:0:
448,192,85184,1,0,0:0:0:0:
320,192,85346,1,0,0:0:0:0:
192,192,85509,1,0,0:0:0:0:
320,192,85671,1,0,0:0:0:0:
448,192,85671,1,0,0:0:0:0:
192,192,85833,1,0,0:0:0:0:
64,192,85995,1,0,0:0:0:0:
448,192,86157,1,0,0:0:0:0:
192,192,86319,1,0,0:0:0:0:
64,192,86319,1,0,0:0:0:0:
320,192,86482,1,0,0:0:0:0:
448,192,86644,1,0,0:0:0:0:
64,192,86806,1,0,0:0:0:0:
320,192,86968,1,0,0:0:0:0:
192,192,86968,1,0,0:0:0:0:
448,192,87130,1,0,0:0:0:0:
192,192,87292,128,0,87455:0:0:0:0:
64,192,87455,128,0,87617:0:0:0:0:
320,192,87617,128,0,87779:0:0:0:0:
448,192,87617,1,0,0:0:0:0:
192,192,87779,128,0,87941:0:0:0:0:
320,192,87941,128,0,88265:0:0:0:0:
64,192,88265,128,0,88590:0:0:0:0:
448,192,88265,1,0,0:0:0:0:
192,192,88428,1,0,0:0:0:0:
448,192,88590,128,0,88914:0:0:0:0:
320,192,88590,1,0,0:0:0:0:
192,192,88914,128,0,89238:0:0:0:0:
320,192,89076,128,0,89238:0:0:0:0:
64,192,89238,128,0,89563:0:0:0:0:
448,192,89238,1,0,0:0:0:0:
320,192,89401,128,0,89563:0:0:0:0:
192,192,89563,128,0,89887:0:0:0:0:
448,192,89725,128,0,89887:0:0:0:0:
64,192,89887,1,0,0:0:0:0:
320,192,89887,1,0,0:0:0:0:
192,192,90130,1,0,0:0:0:0:
448,192,90211,1,0,0:0:0:0:
320,192,90211,1,0,0:0:0:0:
64,192,90373,128,0,90536:0:0:0:0:
320,192,90536,128,0,90698:0:0:0:0:
192,192,90698,128,0,90860:0:0:0:0:
64,192,90860,128,0,91022:0:0:0:0:
448,192,90860,1,0,0:0:0:0:
320,192,91022,128,0,91184:0:0:0:0:
192,192,91184,1,0,0:0:0:0:
64,192,91428,1,0,0:0:0:0:
448,192,91509,128,0,91671:0:0:0:0:
320,192,91509,1,0,0:0:0:0:
192,192,91671,128,0,91833:0:0:0:0:
320,192,91833,128,0,91995:0:0:0:0:
448,192,91995,128,0,92157:0:0:0:0:
192,192,92157,128,0,92319:0:0:0:0:
64,192,92157,1,0,0:0:0:0:
320,192,92319,128,0,92482:0:0:0:0:
64,192,92482,128,0,92644:0:0:0:0:
192,192,92644,128,0,92806:0:0:0:0:
448,192,92806,128,0,93130:0:0:0:0:
320,192,92806,1,0,0:0:0:0:
192,192,93130,128,0,93455:0:0:0:0:
320,192,93455,128,0,93779:0:0:0:0:
448,192,93455,1,0,0:0:0:0:
64,192,93779,128,0,94103:0:0:0:0:
192,192,94103,128,0,94265:0:0:0:0:
320,192,94103,1,0,0:0:0:0:
448,192,94265,128,0,94428:0:0:0:0:
64,192,94428,128,0,94590:0:0:0:0:
320,192,94590,128,0,94752:0:0:0:0:
192,192,94752,128,0,94914:0:0:0:0:
448,192,94752,1,0,0:0:0:0:
64,192,94914,128,0,95076:0:0:0:0:
320,192,94914,1,0,0:0:0:0:
192,192,95076,1,0,0:0:0:0:
448,192,95076,128,0,96373:0:0:0:0:
64,192,95319,1,0,0:0:0:0:
320,192,95401,1,0,0:0:0:0:
192,192,95563,1,0,0:0:0:0:
64,192,95725,1,0,0:0:0:0:
320,192,95887,1,0,0:0:0:0:
64,192,96049,1,0,0:0:0:0:
192,192,96211,1,0,0:0:0:0:
64,192,96373,128,0,97671:0:0:0:0:
320,192,96373,1,0,0:0:0:0:
448,192,96617,1,0,0:0:0:0:
192,192,96698,1,0,0:0:0:0:
320,192,96860,1,0,0:0:0:0:
448,192,97022,1,0,0:0:0:0:
192,192,97184,1,0,0:0:0:0:
320,192,97346,1,0,0:0:0:0:
192,192,97509,1,0,0:0:0:0:
320,192,97671,1,0,0:0:0:0:
448,192,97671,128,0,97833:0:0:0:0:
64,192,97833,128,0,97995:0:0:0:0:
192,192,97995,128,0,98157:0:0:0:0:
448,192,97995,1,0,0:0:0:0:
320,192,98157,128,0,98319:0:0:0:0:
64,192,98319,128,0,98644:0:0:0:0:
448,192,98319,1,0,0:0:0:0:
192,192,98644,128,0,98968:0:0:0:0:
320,192,98644,1,0,0:0:0:0:
448,192,98968,128,0,99292:0:0:0:0:
192,192,99292,1,0,0:0:0:0:
320,192,99455,1,0,0:0:0:0:
64,192,99617,1,0,0:0:0:0:
448,192,99779,1,0,0:0:0:0:
320,192,99941,1,0,0:0:0:0:
192,192,99941,1,0,0:0:0:0:
448,192,100265,1,0,0:0:0:0:
64,192,100265,128,0,100590:0:0:0:0:
192,192,100590,128,0,100914:0:0:0:0:
320,192,100914,128,0,101076:0:0:0:0:
448,192,101076,128,0,101238:0:0:0:0:
64,192,101238,128,0,101401:0:0:0:0:
192,192,101401,128,0,101563:0:0:0:0:
320,192,101563,128,0,101725:0:0:0:0:
64,192,101725,128,0,101887:0:0:0:0:
448,192,101887,128,0,102049:0:0:0:0:
192,192,102049,128,0,102211:0:0:0:0:
320,192,102211,128,0,102536:0:0:0:0:
64,192,102536,128,0,102698:0:0:0:0:
448,192,102698,1,0,0:0:0:0:
320,192,102779,1,0,0:0:0:0:
192,192,102860,128,0,103184:0:0:0:0:
64,192,103184,128,0,103346:0:0:0:0:
320,192,103346,128,0,103509:0:0:0:0:
448,192,103509,128,0,103671:0:0:0:0:
192,192,103671,128,0,103833:0:0:0:0:
64,192,103833,128,0,103995:0:0:0:0:
320,192,103995,128,0,104157:0:0:0:0:
448,192,104157,128,0,104482:0:0:0:0:
64,192,104482,128,0,104644:0:0:0:0:
192,192,104644,128,0,104806:0:0:0:0:
320,192,104806,128,0,105130:0:0:0:0:
64,192,104968,1,0,0:0:0:0:
448,192,105130,128,0,105292:0:0:0:0:
64,192,105292,1,0,0:0:0:0:
192,192,105373,1,0,0:0:0:0:
320,192,105455,128,0,105779:0:0:0:0:
448,192,105779,128,0,106103:0:0:0:0:
64,192,106103,128,0,106265:0:0:0:0:
192,192,106265,128,0,106428:0:0:0:0:
320,192,106428,128,0,106590:0:0:0:0:
448,192,106590,128,0,106752:0:0:0:0:
192,192,106752,128,0,106914:0:0:0:0:
320,192,106914,128,0,107076:0:0:0:0:
64,192,107076,128,0,107238:0:0:0:0:
192,192,107238,128,0,107401:0:0:0:0:
448,192,107401,128,0,107725:0:0:0:0:
64,192,107725,128,0,107887:0:0:0:0:
192,192,107887,1,0,0:0:0:0:
320,192,107968,1,0,0:0:0:0:
448,192,108049,128,0,108373:0:0:0:0:
64,192,108373,128,0,108536:0:0:0:0:
320,192,108536,128,0,108698:0:0:0:0:
192,192,108698,128,0,108860:0:0:0:0:
448,192,108860,128,0,109022:0:0:0:0:
64,192,109022,128,0,109184:0:0:0:0:
192,192,109184,128,0,109346:0:0:0:0:
320,192,109346,128,0,109671:0:0:0:0:
448,192,109346,1,0,0:0:0:0:
64,192,109671,128,0,109995:0:0:0:0:
448,192,109833,128,0,109995:0:0:0:0:
192,192,109995,128,0,110319:0:0:0:0:
320,192,110157,128,0,110319:0:0:0:0:
64,192,110319,128,0,110644:0:0:0:0:
448,192,110319,1,0,0:0:0:0:
192,192,110482,128,0,110644:0:0:0:0:
320,192,110644,1,0,0:0:0:0:
448,192,110644,1,0,0:0:0:0:
64,192,110887,1,0,0:0:0:0:
448,192,110968,1,0,0:0:0:0:
320,192,110968,1,0,0:0:0:0:
192,192,111130,128,0,111292:0:0:0:0:
320,192,111292,128,0,111455:0:0:0:0:
64,192,111455,128,0,111617:0:0:0:0:
192,192,111617,128,0,111779:0:0:0:0:
448,192,111617,1,0,0:0:0:0:
320,192,111779,128,0,111941:0:0:0:0:
64,192,111941,128,0,112103:0:0:0:0:
448,192,112103,128,0,112265:0:0:0:0:
192,192,112265,128,0,112428:0:0:0:0:
320,192,112265,1,0,0:0:0:0:
64,192,112428,128,0,112590:0:0:0:0:
320,192,112590,128,0,112752:0:0:0:0:
448,192,112752,128,0,112914:0:0:0:0:
192,192,112914,128,0,113076:0:0:0:0:
64,192,112914,1,0,0:0:0:0:
320,192,113076,128,0,113238:0:0:0:0:
64,192,113238,1,0,0:0:0:0:
448,192,113238,128,0,113401:0:0:0:0:
192,192,113482,1,0,0:0:0:0:
320,192,113563,1,0,0:0:0:0:
448,192,113563,1,0,0:0:0:0:
64,192,113725,128,0,113887:0:0:0:0:
192,192,113887,128,0,114049:0:0:0:0:
448,192,114049,128,0,114211:0:0:0:0:
320,192,114211,128,0,114373:0:0:0:0:
64,192,114211,1,0,0:0:0:0:
192,192,114373,128,0,114536:0:0:0:0:
448,192,114536,1,0,0:0:0:0:
64,192,114536,128,0,114698:0:0:0:0:
320,192,114698,128,0,114860:0:0:0:0:
192,192,114860,128,0,115022:0:0:0:0:
64,192,114860,1,0,0:0:0:0:
448,192,115022,128,0,115184:0:0:0:0:
64,192,115184,128,0,115346:0:0:0:0:
320,192,115346,128,0,115509:0:0:0:0:
192,192,115509,128,0,115671:0:0:0:0:
448,192,115509,1,0,0:0:0:0:
64,192,115671,128,0,115833:0:0:0:0:
320,192,115833,1,0,0:0:0:0:
448,192,115833,1,0,0:0:0:0:
192,192,115995,1,0,0:0:0:0:
320,192,116157,1,0,0:0:0:0:
192,192,116319,1,0,0:0:0:0:
64,192,116482,1,0,0:0:0:0:
448,192,116482,1,0,0:0:0:0:
320,192,116644,1,0,0:0:0:0:
64,192,116806,1,0,0:0:0:0:
320,192,116968,1,0,0:0:0:0:
192,192,117130,1,0,0:0:0:0:
64,192,117130,1,0,0:0:0:0:
448,192,117292,1,0,0:0:0:0:
192,192,117455,1,0,0:0:0:0:
448,192,117617,1,0,0:0:0:0:
64,192,117779,1,0,0:0:0:0:
320,192,117779,1,0,0:0:0:0:
448,192,117941,1,0,0:0:0:0:
64,192,118103,1,0,0:0:0:0:
448,192,118265,1,0,0:0:0:0:
320,192,118428,1,0,0:0:0:0:
192,192,118428,1,0,0:0:0:0:
64,192,118590,1,0,0:0:0:0:
320,192,118752,1,0,0:0:0:0:
448,192,118752,1,0,0:0:0:0:
192,192,118914,1,0,0:0:0:0:
448,192,119076,1,0,0:0:0:0:
64,192,119076,1,0,0:0:0:0:
320,192,119238,1,0,0:0:0:0:
64,192,119401,128,0,119725:0:0:0:0:
192,192,119401,1,0,0:0:0:0:
448,192,119563,1,0,0:0:0:0:
192,192,119725,1,0,0:0:0:0:
320,192,119725,1,0,0:0:0:0:
448,192,120049,1,0,0:0:0:0:
64,192,120049,1,0,0:0:0:0:
320,192,120211,1,0,0:0:0:0:
192,192,120373,128,0,120698:0:0:0:0:
64,192,120698,1,0,0:0:0:0:
448,192,120698,128,0,121022:0:0:0:0:
320,192,120860,128,0,121022:0:0:0:0:
192,192,121022,1,0,0:0:0:0:
64,192,121022,1,0,0:0:0:0:
